osu file format v14

[General]
AudioFilename: audio.mp3
AudioLeadIn: 0
PreviewTime: 59492
Countdown: 0
SampleSet: Soft
StackLeniency: 0.7
Mode: 3
LetterboxInBreaks: 0
SpecialStyle: 0
WidescreenStoryboard: 0

[Editor]
Bookmarks: 40492,50338
DistanceSpacing: 1
BeatDivisor: 4
GridSize: 4
TimelineZoom: 1.6

[Metadata]
Title:Eclipse (TV Size)
TitleUnicode:Eclipse (TV Size)
Artist:Dreamcatcher
ArtistUnicode:드림캐쳐
Creator:FerdiXIA-
Version:Insane
Source:キングスレイド 意志を継ぐものたち
Tags:ML-ysg Gahyeonln GuD King's Kings Raid Ishi wo Tsugumono tachi Tsugumono-tachi Successors of the Will anime Opening OP Japanese Korean Pop Jpop J-Pop Rock JRock J-Rock Short Version 드캐 deukae idol 아이돌 Girls group 걸그룹 유현 yoohyeon 가현 gahyeon 수아 sua 지우 jiu 다미 dami 한동 handong 시연 siyeon
BeatmapID:3519489
BeatmapSetID:1722017

[Difficulty]
HPDrainRate:8
CircleSize:4
OverallDifficulty:7.5
ApproachRate:5
SliderMultiplier:1.4
SliderTickRate:1

[Events]
//Background and Video events
0,0,"bg.jpg",0,0
Video,-100,"Video.mp4"
//Break Periods
//Storyboard Layer 0 (Background)
//Storyboard Layer 1 (Fail)
//Storyboard Layer 2 (Pass)
//Storyboard Layer 3 (Foreground)
//Storyboard Layer 4 (Overlay)
//Storyboard Sound Samples
Sample,26338,0,"Finger.wav",50
Sample,27569,0,"Finger.wav",50
Sample,36184,0,"Finger.wav",50
Sample,37415,0,"Finger.wav",50
Sample,37877,0,"Hat Close.wav",15
Sample,38646,0,"Finger.wav",50
Sample,55877,0,"Hat Close.wav",60
Sample,60800,0,"Hat Open.wav",60
Sample,63261,0,"Hat Open.wav",60
Sample,70646,0,"Hat Open.wav",60
Sample,73107,0,"Hat Open.wav",60
Sample,76800,0,"Hat Open.wav",60

[TimingPoints]
-123,307.692307692308,4,2,1,50,1,0
60184,-100,4,2,1,50,0,1
79877,-100,4,2,1,50,0,0

[HitObjects]
320,192,492,128,0,800:0:0:0:0:
192,192,800,128,0,1107:0:0:0:0:
64,192,1107,128,0,2030:0:0:0:0:
448,192,1107,1,0,0:0:0:0:
320,192,1261,1,0,0:0:0:0:
192,192,1415,1,0,0:0:0:0:
320,192,1569,1,0,0:0:0:0:
192,192,1723,1,0,0:0:0:0:
448,192,1877,1,0,0:0:0:0:
320,192,2030,1,0,0:0:0:0:
192,192,2184,1,0,0:0:0:0:
320,192,2338,128,0,2800:0:0:0:0:
448,192,2338,1,0,0:0:0:0:
64,192,2492,1,0,0:0:0:0:
192,192,2646,1,0,0:0:0:0:
64,192,2800,1,0,0:0:0:0:
448,192,2800,128,0,3261:0:0:0:0:
320,192,2953,1,0,0:0:0:0:
192,192,3107,1,0,0:0:0:0:
64,192,3261,128,0,3569:0:0:0:0:
320,192,3261,1,0,0:0:0:0:
448,192,3415,1,0,0:0:0:0:
192,192,3569,1,0,0:0:0:0:
320,192,3569,128,0,4030:0:0:0:0:
64,192,3723,1,0,0:0:0:0:
448,192,3877,1,0,0:0:0:0:
64,192,4030,1,0,0:0:0:0:
192,192,4030,128,0,4492:0:0:0:0:
448,192,4184,1,0,0:0:0:0:
320,192,4338,1,0,0:0:0:0:
64,192,4492,1,0,0:0:0:0:
448,192,4492,128,0,4800:0:0:0:0:
192,192,4646,1,0,0:0:0:0:
64,192,4800,128,0,5107:0:0:0:0:
320,192,4800,1,0,0:0:0:0:
192,192,5107,1,0,0:0:0:0:
320,192,5261,1,0,0:0:0:0:
448,192,5261,1,0,0:0:0:0:
64,192,5415,1,0,0:0:0:0:
192,192,5415,128,0,5723:0:0:0:0:
448,192,5569,1,0,0:0:0:0:
64,192,5723,1,0,0:0:0:0:
320,192,5723,128,0,6030:0:0:0:0:
192,192,5877,1,0,0:0:0:0:
64,192,6030,1,0,0:0:0:0:
448,192,6030,128,0,6338:0:0:0:0:
192,192,6184,1,0,0:0:0:0:
320,192,6338,1,0,0:0:0:0:
64,192,6492,128,0,6953:0:0:0:0:
192,192,6492,1,0,0:0:0:0:
320,192,6646,1,0,0:0:0:25:Snare.wav
448,192,6646,1,0,0:0:0:0:
192,192,6800,1,0,0:0:0:0:
320,192,6953,128,0,7261:0:0:0:0:
448,192,7107,1,0,0:0:0:0:
64,192,7261,1,0,0:0:0:0:
192,192,7261,128,0,7569:0:0:0:0:
448,192,7415,1,0,0:0:0:0:
320,192,7569,1,0,0:0:0:0:
448,192,7723,128,0,8184:0:0:0:0:
64,192,7877,1,0,0:0:0:35:Snare.wav
320,192,7877,1,0,0:0:0:0:
192,192,8030,1,0,0:0:0:0:
64,192,8184,128,0,8492:0:0:0:0:
448,192,8338,1,0,0:0:0:0:
192,192,8492,1,0,0:0:0:0:
320,192,8492,128,0,8953:0:0:0:0:
64,192,8646,1,0,0:0:0:0:
448,192,8800,1,0,0:0:0:0:
64,192,8953,1,2,0:0:0:25:soft-hitwhistle.wav
192,192,8953,128,0,9569:0:0:0:0:
320,192,9107,1,0,0:0:0:35:Snare.wav
448,192,9107,1,0,0:0:0:0:
64,192,9261,1,0,0:0:0:0:
448,192,9415,1,0,0:0:0:0:
64,192,9569,1,2,0:0:0:0:
320,192,9569,1,0,0:0:0:0:
192,192,9723,1,0,0:0:0:40:Snare.wav
320,192,9723,1,0,0:0:0:0:
448,192,9723,1,0,0:0:0:0:
64,192,9877,1,0,0:0:0:40:Snare.wav
320,192,9877,1,0,0:0:0:0:
448,192,9877,1,0,0:0:0:0:
64,192,10030,1,0,0:0:0:40:Snare.wav
192,192,10030,1,0,0:0:0:0:
448,192,10030,1,0,0:0:0:0:
64,192,10184,1,0,0:0:0:40:Snare.wav
192,192,10184,1,0,0:0:0:0:
320,192,10184,1,0,0:0:0:0:
64,192,10338,1,8,0:0:0:0:
320,192,10338,128,0,10646:0:0:0:40:Tom2.wav
448,192,10338,1,0,0:0:0:0:
192,192,10646,128,0,10953:0:0:0:0:
64,192,10953,1,2,0:0:0:0:
320,192,10953,1,4,0:0:0:0:
448,192,10953,1,0,0:0:0:0:
192,192,11261,1,8,0:0:0:0:
320,192,11261,1,0,0:0:0:60:Hat Open.wav
448,192,11261,1,0,0:0:0:0:
64,192,11415,1,2,0:0:0:0:
448,192,11415,1,0,0:0:0:0:
320,192,11569,1,0,0:0:0:60:Hat Open.wav
64,192,11723,1,2,0:0:0:0:
192,192,11723,1,0,0:0:0:0:
64,192,11877,1,8,0:0:0:0:
320,192,11877,1,0,0:0:0:60:Hat Open.wav
448,192,11877,1,0,0:0:0:0:
192,192,12030,1,0,0:0:0:0:
64,192,12184,1,2,0:0:0:0:
448,192,12184,1,0,0:0:0:60:Hat Open.wav
64,192,12338,1,2,0:0:0:0:
448,192,12338,1,0,0:0:0:0:
64,192,12492,1,8,0:0:0:0:
192,192,12492,1,0,0:0:0:60:Hat Open.wav
320,192,12492,1,0,0:0:0:0:
192,192,12646,1,2,0:0:0:0:
448,192,12646,1,0,0:0:0:0:
320,192,12800,1,0,0:0:0:60:Hat Open.wav
64,192,12953,1,2,0:0:0:0:
192,192,12953,1,0,0:0:0:0:
64,192,13107,1,8,0:0:0:0:
320,192,13107,1,0,0:0:0:60:Hat Open.wav
448,192,13107,1,0,0:0:0:0:
192,192,13261,1,2,0:0:0:0:
320,192,13261,1,0,0:0:0:0:
64,192,13415,128,2,13877:0:0:0:0:
448,192,13415,1,0,0:0:0:60:Hat Open.wav
320,192,13723,1,8,0:0:0:0:
448,192,13723,1,0,0:0:0:60:Hat Open.wav
192,192,13877,1,2,0:0:0:0:
320,192,13877,128,0,14338:0:0:0:0:
448,192,14030,1,0,0:0:0:60:Hat Open.wav
192,192,14184,1,2,0:0:0:0:
64,192,14338,1,8,0:0:0:0:
192,192,14338,128,0,14646:0:0:0:60:Hat Open.wav
448,192,14338,1,0,0:0:0:0:
320,192,14492,1,0,0:0:0:60:Hat Open.wav
64,192,14646,1,2,0:0:0:0:
448,192,14646,1,0,0:0:0:60:Hat Open.wav
64,192,14800,1,2,0:0:0:0:
448,192,14800,1,0,0:0:0:0:
192,192,14953,1,8,0:0:0:0:
320,192,14953,1,0,0:0:0:60:Hat Open.wav
448,192,14953,1,0,0:0:0:0:
64,192,15107,1,2,0:0:0:0:
320,192,15107,1,0,0:0:0:0:
64,192,15261,1,2,0:0:0:0:
192,192,15261,1,0,0:0:0:60:Hat Open.wav
192,192,15415,1,2,0:0:0:0:
448,192,15415,1,0,0:0:0:0:
64,192,15569,1,8,0:0:0:0:
320,192,15569,128,0,15877:0:0:0:60:Hat Open.wav
448,192,15569,1,0,0:0:0:0:
64,192,15877,1,4,0:0:0:0:
192,192,15877,1,2,0:0:0:0:
448,192,15877,1,0,0:0:0:0:
64,192,16184,1,8,0:0:0:0:
320,192,16184,1,0,0:0:0:60:Hat Open.wav
448,192,16184,1,0,0:0:0:0:
192,192,16338,1,2,0:0:0:0:
448,192,16338,1,0,0:0:0:0:
320,192,16492,1,0,0:0:0:60:Hat Open.wav
64,192,16646,1,2,0:0:0:0:
448,192,16646,1,0,0:0:0:0:
64,192,16800,1,8,0:0:0:0:
192,192,16800,1,0,0:0:0:60:Hat Open.wav
320,192,16800,1,0,0:0:0:0:
192,192,16953,1,0,0:0:0:0:
320,192,17107,1,2,0:0:0:0:
448,192,17107,128,0,17569:0:0:0:60:Hat Open.wav
320,192,17261,1,2,0:0:0:0:
64,192,17415,1,8,0:0:0:0:
192,192,17415,1,0,0:0:0:60:Hat Open.wav
64,192,17569,128,2,18030:0:0:0:0:
320,192,17569,1,0,0:0:0:0:
448,192,17723,1,0,0:0:0:60:Hat Open.wav
320,192,17877,1,2,0:0:0:0:
192,192,18030,1,8,0:0:0:0:
320,192,18030,128,0,18338:0:0:0:60:Hat Open.wav
448,192,18030,1,0,0:0:0:0:
64,192,18184,1,2,0:0:0:0:
64,192,18338,1,8,0:0:0:0:
192,192,18338,1,4,0:0:0:0:
448,192,18338,1,0,0:0:0:0:
320,192,18492,1,2,0:0:0:0:
448,192,18492,1,0,0:0:0:0:
320,192,18646,1,2,0:0:0:0:
448,192,18646,1,0,0:0:0:0:
64,192,18800,1,4,0:0:0:0:
192,192,18800,1,8,0:0:0:0:
448,192,18800,1,0,0:0:0:0:
64,192,18953,1,8,0:0:0:0:
192,192,18953,1,0,0:0:0:0:
320,192,18953,1,0,0:0:0:0:
64,192,19107,1,2,0:0:0:0:
448,192,19107,1,0,0:0:0:0:
192,192,19261,1,8,0:0:0:0:
320,192,19261,1,4,0:0:0:0:
448,192,19261,1,0,0:0:0:0:
64,192,19415,1,2,0:0:0:0:
192,192,19415,1,0,0:0:0:0:
64,192,19569,1,2,0:0:0:0:
192,192,19569,1,0,0:0:0:0:
64,192,19723,1,8,0:0:0:0:
320,192,19723,1,0,0:0:0:0:
448,192,19723,1,0,0:0:0:0:
64,192,19877,1,8,0:0:0:0:
320,192,19877,1,0,0:0:0:0:
448,192,19877,1,0,0:0:0:0:
192,192,20030,128,2,20184:0:0:0:0:
320,192,20030,1,0,0:0:0:60:Hat Open.wav
448,192,20184,128,0,20338:0:0:0:0:
64,192,20338,1,2,0:0:0:0:
320,192,20338,128,0,20492:0:0:0:0:
64,192,20492,128,8,20800:0:0:0:0:
192,192,20492,1,0,0:0:0:0:
448,192,20492,1,0,0:0:0:0:
320,192,20646,128,0,20800:0:0:0:0:
192,192,20800,1,0,0:0:0:40:Hat Close.wav
448,192,20800,1,4,0:0:0:25:soft-hitfinish.wav
320,192,20953,1,0,0:0:0:15:Hat Close.wav
64,192,21107,1,0,0:0:0:40:Hat Close.wav
192,192,21261,1,0,0:0:0:15:Hat Close.wav
64,192,21415,1,0,0:0:0:40:Hat Close.wav
448,192,21415,1,0,0:0:0:50:Finger.wav
320,192,21569,1,0,0:0:0:15:Hat Close.wav
64,192,21723,1,0,0:0:0:40:Hat Close.wav
192,192,21723,1,0,0:0:0:0:
192,192,21877,1,0,0:0:0:0:
320,192,21877,1,0,0:0:0:0:
320,192,22030,1,0,0:0:0:40:Hat Close.wav
448,192,22030,1,0,0:0:0:0:
192,192,22184,1,0,0:0:0:15:Hat Close.wav
64,192,22338,1,0,0:0:0:40:Hat Close.wav
320,192,22492,1,0,0:0:0:15:Hat Close.wav
64,192,22646,1,0,0:0:0:40:Hat Close.wav
448,192,22646,1,0,0:0:0:50:Finger.wav
192,192,22800,1,0,0:0:0:15:Hat Close.wav
320,192,22953,1,0,0:0:0:40:Hat Close.wav
448,192,22953,1,0,0:0:0:0:
192,192,23107,1,0,0:0:0:0:
320,192,23107,1,0,0:0:0:0:
64,192,23261,1,0,0:0:0:40:Hat Close.wav
192,192,23261,1,0,0:0:0:0:
320,192,23415,1,0,0:0:0:15:Hat Close.wav
448,192,23569,1,0,0:0:0:40:Hat Close.wav
192,192,23723,1,0,0:0:0:15:Hat Close.wav
64,192,23877,1,0,0:0:0:40:Hat Close.wav
320,192,23877,1,0,0:0:0:50:Finger.wav
448,192,24030,1,0,0:0:0:15:Hat Close.wav
192,192,24184,1,0,0:0:0:40:Hat Close.wav
320,192,24184,1,0,0:0:0:0:
64,192,24338,1,0,0:0:0:0:
192,192,24338,1,0,0:0:0:0:
320,192,24492,1,0,0:0:0:40:Hat Close.wav
448,192,24492,1,0,0:0:0:0:
64,192,24646,1,0,0:0:0:15:Hat Close.wav
192,192,24800,1,0,0:0:0:40:Hat Close.wav
448,192,24953,1,0,0:0:0:15:Hat Close.wav
64,192,25107,1,0,0:0:0:40:Hat Close.wav
192,192,25107,1,0,0:0:0:50:Finger.wav
320,192,25261,1,0,0:0:0:15:Hat Close.wav
64,192,25415,1,0,0:0:0:40:Hat Close.wav
448,192,25415,1,0,0:0:0:0:
192,192,25569,1,0,0:0:0:0:
320,192,25569,1,0,0:0:0:0:
64,192,25723,128,0,26184:0:0:0:40:Hat Close.wav
192,192,25723,1,0,0:0:0:0:
320,192,25877,1,0,0:0:0:15:Hat Close.wav
448,192,26030,1,0,0:0:0:40:Hat Close.wav
192,192,26184,128,0,26953:0:0:0:0:
320,192,26184,1,0,0:0:0:0:
64,192,26338,1,0,0:0:0:40:Hat Close.wav
448,192,26492,1,0,0:0:0:15:Hat Close.wav
320,192,26646,1,0,0:0:0:40:Hat Close.wav
64,192,26800,1,0,0:0:0:0:
320,192,26953,128,0,27415:0:0:0:40:Hat Close.wav
448,192,26953,1,0,0:0:0:0:
64,192,27107,1,0,0:0:0:15:Hat Close.wav
192,192,27261,1,0,0:0:0:40:Hat Close.wav
64,192,27415,1,0,0:0:0:15:Hat Close.wav
448,192,27415,128,0,27877:0:0:0:0:
320,192,27569,1,0,0:0:0:40:Hat Close.wav
64,192,27723,1,0,0:0:0:15:Hat Close.wav
192,192,27877,128,0,28184:0:0:0:40:Hat Close.wav
320,192,27877,1,0,0:0:0:0:
448,192,28030,1,0,0:0:0:0:
64,192,28184,1,0,0:0:0:40:Hat Close.wav
320,192,28184,1,0,0:0:0:0:
192,192,28338,1,0,0:0:0:15:Hat Close.wav
448,192,28492,1,0,0:0:0:40:Hat Close.wav
320,192,28646,1,0,0:0:0:15:Hat Close.wav
64,192,28800,1,0,0:0:0:40:Hat Close.wav
448,192,28800,1,0,0:0:0:50:Finger.wav
192,192,28953,1,0,0:0:0:15:Hat Close.wav
320,192,29107,1,0,0:0:0:40:Hat Close.wav
448,192,29261,1,0,0:0:0:15:Hat Close.wav
64,192,29415,1,0,0:0:0:40:Hat Close.wav
64,192,29569,1,0,0:0:0:15:Hat Close.wav
320,192,29723,1,0,0:0:0:40:Hat Close.wav
320,192,29877,1,0,0:0:0:15:Hat Close.wav
64,192,30030,1,0,0:0:0:40:Hat Close.wav
192,192,30030,1,0,0:0:0:50:Finger.wav
192,192,30184,1,0,0:0:0:15:Hat Close.wav
448,192,30338,1,0,0:0:0:40:Hat Close.wav
64,192,30415,1,0,0:0:0:0:
448,192,30492,1,0,0:0:0:0:
192,192,30569,1,0,0:0:0:0:
64,192,30646,1,2,0:0:0:0:
320,192,30646,1,4,0:0:0:0:
448,192,30646,1,0,0:0:0:0:
192,192,30800,1,0,0:0:0:0:
320,192,30953,1,0,0:0:0:40:Hat Close.wav
192,192,31107,1,0,0:0:0:15:Hat Close.wav
320,192,31261,1,0,0:0:0:40:Hat Close.wav
448,192,31261,1,0,0:0:0:50:Finger.wav
64,192,31415,1,0,0:0:0:15:Hat Close.wav
320,192,31569,1,0,0:0:0:40:Hat Close.wav
448,192,31569,1,0,0:0:0:0:
192,192,31723,1,0,0:0:0:0:
320,192,31723,1,0,0:0:0:0:
64,192,31877,1,0,0:0:0:40:Hat Close.wav
192,192,31877,1,0,0:0:0:0:
320,192,32030,1,0,0:0:0:15:Hat Close.wav
448,192,32184,1,0,0:0:0:40:Hat Close.wav
192,192,32338,1,0,0:0:0:15:Hat Close.wav
64,192,32492,1,0,0:0:0:40:Hat Close.wav
448,192,32492,1,0,0:0:0:50:Finger.wav
320,192,32646,1,0,0:0:0:15:Hat Close.wav
64,192,32800,1,0,0:0:0:40:Hat Close.wav
192,192,32800,1,0,0:0:0:0:
192,192,32953,1,2,0:0:0:0:
320,192,32953,1,0,0:0:0:0:
320,192,33107,1,2,0:0:0:0:
448,192,33107,1,0,0:0:0:40:Hat Close.wav
192,192,33261,1,0,0:0:0:15:Hat Close.wav
64,192,33415,1,0,0:0:0:40:Hat Close.wav
448,192,33569,1,0,0:0:0:15:Hat Close.wav
192,192,33723,1,0,0:0:0:40:Hat Close.wav
320,192,33723,1,0,0:0:0:50:Finger.wav
64,192,33877,1,0,0:0:0:0:
192,192,34030,1,0,0:0:0:40:Hat Close.wav
448,192,34030,1,0,0:0:0:0:
64,192,34184,1,0,0:0:0:15:Hat Close.wav
320,192,34184,1,0,0:0:0:0:
192,192,34338,1,0,0:0:0:40:Hat Close.wav
320,192,34338,1,0,0:0:0:0:
448,192,34492,1,0,0:0:0:15:Hat Close.wav
192,192,34646,1,0,0:0:0:40:Hat Close.wav
64,192,34800,1,0,0:0:0:15:Hat Close.wav
320,192,34953,1,0,0:0:0:40:Hat Close.wav
448,192,34953,1,0,0:0:0:50:Finger.wav
192,192,35107,1,0,0:0:0:15:Hat Close.wav
64,192,35261,1,0,0:0:0:40:Hat Close.wav
448,192,35261,1,0,0:0:0:0:
192,192,35415,1,0,0:0:0:15:Hat Close.wav
320,192,35415,1,0,0:0:0:0:
64,192,35569,1,2,0:0:0:0:
448,192,35569,128,0,36030:0:0:0:40:Hat Close.wav
320,192,35723,1,0,0:0:0:0:
64,192,35877,1,0,0:0:0:40:Hat Close.wav
192,192,36030,1,0,0:0:0:15:Hat Close.wav
320,192,36030,128,0,36800:0:0:0:0:
448,192,36184,1,0,0:0:0:40:Hat Close.wav
192,192,36338,1,0,0:0:0:15:Hat Close.wav
64,192,36492,1,0,0:0:0:40:Hat Close.wav
448,192,36646,1,0,0:0:0:0:
64,192,36800,1,0,0:0:0:40:Hat Close.wav
192,192,36800,128,0,37261:0:0:0:0:
448,192,36953,1,0,0:0:0:15:Hat Close.wav
320,192,37107,1,0,0:0:0:40:Hat Close.wav
64,192,37261,128,0,37723:0:0:0:15:Hat Close.wav
448,192,37261,1,0,0:0:0:0:
192,192,37415,1,0,0:0:0:40:Hat Close.wav
448,192,37569,1,0,0:0:0:15:Hat Close.wav
192,192,37723,1,0,0:0:0:40:Hat Close.wav
320,192,37723,128,0,38030:0:0:0:0:
64,192,37877,1,2,0:0:0:0:
192,192,38030,1,2,0:0:0:0:
448,192,38030,1,0,0:0:0:40:Hat Close.wav
320,192,38184,1,0,0:0:0:0:
64,192,38338,1,0,0:0:0:40:Hat Close.wav
192,192,38492,1,0,0:0:0:15:Hat Close.wav
320,192,38569,1,0,0:0:0:0:
448,192,38646,128,0,38800:0:0:0:40:Hat Close.wav
64,192,38800,128,0,38953:0:0:0:15:Hat Close.wav
320,192,38953,128,0,39107:0:0:0:40:Hat Close.wav
448,192,38953,1,0,0:0:0:0:
64,192,39107,1,0,0:0:0:0:
192,192,39107,128,0,39261:0:0:0:0:
320,192,39261,1,0,0:0:0:0:
448,192,39261,1,0,0:0:0:0:
192,192,39415,1,0,0:0:0:0:
64,192,39569,1,0,0:0:0:30:Snare2.wav
320,192,39569,1,0,0:0:0:0:
448,192,39569,1,0,0:0:0:0:
192,192,39723,1,0,0:0:0:15:Snare2.wav
320,192,39800,1,0,0:0:0:15:Snare2.wav
64,192,39877,1,0,0:0:0:0:
320,192,39953,1,0,0:0:0:15:Snare2.wav
448,192,39953,1,0,0:0:0:0:
64,192,40030,1,0,0:0:0:15:Snare2.wav
192,192,40030,1,0,0:0:0:0:
320,192,40184,1,0,0:0:0:0:
64,192,40261,1,0,0:0:0:15:Snare2.wav
192,192,40261,1,0,0:0:0:0:
448,192,40338,1,0,0:0:0:0:
320,192,40415,1,0,0:0:0:15:Snare2.wav
64,192,40492,1,2,0:0:0:0:
192,192,40492,1,4,0:0:0:0:
448,192,40492,1,0,0:0:0:0:
192,192,40646,1,0,0:0:0:60:Hat Close.wav
64,192,40800,1,0,0:0:0:30:Snare2.wav
320,192,40800,1,0,0:0:0:0:
448,192,40800,1,0,0:0:0:0:
64,192,40953,1,0,0:0:0:60:Hat Close.wav
64,192,41107,1,0,0:0:0:60:Hat Close.wav
192,192,41261,1,2,0:0:0:0:
320,192,41261,1,0,0:0:0:0:
320,192,41415,1,0,0:0:0:60:Hat Close.wav
64,192,41569,1,0,0:0:0:30:Snare2.wav
192,192,41569,1,0,0:0:0:0:
448,192,41569,1,0,0:0:0:0:
64,192,41723,1,0,0:0:0:60:Hat Close.wav
192,192,41877,1,2,0:0:0:0:
320,192,41877,1,0,0:0:0:0:
64,192,42030,1,0,0:0:0:30:Snare2.wav
192,192,42030,1,0,0:0:0:0:
448,192,42030,1,0,0:0:0:0:
320,192,42184,1,0,0:0:0:30:Snare2.wav
448,192,42184,1,0,0:0:0:0:
192,192,42261,1,0,0:0:0:10:Snare2.wav
64,192,42338,1,0,0:0:0:60:Hat Close.wav
320,192,42415,1,0,0:0:0:10:Snare2.wav
64,192,42492,1,0,0:0:0:30:Snare2.wav
192,192,42492,1,0,0:0:0:0:
64,192,42646,1,0,0:0:0:30:Snare2.wav
320,192,42646,1,0,0:0:0:0:
448,192,42646,1,0,0:0:0:0:
320,192,42800,1,0,0:0:0:60:Hat Close.wav
64,192,42953,1,2,0:0:0:0:
192,192,42953,1,4,0:0:0:0:
448,192,42953,1,0,0:0:0:0:
448,192,43107,1,0,0:0:0:60:Hat Close.wav
64,192,43261,1,0,0:0:0:30:Snare2.wav
192,192,43261,1,0,0:0:0:0:
320,192,43261,1,0,0:0:0:0:
320,192,43415,1,0,0:0:0:60:Hat Close.wav
320,192,43569,1,0,0:0:0:60:Hat Close.wav
192,192,43723,1,2,0:0:0:0:
448,192,43723,1,0,0:0:0:0:
448,192,43877,1,0,0:0:0:60:Hat Close.wav
64,192,44030,1,0,0:0:0:30:Snare2.wav
192,192,44030,1,0,0:0:0:0:
320,192,44030,1,0,0:0:0:0:
320,192,44184,1,0,0:0:0:60:Hat Close.wav
192,192,44261,1,0,0:0:0:0:
64,192,44338,1,2,0:0:0:0:
448,192,44338,1,0,0:0:0:0:
64,192,44492,1,0,0:0:0:30:Snare2.wav
192,192,44492,1,0,0:0:0:0:
320,192,44492,1,0,0:0:0:0:
448,192,44646,1,0,0:0:0:30:Snare2.wav
320,192,44723,1,0,0:0:0:15:Snare2.wav
64,192,44800,1,2,0:0:0:0:
192,192,44800,1,0,0:0:0:0:
64,192,44953,1,0,0:0:0:30:Snare2.wav
320,192,44953,1,0,0:0:0:0:
448,192,44953,1,0,0:0:0:0:
64,192,45107,1,0,0:0:0:30:Snare2.wav
192,192,45107,1,0,0:0:0:0:
448,192,45107,1,0,0:0:0:0:
192,192,45261,1,0,0:0:0:60:Hat Close.wav
64,192,45415,1,2,0:0:0:0:
320,192,45415,1,4,0:0:0:0:
448,192,45415,1,0,0:0:0:0:
448,192,45569,1,0,0:0:0:60:Hat Close.wav
64,192,45723,1,0,0:0:0:30:Snare2.wav
192,192,45723,1,0,0:0:0:0:
320,192,45723,1,0,0:0:0:0:
192,192,45877,1,0,0:0:0:60:Hat Close.wav
192,192,46030,1,0,0:0:0:60:Hat Close.wav
64,192,46184,1,2,0:0:0:0:
320,192,46184,1,0,0:0:0:0:
448,192,46338,1,0,0:0:0:60:Hat Close.wav
64,192,46492,1,0,0:0:0:30:Snare2.wav
192,192,46492,1,0,0:0:0:0:
320,192,46492,1,0,0:0:0:0:
320,192,46646,1,0,0:0:0:60:Hat Close.wav
64,192,46800,1,2,0:0:0:0:
448,192,46800,1,0,0:0:0:0:
192,192,46953,1,0,0:0:0:30:Snare2.wav
320,192,46953,1,0,0:0:0:0:
448,192,46953,1,0,0:0:0:0:
64,192,47107,1,0,0:0:0:30:Snare2.wav
192,192,47184,1,0,0:0:0:15:Snare2.wav
320,192,47261,1,0,0:0:0:60:Hat Close.wav
64,192,47338,1,0,0:0:0:15:Snare2.wav
192,192,47415,1,0,0:0:0:30:Snare2.wav
320,192,47415,1,0,0:0:0:0:
448,192,47569,1,0,0:0:0:60:Hat Close.wav
64,192,47646,1,0,0:0:0:15:Snare2.wav
448,192,47723,1,0,0:0:0:60:Hat Close.wav
192,192,47800,1,0,0:0:0:15:Snare2.wav
64,192,47877,1,0,0:0:0:30:Snare2.wav
320,192,47877,1,0,0:0:0:0:
448,192,47877,1,0,0:0:0:0:
192,192,48030,1,0,0:0:0:30:Snare2.wav
320,192,48107,1,0,0:0:0:15:Snare2.wav
64,192,48184,1,0,0:0:0:60:Hat Close.wav
192,192,48261,1,0,0:0:0:15:Snare2.wav
320,192,48338,1,0,0:0:0:30:Snare2.wav
448,192,48338,1,0,0:0:0:0:
192,192,48492,1,0,0:0:0:60:Hat Close.wav
64,192,48569,1,0,0:0:0:15:Snare2.wav
448,192,48569,1,0,0:0:0:0:
320,192,48646,1,0,0:0:0:60:Hat Close.wav
64,192,48800,1,0,0:0:0:30:Snare2.wav
192,192,48800,1,0,0:0:0:0:
448,192,48800,1,0,0:0:0:0:
64,192,48953,1,0,0:0:0:60:Hat Close.wav
192,192,49030,1,0,0:0:0:0:
448,192,49030,1,0,0:0:0:0:
320,192,49107,1,0,0:0:0:60:Hat Close.wav
64,192,49261,1,0,0:0:0:30:Snare2.wav
192,192,49261,1,0,0:0:0:40:Snare.wav
448,192,49261,1,0,0:0:0:0:
192,192,49415,1,0,0:0:0:40:Snare.wav
320,192,49415,1,0,0:0:0:0:
448,192,49415,1,0,0:0:0:0:
64,192,49569,1,0,0:0:0:60:Hat Close.wav
320,192,49646,1,0,0:0:0:40:Snare.wav
448,192,49646,1,0,0:0:0:0:
64,192,49723,1,0,0:0:0:40:Snare.wav
192,192,49723,1,0,0:0:0:0:
320,192,49877,1,0,0:0:0:60:Hat Close.wav
448,192,49953,1,0,0:0:0:0:
64,192,50030,1,0,0:0:0:60:Hat Close.wav
192,192,50107,1,0,0:0:0:0:
320,192,50184,1,0,0:0:0:0:
64,192,50338,1,2,0:0:0:0:
192,192,50338,1,4,0:0:0:0:
448,192,50338,1,0,0:0:0:0:
448,192,50492,1,0,0:0:0:60:Hat Close.wav
64,192,50646,1,0,0:0:0:30:Snare2.wav
192,192,50646,1,0,0:0:0:0:
320,192,50646,1,0,0:0:0:0:
64,192,50800,1,0,0:0:0:60:Hat Close.wav
64,192,50953,1,0,0:0:0:60:Hat Close.wav
192,192,51107,1,2,0:0:0:0:
320,192,51107,1,0,0:0:0:0:
192,192,51261,1,0,0:0:0:60:Hat Close.wav
64,192,51415,1,0,0:0:0:30:Snare2.wav
320,192,51415,1,0,0:0:0:0:
448,192,51415,1,0,0:0:0:0:
448,192,51569,1,0,0:0:0:60:Hat Close.wav
64,192,51723,1,2,0:0:0:0:
192,192,51723,1,0,0:0:0:0:
192,192,51877,1,0,0:0:0:30:Snare2.wav
320,192,51877,1,0,0:0:0:0:
448,192,51877,1,0,0:0:0:0:
64,192,52030,1,0,0:0:0:30:Snare2.wav
448,192,52030,1,0,0:0:0:0:
320,192,52107,1,0,0:0:0:15:Snare2.wav
64,192,52184,1,0,0:0:0:60:Hat Close.wav
448,192,52261,1,0,0:0:0:15:Snare2.wav
192,192,52338,1,0,0:0:0:30:Snare2.wav
320,192,52338,1,0,0:0:0:0:
64,192,52492,1,0,0:0:0:60:Hat Close.wav
192,192,52569,1,0,0:0:0:15:Snare2.wav
320,192,52646,1,0,0:0:0:60:Hat Close.wav
448,192,52646,1,0,0:0:0:0:
192,192,52723,1,0,0:0:0:15:Snare2.wav
64,192,52800,1,2,0:0:0:0:
320,192,52800,1,4,0:0:0:0:
448,192,52800,1,0,0:0:0:0:
64,192,52953,1,0,0:0:0:60:Hat Close.wav
192,192,53107,1,0,0:0:0:30:Snare2.wav
320,192,53107,1,0,0:0:0:0:
448,192,53107,1,0,0:0:0:0:
448,192,53261,1,0,0:0:0:60:Hat Close.wav
448,192,53415,1,0,0:0:0:60:Hat Close.wav
64,192,53569,1,2,0:0:0:0:
320,192,53569,1,0,0:0:0:0:
64,192,53723,1,0,0:0:0:60:Hat Close.wav
192,192,53877,1,0,0:0:0:30:Snare2.wav
320,192,53877,1,0,0:0:0:0:
448,192,53877,1,0,0:0:0:0:
192,192,54030,1,0,0:0:0:60:Hat Close.wav
64,192,54184,1,2,0:0:0:0:
448,192,54184,1,0,0:0:0:0:
192,192,54338,1,0,0:0:0:30:Snare2.wav
320,192,54338,1,0,0:0:0:0:
448,192,54338,1,0,0:0:0:0:
64,192,54492,1,0,0:0:0:15:Snare2.wav
192,192,54569,1,0,0:0:0:0:
320,192,54646,1,2,0:0:0:0:
448,192,54646,1,0,0:0:0:0:
64,192,54800,1,2,0:0:0:0:
192,192,54800,1,0,0:0:0:0:
64,192,54953,1,0,0:0:0:30:Snare2.wav
320,192,54953,1,0,0:0:0:0:
448,192,54953,1,0,0:0:0:0:
192,192,55107,1,0,0:0:0:60:Hat Close.wav
320,192,55184,1,0,0:0:0:15:Snare2.wav
64,192,55261,1,2,0:0:0:0:
448,192,55261,1,4,0:0:0:0:
64,192,55415,1,0,0:0:0:60:Hat Close.wav
192,192,55569,1,0,0:0:0:30:Snare2.wav
320,192,55569,1,0,0:0:0:0:
448,192,55569,1,0,0:0:0:0:
64,192,55723,1,2,0:0:0:0:
192,192,55723,1,0,0:0:0:60:Hat Close.wav
448,192,55877,1,2,0:0:0:0:
64,192,55953,1,0,0:0:0:0:
192,192,56030,1,0,0:0:0:30:Snare2.wav
320,192,56030,1,0,0:0:0:0:
448,192,56030,1,0,0:0:0:0:
320,192,56184,1,0,0:0:0:60:Hat Close.wav
64,192,56338,1,0,0:0:0:30:Snare2.wav
192,192,56338,1,0,0:0:0:0:
448,192,56338,1,0,0:0:0:0:
64,192,56492,1,0,0:0:0:60:Hat Close.wav
192,192,56646,1,2,0:0:0:0:
320,192,56646,1,0,0:0:0:0:
64,192,56800,1,0,0:0:0:30:Snare2.wav
320,192,56800,1,0,0:0:0:0:
448,192,56800,1,0,0:0:0:0:
64,192,56953,1,0,0:0:0:30:Snare2.wav
192,192,56953,1,0,0:0:0:0:
320,192,57030,1,0,0:0:0:15:Snare2.wav
448,192,57107,1,0,0:0:0:60:Hat Close.wav
64,192,57184,1,0,0:0:0:15:Snare2.wav
192,192,57184,1,0,0:0:0:0:
320,192,57261,1,0,0:0:0:30:Snare2.wav
448,192,57261,1,0,0:0:0:0:
64,192,57415,1,0,0:0:0:60:Hat Close.wav
192,192,57492,1,0,0:0:0:0:
320,192,57569,1,0,0:0:0:60:Hat Close.wav
192,192,57646,1,0,0:0:0:0:
64,192,57723,128,2,58953:0:0:0:0:
448,192,57723,128,0,58953:0:0:0:0:
192,192,58953,128,0,59569:0:0:0:0:
320,192,59261,128,0,59569:0:0:0:0:
64,192,59569,128,0,60107:0:0:0:0:
448,192,59569,128,0,60107:0:0:0:0:
192,192,59877,128,0,60107:0:0:0:0:
64,192,60184,1,2,0:0:0:0:
192,192,60184,1,4,0:0:0:0:
320,192,60184,128,0,60492:0:0:0:0:
448,192,60184,1,0,0:0:0:0:
64,192,60492,1,8,0:0:0:0:
192,192,60492,1,0,0:0:0:60:Hat Open.wav
448,192,60492,128,0,60646:0:0:0:0:
64,192,60646,128,0,60953:0:0:0:0:
320,192,60800,1,2,0:0:0:0:
192,192,60953,1,2,0:0:0:0:
448,192,60953,1,0,0:0:0:0:
192,192,61107,128,8,61415:0:0:0:0:
320,192,61107,1,0,0:0:0:60:Hat Open.wav
448,192,61107,1,0,0:0:0:0:
64,192,61261,1,2,0:0:0:0:
320,192,61415,128,0,61723:0:0:0:60:Hat Open.wav
448,192,61569,1,2,0:0:0:0:
64,192,61723,1,8,0:0:0:0:
192,192,61723,1,0,0:0:0:60:Hat Open.wav
448,192,61723,1,0,0:0:0:0:
320,192,61877,1,0,0:0:0:0:
64,192,62030,128,2,62338:0:0:0:0:
192,192,62030,1,0,0:0:0:60:Hat Open.wav
320,192,62184,1,2,0:0:0:0:
192,192,62338,128,8,62646:0:0:0:0:
320,192,62338,1,0,0:0:0:60:Hat Open.wav
448,192,62338,1,0,0:0:0:0:
64,192,62492,1,0,0:0:0:0:
320,192,62646,128,2,62953:0:0:0:0:
448,192,62646,1,0,0:0:0:60:Hat Open.wav
192,192,62800,1,0,0:0:0:0:
64,192,62953,1,8,0:0:0:0:
192,192,62953,1,0,0:0:0:60:Hat Open.wav
448,192,62953,128,0,63107:0:0:0:0:
64,192,63107,128,0,63569:0:0:0:0:
320,192,63261,1,2,0:0:0:0:
192,192,63415,1,2,0:0:0:0:
192,192,63569,1,8,0:0:0:0:
320,192,63569,1,0,0:0:0:60:Hat Open.wav
448,192,63569,128,0,63877:0:0:0:0:
64,192,63723,1,2,0:0:0:0:
192,192,63877,128,0,64184:0:0:0:60:Hat Open.wav
448,192,64030,1,2,0:0:0:0:
64,192,64184,1,8,0:0:0:0:
320,192,64184,1,0,0:0:0:60:Hat Open.wav
448,192,64184,1,0,0:0:0:0:
192,192,64338,1,2,0:0:0:0:
320,192,64338,1,0,0:0:0:0:
64,192,64492,128,2,64800:0:0:0:0:
192,192,64492,1,0,0:0:0:60:Hat Open.wav
448,192,64646,1,2,0:0:0:0:
192,192,64800,1,8,0:0:0:0:
320,192,64800,1,0,0:0:0:60:Hat Open.wav
448,192,64800,128,0,65107:0:0:0:0:
64,192,64953,1,0,0:0:0:0:
64,192,65107,1,2,0:0:0:0:
192,192,65107,1,4,0:0:0:0:
320,192,65107,128,0,65415:0:0:0:0:
64,192,65415,128,8,65723:0:0:0:0:
192,192,65415,1,0,0:0:0:60:Hat Open.wav
448,192,65415,1,0,0:0:0:0:
192,192,65569,128,0,65723:0:0:0:0:
320,192,65723,1,2,0:0:0:0:
448,192,65723,1,0,0:0:0:60:Hat Open.wav
64,192,65877,1,2,0:0:0:0:
448,192,65877,128,0,66030:0:0:0:0:
64,192,66030,1,8,0:0:0:0:
192,192,66030,1,0,0:0:0:60:Hat Open.wav
320,192,66030,1,0,0:0:0:0:
192,192,66184,128,2,66338:0:0:0:0:
320,192,66184,1,0,0:0:0:0:
448,192,66338,1,0,0:0:0:60:Hat Open.wav
192,192,66492,1,2,0:0:0:0:
320,192,66492,128,0,66800:0:0:0:0:
64,192,66646,1,8,0:0:0:0:
448,192,66646,1,0,0:0:0:60:Hat Open.wav
192,192,66800,1,0,0:0:0:0:
320,192,66953,1,2,0:0:0:0:
448,192,66953,1,0,0:0:0:60:Hat Open.wav
64,192,67107,1,2,0:0:0:0:
192,192,67107,128,0,67261:0:0:0:0:
64,192,67261,1,8,0:0:0:0:
320,192,67261,1,0,0:0:0:60:Hat Open.wav
448,192,67261,1,0,0:0:0:0:
192,192,67415,1,0,0:0:0:0:
64,192,67569,1,2,0:0:0:0:
320,192,67569,128,0,67877:0:0:0:60:Hat Open.wav
192,192,67723,1,0,0:0:0:0:
64,192,67877,1,8,0:0:0:0:
192,192,67877,1,0,0:0:0:60:Hat Open.wav
448,192,67877,1,0,0:0:0:0:
448,192,68030,128,0,68184:0:0:0:0:
64,192,68184,1,2,0:0:0:0:
320,192,68184,1,0,0:0:0:60:Hat Open.wav
64,192,68338,128,2,68492:0:0:0:0:
192,192,68338,1,0,0:0:0:0:
192,192,68492,1,8,0:0:0:0:
320,192,68492,1,0,0:0:0:60:Hat Open.wav
448,192,68492,1,0,0:0:0:0:
64,192,68646,1,2,0:0:0:0:
320,192,68646,128,0,69107:0:0:0:0:
448,192,68800,1,0,0:0:0:60:Hat Open.wav
192,192,68953,1,2,0:0:0:0:
64,192,69107,1,8,0:0:0:0:
192,192,69107,1,0,0:0:0:60:Hat Open.wav
448,192,69107,1,0,0:0:0:0:
320,192,69261,1,2,0:0:0:0:
448,192,69261,1,0,0:0:0:0:
64,192,69415,128,2,69723:0:0:0:0:
192,192,69415,1,4,0:0:0:0:
320,192,69415,1,0,0:0:0:0:
448,192,69569,1,2,0:0:0:0:
192,192,69723,1,8,0:0:0:0:
320,192,69723,1,4,0:0:0:0:
448,192,69723,128,0,70030:0:0:0:0:
64,192,70030,1,4,0:0:0:0:
192,192,70030,128,2,70338:0:0:0:0:
320,192,70030,1,0,0:0:0:0:
64,192,70338,128,8,70492:0:0:0:0:
320,192,70338,1,0,0:0:0:60:Hat Open.wav
448,192,70338,1,0,0:0:0:0:
448,192,70492,128,0,70800:0:0:0:0:
192,192,70646,1,2,0:0:0:0:
64,192,70800,1,2,0:0:0:0:
320,192,70800,1,0,0:0:0:0:
64,192,70953,1,8,0:0:0:0:
192,192,70953,1,0,0:0:0:60:Hat Open.wav
320,192,70953,128,0,71261:0:0:0:0:
448,192,71107,1,2,0:0:0:0:
192,192,71261,128,0,71569:0:0:0:60:Hat Open.wav
64,192,71415,1,2,0:0:0:0:
64,192,71569,1,8,0:0:0:0:
320,192,71569,1,0,0:0:0:60:Hat Open.wav
448,192,71569,1,0,0:0:0:0:
192,192,71723,1,0,0:0:0:0:
320,192,71877,1,2,0:0:0:0:
448,192,71877,128,0,72184:0:0:0:60:Hat Open.wav
192,192,72030,1,2,0:0:0:0:
64,192,72184,1,8,0:0:0:0:
192,192,72184,1,0,0:0:0:60:Hat Open.wav
320,192,72184,128,0,72492:0:0:0:0:
448,192,72338,1,0,0:0:0:0:
64,192,72492,1,2,0:0:0:0:
192,192,72492,128,0,72800:0:0:0:60:Hat Open.wav
320,192,72646,1,0,0:0:0:0:
64,192,72800,128,8,72953:0:0:0:0:
320,192,72800,1,0,0:0:0:60:Hat Open.wav
448,192,72800,1,0,0:0:0:0:
448,192,72953,128,0,73261:0:0:0:0:
192,192,73107,1,2,0:0:0:0:
320,192,73261,1,2,0:0:0:0:
64,192,73415,128,8,73723:0:0:0:0:
192,192,73415,1,0,0:0:0:60:Hat Open.wav
320,192,73415,1,0,0:0:0:0:
448,192,73569,1,2,0:0:0:0:
192,192,73723,128,0,74030:0:0:0:60:Hat Open.wav
320,192,73877,1,2,0:0:0:0:
64,192,74030,1,8,0:0:0:0:
320,192,74030,1,0,0:0:0:60:Hat Open.wav
448,192,74030,1,0,0:0:0:0:
64,192,74184,1,2,0:0:0:0:
192,192,74184,1,0,0:0:0:0:
320,192,74338,128,2,74646:0:0:0:0:
448,192,74338,1,0,0:0:0:60:Hat Open.wav
64,192,74492,1,2,0:0:0:0:
64,192,74646,128,8,74953:0:0:0:0:
192,192,74646,1,0,0:0:0:60:Hat Open.wav
448,192,74646,1,0,0:0:0:0:
192,192,74953,1,2,0:0:0:0:
320,192,74953,1,4,0:0:0:0:
448,192,74953,128,0,75415:0:0:0:0:
64,192,75261,1,8,0:0:0:0:
320,192,75261,1,0,0:0:0:60:Hat Open.wav
64,192,75415,1,0,0:0:0:0:
192,192,75569,1,2,0:0:0:0:
320,192,75569,128,0,76030:0:0:0:60:Hat Open.wav
448,192,75723,1,2,0:0:0:0:
64,192,75877,1,8,0:0:0:0:
192,192,75877,1,0,0:0:0:60:Hat Open.wav
64,192,76030,1,2,0:0:0:0:
448,192,76030,1,0,0:0:0:0:
192,192,76184,128,0,76953:0:0:0:60:Hat Open.wav
64,192,76338,1,2,0:0:0:0:
320,192,76492,1,8,0:0:0:0:
448,192,76492,1,0,0:0:0:60:Hat Open.wav
448,192,76646,1,0,0:0:0:0:
64,192,76800,1,2,0:0:0:0:
320,192,76953,1,2,0:0:0:0:
448,192,76953,1,0,0:0:0:0:
64,192,77107,1,8,0:0:0:0:
320,192,77107,1,0,0:0:0:60:Hat Open.wav
448,192,77107,1,0,0:0:0:0:
64,192,77415,1,4,0:0:0:0:
192,192,77415,1,8,0:0:0:0:
320,192,77415,1,0,0:0:0:0:
448,192,77415,1,0,0:0:0:0:
64,192,77569,1,2,0:0:0:0:
320,192,77569,1,0,0:0:0:0:
64,192,77723,1,2,0:0:0:0:
320,192,77723,1,0,0:0:0:0:
192,192,77877,1,8,0:0:0:0:
320,192,77877,1,4,0:0:0:0:
448,192,77877,1,0,0:0:0:0:
64,192,78030,1,8,0:0:0:0:
192,192,78030,1,0,0:0:0:0:
448,192,78030,1,0,0:0:0:0:
192,192,78184,1,2,0:0:0:0:
448,192,78184,1,0,0:0:0:0:
64,192,78338,1,4,0:0:0:0:
192,192,78338,1,8,0:0:0:0:
320,192,78338,1,0,0:0:0:0:
64,192,78492,1,2,0:0:0:0:
320,192,78492,1,0,0:0:0:0:
64,192,78646,1,2,0:0:0:0:
320,192,78646,1,0,0:0:0:0:
192,192,78800,1,8,0:0:0:0:
320,192,78800,1,4,0:0:0:0:
448,192,78800,1,0,0:0:0:0:
64,192,78953,1,8,0:0:0:0:
192,192,78953,128,0,79261:0:0:0:0:
448,192,78953,1,0,0:0:0:0:
64,192,79261,1,8,0:0:0:0:
320,192,79261,1,4,0:0:0:0:
448,192,79261,128,0,79569:0:0:0:0:
64,192,79569,128,0,79877:0:0:0:0:
192,192,79877,1,2,0:0:0:0:
320,192,79877,1,4,0:0:0:0:
448,192,79877,1,0,0:0:0:0:
64,192,80184,1,8,0:0:0:0:
192,192,80184,1,0,0:0:0:60:Hat Open.wav
320,192,80184,1,0,0:0:0:0:
64,192,80338,1,2,0:0:0:0:
448,192,80338,1,0,0:0:0:0:
192,192,80492,1,0,0:0:0:60:Hat Open.wav
320,192,80646,1,2,0:0:0:0:
448,192,80646,1,0,0:0:0:0:
64,192,80800,1,8,0:0:0:0:
192,192,80800,1,0,0:0:0:60:Hat Open.wav
448,192,80800,1,0,0:0:0:0:
320,192,80953,1,0,0:0:0:0:
64,192,81107,1,2,0:0:0:0:
448,192,81107,1,0,0:0:0:60:Hat Open.wav
64,192,81261,1,2,0:0:0:0:
448,192,81261,1,0,0:0:0:0:
192,192,81415,1,8,0:0:0:0:
320,192,81415,1,0,0:0:0:60:Hat Open.wav
448,192,81415,1,0,0:0:0:0:
64,192,81569,1,2,0:0:0:0:
320,192,81569,1,0,0:0:0:0:
192,192,81723,1,0,0:0:0:60:Hat Open.wav
320,192,81877,1,2,0:0:0:0:
448,192,81877,1,0,0:0:0:0:
64,192,82030,1,8,0:0:0:0:
192,192,82030,1,0,0:0:0:60:Hat Open.wav
448,192,82030,1,0,0:0:0:0:
192,192,82184,1,2,0:0:0:0:
320,192,82184,1,0,0:0:0:0:
64,192,82338,1,2,0:0:0:0:
448,192,82338,128,0,82800:0:0:0:60:Hat Open.wav
64,192,82646,1,8,0:0:0:0:
192,192,82646,1,0,0:0:0:60:Hat Open.wav
192,192,82800,128,2,83261:0:0:0:0:
320,192,82800,1,0,0:0:0:0:
448,192,82953,1,0,0:0:0:60:Hat Open.wav
64,192,83107,1,2,0:0:0:0:
64,192,83261,1,8,0:0:0:0:
320,192,83261,128,0,83569:0:0:0:60:Hat Open.wav
448,192,83261,1,0,0:0:0:0:
192,192,83415,1,0,0:0:0:0:
64,192,83569,1,2,0:0:0:0:
448,192,83569,1,0,0:0:0:60:Hat Open.wav
64,192,83723,1,2,0:0:0:0:
448,192,83723,1,0,0:0:0:0:
64,192,83877,1,8,0:0:0:0:
192,192,83877,1,0,0:0:0:60:Hat Open.wav
320,192,83877,1,0,0:0:0:0:
192,192,84030,1,2,0:0:0:0:
448,192,84030,1,0,0:0:0:0:
320,192,84184,1,2,0:0:0:0:
448,192,84184,1,0,0:0:0:60:Hat Open.wav
64,192,84338,1,2,0:0:0:0:
320,192,84338,1,0,0:0:0:0:
64,192,84492,1,8,0:0:0:0:
192,192,84492,128,0,84800:0:0:0:60:Hat Open.wav
448,192,84492,1,0,0:0:0:0:
64,192,84800,1,2,0:0:0:0:
320,192,84800,1,4,0:0:0:0:
448,192,84800,1,0,0:0:0:0:
64,192,85107,1,8,0:0:0:0:
192,192,85107,1,0,0:0:0:60:Hat Open.wav
448,192,85107,1,0,0:0:0:0:
64,192,85261,1,2,0:0:0:0:
320,192,85261,1,0,0:0:0:0:
192,192,85415,1,0,0:0:0:60:Hat Open.wav
64,192,85569,1,2,0:0:0:0:
448,192,85569,1,0,0:0:0:0:
192,192,85723,1,8,0:0:0:0:
320,192,85723,1,0,0:0:0:60:Hat Open.wav
448,192,85723,1,0,0:0:0:0:
320,192,85877,1,0,0:0:0:0:
64,192,86030,128,2,86492:0:0:0:0:
192,192,86030,1,0,0:0:0:60:Hat Open.wav
192,192,86184,1,2,0:0:0:0:
320,192,86338,1,8,0:0:0:0:
448,192,86338,1,0,0:0:0:60:Hat Open.wav
192,192,86492,1,2,0:0:0:0:
448,192,86492,128,0,86953:0:0:0:0:
64,192,86646,1,0,0:0:0:60:Hat Open.wav
320,192,86800,1,2,0:0:0:0:
64,192,86953,1,8,0:0:0:0:
192,192,86953,128,0,87261:0:0:0:60:Hat Open.wav
320,192,86953,1,0,0:0:0:0:
448,192,87107,1,2,0:0:0:0:
64,192,87261,1,8,0:0:0:0:
320,192,87261,1,4,0:0:0:0:
448,192,87261,1,0,0:0:0:0:
64,192,87415,1,2,0:0:0:0:
320,192,87415,1,0,0:0:0:0:
64,192,87569,1,2,0:0:0:0:
320,192,87569,1,0,0:0:0:0:
192,192,87723,1,4,0:0:0:0:
320,192,87723,1,8,0:0:0:0:
448,192,87723,1,0,0:0:0:0:
64,192,87877,1,8,0:0:0:0:
192,192,87877,1,0,0:0:0:40:Tom2.wav
448,192,87877,1,0,0:0:0:0:
192,192,88030,1,2,0:0:0:0:
448,192,88030,1,0,0:0:0:0:
64,192,88184,1,8,0:0:0:0:
192,192,88184,1,4,0:0:0:0:
320,192,88184,1,0,0:0:0:0:
64,192,88338,1,2,0:0:0:0:
320,192,88338,1,0,0:0:0:0:
64,192,88492,1,2,0:0:0:0:
320,192,88492,1,0,0:0:0:0:
64,192,88646,1,8,0:0:0:0:
192,192,88646,1,0,0:0:0:0:
448,192,88646,1,0,0:0:0:0:
64,192,88800,1,8,0:0:0:0:
192,192,88800,1,0,0:0:0:0:
448,192,88800,1,0,0:0:0:0:
192,192,88953,1,2,0:0:0:0:
320,192,88953,128,0,89107:0:0:0:60:Hat Open.wav
64,192,89107,1,0,0:0:0:0:
448,192,89107,128,0,89261:0:0:0:0:
192,192,89261,1,2,0:0:0:0:
320,192,89261,1,0,0:0:0:0:
64,192,89415,128,8,89723:0:0:0:0:
320,192,89415,1,4,0:0:0:0:
448,192,89415,1,0,0:0:0:0:
192,192,89569,128,0,89723:0:0:0:0:
