osu file format v14

[General]
AudioFilename: audio.mp3
AudioLeadIn: 0
PreviewTime: 59492
Countdown: 0
SampleSet: Soft
StackLeniency: 0.7
Mode: 3
LetterboxInBreaks: 0
SpecialStyle: 0
WidescreenStoryboard: 1

[Editor]
Bookmarks: 40492,50338,70030
DistanceSpacing: 1
BeatDivisor: 4
GridSize: 4
TimelineZoom: 1.8

[Metadata]
Title:Eclipse (TV Size)
TitleUnicode:Eclipse (TV Size)
Artist:Dreamcatcher
ArtistUnicode:드림캐쳐
Creator:FerdiXIA-
Version:Easy
Source:キングスレイド 意志を継ぐものたち
Tags:ML-ysg Gahyeonln GuD King's Kings Raid Ishi wo Tsugumono tachi Tsugumono-tachi Successors of the Will anime Opening OP Japanese Korean Pop Jpop J-Pop Rock JRock J-Rock Short Version 드캐 deukae idol 아이돌 Girls group 걸그룹 유현 yoohyeon 가현 gahyeon 수아 sua 지우 jiu 다미 dami 한동 handong 시연 siyeon
BeatmapID:3561120
BeatmapSetID:1722017

[Difficulty]
HPDrainRate:6.5
CircleSize:4
OverallDifficulty:6
ApproachRate:5
SliderMultiplier:1.4
SliderTickRate:1

[Events]
//Background and Video events
0,0,"bg.jpg",0,0
Video,-100,"Video.mp4"
//Break Periods
//Storyboard Layer 0 (Background)
//Storyboard Layer 1 (Fail)
//Storyboard Layer 2 (Pass)
//Storyboard Layer 3 (Foreground)
//Storyboard Layer 4 (Overlay)
//Storyboard Sound Samples
Sample,10338,0,"Tom2.wav",40
Sample,11261,0,"Hat Open.wav",60
Sample,11877,0,"Hat Open.wav",60
Sample,12184,0,"Hat Open.wav",60
Sample,12492,0,"Hat Open.wav",60
Sample,13107,0,"Hat Open.wav",60
Sample,13415,0,"Hat Open.wav",60
Sample,14338,0,"Hat Open.wav",60
Sample,14646,0,"Hat Open.wav",60
Sample,14953,0,"Hat Open.wav",60
Sample,15261,0,"Hat Open.wav",60
Sample,15569,0,"Hat Open.wav",60
Sample,16184,0,"Hat Open.wav",60
Sample,16800,0,"Hat Open.wav",60
Sample,17107,0,"Hat Open.wav",60
Sample,17415,0,"Hat Open.wav",60
Sample,18030,0,"Hat Open.wav",60
Sample,20030,0,"Hat Open.wav",60
Sample,20800,0,"soft-hitfinish.wav",25
Sample,21415,0,"Finger.wav",50
Sample,22646,0,"Finger.wav",50
Sample,23877,0,"Finger.wav",50
Sample,25107,0,"Finger.wav",50
Sample,26338,0,"Finger.wav",50
Sample,27569,0,"Finger.wav",50
Sample,28800,0,"Finger.wav",50
Sample,30030,0,"Finger.wav",50
Sample,31261,0,"Finger.wav",50
Sample,32492,0,"Finger.wav",50
Sample,33107,0,"Hat Close.wav",40
Sample,33723,0,"Finger.wav",50
Sample,34953,0,"Finger.wav",50
Sample,35569,0,"Hat Close.wav",40
Sample,36184,0,"Finger.wav",50
Sample,37415,0,"Finger.wav",50
Sample,37877,0,"Hat Close.wav",15
Sample,38030,0,"Hat Close.wav",40
Sample,38646,0,"Finger.wav",50
Sample,49261,0,"Snare.wav",40
Sample,55723,0,"Hat Close.wav",60
Sample,60492,0,"Hat Open.wav",60
Sample,60800,0,"Hat Open.wav",60
Sample,61107,0,"Hat Open.wav",60
Sample,61723,0,"Hat Open.wav",60
Sample,62030,0,"Hat Open.wav",60
Sample,62338,0,"Hat Open.wav",60
Sample,62646,0,"Hat Open.wav",60
Sample,62953,0,"Hat Open.wav",60
Sample,63261,0,"Hat Open.wav",60
Sample,63569,0,"Hat Open.wav",60
Sample,64184,0,"Hat Open.wav",60
Sample,64492,0,"Hat Open.wav",60
Sample,64800,0,"Hat Open.wav",60
Sample,65415,0,"Hat Open.wav",60
Sample,65723,0,"Hat Open.wav",60
Sample,66030,0,"Hat Open.wav",60
Sample,66646,0,"Hat Open.wav",60
Sample,66953,0,"Hat Open.wav",60
Sample,67261,0,"Hat Open.wav",60
Sample,67569,0,"Hat Open.wav",60
Sample,67877,0,"Hat Open.wav",60
Sample,68184,0,"Hat Open.wav",60
Sample,68492,0,"Hat Open.wav",60
Sample,69107,0,"Hat Open.wav",60
Sample,70338,0,"Hat Open.wav",60
Sample,70646,0,"Hat Open.wav",60
Sample,70953,0,"Hat Open.wav",60
Sample,71569,0,"Hat Open.wav",60
Sample,71877,0,"Hat Open.wav",60
Sample,72184,0,"Hat Open.wav",60
Sample,72492,0,"Hat Open.wav",60
Sample,72800,0,"Hat Open.wav",60
Sample,73107,0,"Hat Open.wav",60
Sample,73415,0,"Hat Open.wav",60
Sample,74030,0,"Hat Open.wav",60
Sample,74338,0,"Hat Open.wav",60
Sample,74646,0,"Hat Open.wav",60
Sample,75261,0,"Hat Open.wav",60
Sample,75569,0,"Hat Open.wav",60
Sample,75877,0,"Hat Open.wav",60
Sample,76492,0,"Hat Open.wav",60
Sample,76800,0,"Hat Open.wav",60
Sample,77107,0,"Hat Open.wav",60
Sample,80184,0,"Hat Open.wav",60
Sample,80800,0,"Hat Open.wav",60
Sample,81107,0,"Hat Open.wav",60
Sample,81415,0,"Hat Open.wav",60
Sample,82030,0,"Hat Open.wav",60
Sample,82338,0,"Hat Open.wav",60
Sample,83261,0,"Hat Open.wav",60
Sample,83569,0,"Hat Open.wav",60
Sample,83877,0,"Hat Open.wav",60
Sample,84184,0,"Hat Open.wav",60
Sample,84492,0,"Hat Open.wav",60
Sample,85107,0,"Hat Open.wav",60
Sample,85723,0,"Hat Open.wav",60
Sample,86030,0,"Hat Open.wav",60
Sample,86338,0,"Hat Open.wav",60
Sample,86953,0,"Hat Open.wav",60
Sample,87877,0,"Tom2.wav",40
Sample,88953,0,"Hat Open.wav",60

[TimingPoints]
-123,307.692307692308,4,2,1,50,1,0
60184,-100,4,2,1,50,0,1
79877,-100,4,2,1,50,0,0

[HitObjects]
192,192,492,5,0,0:0:0:0:
320,192,800,1,0,0:0:0:0:
448,192,1107,128,0,1723:0:0:0:0:
192,192,1415,1,0,0:0:0:0:
64,192,1723,128,0,2338:0:0:0:0:
320,192,2030,1,0,0:0:0:0:
192,192,2338,128,0,2953:0:0:0:0:
448,192,2646,1,0,0:0:0:0:
320,192,2953,128,0,3569:0:0:0:0:
64,192,3261,1,0,0:0:0:0:
192,192,3569,128,0,4184:0:0:0:0:
320,192,3877,1,0,0:0:0:0:
448,192,4184,128,0,4800:0:0:0:0:
192,192,4492,1,0,0:0:0:0:
64,192,4800,128,0,5415:0:0:0:0:
448,192,5107,1,0,0:0:0:0:
320,192,5415,128,0,6030:0:0:0:0:
64,192,5723,1,0,0:0:0:0:
192,192,6030,128,0,6646:0:0:0:0:
320,192,6338,1,0,0:0:0:0:
448,192,6646,128,0,7261:0:0:0:25:Snare.wav
192,192,6953,1,0,0:0:0:0:
64,192,7261,128,0,7877:0:0:0:0:
448,192,7569,1,0,0:0:0:0:
192,192,7877,128,0,8492:0:0:0:35:Snare.wav
320,192,8184,1,0,0:0:0:0:
448,192,8492,128,0,9107:0:0:0:0:
64,192,8800,1,0,0:0:0:0:
320,192,9107,128,0,9723:0:0:0:35:Snare.wav
192,192,9415,1,0,0:0:0:0:
64,192,9723,1,0,0:0:0:40:Snare.wav
192,192,9877,1,0,0:0:0:40:Snare.wav
448,192,10030,1,0,0:0:0:40:Snare.wav
320,192,10184,1,0,0:0:0:40:Snare.wav
64,192,10338,128,8,10953:0:0:0:0:
192,192,10953,1,2,0:0:0:0:
448,192,10953,1,4,0:0:0:0:
320,192,11261,1,8,0:0:0:0:
64,192,11415,1,2,0:0:0:0:
192,192,11723,1,2,0:0:0:0:
448,192,11877,1,8,0:0:0:0:
64,192,12184,1,2,0:0:0:0:
320,192,12492,1,8,0:0:0:0:
192,192,12646,1,2,0:0:0:0:
448,192,12953,1,2,0:0:0:0:
64,192,13107,128,8,13415:0:0:0:0:
448,192,13415,128,2,13877:0:0:0:0:
320,192,13877,128,2,14338:0:0:0:0:
192,192,14338,128,8,14646:0:0:0:0:
64,192,14646,128,2,14953:0:0:0:0:
448,192,14953,1,8,0:0:0:0:
192,192,15261,1,2,0:0:0:0:
64,192,15415,1,2,0:0:0:0:
320,192,15569,1,8,0:0:0:0:
64,192,15877,1,4,0:0:0:0:
192,192,15877,1,2,0:0:0:0:
448,192,16184,1,8,0:0:0:0:
320,192,16338,1,2,0:0:0:0:
64,192,16646,1,2,0:0:0:0:
192,192,16800,1,8,0:0:0:0:
448,192,17107,128,2,17415:0:0:0:0:
320,192,17415,1,8,0:0:0:0:
64,192,17569,128,2,17877:0:0:0:0:
192,192,17877,1,2,0:0:0:0:
320,192,18030,128,8,18338:0:0:0:0:
64,192,18338,1,8,0:0:0:0:
448,192,18338,1,4,0:0:0:0:
192,192,18800,1,12,0:0:0:0:
320,192,18953,1,8,0:0:0:0:
64,192,19261,1,8,0:0:0:0:
448,192,19261,1,4,0:0:0:0:
320,192,19723,1,8,0:0:0:0:
192,192,19877,1,8,0:0:0:0:
320,192,20030,1,2,0:0:0:0:
64,192,20338,1,2,0:0:0:0:
448,192,20492,128,8,20800:0:0:0:0:
192,192,20800,1,0,0:0:0:40:Hat Close.wav
320,192,21107,1,0,0:0:0:40:Hat Close.wav
64,192,21415,1,0,0:0:0:40:Hat Close.wav
448,192,21723,128,0,22030:0:0:0:40:Hat Close.wav
320,192,22030,1,0,0:0:0:40:Hat Close.wav
192,192,22338,1,0,0:0:0:40:Hat Close.wav
64,192,22646,1,0,0:0:0:40:Hat Close.wav
320,192,22953,128,0,23261:0:0:0:40:Hat Close.wav
192,192,23261,1,0,0:0:0:40:Hat Close.wav
64,192,23569,1,0,0:0:0:40:Hat Close.wav
448,192,23877,1,0,0:0:0:40:Hat Close.wav
192,192,24184,128,0,24492:0:0:0:40:Hat Close.wav
64,192,24492,1,0,0:0:0:40:Hat Close.wav
448,192,24800,1,0,0:0:0:40:Hat Close.wav
320,192,25107,1,0,0:0:0:40:Hat Close.wav
64,192,25415,128,0,25723:0:0:0:40:Hat Close.wav
448,192,25723,1,0,0:0:0:40:Hat Close.wav
320,192,26030,1,0,0:0:0:40:Hat Close.wav
64,192,26338,1,0,0:0:0:40:Hat Close.wav
192,192,26646,1,0,0:0:0:40:Hat Close.wav
448,192,26953,128,0,27261:0:0:0:40:Hat Close.wav
320,192,27261,1,0,0:0:0:40:Hat Close.wav
192,192,27569,1,0,0:0:0:40:Hat Close.wav
320,192,27877,1,0,0:0:0:40:Hat Close.wav
64,192,28184,128,0,28492:0:0:0:40:Hat Close.wav
192,192,28492,1,0,0:0:0:40:Hat Close.wav
448,192,28800,1,0,0:0:0:40:Hat Close.wav
320,192,29107,1,0,0:0:0:40:Hat Close.wav
64,192,29415,1,0,0:0:0:40:Hat Close.wav
192,192,29723,1,0,0:0:0:40:Hat Close.wav
320,192,30030,1,0,0:0:0:40:Hat Close.wav
448,192,30338,128,0,30646:0:0:0:40:Hat Close.wav
64,192,30646,1,2,0:0:0:0:
192,192,30646,1,4,0:0:0:0:
320,192,30953,1,0,0:0:0:40:Hat Close.wav
448,192,31261,1,0,0:0:0:40:Hat Close.wav
64,192,31569,128,0,31877:0:0:0:40:Hat Close.wav
192,192,31877,1,0,0:0:0:40:Hat Close.wav
448,192,32184,1,0,0:0:0:40:Hat Close.wav
320,192,32492,1,0,0:0:0:40:Hat Close.wav
64,192,32800,1,0,0:0:0:40:Hat Close.wav
320,192,32953,1,2,0:0:0:0:
192,192,33107,1,2,0:0:0:0:
448,192,33415,1,0,0:0:0:40:Hat Close.wav
64,192,33723,1,0,0:0:0:40:Hat Close.wav
320,192,34030,128,0,34338:0:0:0:40:Hat Close.wav
192,192,34338,1,0,0:0:0:40:Hat Close.wav
320,192,34646,1,0,0:0:0:40:Hat Close.wav
448,192,34953,1,0,0:0:0:40:Hat Close.wav
64,192,35261,128,0,35569:0:0:0:40:Hat Close.wav
320,192,35569,128,2,35877:0:0:0:0:
192,192,35877,1,0,0:0:0:40:Hat Close.wav
448,192,36184,1,0,0:0:0:40:Hat Close.wav
64,192,36492,1,0,0:0:0:40:Hat Close.wav
192,192,36800,128,0,37107:0:0:0:40:Hat Close.wav
320,192,37107,1,0,0:0:0:40:Hat Close.wav
448,192,37415,1,0,0:0:0:40:Hat Close.wav
192,192,37723,1,0,0:0:0:40:Hat Close.wav
320,192,37877,1,2,0:0:0:0:
64,192,38030,128,2,38338:0:0:0:0:
192,192,38338,1,0,0:0:0:40:Hat Close.wav
448,192,38646,1,0,0:0:0:40:Hat Close.wav
320,192,38953,1,0,0:0:0:40:Hat Close.wav
192,192,39107,1,0,0:0:0:0:
320,192,39261,1,0,0:0:0:0:
64,192,39569,1,0,0:0:0:30:Snare2.wav
448,192,39877,128,0,40184:0:0:0:0:
64,192,40184,128,0,40492:0:0:0:0:
192,192,40492,1,2,0:0:0:0:
320,192,40492,1,4,0:0:0:0:
448,192,40800,1,0,0:0:0:30:Snare2.wav
320,192,40953,128,0,41261:0:0:0:60:Hat Close.wav
192,192,41261,128,2,41569:0:0:0:0:
64,192,41569,128,0,41877:0:0:0:30:Snare2.wav
320,192,41877,1,2,0:0:0:0:
448,192,42030,1,0,0:0:0:30:Snare2.wav
192,192,42338,128,0,42646:0:0:0:60:Hat Close.wav
320,192,42646,128,0,42953:0:0:0:30:Snare2.wav
64,192,42953,1,6,0:0:0:0:
448,192,43261,1,0,0:0:0:30:Snare2.wav
192,192,43415,128,0,43723:0:0:0:60:Hat Close.wav
320,192,43723,128,2,44030:0:0:0:0:
448,192,44030,128,0,44338:0:0:0:30:Snare2.wav
64,192,44338,1,2,0:0:0:0:
192,192,44492,1,0,0:0:0:30:Snare2.wav
448,192,44800,1,2,0:0:0:0:
320,192,44953,1,0,0:0:0:30:Snare2.wav
192,192,45107,1,0,0:0:0:30:Snare2.wav
64,192,45415,1,6,0:0:0:0:
320,192,45723,1,0,0:0:0:30:Snare2.wav
192,192,45877,128,0,46184:0:0:0:60:Hat Close.wav
64,192,46184,128,2,46492:0:0:0:0:
448,192,46492,128,0,46800:0:0:0:30:Snare2.wav
192,192,46800,1,2,0:0:0:0:
320,192,46953,128,0,47261:0:0:0:30:Snare2.wav
192,192,47261,128,0,47569:0:0:0:60:Hat Close.wav
64,192,47569,128,0,47877:0:0:0:60:Hat Close.wav
448,192,47877,128,0,48338:0:0:0:30:Snare2.wav
192,192,48338,128,0,48800:0:0:0:30:Snare2.wav
448,192,48800,1,0,0:0:0:30:Snare2.wav
64,192,49107,1,0,0:0:0:60:Hat Close.wav
448,192,49261,1,0,0:0:0:30:Snare2.wav
192,192,49415,1,0,0:0:0:40:Snare.wav
64,192,49723,128,0,50030:0:0:0:40:Snare.wav
448,192,50030,128,0,50338:0:0:0:60:Hat Close.wav
192,192,50338,1,2,0:0:0:0:
320,192,50338,1,4,0:0:0:0:
64,192,50646,1,0,0:0:0:30:Snare2.wav
192,192,50800,128,0,51107:0:0:0:60:Hat Close.wav
320,192,51107,128,2,51415:0:0:0:0:
448,192,51415,128,0,51723:0:0:0:30:Snare2.wav
192,192,51723,1,2,0:0:0:0:
64,192,51877,1,0,0:0:0:30:Snare2.wav
320,192,52184,128,0,52492:0:0:0:60:Hat Close.wav
192,192,52492,128,0,52800:0:0:0:60:Hat Close.wav
64,192,52800,128,6,53107:0:0:0:0:
448,192,53107,1,0,0:0:0:30:Snare2.wav
320,192,53261,128,0,53569:0:0:0:60:Hat Close.wav
64,192,53569,1,2,0:0:0:0:
192,192,53723,128,0,54030:0:0:0:60:Hat Close.wav
448,192,54030,128,0,54338:0:0:0:60:Hat Close.wav
320,192,54338,1,0,0:0:0:30:Snare2.wav
64,192,54492,128,0,54800:0:0:0:15:Snare2.wav
320,192,54800,1,2,0:0:0:0:
192,192,54953,128,0,55261:0:0:0:30:Snare2.wav
448,192,55261,128,6,55569:0:0:0:0:
64,192,55569,1,0,0:0:0:30:Snare2.wav
192,192,55723,1,2,0:0:0:0:
448,192,56030,1,0,0:0:0:30:Snare2.wav
320,192,56184,128,0,56492:0:0:0:60:Hat Close.wav
64,192,56492,128,0,56800:0:0:0:60:Hat Close.wav
192,192,56800,1,0,0:0:0:30:Snare2.wav
448,192,56953,1,0,0:0:0:30:Snare2.wav
320,192,57261,1,0,0:0:0:30:Snare2.wav
192,192,57415,128,0,57723:0:0:0:60:Hat Close.wav
448,192,57723,128,2,58953:0:0:0:0:
64,192,58953,128,0,59569:0:0:0:0:
320,192,59569,128,0,60184:0:0:0:0:
192,192,60184,128,2,60492:0:0:0:0:
448,192,60184,1,4,0:0:0:0:
320,192,60492,1,8,0:0:0:0:
64,192,60800,1,2,0:0:0:0:
192,192,60953,1,2,0:0:0:0:
320,192,61107,1,8,0:0:0:0:
448,192,61261,1,2,0:0:0:0:
64,192,61569,1,2,0:0:0:0:
192,192,61723,1,8,0:0:0:0:
448,192,62030,1,2,0:0:0:0:
320,192,62184,1,2,0:0:0:0:
192,192,62338,1,8,0:0:0:0:
448,192,62646,1,2,0:0:0:0:
320,192,62953,1,8,0:0:0:0:
64,192,63261,1,2,0:0:0:0:
448,192,63415,1,2,0:0:0:0:
192,192,63569,1,8,0:0:0:0:
64,192,63723,1,2,0:0:0:0:
320,192,64030,1,2,0:0:0:0:
448,192,64184,1,8,0:0:0:0:
192,192,64492,1,2,0:0:0:0:
320,192,64646,1,2,0:0:0:0:
448,192,64800,1,8,0:0:0:0:
64,192,65107,128,2,65415:0:0:0:0:
192,192,65107,1,4,0:0:0:0:
320,192,65415,1,8,0:0:0:0:
448,192,65723,1,2,0:0:0:0:
192,192,65877,1,2,0:0:0:0:
64,192,66030,1,8,0:0:0:0:
320,192,66184,1,2,0:0:0:0:
192,192,66492,1,2,0:0:0:0:
448,192,66646,1,8,0:0:0:0:
64,192,66953,1,2,0:0:0:0:
320,192,67107,1,2,0:0:0:0:
192,192,67261,1,8,0:0:0:0:
64,192,67569,1,2,0:0:0:0:
448,192,67877,1,8,0:0:0:0:
192,192,68184,1,2,0:0:0:0:
320,192,68338,1,2,0:0:0:0:
448,192,68492,1,8,0:0:0:0:
64,192,68646,1,2,0:0:0:0:
320,192,68953,1,2,0:0:0:0:
448,192,69107,1,8,0:0:0:0:
192,192,69261,1,2,0:0:0:0:
320,192,69415,128,6,69723:0:0:0:0:
192,192,69723,128,12,70030:0:0:0:0:
64,192,70030,128,4,70338:0:0:0:0:
448,192,70030,1,2,0:0:0:0:
192,192,70338,1,8,0:0:0:0:
448,192,70646,1,2,0:0:0:0:
320,192,70800,1,2,0:0:0:0:
192,192,70953,1,8,0:0:0:0:
64,192,71107,1,2,0:0:0:0:
448,192,71415,1,2,0:0:0:0:
320,192,71569,1,8,0:0:0:0:
64,192,71877,1,2,0:0:0:0:
192,192,72030,1,2,0:0:0:0:
320,192,72184,1,8,0:0:0:0:
448,192,72492,128,2,72800:0:0:0:0:
192,192,72800,1,8,0:0:0:0:
448,192,73107,1,2,0:0:0:0:
64,192,73261,1,2,0:0:0:0:
320,192,73415,1,8,0:0:0:0:
448,192,73569,1,2,0:0:0:0:
192,192,73877,1,2,0:0:0:0:
64,192,74030,1,8,0:0:0:0:
448,192,74338,1,2,0:0:0:0:
192,192,74492,1,2,0:0:0:0:
320,192,74646,1,8,0:0:0:0:
192,192,74953,1,2,0:0:0:0:
448,192,74953,128,4,75569:0:0:0:0:
64,192,75261,1,8,0:0:0:0:
320,192,75569,128,2,76184:0:0:0:0:
192,192,75877,1,8,0:0:0:0:
64,192,76184,128,0,76800:0:0:0:60:Hat Open.wav
448,192,76492,1,8,0:0:0:0:
192,192,76800,1,2,0:0:0:0:
320,192,76953,1,2,0:0:0:0:
448,192,77107,1,8,0:0:0:0:
64,192,77415,1,4,0:0:0:0:
192,192,77415,1,8,0:0:0:0:
448,192,77569,1,2,0:0:0:0:
192,192,77877,1,8,0:0:0:0:
320,192,77877,1,4,0:0:0:0:
64,192,78030,1,8,0:0:0:0:
192,192,78338,1,4,0:0:0:0:
448,192,78338,1,8,0:0:0:0:
320,192,78492,1,2,0:0:0:0:
64,192,78800,1,8,0:0:0:0:
192,192,78800,1,4,0:0:0:0:
448,192,78953,1,8,0:0:0:0:
192,192,79261,1,8,0:0:0:0:
320,192,79261,128,4,79877:0:0:0:0:
64,192,79877,1,2,0:0:0:0:
192,192,79877,1,4,0:0:0:0:
448,192,80184,1,8,0:0:0:0:
192,192,80338,1,2,0:0:0:0:
64,192,80646,1,2,0:0:0:0:
320,192,80800,1,8,0:0:0:0:
192,192,81107,1,2,0:0:0:0:
448,192,81415,1,8,0:0:0:0:
320,192,81569,1,2,0:0:0:0:
192,192,81877,1,2,0:0:0:0:
448,192,82030,128,8,82338:0:0:0:0:
64,192,82338,128,2,82800:0:0:0:0:
192,192,82800,128,2,83261:0:0:0:0:
320,192,83261,128,8,83569:0:0:0:0:
448,192,83569,128,2,83877:0:0:0:0:
64,192,83877,1,8,0:0:0:0:
320,192,84184,1,2,0:0:0:0:
448,192,84338,1,2,0:0:0:0:
192,192,84492,1,8,0:0:0:0:
64,192,84800,1,2,0:0:0:0:
448,192,84800,1,4,0:0:0:0:
192,192,85107,1,8,0:0:0:0:
320,192,85261,1,2,0:0:0:0:
448,192,85569,1,2,0:0:0:0:
320,192,85723,128,8,86030:0:0:0:0:
64,192,86030,128,2,86338:0:0:0:0:
192,192,86338,1,8,0:0:0:0:
448,192,86492,128,2,86800:0:0:0:0:
320,192,86800,1,2,0:0:0:0:
192,192,86953,128,8,87261:0:0:0:0:
64,192,87261,1,8,0:0:0:0:
320,192,87261,1,4,0:0:0:0:
320,192,87723,1,12,0:0:0:0:
192,192,87877,1,8,0:0:0:0:
64,192,88184,1,8,0:0:0:0:
448,192,88184,1,4,0:0:0:0:
64,192,88646,1,8,0:0:0:0:
320,192,88800,1,8,0:0:0:0:
192,192,88953,1,2,0:0:0:0:
448,192,89261,1,2,0:0:0:0:
64,192,89415,128,8,89723:0:0:0:0:
320,192,89415,1,4,0:0:0:0:
