osu file format v14

[General]
AudioFilename: dreamcatcher.mp3
AudioLeadIn: 0
PreviewTime: 48181
Countdown: 0
SampleSet: Soft
StackLeniency: 0.5
Mode: 0
LetterboxInBreaks: 0
WidescreenStoryboard: 1

[Editor]
Bookmarks: 9850,19450,29050,38650,47050,48250,67450,72250,81850,91450,101050,109450,110650,129850,139450,149050,158650,168250,177850,187450
DistanceSpacing: 1
BeatDivisor: 4
GridSize: 4
TimelineZoom: 0.9

[Metadata]
Title:Chase Me
TitleUnicode:Chase Me
Artist:Dreamcatcher
ArtistUnicode:드림캐쳐
Creator:Natsu
Version:Normal
Source:
Tags:minx rock krock k-rock poprock kpop k-pop 지유 수아 시연 한동 유현 다미 가현 Ji-U Su-A SiYeon Handong YooHyun DaMi Gahyeon Happy Face Entertainment pan p_a_n rock
BeatmapID:1261790
BeatmapSetID:586144

[Difficulty]
HPDrainRate:4
CircleSize:3
OverallDifficulty:4
ApproachRate:5.5
SliderMultiplier:1.1
SliderTickRate:1

[Events]
//Background and Video events
0,0,"-dreamcatcher wallpapers for desktop Dreamcatcher wallpapers HD.jpg",0,0
Video,256,"Chase+Me.mp4"
//Break Periods
2,67656,71056
2,159156,165856
//Storyboard Layer 0 (Background)
//Storyboard Layer 1 (Fail)
//Storyboard Layer 2 (Pass)
//Storyboard Layer 3 (Foreground)
//Storyboard Sound Samples

[TimingPoints]
256,300,4,2,1,10,1,0
3556,-100,4,2,1,10,0,0
4156,-100,4,2,1,5,0,0
4456,-100,4,2,1,10,0,0
5806,-100,4,2,1,5,0,0
5956,-100,4,2,1,10,0,0
7306,-100,4,2,1,5,0,0
7456,-100,4,2,1,10,0,0
9856,-100,4,2,1,35,0,0
14956,-100,4,2,1,45,0,0
17056,-100,4,2,1,30,0,0
18856,-100,4,2,1,50,0,0
19756,-100,4,2,1,35,0,0
20656,-100,4,2,1,50,0,0
20956,-100,4,2,1,20,0,0
21256,-100,4,2,1,35,0,0
24856,-100,4,2,1,50,0,0
26056,-100,4,2,1,35,0,0
27856,-100,4,2,1,45,0,0
29056,-100,4,2,1,50,0,0
29356,-100,4,2,1,40,0,0
31456,-100,4,2,1,50,0,0
31906,-100,4,2,1,40,0,0
33856,-100,4,2,1,50,0,0
34306,-100,4,2,1,40,0,0
38356,-100,4,2,1,50,0,0
38656,-100,4,2,1,40,0,0
43456,-100,4,2,1,50,0,0
45856,-100,4,2,1,40,0,0
48256,-100,4,2,1,50,0,1
57781,-100,4,2,1,50,0,0
57856,-100,4,2,1,50,0,1
67456,-100,4,2,1,40,0,0
72256,-100,4,2,1,35,0,0
80656,-100,4,2,1,40,0,0
81256,-100,4,2,1,50,0,0
82156,-100,4,2,1,40,0,0
88756,-100,4,2,1,45,0,0
90256,-100,4,2,1,40,0,0
90556,-100,4,2,1,45,0,0
90856,-100,4,2,1,50,0,0
91156,-100,4,2,1,55,0,0
91456,-100,4,2,1,50,0,0
92056,-100,4,2,1,40,0,0
93856,-100,4,2,1,50,0,0
94306,-100,4,2,1,40,0,0
96256,-100,4,2,1,50,0,0
96706,-100,4,2,1,40,0,0
100456,-100,4,2,1,50,0,0
101056,-100,4,2,1,40,0,0
105856,-100,4,2,1,50,0,0
109456,-100,4,2,1,40,0,0
110656,-100,4,2,1,50,0,1
120181,-100,4,2,1,50,0,0
120256,-100,4,2,1,50,0,1
129856,-100,4,2,1,40,0,0
147706,-100,4,2,1,50,0,0
149056,-100,4,2,1,40,0,0
153856,-100,4,2,1,50,0,0
156406,-100,4,2,1,25,0,0
156706,-100,4,2,1,5,0,0
156856,-100,4,2,1,25,0,0
157606,-100,4,2,1,5,0,0
157756,-100,4,2,1,25,0,0
158356,-100,4,2,1,5,0,0
158656,-100,4,2,1,40,0,0
158956,-100,4,2,1,30,0,0
167056,-100,4,2,1,40,0,0
168256,-100,4,2,1,40,0,1
168331,-100,4,2,1,50,0,0
169006,-100,4,2,1,40,0,0
169306,-100,4,2,1,50,0,1
177856,-100,4,2,1,40,0,0
186331,-100,4,2,1,5,0,0

[Colours]
Combo1 : 255,9,101
Combo2 : 223,174,255
Combo3 : 255,223,251
Combo4 : 174,53,255
Combo5 : 255,102,255
Combo6 : 121,0,202
SliderBorder : 177,62,255
SliderTrackOverride : 30,30,30

[HitObjects]
32,31,256,6,0,P|10:81|30:131,1,110,6|2,0:0|0:0,0:0:0:0:
80,156,706,2,0,L|208:156,2,110,2|2|2,0:0|0:0|0:0,0:0:0:0:
276,352,2056,2,0,L|392:352,1,110,2|2,0:0|0:0,0:0:0:0:
452,264,2656,6,0,P|431:214|451:164,1,110,6|2,0:0|0:0,0:0:0:0:
488,124,3106,2,0,L|304:124,1,165,2|2,0:0|0:0,0:0:0:0:
232,64,3856,2,0,B|172:168|272:168|228:276,1,220,6|2,0:0|0:0,0:0:0:0:
35,167,5056,70,0,P|19:116|35:64,1,110,6|2,0:0|0:0,0:0:0:0:
84,40,5506,2,0,L|264:40,1,165,2|2,0:0|0:0,0:0:0:0:
408,192,6556,2,0,P|424:243|408:295,1,110,2|2,0:0|0:0,0:0:0:0:
359,319,7006,2,0,L|179:319,1,165,2|6,0:0|0:0,0:0:0:0:
32,368,9856,6,0,L|24:200,1,165,6|2,0:0|0:0,0:0:0:0:
16,92,10606,1,2,0:0:0:0:
112,148,10906,2,0,P|182:184|254:148,1,165,2|0,0:0|0:0,0:0:0:0:
348,88,11656,2,0,L|348:216,2,110,6|6|2,0:0|0:0|0:0,0:0:0:0:
452,52,12556,70,0,L|452:236,1,165,0|2,0:0|0:0,0:0:0:0:
400,312,13306,2,0,P|324:282|250:312,1,165,2|0,0:0|0:0,0:0:0:0:
156,372,14056,1,2,0:0:0:0:
104,276,14356,6,0,L|80:224,2,55,2|0|6,0:0|0:0|0:0,0:0:0:0:
176,192,14956,2,0,L|200:140,2,55,2|2|0,0:0|0:0|0:0,0:0:0:0:
104,108,15556,2,0,L|80:56,2,55,0|2|0,0:0|0:0|0:0,0:0:0:0:
80,216,16156,2,0,P|100:272|68:332,2,110,0|2|2,0:0|0:0|0:0,0:0:0:0:
184,252,17056,38,0,L|300:252,1,110,6|8,0:0|3:0,0:0:0:0:
348,252,17506,2,0,P|326:202|343:152,1,110,2|8,0:0|3:0,0:0:0:0:
388,120,17956,1,4,3:0:0:0:
284,88,18256,2,0,L|172:88,1,110,10|2,3:0|0:0,0:0:0:0:
68,124,18856,6,0,P|34:86|67:48,2,110,4|8|4,3:0|3:0|3:0,0:0:0:0:
156,192,19756,6,0,L|224:192,1,55,0|2,0:0|1:0,0:0:0:0:
264,192,20056,2,0,P|232:272|280:344,1,165,0|2,1:0|1:0,0:0:0:0:
316,360,20656,2,0,L|440:360,1,110,2|0,0:0|0:0,0:0:0:0:
496,272,21256,2,0,P|513:224|492:168,2,110,2|2|2,1:0|0:0|1:0,0:0:0:0:
396,228,22156,6,0,L|332:228,1,55,0|0,0:0|1:0,0:0:0:0:
288,228,22456,2,0,P|324:144|276:88,1,165,0|0,1:0|1:0,0:0:0:0:
232,84,23056,2,0,L|116:84,1,110,2|0,0:0|1:0,0:0:0:0:
28,140,23656,70,0,L|48:260,1,110,8|2,0:0|0:0,0:0:0:0:
72,356,24256,1,0,1:0:0:0:
268,252,24856,2,0,L|248:132,1,110,8|2,0:0|0:0,0:0:0:0:
224,36,25456,1,2,0:0:0:0:
440,84,26056,6,0,L|468:200,1,110,8|0,0:0|0:0,0:0:0:0:
404,280,26656,2,0,L|376:168,1,110,2|2,1:0|0:0,0:0:0:0:
280,120,27256,2,0,L|304:236,1,110,8|0,0:0|0:0,0:0:0:0:
256,328,27856,38,0,B|168:296|168:364|92:324,1,165,8|8,3:0|3:0,0:0:0:0:
56,288,28456,2,0,L|48:232,1,55,12|8,1:0|0:0,0:0:0:0:
96,208,28756,2,0,L|88:140,1,55,8|8,0:0|0:0,0:0:0:0:
80,100,29056,2,0,P|132:116|188:92,1,110,4|0,3:0|1:0,0:0:0:0:
280,48,29656,69,0,1:0:0:0:
388,68,29956,1,0,1:0:0:0:
308,144,30256,2,0,P|288:192|308:252,1,110,6|0,3:1|1:0,0:0:0:0:
383,169,30856,2,0,P|403:121|383:61,1,110,0|0,1:0|1:0,0:0:0:0:
284,28,31456,1,6,1:0:0:0:
140,192,32056,69,0,1:0:0:0:
80,100,32356,1,0,1:0:0:0:
188,112,32656,2,0,L|308:112,1,110,6|0,1:0|1:0,0:0:0:0:
348,208,33256,2,0,L|238:208,1,110,0|0,1:0|1:0,0:0:0:0:
128,208,33856,1,6,1:0:0:0:
256,28,34456,5,0,1:0:0:0:
356,76,34756,1,0,1:0:0:0:
264,135,35056,2,0,P|247:186|266:237,1,110,6|0,1:0|1:0,0:0:0:0:
364,292,35656,2,0,P|380:240|361:189,1,110,0|0,1:0|1:0,0:0:0:0:
264,135,36256,2,0,L|148:128,1,110,6|0,1:0|1:0,0:0:0:0:
100,224,36856,2,0,L|209:230,1,110,0|0,1:0|1:0,0:0:0:0:
320,232,37456,6,0,L|352:176,1,55,12|8,3:0|3:0,0:0:0:0:
376,136,37756,2,0,L|336:84,1,55,8|8,3:0|3:0,0:0:0:0:
304,51,38056,6,0,P|253:71|202:56,1,110,12|4,1:0|3:0,0:0:0:0:
96,28,38656,1,6,1:0:0:0:
96,28,38806,2,0,L|96:152,1,110,0|0,1:0|1:0,0:0:0:0:
92,192,39256,37,8,1:0:0:0:
196,160,39556,1,2,0:0:0:0:
147,260,39856,2,0,P|127:309|142:361,1,110,6|0,1:0|0:0,0:0:0:0:
244,316,40456,1,8,1:0:0:0:
352,300,40756,1,2,0:0:0:0:
452,344,41056,2,0,P|467:292|446:242,1,110,6|0,1:0|0:0,0:0:0:0:
356,180,41656,6,0,L|232:168,1,110,14|10,1:0|3:0,0:0:0:0:
144,124,42256,2,0,L|164:256,1,110,10|10,3:0|3:0,0:0:0:0:
213,338,42856,2,0,L|104:328,1,110,10|10,3:0|3:0,0:0:0:0:
48,232,43456,6,0,L|40:168,2,55,12|8|8,3:0|3:0|3:0,0:0:0:0:
140,176,44056,2,0,L|132:116,2,55,8|8|8,3:0|3:0|3:0,0:0:0:0:
164,284,44656,2,0,P|216:270|269:283,1,110,12|8,3:0|3:0,0:0:0:0:
372,320,45256,2,0,L|372:388,2,55,8|8|8,3:0|3:0|3:0,0:0:0:0:
368,212,45856,1,14,3:0:0:0:
492,24,47056,6,0,L|488:136,1,110,14|0,1:0|1:0,0:0:0:0:
488,188,47506,1,8,1:0:0:0:
488,188,47656,2,0,P|427:174|378:188,1,110,0|8,1:0|1:0,0:0:0:0:
284,240,48256,69,6,1:0:0:0:
180,200,48556,2,0,L|160:84,1,110,8|0,1:0|1:0,0:0:0:0:
148,36,49006,2,0,P|113:44|88:36,2,55,2|8|6,1:0|1:0|1:0,0:0:0:0:
256,32,49606,2,0,L|324:32,1,55,2|8,1:0|1:0,0:0:0:0:
364,36,49906,2,0,P|344:88|372:136,1,110,6|2,1:0|1:0,0:0:0:0:
408,172,50356,1,8,1:0:0:0:
344,260,50656,6,0,L|224:260,1,110,4|8,1:0|1:0,0:0:0:0:
124,268,51256,2,0,P|132:300|124:332,2,55,8|2|8,1:0|1:0|1:0,0:0:0:0:
80,236,51706,1,6,1:0:0:0:
12,148,52006,2,0,P|3:115|12:80,1,55,2|8,1:0|1:0,0:0:0:0:
60,80,52306,2,0,L|170:80,1,110,2|0,1:0|1:0,0:0:0:0:
180,136,52756,2,0,B|296:136,1,110,8|6,1:0|1:0,0:0:0:0:
384,80,53356,69,8,1:0:0:0:
471,143,53656,2,0,P|491:194|477:246,1,110,0|8,1:0|1:0,0:0:0:0:
432,280,54106,2,0,B|344:244|344:316|268:276,1,165,6|8,1:0|1:0,0:0:0:0:
224,256,54706,1,6,1:0:0:0:
164,164,55006,2,0,L|164:104,1,55,2|8,1:0|1:0,0:0:0:0:
256,48,55456,5,6,1:0:0:0:
356,92,55756,2,0,P|407:74|468:96,2,110,8|0|8,1:0|1:0|1:0,0:0:0:0:
324,136,56506,1,6,1:0:0:0:
248,216,56806,1,2,1:0:0:0:
248,216,56956,2,0,P|196:233|136:212,2,110,8|0|8,1:0|0:0|1:0,0:0:0:0:
324,136,57856,69,6,1:0:0:0:
424,92,58156,2,0,P|438:144|418:194,1,110,12|0,1:0|1:0,0:0:0:0:
380,232,58606,2,0,L|380:300,2,55,2|8|6,1:0|1:0|1:0,0:0:0:0:
324,136,59206,2,0,L|324:68,2,55,2|8|6,1:0|1:0|1:0,0:0:0:0:
268,232,59806,2,0,L|268:300,1,55,2|8,1:0|1:0,0:0:0:0:
176,348,60256,6,0,P|120:332|72:352,1,110,6|8,1:0|1:0,0:0:0:0:
32,248,60856,2,0,L|8:176,2,55,8|2|8,1:0|1:0|1:0,0:0:0:0:
88,256,61306,1,6,1:0:0:0:
188,212,61606,2,0,P|224:204|252:212,1,55,2|8,1:0|1:0,0:0:0:0:
336,264,62056,2,0,L|336:136,1,110,0|8,1:0|1:0,0:0:0:0:
332,44,62656,69,6,1:0:0:0:
244,111,62956,2,0,P|192:127|139:113,1,110,8|0,1:0|1:0,0:0:0:0:
60,36,63556,2,0,L|56:100,1,55,0|0,1:0|1:0,0:0:0:0:
52,144,63856,1,6,1:0:0:0:
48,252,64156,2,0,P|99:236|152:250,1,110,8|0,1:0|1:0,0:0:0:0:
232,328,64756,1,8,1:0:0:0:
256,220,65056,5,6,1:0:0:0:
340,292,65356,2,0,P|392:306|444:290,1,110,8|0,1:0|1:0,0:0:0:0:
496,196,65956,1,8,1:0:0:0:
496,196,66106,2,0,L|496:80,1,110,6|0,1:0|1:0,0:0:0:0:
496,32,66556,2,0,P|443:46|391:30,1,110,8|12,1:0|1:0,0:0:0:0:
284,36,67156,2,0,L|276:108,1,55,8|8,1:0|1:0,0:0:0:0:
268,144,67456,1,4,1:0:0:0:
32,368,72256,22,0,L|24:200,1,165,6|2,0:0|0:0,0:0:0:0:
19,91,73006,2,0,P|71:108|122:89,1,110,2|2,0:0|0:0,0:0:0:0:
168,56,73456,2,0,P|218:37|270:53,1,110,6|2,0:0|0:0,0:0:0:0:
324,148,74056,1,2,0:0:0:0:
256,236,74356,2,0,P|248:264|256:296,2,55,2|2|6,0:0|0:0|0:0,0:0:0:0:
324,148,74956,70,0,L|448:148,1,110,2|2,0:0|0:0,0:0:0:0:
400,252,75556,2,0,P|382:309|408:364,2,110,2|6|0,0:0|0:0|0:0,0:0:0:0:
508,228,76456,1,2,0:0:0:0:
434,148,76756,6,0,L|424:88,2,55,2|0|6,0:0|0:0|0:0,0:0:0:0:
324,140,77356,2,0,L|316:80,2,55,2|2|2,0:0|0:0|0:0,0:0:0:0:
216,132,77956,2,0,L|208:72,1,55,2|2,0:0|0:0,0:0:0:0:
156,56,78256,2,0,P|104:72|44:56,1,110,6|2,0:0|0:0,0:0:0:0:
28,168,78856,2,0,L|28:304,1,110,2|2,0:0|0:0,0:0:0:0:
100,360,79456,2,0,P|152:343|208:364,1,110,6|2,0:0|0:0,0:0:0:0:
256,264,80056,38,0,L|256:208,2,55,8|8|4,1:0|3:0|3:0,0:0:0:0:
308,360,80656,2,0,P|360:343|412:360,1,110,12|2,3:0|0:0,0:0:0:0:
484,276,81256,2,0,L|476:140,2,110,4|2|6,0:0|0:0|3:0,0:0:0:0:
380,244,82156,38,0,L|372:172,1,55,0|2,0:0|0:0,0:0:0:0:
364,136,82456,2,0,B|284:180|284:100|184:144,1,165,8|0,1:0|1:0,0:0:0:0:
164,176,83056,2,0,L|156:52,1,110,6|2,3:0|0:0,0:0:0:0:
56,32,83656,2,0,L|64:142,2,110,12|2|6,1:0|0:0|1:0,0:0:0:0:
156,66,84556,70,0,P|187:70|211:66,1,55,0|2,0:0|0:0,0:0:0:0:
256,32,84856,2,0,L|256:212,1,165,8|0,1:0|1:0,0:0:0:0:
256,252,85456,2,0,P|198:236|144:256,2,110,6|2|12,3:0|0:0|1:0,0:0:0:0:
352,308,86356,6,0,P|384:316|416:304,1,55,2|0,0:0|0:0,0:0:0:0:
456,288,86656,2,0,L|456:172,1,110,6|0,1:0|0:0,0:0:0:0:
372,108,87256,2,0,L|372:224,1,110,8|0,1:0|0:0,0:0:0:0:
288,288,87856,2,0,L|288:164,2,110,6|2|12,3:0|0:0|1:0,0:0:0:0:
188,332,88756,38,0,P|156:324|128:332,1,55,2|0,0:0|0:0,0:0:0:0:
84,348,89056,2,0,L|56:236,1,110,6|0,1:0|0:0,0:0:0:0:
28,136,89656,2,0,P|84:152|144:132,1,110,12|2,1:0|0:0,0:0:0:0:
232,96,90256,6,0,B|208:216,1,110,6|6,3:0|3:0,0:0:0:0:
188,312,90856,1,6,1:0:0:0:
292,276,91156,1,6,3:0:0:0:
388,328,91456,2,0,P|404:276|380:220,1,110,6|0,1:0|1:0,0:0:0:0:
296,160,92056,37,0,1:0:0:0:
192,124,92356,1,0,1:0:0:0:
96,67,92656,2,0,P|75:118|91:169,1,110,6|0,1:0|1:0,0:0:0:0:
187,225,93256,2,0,P|207:174|191:123,1,110,0|0,1:0|1:0,0:0:0:0:
188,12,93856,1,6,1:0:0:0:
392,96,94456,5,0,1:0:0:0:
296,152,94756,1,0,1:0:0:0:
392,208,95056,2,0,P|411:257|388:320,1,110,6|0,1:0|1:0,0:0:0:0:
284,304,95656,2,0,P|228:288|176:308,1,110,0|0,1:0|1:0,0:0:0:0:
92,372,96256,1,6,1:0:0:0:
28,160,96856,69,0,1:0:0:0:
60,264,97156,1,0,1:0:0:0:
120,172,97456,2,0,P|171:155|222:174,1,110,6|0,1:0|1:0,0:0:0:0:
320,124,98056,2,0,P|337:175|318:226,1,110,0|0,1:0|1:0,0:0:0:0:
368,324,98656,2,0,P|317:341|266:322,1,110,6|0,1:0|1:0,0:0:0:0:
168,372,99256,2,0,P|151:321|170:270,1,110,0|6,1:0|1:0,0:0:0:0:
248,192,99856,38,0,L|308:184,1,55,12|8,3:0|3:0,0:0:0:0:
340,228,100156,2,0,L|400:220,1,55,8|8,3:0|3:0,0:0:0:0:
448,216,100456,70,0,P|428:267|443:318,1,110,12|4,1:0|3:0,0:0:0:0:
344,364,101056,1,6,1:0:0:0:
344,364,101206,2,0,L|220:364,1,110,0|0,1:0|1:0,0:0:0:0:
180,364,101656,69,8,1:0:0:0:
244,276,101956,1,2,3:0:0:0:
136,264,102256,2,0,P|120:212|140:162,1,110,6|0,1:0|0:0,0:0:0:0:
216,80,102856,1,8,1:0:0:0:
304,144,103156,1,2,0:0:0:0:
316,36,103456,2,0,P|367:20|417:40,1,110,6|0,1:0|0:0,0:0:0:0:
468,140,104056,70,0,L|484:248,1,110,14|8,1:0|3:0,0:0:0:0:
392,308,104656,2,0,L|375:199,1,110,8|8,3:0|3:0,0:0:0:0:
268,172,105256,2,0,L|284:280,1,110,8|8,3:0|3:0,0:0:0:0:
196,348,105856,38,0,L|128:360,2,55,12|8|8,3:0|3:0|3:0,0:0:0:0:
124,268,106456,2,0,L|60:280,2,55,8|8|8,3:0|3:0|3:0,0:0:0:0:
232,244,107056,2,0,P|218:192|231:139,1,110,12|8,3:0|3:0,0:0:0:0:
332,96,107656,2,0,L|392:84,2,55,8|8|8,3:0|3:0|3:0,0:0:0:0:
244,28,108256,1,6,3:0:0:0:
32,256,109456,70,0,L|32:368,1,110,12|0,1:0|1:0,0:0:0:0:
88,364,109906,1,8,1:0:0:0:
88,364,110056,2,0,P|149:350|198:364,1,110,0|8,1:0|1:0,0:0:0:0:
304,372,110656,5,6,1:0:0:0:
236,284,110956,2,0,P|216:232|236:180,1,110,8|0,1:0|1:0,0:0:0:0:
268,140,111406,2,0,L|328:140,2,55,2|8|6,1:0|1:0|1:0,0:0:0:0:
184,72,112006,2,0,L|128:72,1,55,2|8,1:0|1:0,0:0:0:0:
76,72,112306,2,0,P|93:122|73:173,1,110,6|2,1:0|1:0,0:0:0:0:
32,208,112756,1,8,1:0:0:0:
106,288,113056,70,0,L|216:288,1,110,6|8,1:0|1:0,0:0:0:0:
256,184,113656,2,0,P|248:152|256:124,2,55,8|2|8,1:0|1:0|1:0,0:0:0:0:
300,220,114106,1,6,1:0:0:0:
376,140,114406,2,0,P|384:108|372:76,1,55,2|8,1:0|1:0,0:0:0:0:
344,44,114706,2,0,L|234:44,1,110,2|0,1:0|1:0,0:0:0:0:
188,76,115156,2,0,B|78:76,1,110,8|6,1:0|1:0,0:0:0:0:
12,164,115756,5,8,1:0:0:0:
104,228,116056,2,0,P|124:279|110:331,1,110,0|8,1:0|1:0,0:0:0:0:
164,348,116506,2,0,B|234:310|234:382|322:346,1,165,6|8,1:0|1:0,0:0:0:0:
372,324,117106,1,6,1:0:0:0:
300,240,117406,2,0,P|291:210|300:180,1,55,2|8,1:0|1:0,0:0:0:0:
356,92,117856,69,6,1:0:0:0:
248,112,118156,2,0,L|120:112,2,110,8|0|8,1:0|1:0|1:0,0:0:0:0:
276,64,118906,1,6,1:0:0:0:
316,164,119206,1,2,1:0:0:0:
316,164,119356,2,0,P|299:216|320:276,2,110,12|0|8,1:0|0:0|1:0,0:0:0:0:
388,80,120256,5,6,1:0:0:0:
276,64,120556,2,0,L|152:64,1,110,8|0,1:0|1:0,0:0:0:0:
112,64,121006,2,0,L|68:12,2,55,2|8|6,1:0|1:0|1:0,0:0:0:0:
92,172,121606,2,0,L|48:128,2,55,2|8|6,1:0|1:0|1:0,0:0:0:0:
48,272,122206,2,0,L|92:312,1,55,2|8,1:0|1:0,0:0:0:0:
184,360,122656,70,0,P|240:344|288:364,1,110,4|8,1:0|1:0,0:0:0:0:
388,320,123256,2,0,L|424:364,2,55,8|2|8,1:0|1:0|1:0,0:0:0:0:
352,280,123706,1,6,1:0:0:0:
244,260,124006,2,0,P|236:224|244:196,1,55,2|8,1:0|1:0,0:0:0:0:
328,140,124456,2,0,P|344:82|316:34,1,110,0|8,1:0|1:0,0:0:0:0:
212,28,125056,5,6,1:0:0:0:
160,124,125356,2,0,P|108:140|55:126,1,110,8|0,1:0|1:0,0:0:0:0:
104,28,125956,2,0,L|160:28,1,55,0|0,1:0|1:0,0:0:0:0:
212,28,126256,1,6,1:0:0:0:
296,100,126556,2,0,P|312:151|298:204,1,110,8|0,1:0|1:0,0:0:0:0:
212,276,127156,1,8,1:0:0:0:
196,168,127456,69,6,1:0:0:0:
297,204,127756,2,0,L|424:204,1,110,8|0,1:0|1:0,0:0:0:0:
472,292,128356,1,8,1:0:0:0:
472,292,128506,2,0,L|356:292,1,110,6|2,1:0|1:0,0:0:0:0:
324,332,128956,2,0,P|271:346|219:330,1,110,8|12,1:0|1:0,0:0:0:0:
140,252,129556,2,0,L|148:180,1,55,8|8,1:0|1:0,0:0:0:0:
92,184,129856,2,0,L|100:112,1,55,6|0,1:0|0:0,0:0:0:0:
188,64,130306,69,2,0:0:0:0:
188,64,130456,2,0,P|260:96|336:56,1,165,8|0,1:0|1:0,0:0:0:0:
372,20,131056,2,0,L|372:244,1,220,6|8,3:0|1:0,0:0:0:0:
368,352,131956,69,2,0:0:0:0:
296,268,132256,1,6,1:0:0:0:
228,352,132556,2,0,P|176:368|112:352,1,110,2|8,0:0|1:0,0:0:0:0:
92,312,133006,1,0,1:0:0:0:
72,204,133306,2,0,L|60:84,2,110,0|0|0,1:0|1:0|1:0,0:0:0:0:
124,188,134056,38,0,P|179:174|234:188,1,110,14|6,1:0|0:0,0:0:0:0:
324,240,134656,2,0,L|324:312,1,55,6|0,1:0|0:0,0:0:0:0:
420,348,135106,37,2,0:0:0:0:
420,348,135256,2,0,L|420:232,1,110,8|2,1:0|0:0,0:0:0:0:
465,139,135856,2,0,P|414:123|364:144,1,110,6|0,0:0|0:0,0:0:0:0:
264,192,136456,1,8,1:0:0:0:
272,84,136756,1,0,0:0:0:0:
363,144,137056,6,0,P|380:196|356:260,1,110,6|0,1:0|0:0,0:0:0:0:
324,280,137506,2,0,L|324:356,2,55,0|8|0,1:0|1:0|1:0,0:0:0:0:
216,252,138106,2,0,P|164:268|108:244,2,110,0|0|0,1:0|1:0|1:0,0:0:0:0:
256,212,138856,1,14,1:0:0:0:
256,104,139156,1,2,0:0:0:0:
352,156,139456,70,0,P|408:172|460:152,2,110,6|0|0,1:0|1:0|1:0,0:0:0:0:
256,104,140356,1,0,1:0:0:0:
256,212,140656,2,0,L|256:336,1,110,6|0,1:0|1:0,0:0:0:0:
152,292,141256,1,0,1:0:0:0:
56,348,141556,1,0,1:0:0:0:
60,240,141856,6,0,P|44:184|64:132,2,110,6|0|0,1:0|1:0|1:0,0:0:0:0:
152,292,142756,1,0,1:0:0:0:
256,256,143056,1,6,1:0:0:0:
356,304,143356,2,0,P|368:244|352:196,1,110,0|0,1:0|1:0,0:0:0:0:
256,148,143956,1,0,1:0:0:0:
156,192,144256,70,0,L|148:256,1,55,6|0,1:0|0:0,0:0:0:0:
96,256,144556,2,0,L|88:316,1,55,0|0,1:0|0:0,0:0:0:0:
84,364,144856,2,0,P|135:348|185:368,1,110,0|0,1:0|1:0,0:0:0:0:
292,348,145456,6,0,L|304:288,1,55,6|0,1:0|0:0,0:0:0:0:
356,276,145756,2,0,L|368:212,1,55,0|0,1:0|0:0,0:0:0:0:
420,212,146056,1,0,1:0:0:0:
492,128,146356,70,0,L|504:60,1,55,0|2,1:0|0:0,0:0:0:0:
508,19,146656,2,0,P|456:36|404:19,1,110,6|0,1:0|1:0,0:0:0:0:
304,60,147256,2,0,P|252:43|200:59,1,110,6|0,1:0|1:0,0:0:0:0:
172,108,147706,38,0,L|172:172,1,55,0|14,1:0|1:0,0:0:0:0:
172,216,148006,1,2,1:0:0:0:
268,268,148306,2,0,P|293:276|320:270,1,55,2|12,1:0|1:0,0:0:0:0:
360,228,148606,2,0,L|360:104,1,110,6|0,1:0|0:0,0:0:0:0:
364,64,149056,2,0,P|396:56|432:68,1,55,6|0,1:0|1:0,0:0:0:0:
456,168,149506,37,0,1:0:0:0:
456,168,149656,2,0,P|440:220|464:280,1,110,8|2,1:0|0:0,0:0:0:0:
508,368,150256,1,6,3:0:0:0:
292,332,150856,1,14,1:0:0:0:
360,244,151156,1,2,0:0:0:0:
252,236,151456,2,0,L|192:236,1,55,6|0,1:0|1:0,0:0:0:0:
132,148,151906,6,0,L|56:148,2,55,0|8|2,1:0|1:0|0:0,0:0:0:0:
204,64,152506,2,0,L|328:64,1,110,0|0,1:0|1:0,0:0:0:0:
368,64,152956,1,2,0:0:0:0:
312,160,153256,1,14,1:0:0:0:
312,160,153406,2,0,P|289:212|320:272,1,110,0|8,1:0|3:0,0:0:0:0:
352,296,153856,5,14,3:0:0:0:
264,364,154156,2,0,L|188:364,2,55,8|8|8,3:0|3:0|3:0,0:0:0:0:
352,296,154756,1,10,3:0:0:0:
440,232,155056,2,0,P|459:177|436:128,1,110,8|8,3:0|3:0,0:0:0:0:
392,104,155506,2,0,L|280:104,2,110,8|8|8,3:0|3:0|3:0,0:0:0:0:
320,20,156406,38,0,L|200:20,1,110,2|0,3:0|0:0,0:0:0:0:
156,24,156856,2,0,P|160:55|148:84,1,55,2|2,0:0|0:0,0:0:0:0:
96,172,157306,2,0,P|160:188|244:140,1,165,2|2,0:0|0:0,0:0:0:0:
344,96,158056,2,0,L|344:216,1,110,2|0,0:0|0:0,0:0:0:0:
436,268,158656,38,0,L|436:158,1,110,6|2,3:0|0:0,0:0:0:0:
440,32,167056,69,2,0:0:0:0:
440,32,167206,2,0,L|440:156,1,110,8|8,3:0|3:0,0:0:0:0:
440,196,167656,2,0,P|382:184|328:200,1,110,8|8,3:0|3:0,0:0:0:0:
236,244,168256,6,0,L|236:360,2,110,6|2|8,1:0|0:0|1:0,0:0:0:0:
188,216,169006,2,0,L|188:148,1,55,2|0,0:0|0:0,0:0:0:0:
188,104,169306,5,6,1:0:0:0:
296,104,169606,1,6,1:0:0:0:
220,24,169906,1,6,1:0:0:0:
328,24,170206,2,0,L|392:24,1,55,6|8,0:1|1:0,0:0:0:0:
464,100,170656,70,0,P|448:156|468:204,1,110,4|8,1:0|1:0,0:0:0:0:
504,308,171256,2,0,L|504:380,2,55,8|2|8,1:0|1:0|1:0,0:0:0:0:
456,284,171706,1,6,1:0:0:0:
360,336,172006,2,0,P|333:343|306:340,1,55,2|8,1:0|1:0,0:0:0:0:
256,244,172456,2,0,L|256:116,1,110,0|8,1:0|1:0,0:0:0:0:
256,24,173056,5,6,1:0:0:0:
172,96,173356,2,0,P|120:112|67:98,1,110,8|0,1:0|1:0,0:0:0:0:
44,204,173956,1,8,1:0:0:0:
16,312,174256,1,6,1:0:0:0:
112,256,174556,2,0,P|163:240|216:254,1,110,8|0,1:0|1:0,0:0:0:0:
284,340,175156,1,8,1:0:0:0:
344,248,175456,69,6,1:0:0:0:
280,160,175756,2,0,P|266:108|282:56,1,110,8|0,1:0|1:0,0:0:0:0:
386,32,176356,1,8,1:0:0:0:
386,32,176506,2,0,L|502:32,1,110,6|0,1:0|1:0,0:0:0:0:
488,88,176956,2,0,P|474:141|490:193,1,110,8|8,1:0|1:0,0:0:0:0:
424,280,177556,2,0,L|356:280,1,55,8|8,1:0|1:0,0:0:0:0:
316,276,177856,70,0,P|336:216|312:168,1,110,6|2,1:0|0:0,0:0:0:0:
224,120,178456,2,0,P|203:169|221:220,1,110,14|0,1:0|0:0,0:0:0:0:
228,332,179056,2,0,L|112:332,1,110,6|0,3:0|0:0,0:0:0:0:
64,332,179506,1,0,1:0:0:0:
64,332,179656,2,0,P|84:282|66:231,1,110,14|0,1:0|0:0,0:0:0:0:
20,132,180256,70,0,L|148:132,1,110,6|2,1:0|0:0,0:0:0:0:
240,136,180856,2,0,P|259:188|232:248,1,110,14|0,1:0|0:0,0:0:0:0:
200,276,181306,1,0,1:0:0:0:
200,276,181456,2,0,L|332:276,1,110,6|0,3:0|0:0,0:0:0:0:
408,228,182056,2,0,L|436:180,1,55,12|8,1:0|1:0,0:0:0:0:
464,132,182356,2,0,L|436:84,1,55,8|8,1:0|1:0,0:0:0:0:
400,44,182656,6,0,P|344:64|292:40,1,110,6|2,1:0|1:0,0:0:0:0:
192,16,183256,1,0,1:0:0:0:
248,112,183556,1,6,1:0:0:0:
176,195,183856,2,0,P|155:244|175:294,1,110,0|0,1:0|1:0,0:0:0:0:
268,352,184456,2,0,P|288:302|268:252,1,110,6|0,1:0|1:0,0:0:0:0:
176,195,185056,70,0,L|56:192,1,110,6|2,1:0|1:0,0:0:0:0:
24,92,185656,2,0,L|140:92,1,110,0|0,1:0|1:0,0:0:0:0:
236,139,186256,70,0,P|264:247|176:195,1,275,6|0,1:0|0:0,0:0:0:0:
