osu file format v14

[General]
AudioFilename: dreamcatcher.mp3
AudioLeadIn: 0
PreviewTime: 48181
Countdown: 0
SampleSet: Soft
StackLeniency: 0.5
Mode: 0
LetterboxInBreaks: 0
WidescreenStoryboard: 1

[Editor]
Bookmarks: 9850,19450,29050,38650,47050,48250,67450,72250,81850,91450,101050,109450,110650,129850,139450,149050,158650,168250,177850,187450
DistanceSpacing: 1.4
BeatDivisor: 4
GridSize: 4
TimelineZoom: 0.9

[Metadata]
Title:Chase Me
TitleUnicode:Chase Me
Artist:Dreamcatcher
ArtistUnicode:드림캐쳐
Creator:Natsu
Version:Hard
Source:
Tags:minx rock krock k-rock poprock kpop k-pop 지유 수아 시연 한동 유현 다미 가현 Ji-U Su-A SiYeon Handong YooHyun DaMi Gahyeon Happy Face Entertainment pan p_a_n rock
BeatmapID:1260090
BeatmapSetID:586144

[Difficulty]
HPDrainRate:5
CircleSize:4
OverallDifficulty:6
ApproachRate:8
SliderMultiplier:1.3
SliderTickRate:1

[Events]
//Background and Video events
0,0,"-dreamcatcher wallpapers for desktop Dreamcatcher wallpapers HD.jpg",0,0
Video,256,"Chase+Me.mp4"
//Break Periods
2,7656,9106
2,67656,71056
2,159156,165856
//Storyboard Layer 0 (Background)
//Storyboard Layer 1 (Fail)
//Storyboard Layer 2 (Pass)
//Storyboard Layer 3 (Foreground)
//Storyboard Sound Samples

[TimingPoints]
256,300,4,2,1,10,1,0
256,-166.666666666667,4,2,1,10,0,0
3406,-166.666666666667,4,2,1,5,0,0
3556,-166.666666666667,4,2,1,10,0,0
4156,-166.666666666667,4,2,1,5,0,0
4456,-166.666666666667,4,2,1,10,0,0
5806,-166.666666666667,4,2,1,5,0,0
5956,-166.666666666667,4,2,1,10,0,0
6256,-166.666666666667,4,2,1,5,0,0
6556,-166.666666666667,4,2,1,10,0,0
7306,-166.666666666667,4,2,1,5,0,0
7456,-166.666666666667,4,2,1,10,0,0
9856,-142.857142857143,4,2,1,35,0,0
14956,-142.857142857143,4,2,1,45,0,0
17056,-142.857142857143,4,2,1,30,0,0
18856,-111.111111111111,4,2,1,50,0,0
19456,-100,4,2,1,50,0,0
19756,-125,4,2,1,35,0,0
20656,-125,4,2,1,50,0,0
20956,-125,4,2,1,20,0,0
21256,-125,4,2,1,35,0,0
22156,-125,4,2,1,35,0,0
24856,-125,4,2,1,50,0,0
26056,-125,4,2,1,35,0,0
27856,-111.111111111111,4,2,1,45,0,0
28456,-111.111111111111,4,2,1,45,0,0
29056,-99.9999999999999,4,2,1,50,0,0
29356,-99.9999999999999,4,2,1,40,0,0
29506,-111.111111111111,4,2,1,40,0,0
31456,-111.111111111111,4,2,1,50,0,0
31906,-111.111111111111,4,2,1,40,0,0
33856,-111.111111111111,4,2,1,50,0,0
34306,-111.111111111111,4,2,1,40,0,0
38056,-99.9999999999999,4,2,1,40,0,0
38356,-99.9999999999999,4,2,1,50,0,0
38656,-111.111111111111,4,2,1,40,0,0
43456,-111.111111111111,4,2,1,50,0,0
45856,-200,4,2,1,40,0,0
47056,-111.111111111111,4,2,1,40,0,0
48256,-100,4,2,1,50,0,1
57781,-100,4,2,1,50,0,0
57856,-100,4,2,1,50,0,1
67456,-100,4,2,1,40,0,0
72256,-142.857142857143,4,2,1,35,0,0
80656,-142.857142857143,4,2,1,40,0,0
81256,-111.111111111111,4,2,1,50,0,0
81856,-100,4,2,1,50,0,0
82156,-125,4,2,1,40,0,0
88756,-125,4,2,1,45,0,0
90256,-111.111111111111,4,2,1,40,0,0
90556,-111.111111111111,4,2,1,45,0,0
90856,-100,4,2,1,50,0,0
91156,-90.909090909091,4,2,1,55,0,0
91456,-111.111111111111,4,2,1,50,0,0
92056,-111.111111111111,4,2,1,40,0,0
93856,-111.111111111111,4,2,1,50,0,0
94306,-111.111111111111,4,2,1,40,0,0
96256,-111.111111111111,4,2,1,50,0,0
96706,-111.111111111111,4,2,1,40,0,0
100456,-100,4,2,1,50,0,0
101056,-111.111111111111,4,2,1,40,0,0
105856,-111.111111111111,4,2,1,50,0,0
108256,-200,4,2,1,50,0,0
109456,-111.111111111111,4,2,1,40,0,0
110656,-100,4,2,1,50,0,1
120181,-100,4,2,1,50,0,0
120256,-100,4,2,1,50,0,1
129856,-125,4,2,1,40,0,0
134056,-100,4,2,1,40,0,0
134656,-125,4,2,1,40,0,0
139456,-111.111111111111,4,2,1,40,0,0
147706,-125,4,2,1,50,0,0
148006,-111.111111111111,4,2,1,50,0,0
148306,-100,4,2,1,50,0,0
148606,-90.9090909090909,4,2,1,50,0,0
149056,-111.111111111111,4,2,1,40,0,0
153856,-111.111111111111,4,2,1,50,0,0
156406,-142.857142857143,4,2,1,25,0,0
156706,-142.857142857143,4,2,1,5,0,0
156856,-142.857142857143,4,2,1,25,0,0
157606,-142.857142857143,4,2,1,5,0,0
157756,-142.857142857143,4,2,1,25,0,0
158356,-142.857142857143,4,2,1,5,0,0
158656,-100,4,2,1,40,0,0
158956,-100,4,2,1,30,0,0
167056,-111.111111111111,4,2,1,40,0,0
168256,-100,4,2,1,40,0,1
168331,-100,4,2,1,50,0,0
169006,-125,4,2,1,40,0,0
169306,-100,4,2,1,50,0,1
169606,-90.9090909090909,4,2,1,50,0,1
169906,-83.3333333333333,4,2,1,50,0,1
170206,-76.9230769230769,4,2,1,50,0,1
170506,-100,4,2,1,50,0,1
177856,-100,4,2,1,40,0,0
178306,-111.111111111111,4,2,1,40,0,0
180256,-100,4,2,1,40,0,0
180706,-111.111111111111,4,2,1,40,0,0
182656,-100,4,2,1,40,0,0
183106,-111.111111111111,4,2,1,40,0,0
185056,-100,4,2,1,40,0,0
185506,-111.111111111111,4,2,1,40,0,0
186256,-200,4,2,1,40,0,0
186331,-200,4,2,1,5,0,0

[Colours]
Combo1 : 255,9,101
Combo2 : 223,174,255
Combo3 : 255,223,251
Combo4 : 174,53,255
Combo5 : 255,102,255
Combo6 : 121,0,202
SliderBorder : 177,62,255
SliderTrackOverride : 30,30,30

[HitObjects]
480,32,256,6,0,L|468:116,1,77.999997619629,6|2,0:0|0:0,0:0:0:0:
392,100,706,2,0,L|380:184,1,77.999997619629,2|2,0:0|0:0,0:0:0:0:
344,328,1306,1,2,0:0:0:0:
88,368,2056,6,0,L|72:288,1,77.999997619629,2|2,0:0|0:0,0:0:0:0:
196,192,2656,2,0,L|180:112,1,77.999997619629,6|2,0:0|0:0,0:0:0:0:
224,52,3106,2,0,P|277:72|331:52,1,116.999996429443,2|2,0:0|0:0,0:0:0:0:
484,16,3856,70,0,L|484:180,1,155.999995239258,6|2,0:0|0:0,0:0:0:0:
236,360,5056,6,0,L|216:284,1,77.999997619629,6|2,0:0|0:0,0:0:0:0:
140,304,5506,2,0,L|120:228,1,77.999997619629,2|0,0:0|0:0,0:0:0:0:
44,248,5956,2,0,L|24:172,1,77.999997619629,2|0,0:0|0:0,0:0:0:0:
156,84,6556,70,0,L|176:160,1,77.999997619629,2|2,0:0|0:0,0:0:0:0:
252,140,7006,2,0,L|272:216,1,77.999997619629,2|0,0:0|0:0,0:0:0:0:
300,288,7456,1,6,0:0:0:0:
492,368,9856,37,6,0:0:0:0:
496,372,10156,38,0,L|496:324,1,45.4999986114502,2|2,0:0|0:0,0:0:0:0:
424,300,10456,2,0,L|424:255,1,45.4999986114502,0|2,0:0|0:0,0:0:0:0:
352,228,10756,2,0,L|352:179,1,45.4999986114502,0|2,0:0|0:0,0:0:0:0:
280,156,11056,2,0,L|280:108,2,45.4999986114502,0|0|0,0:0|0:0|0:0,0:0:0:0:
176,268,11656,6,0,L|176:364,2,90.9999972229005,6|6|2,0:0|0:0|0:0,0:0:0:0:
136,74,12556,70,0,L|136:120,1,45.4999986114502,0|2,0:0|0:0,0:0:0:0:
208,146,12856,2,0,L|208:191,1,45.4999986114502,0|2,0:0|0:0,0:0:0:0:
280,219,13156,2,0,L|280:263,1,45.4999986114502,0|2,0:0|0:0,0:0:0:0:
352,290,13456,2,0,L|352:335,1,45.4999986114502,0|0,0:0|0:0,0:0:0:0:
428,364,13756,2,0,L|428:272,1,90.9999972229005,0|2,0:0|0:0,0:0:0:0:
344,124,14356,6,0,L|400:104,2,45.4999986114502,2|0|6,0:0|0:0|0:0,0:0:0:0:
176,124,14956,2,0,L|120:104,2,45.4999986114502,2|2|0,0:0|0:0|0:0,0:0:0:0:
256,240,15556,2,0,L|256:304,2,45.4999986114502,0|2|0,0:0|0:0|0:0,0:0:0:0:
256,84,16156,70,0,L|256:28,1,45.4999986114502,0|0,0:0|0:0,0:0:0:0:
332,24,16456,2,0,P|374:37|418:26,1,90.9999972229005,2|2,0:0|0:0,0:0:0:0:
488,164,17056,38,0,L|488:264,1,90.9999972229005,6|8,0:0|3:0,0:0:0:0:
488,346,17506,2,0,L|488:250,1,90.9999972229005,2|8,0:0|3:0,0:0:0:0:
396,212,17956,1,4,3:0:0:0:
396,212,18256,70,0,P|340:244|276:212,1,136.499995834351,10|8,3:0|3:0,0:0:0:0:
200,160,18856,38,0,L|200:296,1,116.999996429443,4|8,3:0|3:0,0:0:0:0:
24,368,19456,1,4,3:0:0:0:
24,368,19756,6,0,L|88:368,1,52,0|2,0:0|1:0,0:0:0:0:
120,292,20056,2,0,L|184:292,1,52,0|2,1:0|0:0,0:0:0:0:
224,220,20356,2,0,L|288:220,1,52,0|2,1:0|1:0,0:0:0:0:
352,268,20656,6,0,P|368:212|344:164,1,104,2|0,0:0|0:0,0:0:0:0:
175,59,21256,2,0,P|158:107|176:156,2,104,2|2|2,1:0|0:0|1:0,0:0:0:0:
427,23,22156,70,0,L|427:87,1,52,0|0,0:0|1:0,0:0:0:0:
351,119,22456,2,0,L|351:183,1,52,0|2,1:0|0:0,0:0:0:0:
279,223,22756,2,0,L|279:287,1,52,0|0,0:0|1:0,0:0:0:0:
327,351,23056,2,0,P|271:367|223:343,1,104,2|0,0:0|1:0,0:0:0:0:
96,192,23656,6,0,L|96:80,1,104,8|2,0:0|0:0,0:0:0:0:
256,12,24256,1,0,1:0:0:0:
256,12,24856,70,0,L|256:124,1,104,8|2,0:0|0:0,0:0:0:0:
416,192,25456,1,2,0:0:0:0:
416,192,26056,6,0,L|392:312,1,104,8|0,0:0|0:0,0:0:0:0:
96,192,26656,2,0,L|120:72,1,104,2|2,1:0|0:0,0:0:0:0:
256,192,27256,2,0,L|235:293,1,104,8|0,0:0|0:0,0:0:0:0:
416,192,27856,6,0,L|440:68,1,116.999996429443,8|8,3:0|3:0,0:0:0:0:
364,12,28306,1,8,3:0:0:0:
296,80,28456,38,0,P|268:87|239:82,1,58.4999982147217,12|8,1:0|0:0,0:0:0:0:
148,96,28756,2,0,L|172:164,1,58.4999982147217,8|8,0:0|0:0,0:0:0:0:
256,192,29056,70,0,L|256:328,1,130,4|0,3:0|1:0,0:0:0:0:
168,368,29506,69,0,0:0:0:0:
168,368,29656,2,0,L|92:368,1,58.4999982147217,0|0,1:0|0:0,0:0:0:0:
44,292,29956,2,0,L|120:292,1,58.4999982147217,0|0,1:0|0:0,0:0:0:0:
200,276,30256,69,6,3:1:0:0:
256,84,30556,1,0,1:0:0:0:
424,192,30856,1,0,1:0:0:0:
224,192,31156,2,0,L|96:192,2,116.999996429443,0|6|0,1:0|1:0|1:0,0:0:0:0:
324,192,31906,5,0,0:0:0:0:
324,192,32056,2,0,L|332:256,1,58.4999982147217,0|0,1:0|0:0,0:0:0:0:
432,264,32356,2,0,L|424:200,1,58.4999982147217,0|0,1:0|0:0,0:0:0:0:
404,108,32656,69,6,1:0:0:0:
212,56,32956,1,0,1:0:0:0:
408,36,33256,1,0,1:0:0:0:
228,129,33556,2,0,P|224:189|256:237,2,116.999996429443,0|6|0,1:0|1:0|1:0,0:0:0:0:
320,164,34306,5,0,0:0:0:0:
320,164,34456,2,0,L|396:164,1,58.4999982147217,0|0,1:0|0:0,0:0:0:0:
424,252,34756,2,0,L|348:252,1,58.4999982147217,0|0,1:0|0:0,0:0:0:0:
272,284,35056,70,0,P|268:328|240:284,1,116.999996429443,6|0,1:0|1:0,0:0:0:0:
279,90,35656,2,0,P|249:53|240:100,1,116.999996429443,0|0,1:0|1:0,0:0:0:0:
408,208,36256,5,6,1:0:0:0:
228,296,36556,1,0,1:0:0:0:
428,316,36856,1,0,1:0:0:0:
272,192,37156,1,0,1:0:0:0:
416,52,37456,6,0,L|400:124,1,58.4999982147217,12|8,3:0|3:0,0:0:0:0:
372,204,37756,1,8,3:0:0:0:
272,192,37906,1,8,3:0:0:0:
180,128,38056,6,0,P|160:184|188:264,1,130,12|4,1:0|3:0,0:0:0:0:
366,314,38656,37,6,1:0:0:0:
366,314,38806,2,0,P|386:258|358:186,1,116.999996429443,0|0,1:0|1:0,0:0:0:0:
288,148,39256,5,8,1:0:0:0:
88,148,39556,1,2,0:0:0:0:
288,148,39856,2,0,L|104:148,1,175.499994644165,6|0,1:0|1:0,0:0:0:0:
60,232,40456,69,8,1:0:0:0:
260,232,40756,1,2,0:0:0:0:
60,232,41056,2,0,L|244:232,1,175.499994644165,6|0,1:0|1:0,0:0:0:0:
304,304,41656,5,14,1:0:0:0:
496,248,41956,1,10,3:0:0:0:
316,328,42256,1,10,3:0:0:0:
356,132,42556,69,10,3:0:0:0:
420,320,42856,1,10,3:0:0:0:
336,140,43156,1,10,3:0:0:0:
436,312,43456,38,0,L|452:376,2,58.4999982147217,12|8|8,3:0|3:0|3:0,0:0:0:0:
400,240,43906,1,8,3:0:0:0:
339,292,44056,70,0,P|312:301|284:294,1,58.4999982147217,8|8,3:0|3:0,0:0:0:0:
224,240,44356,2,0,P|195:233|168:242,1,58.4999982147217,8|8,3:0|3:0,0:0:0:0:
108,296,44656,2,0,P|80:305|52:298,2,58.4999982147217,12|8|8,3:0|3:0|3:0,0:0:0:0:
80,220,45106,1,8,3:0:0:0:
144,172,45256,6,0,P|151:143|144:115,1,58.4999982147217,8|8,3:0|3:0,0:0:0:0:
68,72,45556,2,0,P|60:43|67:15,1,58.4999982147217,8|8,3:0|3:0,0:0:0:0:
140,44,45856,69,14,3:0:0:0:
4,24,47056,6,0,L|4:152,1,116.999996429443,14|0,1:0|1:0,0:0:0:0:
80,172,47506,2,0,L|80:236,1,58.4999982147217,8|0,1:0|1:0,0:0:0:0:
144,280,47806,2,0,L|144:324,2,29.2499991073609,0|0|8,1:0|1:0|1:0,0:0:0:0:
256,84,48256,70,0,L|256:176,1,65,6|0,1:0|0:0,0:0:0:0:
308,224,48556,2,0,P|367:201|428:221,1,130,8|0,1:0|1:0,0:0:0:0:
488,292,49006,6,0,L|488:368,1,65,2|8,1:0|1:0,0:0:0:0:
400,340,49306,2,0,B|307:293|307:373|211:337,1,195,6|8,1:0|1:0,0:0:0:0:
140,284,49906,69,6,1:0:0:0:
296,187,50206,2,0,P|307:158|302:126,1,65,2|8,1:0|1:0,0:0:0:0:
256,48,50506,5,2,1:0:0:0:
209,126,50656,2,0,P|204:158|215:187,1,65,4|2,1:0|1:0,0:0:0:0:
256,272,50956,2,0,L|344:272,1,65,8|2,1:0|1:0,0:0:0:0:
372,348,51256,2,0,L|284:348,2,65,8|2|8,1:0|1:0|1:0,0:0:0:0:
416,268,51706,69,6,1:0:0:0:
308,124,52006,2,0,P|299:91|308:48,1,65,2|8,1:0|1:0,0:0:0:0:
212,60,52306,6,0,P|215:92|206:123,2,65,2|0|0,1:0|1:0|1:0,0:0:0:0:
123,83,52756,2,0,P|62:68|7:99,1,130,8|6,1:0|1:0,0:0:0:0:
180,192,53356,69,8,1:0:0:0:
328,84,53656,2,0,P|336:52|324:16,2,65,0|2|8,1:0|1:0|1:0,0:0:0:0:
256,136,54106,2,0,L|256:280,1,130,6|2,1:0|1:0,0:0:0:0:
256,356,54556,1,8,1:0:0:0:
332,304,54706,5,6,1:0:0:0:
160,360,55006,2,0,P|128:368|96:360,2,65,2|8|2,1:0|1:0|1:0,0:0:0:0:
128,276,55456,70,0,B|128:132,1,130,6|8,1:0|1:0,0:0:0:0:
172,68,55906,2,0,P|203:76|234:69,1,65,2|0,1:0|1:0,0:0:0:0:
320,32,56206,2,0,P|351:25|382:33,1,65,0|8,1:0|1:0,0:0:0:0:
436,108,56506,5,6,1:0:0:0:
268,180,56806,2,0,L|336:200,1,65,2|8,1:0|1:0,0:0:0:0:
400,260,57106,2,0,L|332:280,1,65,6|0,1:0|0:0,0:0:0:0:
272,344,57406,2,0,L|340:364,1,65,2|8,1:0|1:0,0:0:0:0:
504,292,57856,70,0,P|512:260|500:220,1,65,6|0,1:0|0:0,0:0:0:0:
436,172,58156,2,0,P|416:107|440:48,1,130,12|0,1:0|1:0,0:0:0:0:
348,32,58606,6,0,L|276:32,1,65,2|8,1:0|1:0,0:0:0:0:
232,108,58906,2,0,L|312:108,1,65,6|0,1:0|0:0,0:0:0:0:
248,184,59206,2,0,L|180:184,1,65,2|8,1:0|1:0,0:0:0:0:
92,188,59506,69,6,1:0:0:0:
208,328,59806,2,0,P|239:336|270:329,1,65,2|8,1:0|1:0,0:0:0:0:
348,280,60106,5,2,1:0:0:0:
404,208,60256,2,0,P|412:176|403:145,1,65,6|2,1:0|1:0,0:0:0:0:
324,104,60556,2,0,P|315:135|324:166,1,65,8|2,1:0|1:0,0:0:0:0:
256,224,60856,2,0,L|168:224,2,65,8|2|8,1:0|1:0|1:0,0:0:0:0:
344,252,61306,69,6,1:0:0:0:
480,132,61606,2,0,P|491:161|485:193,1,65,2|8,1:0|1:0,0:0:0:0:
332,92,62056,2,0,P|320:62|326:30,2,65,0|0|8,1:0|1:0|1:0,0:0:0:0:
420,252,62656,5,6,1:0:0:0:
248,192,62956,2,0,P|180:168|128:192,1,130,8|0,1:0|1:0,0:0:0:0:
72,264,63406,2,0,L|72:348,2,65,2|8|0,1:0|1:0|1:0,0:0:0:0:
16,192,63856,69,6,1:0:0:0:
188,248,64156,2,0,L|188:388,1,130,8|0,1:0|1:0,0:0:0:0:
328,264,64756,2,0,L|328:192,1,65,8|2,1:0|1:0,0:0:0:0:
256,144,65056,5,6,1:0:0:0:
432,192,65356,2,0,L|432:328,1,130,8|0,1:0|1:0,0:0:0:0:
344,344,65806,70,0,P|309:336|280:348,1,65,0|8,1:0|1:0,0:0:0:0:
192,360,66106,2,0,L|192:220,1,130,6|0,1:0|1:0,0:0:0:0:
192,140,66556,5,8,1:0:0:0:
268,192,66706,2,0,P|312:200|340:188,2,65,0|12|0,1:0|1:0|1:0,0:0:0:0:
192,140,67156,1,8,1:0:0:0:
244,67,67306,2,0,L|244:27,2,32.5,8|8|4,1:0|1:0|1:0,0:0:0:0:
12,4,72256,37,6,0:0:0:0:
16,12,72556,70,0,L|16:60,1,45.4999986114502,2|2,0:0|0:0,0:0:0:0:
88,84,72856,2,0,L|88:129,1,45.4999986114502,2|2,0:0|0:0,0:0:0:0:
160,156,73156,2,0,L|160:205,1,45.4999986114502,2|2,0:0|0:0,0:0:0:0:
232,228,73456,2,0,L|232:276,1,45.4999986114502,6|2,0:0|0:0,0:0:0:0:
308,288,73756,70,0,L|308:197,1,90.9999972229005,2|2,0:0|0:0,0:0:0:0:
256,52,74356,2,0,L|256:4,2,45.4999986114502,2|2|6,0:0|0:0|0:0,0:0:0:0:
404,96,74956,6,0,L|404:142,1,45.4999986114502,2|2,0:0|0:0,0:0:0:0:
332,168,75256,2,0,L|332:213,1,45.4999986114502,2|2,0:0|0:0,0:0:0:0:
260,241,75556,2,0,L|260:285,1,45.4999986114502,2|2,0:0|0:0,0:0:0:0:
188,312,75856,2,0,L|188:357,1,45.4999986114502,6|0,0:0|0:0,0:0:0:0:
108,384,76156,2,0,L|108:292,1,90.9999972229005,0|2,0:0|0:0,0:0:0:0:
256,144,76756,70,0,L|256:80,2,45.4999986114502,2|0|6,0:0|0:0|0:0,0:0:0:0:
348,268,77356,2,0,L|408:280,2,45.4999986114502,2|2|2,0:0|0:0|0:0,0:0:0:0:
164,268,77956,2,0,L|104:280,1,45.4999986114502,2|2,0:0|0:0,0:0:0:0:
44,256,78256,2,0,P|56:208|40:164,1,90.9999972229005,6|2,0:0|0:0,0:0:0:0:
16,96,78706,6,0,L|68:84,1,45.4999986114502,2|2,0:0|0:0,0:0:0:0:
208,44,79156,2,0,L|320:44,2,90.9999972229005,2|6|2,0:0|0:0|0:0,0:0:0:0:
144,184,80056,5,8,1:0:0:0:
208,140,80206,2,0,P|220:188|200:240,1,90.9999972229005,8|2,3:0|0:0,0:0:0:0:
256,288,80656,6,0,L|352:288,1,90.9999972229005,12|2,3:0|0:0,0:0:0:0:
500,160,81256,6,0,L|376:160,1,116.999996429443,4|2,0:0|0:0,0:0:0:0:
164,160,81856,1,6,3:0:0:0:
164,160,82156,22,0,L|136:212,1,52,0|2,0:0|0:0,0:0:0:0:
56,228,82456,2,0,L|80:273,1,52,8|2,1:0|0:0,0:0:0:0:
168,292,82756,2,0,L|143:337,1,52,0|0,0:0|1:0,0:0:0:0:
228,368,83056,6,0,P|284:352|332:376,1,104,6|2,3:0|0:0,0:0:0:0:
480,284,83656,1,12,1:0:0:0:
480,284,83956,2,0,L|480:164,1,104,2|6,0:0|1:0,0:0:0:0:
368,40,84556,70,0,L|340:92,1,52,0|2,0:0|0:0,0:0:0:0:
260,108,84856,2,0,L|284:153,1,52,8|2,1:0|0:0,0:0:0:0:
372,172,85156,2,0,L|347:217,1,52,0|0,0:0|1:0,0:0:0:0:
300,292,85456,5,6,3:0:0:0:
300,292,85756,2,0,L|192:292,1,104,2|12,0:0|1:0,0:0:0:0:
68,168,86356,70,0,L|124:152,1,52,2|0,0:0|0:0,0:0:0:0:
192,200,86656,2,0,L|248:216,1,52,6|0,1:0|0:0,0:0:0:0:
312,160,86956,2,0,L|368:144,1,52,0|2,0:0|0:0,0:0:0:0:
436,192,87256,2,0,L|492:208,1,52,8|2,1:0|0:0,0:0:0:0:
432,276,87556,2,0,L|376:292,1,52,0|2,0:0|1:0,0:0:0:0:
312,236,87856,5,6,3:0:0:0:
312,236,88156,2,0,P|330:181|308:128,1,104,2|12,0:0|1:0,0:0:0:0:
176,32,88756,70,0,L|125:43,1,52,2|0,0:0|0:0,0:0:0:0:
68,112,89056,2,0,L|118:123,1,52,6|0,1:0|0:0,0:0:0:0:
176,192,89356,2,0,L|125:203,1,52,0|2,0:0|0:0,0:0:0:0:
68,272,89656,2,0,L|118:283,1,52,12|0,1:0|0:0,0:0:0:0:
168,356,89956,2,0,L|117:367,1,52,2|0,0:0|1:0,0:0:0:0:
24,332,90256,22,0,L|24:204,1,116.999996429443,6|6,3:0|3:0,0:0:0:0:
152,36,90856,1,6,1:0:0:0:
152,36,91156,1,6,3:0:0:0:
152,36,91456,38,0,P|208:56|272:24,1,116.999996429443,6|0,1:0|1:0,0:0:0:0:
452,88,92056,38,0,P|460:115|456:144,1,58.4999982147217,0|0,1:0|0:0,0:0:0:0:
372,196,92356,2,0,P|363:223|367:252,1,58.4999982147217,0|0,1:0|0:0,0:0:0:0:
436,324,92656,5,6,1:0:0:0:
256,240,92956,1,0,1:0:0:0:
456,228,93256,1,0,1:0:0:0:
284,324,93556,2,0,P|227:323|180:280,2,116.999996429443,0|6|0,1:0|1:0|1:0,0:0:0:0:
372,276,94306,69,0,0:0:0:0:
372,276,94456,2,0,L|372:212,1,58.4999982147217,0|0,1:0|0:0,0:0:0:0:
452,156,94756,2,0,L|452:96,1,58.4999982147217,0|0,1:0|0:0,0:0:0:0:
384,28,95056,5,6,1:0:0:0:
192,76,95356,1,0,1:0:0:0:
388,56,95656,1,0,1:0:0:0:
196,100,95956,2,0,P|192:160|224:208,2,116.999996429443,0|6|0,1:0|1:0|1:0,0:0:0:0:
288,140,96706,69,0,0:0:0:0:
288,140,96856,2,0,L|364:140,1,58.4999982147217,0|0,1:0|0:0,0:0:0:0:
408,216,97156,2,0,L|332:216,1,58.4999982147217,0|0,1:0|0:0,0:0:0:0:
252,240,97456,6,0,P|248:284|220:240,1,116.999996429443,6|0,1:0|1:0,0:0:0:0:
148,60,98056,2,0,P|118:23|109:70,1,116.999996429443,0|0,1:0|1:0,0:0:0:0:
116,268,98656,69,6,1:0:0:0:
300,192,98956,1,0,1:0:0:0:
100,188,99256,1,0,1:0:0:0:
280,272,99556,1,6,1:0:0:0:
212,84,99856,38,0,L|200:160,1,58.4999982147217,12|8,3:0|3:0,0:0:0:0:
188,240,100156,1,8,3:0:0:0:
280,272,100306,1,8,3:0:0:0:
371,203,100456,70,0,P|391:259|363:339,1,130,12|4,1:0|3:0,0:0:0:0:
192,244,101056,69,6,1:0:0:0:
192,244,101206,2,0,P|172:188|200:116,1,116.999996429443,0|0,1:0|1:0,0:0:0:0:
272,84,101656,69,8,1:0:0:0:
272,284,101956,1,2,3:0:0:0:
272,84,102256,2,0,L|272:268,1,175.499994644165,6|0,1:0|1:0,0:0:0:0:
364,296,102856,5,8,1:0:0:0:
364,96,103156,1,2,0:0:0:0:
364,296,103456,2,0,L|364:112,1,175.499994644165,6|0,1:0|1:0,0:0:0:0:
280,68,104056,69,14,1:0:0:0:
476,36,104356,1,8,3:0:0:0:
284,88,104656,1,8,3:0:0:0:
464,172,104956,5,8,3:0:0:0:
268,212,105256,1,8,3:0:0:0:
464,188,105556,1,8,3:0:0:0:
272,232,105856,6,0,L|272:296,2,58.4999982147217,12|8|8,3:0|3:0|3:0,0:0:0:0:
328,172,106306,1,8,3:0:0:0:
356,96,106456,6,0,P|329:87|301:94,1,58.4999982147217,8|8,3:0|3:0,0:0:0:0:
224,116,106756,2,0,P|195:123|168:114,1,58.4999982147217,8|8,3:0|3:0,0:0:0:0:
92,80,107056,2,0,L|92:16,2,58.4999982147217,12|8|8,3:0|3:0|3:0,0:0:0:0:
96,160,107506,1,8,3:0:0:0:
68,236,107656,70,0,P|97:243|125:236,1,58.4999982147217,8|8,3:0|3:0,0:0:0:0:
188,184,107956,2,0,P|217:176|245:183,1,58.4999982147217,8|8,3:0|3:0,0:0:0:0:
304,240,108256,5,6,3:0:0:0:
492,20,109456,70,0,L|492:148,1,116.999996429443,12|0,1:0|1:0,0:0:0:0:
416,168,109906,2,0,L|416:109,1,58.4999982147217,8|0,1:0|1:0,0:0:0:0:
340,80,110206,2,0,L|340:124,2,29.2499991073609,0|0|8,1:0|1:0|1:0,0:0:0:0:
164,28,110656,6,0,L|164:120,1,65,6|0,1:0|0:0,0:0:0:0:
108,164,110956,2,0,P|167:141|228:161,1,130,8|0,1:0|1:0,0:0:0:0:
292,228,111406,70,0,L|380:228,1,65,2|8,1:0|1:0,0:0:0:0:
408,152,111706,2,0,B|361:245|441:245|405:341,1,195,6|8,1:0|1:0,0:0:0:0:
316,364,112306,5,6,1:0:0:0:
156,276,112606,2,0,P|127:265|95:270,1,65,2|8,1:0|1:0,0:0:0:0:
24,328,112906,69,2,1:0:0:0:
8,240,113056,2,0,L|8:160,1,65,6|2,1:0|1:0,0:0:0:0:
72,112,113356,2,0,P|103:120|134:111,1,65,8|2,1:0|1:0,0:0:0:0:
208,56,113656,2,0,P|238:47|270:55,2,65,8|2|8,1:0|1:0|1:0,0:0:0:0:
240,144,114106,5,6,1:0:0:0:
112,272,114406,2,0,P|103:305|112:348,1,65,2|8,1:0|1:0,0:0:0:0:
196,332,114706,70,0,P|199:300|190:269,2,65,2|0|0,1:0|1:0|1:0,0:0:0:0:
284,360,115156,2,0,B|416:360,1,130,8|6,1:0|1:0,0:0:0:0:
492,196,115756,5,8,1:0:0:0:
336,100,116056,2,0,P|328:68|340:32,2,65,0|2|8,1:0|1:0|1:0,0:0:0:0:
408,156,116506,2,0,L|408:300,1,130,6|2,1:0|1:0,0:0:0:0:
408,376,116956,1,8,1:0:0:0:
332,324,117106,69,6,1:0:0:0:
208,192,117406,2,0,P|200:160|208:128,2,65,2|8|2,1:0|1:0|1:0,0:0:0:0:
292,160,117856,6,0,B|428:160,1,130,6|8,1:0|1:0,0:0:0:0:
480,232,118306,2,0,P|472:263|479:294,1,65,2|0,1:0|1:0,0:0:0:0:
392,320,118606,2,0,P|361:313|330:321,1,65,0|8,1:0|1:0,0:0:0:0:
244,352,118906,69,6,1:0:0:0:
100,240,119206,2,0,L|72:164,1,65,2|12,1:0|1:0,0:0:0:0:
168,184,119506,2,0,L|176:116,1,65,6|0,1:0|0:0,0:0:0:0:
252,168,119806,2,0,L|308:136,1,65,0|8,1:0|1:0,0:0:0:0:
452,24,120256,6,0,P|445:55|453:86,1,65,6|0,1:0|0:0,0:0:0:0:
480,176,120556,2,0,P|501:236|481:296,1,130,8|0,1:0|1:0,0:0:0:0:
400,336,121006,70,0,L|328:336,1,65,2|8,1:0|1:0,0:0:0:0:
284,260,121306,2,0,L|219:260,1,65,6|0,1:0|0:0,0:0:0:0:
168,184,121606,2,0,L|100:184,1,65,2|8,1:0|1:0,0:0:0:0:
32,240,121906,5,6,1:0:0:0:
144,96,122206,2,0,P|152:65|145:34,1,65,2|8,1:0|1:0,0:0:0:0:
236,24,122506,69,2,1:0:0:0:
308,80,122656,2,0,P|340:88|371:79,1,65,4|2,1:0|1:0,0:0:0:0:
460,56,122956,2,0,L|472:136,1,65,8|2,1:0|1:0,0:0:0:0:
396,176,123256,2,0,L|408:256,2,65,8|2|8,1:0|1:0|1:0,0:0:0:0:
308,152,123706,5,6,1:0:0:0:
164,260,124006,2,0,P|135:271|103:265,1,65,2|8,1:0|1:0,0:0:0:0:
144,88,124456,2,0,P|174:76|206:82,2,65,0|0|8,1:0|1:0|1:0,0:0:0:0:
24,224,125056,69,6,1:0:0:0:
176,324,125356,2,0,P|200:256|176:204,1,130,8|0,1:0|1:0,0:0:0:0:
104,152,125806,2,0,L|32:152,2,65,2|8|0,1:0|1:0|1:0,0:0:0:0:
192,128,126256,5,6,1:0:0:0:
344,224,126556,2,0,P|368:284|336:360,1,130,8|0,1:0|1:0,0:0:0:0:
172,308,127156,2,0,L|96:308,1,65,8|2,1:0|1:0,0:0:0:0:
16,308,127456,69,6,1:0:0:0:
155,192,127756,2,0,P|182:134|162:74,1,130,8|0,1:0|1:0,0:0:0:0:
244,32,128206,6,0,P|279:40|308:28,1,65,0|8,1:0|1:0,0:0:0:0:
396,20,128506,2,0,L|396:150,1,130,6|2,1:0|1:0,0:0:0:0:
396,240,128956,69,8,1:0:0:0:
320,192,129106,2,0,P|276:184|248:196,2,65,0|12|0,1:0|1:0|1:0,0:0:0:0:
396,240,129556,1,8,1:0:0:0:
432,324,129706,1,8,1:0:0:0:
432,324,129856,70,0,L|500:324,1,52,6|0,1:0|0:0,0:0:0:0:
312,360,130306,70,0,L|236:360,1,52,2|8,0:0|1:0,0:0:0:0:
196,300,130606,2,0,L|136:300,2,52,0|0|0,1:0|0:0|1:0,0:0:0:0:
260,240,131056,2,0,B|315:141|211:141|257:42,1,208,6|8,3:0|1:0,0:0:0:0:
432,32,131956,5,2,0:0:0:0:
432,32,132256,1,6,1:0:0:0:
432,32,132556,70,0,L|432:108,1,52,2|0,0:0|1:0,0:0:0:0:
412,168,132856,2,0,P|440:172|472:160,2,52,8|0|2,1:0|1:0|0:0,0:0:0:0:
332,132,133306,2,0,P|324:180|352:228,2,104,0|0|0,1:0|1:0|1:0,0:0:0:0:
268,40,134056,38,0,L|128:40,1,130,14|6,1:0|0:0,0:0:0:0:
20,172,134656,38,0,L|76:172,1,52,6|0,1:0|0:0,0:0:0:0:
248,188,135106,5,2,0:0:0:0:
300,260,135256,2,0,P|305:285|297:309,1,52,8|0,1:0|1:0,0:0:0:0:
208,312,135556,2,0,P|200:287|205:262,1,52,2|0,0:0|1:0,0:0:0:0:
248,188,135856,2,0,P|308:168|360:200,1,104,6|0,0:0|0:0,0:0:0:0:
476,300,136456,70,0,L|476:356,1,52,8|0,1:0|0:0,0:0:0:0:
388,336,136756,2,0,L|388:280,1,52,0|0,0:0|0:0,0:0:0:0:
384,196,137056,6,0,P|336:216|276:188,1,104,6|0,1:0|0:0,0:0:0:0:
228,136,137506,2,0,L|228:80,2,52,0|8|0,1:0|1:0|1:0,0:0:0:0:
128,280,138106,70,0,P|80:260|20:288,2,104,0|0|0,1:0|1:0|1:0,0:0:0:0:
188,344,138856,1,14,1:0:0:0:
188,344,139156,6,0,L|260:344,1,52,2|0,0:0|1:0,0:0:0:0:
320,284,139456,70,0,P|300:228|320:176,1,116.999996429443,6|0,1:0|1:0,0:0:0:0:
316,76,139906,2,0,L|248:76,1,58.4999982147217,2|0,0:0|1:0,0:0:0:0:
236,172,140206,2,0,L|176:172,1,58.4999982147217,2|0,0:0|1:0,0:0:0:0:
156,76,140506,2,0,L|84:76,1,58.4999982147217,2|6,0:0|1:0,0:0:0:0:
72,172,140806,2,0,L|4:172,1,58.4999982147217,2|0,0:0|1:0,0:0:0:0:
132,332,141256,5,0,1:0:0:0:
132,332,141556,2,0,L|196:332,1,58.4999982147217,0|2,1:0|0:0,0:0:0:0:
268,268,141856,70,0,P|252:212|276:152,1,116.999996429443,6|0,1:0|1:0,0:0:0:0:
360,112,142306,2,0,L|424:112,1,58.4999982147217,2|0,0:0|1:0,0:0:0:0:
404,212,142606,2,0,P|396:244|404:272,1,58.4999982147217,2|0,0:0|1:0,0:0:0:0:
488,320,142906,2,0,P|495:347|489:376,2,58.4999982147217,2|6|2,0:0|1:0|0:0,0:0:0:0:
392,348,143356,6,0,L|272:348,1,116.999996429443,0|0,1:0|1:0,0:0:0:0:
120,224,143956,2,0,P|128:192|116:160,1,58.4999982147217,0|2,1:0|0:0,0:0:0:0:
88,76,144256,70,0,L|164:56,1,58.4999982147217,6|0,1:0|0:0,0:0:0:0:
224,120,144556,2,0,L|296:132,1,58.4999982147217,0|0,1:0|0:0,0:0:0:0:
380,148,144856,2,0,P|356:208|376:252,1,116.999996429443,0|0,1:0|1:0,0:0:0:0:
452,316,145306,5,2,0:0:0:0:
360,352,145456,2,0,L|296:352,1,58.4999982147217,6|0,1:0|0:0,0:0:0:0:
228,284,145756,2,0,L|164:284,1,58.4999982147217,0|0,1:0|0:0,0:0:0:0:
72,280,146056,1,0,1:0:0:0:
72,280,146356,70,0,P|80:248|72:208,1,58.4999982147217,0|2,1:0|0:0,0:0:0:0:
20,144,146656,2,0,P|45:97|91:123,1,116.999996429443,6|0,1:0|1:0,0:0:0:0:
204,288,147256,6,0,P|250:313|275:267,1,116.999996429443,6|0,1:0|1:0,0:0:0:0:
244,172,147706,22,0,L|230:105,1,52,0|14,1:0|1:0,0:0:0:0:
132,92,148006,70,0,L|144:149,1,58.4999982147217,2|0,1:0|0:0,0:0:0:0:
80,240,148306,6,0,L|67:176,1,65,2|12,1:0|1:0,0:0:0:0:
28,292,148606,70,0,P|96:312|152:252,1,143.000004364014,6|0,1:0|0:0,0:0:0:0:
220,200,149056,6,0,L|292:200,1,58.4999982147217,6|0,1:0|1:0,0:0:0:0:
476,204,149506,37,0,1:0:0:0:
476,204,149656,2,0,P|451:259|488:316,1,116.999996429443,8|2,1:0|0:0,0:0:0:0:
284,364,150256,2,0,L|152:364,1,116.999996429443,6|0,3:0|0:0,0:0:0:0:
24,228,150856,5,14,1:0:0:0:
24,228,151156,1,2,0:0:0:0:
24,228,151456,2,0,L|27:169,1,58.4999982147217,6|0,1:0|1:0,0:0:0:0:
208,88,151906,70,0,L|212:28,2,58.4999982147217,0|8|2,1:0|1:0|0:0,0:0:0:0:
192,287,152506,2,0,P|248:268|304:296,1,116.999996429443,0|0,1:0|1:0,0:0:0:0:
380,348,152956,5,2,0:0:0:0:
380,348,153256,1,14,1:0:0:0:
456,284,153406,2,0,L|456:220,2,58.4999982147217,0|0|8,1:0|1:0|3:0,0:0:0:0:
376,228,153856,6,0,L|376:168,1,58.4999982147217,14|8,3:0|3:0,0:0:0:0:
296,111,154156,2,0,P|268:119|239:115,1,58.4999982147217,8|8,3:0|3:0,0:0:0:0:
156,64,154456,2,0,P|127:59|99:67,1,58.4999982147217,8|8,3:0|3:0,0:0:0:0:
36,144,154756,6,0,L|36:216,1,58.4999982147217,10|8,3:0|3:0,0:0:0:0:
92,284,155056,2,0,P|40:289|49:340,1,116.999996429443,8|8,3:0|3:0,0:0:0:0:
148,352,155506,70,0,L|216:352,1,58.4999982147217,8|10,3:0|3:0,0:0:0:0:
256,264,155806,2,0,P|247:231|257:203,1,58.4999982147217,8|8,3:0|3:0,0:0:0:0:
344,160,156106,2,0,L|392:160,2,29.2499991073609,8|8|8,3:0|3:0|3:0,0:0:0:0:
280,88,156406,22,0,L|184:88,1,90.9999972229005,2|0,3:0|0:0,0:0:0:0:
116,116,156856,6,0,P|119:141|108:176,1,45.4999986114502,2|2,0:0|0:0,0:0:0:0:
56,304,157306,70,0,P|116:329|176:300,1,136.499995834351,2|2,0:0|0:0,0:0:0:0:
256,168,158056,6,0,L|256:68,1,90.9999972229005,2|0,0:0|0:0,0:0:0:0:
472,28,158656,54,0,L|472:158,1,130,6|2,3:0|0:0,0:0:0:0:
256,56,167056,37,2,0:0:0:0:
256,56,167206,2,0,L|256:188,1,116.999996429443,8|8,3:0|3:0,0:0:0:0:
184,240,167656,2,0,L|184:280,6,29.2499991073609,8|8|8|8|8|8|8,3:0|3:0|3:0|3:0|3:0|3:0|3:0,0:0:0:0:
272,256,168256,38,0,P|332:280|396:248,1,130,6|2,1:0|0:0,0:0:0:0:
436,176,168706,38,0,L|436:128,2,32.5,8|8|8,3:0|3:0|1:0,0:0:0:0:
364,156,169006,2,0,L|364:96,1,52,2|2,0:0|0:0,0:0:0:0:
288,56,169306,38,0,P|252:68|212:48,1,65,6|0,1:0|0:0,0:0:0:0:
136,24,169606,70,0,L|136:104,1,71.5000021820069,6|0,1:0|0:0,0:0:0:0:
136,204,169906,6,0,P|175:193|216:216,1,77.999997619629,6|0,1:0|0:0,0:0:0:0:
312,268,170206,70,0,L|412:268,1,84.4999961318971,6|8,0:1|1:0,0:0:0:0:
472,320,170506,5,2,1:0:0:0:
512,236,170656,2,0,P|520:204|511:173,1,65,4|2,1:0|1:0,0:0:0:0:
428,132,170956,2,0,P|419:101|428:70,1,65,8|2,1:0|1:0,0:0:0:0:
344,32,171256,2,0,L|260:32,2,65,8|2|8,1:0|1:0|1:0,0:0:0:0:
312,116,171706,69,6,1:0:0:0:
132,116,172006,2,0,P|125:84|136:54,1,65,2|8,1:0|1:0,0:0:0:0:
312,116,172456,2,0,P|324:146|318:178,2,65,0|0|8,1:0|1:0|1:0,0:0:0:0:
132,116,173056,5,6,1:0:0:0:
72,288,173356,2,0,P|131:310|190:286,1,130,8|0,1:0|1:0,0:0:0:0:
256,220,173806,2,0,L|256:155,2,65,2|8|0,1:0|1:0|1:0,0:0:0:0:
324,284,174256,69,6,1:0:0:0:
168,192,174556,2,0,L|168:62,1,130,8|0,1:0|1:0,0:0:0:0:
344,20,175156,2,0,L|344:85,1,65,8|2,1:0|1:0,0:0:0:0:
268,132,175456,5,6,1:0:0:0:
432,52,175756,2,0,L|432:188,1,130,8|0,1:0|1:0,0:0:0:0:
428,272,176206,70,0,P|393:264|364:276,1,65,0|8,1:0|1:0,0:0:0:0:
312,344,176506,2,0,L|312:204,1,130,6|0,1:0|1:0,0:0:0:0:
312,124,176956,5,8,1:0:0:0:
232,168,177106,2,0,P|188:176|160:164,2,65,0|8|0,1:0|1:0|1:0,0:0:0:0:
312,124,177556,69,8,1:0:0:0:
312,32,177706,1,8,1:0:0:0:
224,60,177856,6,0,P|160:88|96:60,1,130,6|2,1:0|0:0,0:0:0:0:
32,32,178306,37,0,1:0:0:0:
16,112,178456,2,0,L|16:236,1,116.999996429443,14|0,1:0|0:0,0:0:0:0:
12,312,178906,1,0,1:0:0:0:
84,276,179056,6,0,P|140:256|204:280,1,116.999996429443,6|0,3:0|0:0,0:0:0:0:
256,324,179506,1,0,1:0:0:0:
318,271,179656,2,0,P|374:256|428:276,1,116.999996429443,14|0,1:0|0:0,0:0:0:0:
256,324,180256,6,0,L|276:180,1,130,6|2,1:0|0:0,0:0:0:0:
288,116,180706,69,0,1:0:0:0:
211,152,180856,2,0,P|158:172|103:154,1,116.999996429443,14|0,1:0|0:0,0:0:0:0:
48,92,181306,1,0,1:0:0:0:
12,164,181456,2,0,L|12:296,1,116.999996429443,6|0,3:0|0:0,0:0:0:0:
160,347,182056,6,0,P|187:338|215:343,1,58.4999982147217,12|8,1:0|1:0,0:0:0:0:
296,364,182356,1,8,1:0:0:0:
376,360,182506,1,8,1:0:0:0:
420,296,182656,6,0,L|420:148,1,130,6|2,1:0|1:0,0:0:0:0:
284,72,183256,38,0,P|256:81|228:76,1,58.4999982147217,0|0,1:0|0:0,0:0:0:0:
148,55,183556,2,0,P|119:50|92:59,1,58.4999982147217,6|0,1:0|0:0,0:0:0:0:
68,136,183856,6,0,L|68:264,1,116.999996429443,0|0,1:0|1:0,0:0:0:0:
216,320,184456,2,0,P|243:310|271:315,1,58.4999982147217,6|0,1:0|0:0,0:0:0:0:
351,336,184756,2,0,P|379:340|406:331,1,58.4999982147217,0|0,1:0|0:0,0:0:0:0:
436,244,185056,6,0,L|436:112,1,130,6|2,1:0|1:0,0:0:0:0:
288,44,185656,70,0,L|224:56,1,58.4999982147217,0|0,1:0|0:0,0:0:0:0:
176,116,185956,2,0,L|240:140,1,58.4999982147217,0|0,1:0|0:0,0:0:0:0:
308,168,186256,54,0,P|256:216|312:212,1,162.5,6|0,1:0|0:0,0:0:0:0:
