osu file format v14

[General]
AudioFilename: audio.mp3
AudioLeadIn: 0
PreviewTime: 9945
Countdown: 0
SampleSet: Soft
StackLeniency: 0.4
Mode: 0
LetterboxInBreaks: 0
EpilepsyWarning: 1
WidescreenStoryboard: 1

[Editor]
Bookmarks: 19545,29145,38745
DistanceSpacing: 0.9
BeatDivisor: 4
GridSize: 8
TimelineZoom: 2.4

[Metadata]
Title:Chase Me
TitleUnicode:Chase Me
Artist:Dreamcatcher
ArtistUnicode:드림캐쳐
Creator:DominiGG
Version:Minorsonek's Insane
Source:
Tags:gero minorsonek megapcmx nightmare rock krock 드림캐쳐 JiU SuA Siyeon Handong Yoohyeon Dami Gahyeon kpop Short version 드림캐쳐
BeatmapID:1570668
BeatmapSetID:744531

[Difficulty]
HPDrainRate:6
CircleSize:4.2
OverallDifficulty:8
ApproachRate:9
SliderMultiplier:1.6
SliderTickRate:1

[Events]
//Background and Video events
0,0,"dream.jpg",0,0
//Break Periods
//Storyboard Layer 0 (Background)
//Storyboard Layer 1 (Fail)
//Storyboard Layer 2 (Pass)
//Storyboard Layer 3 (Foreground)
Sprite,Foreground,Centre,"sb\hb2.png",0,240 F,0,0,315,0,0.2 V,0,0,315,0.2,0.2,1.2,1.313 P,0,0,315,A MX,2,345,,152 MX,2,345,645,152,271 MX,2,645,795,271,190 MX,2,795,1095,190,314 MX,2,1095,1395,314,98 MX,0,1395,1432,98,88.22995 MX,0,1432,1470,88.22995,80.42049 MX,0,1470,1507,80.42049,75.12688 MX,0,1507,1545,75.12688,72.53946 MX,0,1545,1582,72.53946,72.75492 MX,0,1582,1620,72.75492,75.77284 MX,0,1620,1657,75.77284,81.87693 MX,0,1657,1695,81.87693,90.14948 MX,0,1695,1732,90.14948,100.6019 MX,0,1732,1770,100.6019,112.8677 MX,0,1770,1807,112.8677,126.5171 MX,0,1807,1845,126.5171,141.0713 MX,0,1845,1882,141.0713,156.0185 MX,0,1882,1920,156.0185,170.7134 MX,0,1920,1957,170.7134,184.7215 MX,0,1957,1995,184.7215,197.5349 MX,0,1995,2032,197.5349,208.7006 MX,0,2032,2070,208.7006,217.8222 MX,0,2070,2107,217.8222,224.5732 MX,0,2107,2145,224.5732,228.7085 MX,2,2145,2445,228.7085,228 MX,2,2445,2745,228,314 MX,2,2745,3045,314,344 MX,2,3045,3195,344,370 MX,2,3195,3645,370,147 MX,2,3645,3945,147,89 MX,0,3945,3982,89,102.6891 MX,0,3982,4020,102.6891,116.9611 MX,0,4020,4057,116.9611,131.6792 MX,0,4057,4095,131.6792,146.6385 MX,0,4095,4132,146.6385,161.5964 MX,0,4132,4170,161.5964,176.3194 MX,0,4170,4207,176.3194,190.6255 MX,0,4207,4245,190.6255,204.4003 MX,0,4245,4282,204.4003,217.9798 MX,0,4282,4320,217.9798,232.1557 MX,0,4320,4357,232.1557,246.816 MX,0,4357,4395,246.816,261.7582 MX,0,4395,4432,261.7582,276.7224 MX,0,4432,4470,276.7224,291.4438 MX,0,4470,4507,291.4438,305.708 MX,0,4507,4545,305.708,319 MX,2,4545,5145,319,469 MX,2,5145,5445,469,499 MX,2,5445,5595,499,525 MX,2,5595,6045,525,461 MX,0,6045,6082,461,446.058 MX,0,6082,6120,446.058,431.1161 MX,0,6120,6157,431.1161,416.1742 MX,0,6157,6195,416.1742,401.2322 MX,0,6195,6232,401.2322,386.2903 MX,0,6232,6270,386.2903,371.3483 MX,0,6270,6307,371.3483,356.4064 MX,0,6307,6345,356.4064,341.4644 MX,2,6345,6645,341.4644,196 MX,2,6645,6945,196,166 MX,2,6945,7095,166,140 MX,2,7095,7545,140,206 MX,0,7545,7582,206,202.9588 MX,0,7582,7620,202.9588,205.2559 MX,0,7620,7657,205.2559,213.3288 MX,0,7657,7695,213.3288,225.7502 MX,0,7695,7732,225.7502,240.2975 MX,0,7732,7770,240.2975,254.3362 MX,0,7770,7807,254.3362,265.2809 MX,0,7807,7845,265.2809,269.8846 MX,0,7845,7882,269.8846,269.1586 MX,0,7882,7920,269.1586,262.4497 MX,0,7920,7957,262.4497,250.9366 MX,0,7957,7995,250.9366,236.6264 MX,2,7995,8145,236.6264,132 MX,0,8145,8182,132,129.8314 MX,0,8182,8220,129.8314,129.443 MX,0,8220,8257,129.443,131.1422 MX,0,8257,8295,131.1422,134.8976 MX,0,8295,8332,134.8976,140.6388 MX,0,8332,8370,140.6388,148.257 MX,0,8370,8407,148.257,157.8453 MX,0,8407,8445,157.8453,168.7665 MX,0,8445,8482,168.7665,181.0053 MX,0,8482,8520,181.0053,194.3251 MX,0,8520,8557,194.3251,208.4681 MX,0,8557,8595,208.4681,223.1609 MX,0,8595,8632,223.1609,238.1189 MX,0,8632,8670,238.1189,252.9923 MX,0,8670,8707,252.9923,267.5273 MX,0,8707,8745,267.5273,281.4395 MX,0,8745,8782,281.4395,294.4585 MX,0,8782,8820,294.4585,306.3308 MX,0,8820,8857,306.3308,316.8245 MX,0,8857,8895,316.8245,325.7336 MX,0,8895,8932,325.7336,332.5481 MX,0,8932,8970,332.5481,337.6868 MX,0,8970,9007,337.6868,340.8192 MX,0,9007,9045,340.8192,341.8833 MX,0,9045,9082,341.8833,340.8564 MX,0,9082,9120,340.8564,337.7555 MX,0,9120,9157,337.7555,332.6377 MX,0,9157,9195,332.6377,325.5054 MX,2,9195,9345,325.5054,410 MX,0,9345,9382,410,410.6635 MX,0,9382,9420,410.6635,411.327 MX,0,9420,9457,411.327,411.9904 MX,0,9457,9495,411.9904,412.6539 MX,0,9495,9532,412.6539,413.3174 MX,0,9532,9570,413.3174,413.9809 MX,0,9570,9607,413.9809,414.6443 MX,0,9607,9645,414.6443,415.3078 MX,0,9645,9682,415.3078,415.9713 MX,0,9682,9720,415.9713,416.6348 MX,0,9720,9757,416.6348,417.2983 MX,0,9757,9795,417.2983,417.9618 MX,2,9795,9945,417.9618,425 MX,2,9945,10245,425 MX,0,10245,10282,425,405.0761 MX,0,10282,10320,405.0761,385.1523 MX,0,10320,10357,385.1523,365.2284 MX,0,10357,10395,365.2284,345.3045 MX,2,10395,10545,345.3045,196 MX,0,10545,10582,196,215.922 MX,0,10582,10620,215.922,235.8439 MX,0,10620,10657,235.8439,255.7658 MX,0,10657,10695,255.7658,275 MX,2,10695,10845,275,417 MX,0,10845,10882,417,397.0761 MX,0,10882,10920,397.0761,377.1523 MX,0,10920,10957,377.1523,357.2284 MX,0,10957,10995,357.2284,337.3045 MX,2,10995,11145,337.3045,278 MX,2,11145,11295,278 MX,2,11295,11445,278,221 MX,0,11445,11482,221,207.889 MX,0,11482,11520,207.889,198.5883 MX,0,11520,11557,198.5883,193.5417 MX,0,11557,11595,193.5417,193.46 MX,0,11595,11632,193.46,197.8842 MX,0,11632,11670,197.8842,207.0413 MX,0,11670,11707,207.0413,219.9333 MX,0,11707,11745,219.9333,236.08 MX,2,11745,12045,236.08,236 MX,2,12045,12345,236,417 MX,2,12345,12645,417 MX,0,12645,12682,417,418.4958 MX,0,12682,12720,418.4958,419.9916 MX,0,12720,12757,419.9916,421.4874 MX,0,12757,12795,421.4874,422.9832 MX,2,12795,12945,422.9832,507 MX,0,12945,12982,507,505.2567 MX,0,12982,13020,505.2567,503.5133 MX,0,13020,13057,503.5133,501.77 MX,0,13057,13095,501.77,500.0266 MX,2,13095,13245,500.0266,367 MX,0,13245,13282,367,365.2567 MX,0,13282,13320,365.2567,363.5133 MX,0,13320,13357,363.5133,361.77 MX,0,13357,13395,361.77,360.0266 MX,2,13395,13545,360.0266,309 MX,2,13545,13695,309 MX,2,13695,13845,309,274 MX,0,13845,13882,274,262.3154 MX,0,13882,13920,262.3154,247.2083 MX,0,13920,13957,247.2083,229.6234 MX,0,13957,13995,229.6234,210.2024 MX,0,13995,14032,210.2024,190.3376 MX,0,14032,14070,190.3376,171.0622 MX,0,14070,14107,171.0622,153.6759 MX,0,14107,14145,153.6759,139 MX,2,14145,14445,139 MX,0,14445,14482,139,143.7122 MX,0,14482,14520,143.7122,145.7063 MX,0,14520,14557,145.7063,144.947 MX,0,14557,14595,144.947,141.6365 MX,2,14595,14745,141.6365,101 MX,0,14745,14782,101,120.9239 MX,0,14782,14820,120.9239,140.8477 MX,0,14820,14857,140.8477,160.7716 MX,0,14857,14895,160.7716,180.6955 MX,2,14895,15045,180.6955,276 MX,2,15045,15195,276,216 MX,2,15195,15345,216,180 MX,0,15345,15382,180,176.1215 MX,0,15382,15420,176.1215,175.2497 MX,0,15420,15457,175.2497,177.4013 MX,0,15457,15495,177.4013,182 MX,2,15495,15645,182,259 MX,0,15645,15682,259,262.2168 MX,0,15682,15720,262.2168,262.791 MX,0,15720,15757,262.791,260.7183 MX,0,15757,15795,260.7183,256.0224 MX,2,15795,15945,256.0224,180 MX,2,15945,16245,180,256 MX,0,16245,16282,256,275.9239 MX,0,16282,16320,275.9239,295.8477 MX,0,16320,16357,295.8477,315.7716 MX,0,16357,16395,315.7716,335.6955 MX,2,16395,16545,335.6955,466 MX,0,16545,16582,466,446.0761 MX,0,16582,16620,446.0761,426.1523 MX,0,16620,16657,426.1523,406.2284 MX,0,16657,16695,406.2284,386.3045 MX,2,16695,16845,386.3045,524 MX,0,16845,16882,524,514.4578 MX,0,16882,16920,514.4578,507.9099 MX,0,16920,16957,507.9099,504.2725 MX,0,16957,16995,504.2725,504.3549 MX,0,16995,17032,504.3549,507.6904 MX,0,17032,17070,507.6904,513.9547 MX,2,17070,17145,513.9547,529 MX,2,17145,17445,529,365 MX,2,17445,17595,365,443 MX,2,17595,17895,443,377 MX,0,17895,17932,377,359.5144 MX,0,17932,17970,359.5144,340.8663 MX,0,17970,18007,340.8663,321.4376 MX,0,18007,18045,321.4376,301.5324 MX,0,18045,18082,301.5324,281.5958 MX,0,18082,18120,281.5958,262.094 MX,0,18120,18157,262.094,243.3888 MX,0,18157,18195,243.3888,225.7488 MX,2,18195,18345,225.7488,160 MX,2,18345,18645,160,99 MX,2,18645,18945,99,107 MX,0,18945,18982,107,130.4761 MX,0,18982,19020,130.4761,157.6183 MX,0,19020,19057,157.6183,185.0097 MX,0,19057,19094,185.0097,209.3463 MX,2,19094,19245,209.3463,320 MX,0,19245,19282,320,300.1436 MX,0,19282,19320,300.1436,291.3678 MX,0,19320,19357,291.3678,295.437 MX,0,19357,19395,295.437,311 MX,2,19395,19545,311,404 MX,2,19545,19845,404 MX,0,19845,19882,404,397.4032 MX,0,19882,19920,397.4032,395.1933 MX,0,19920,19957,395.1933,398.1876 MX,0,19957,19995,398.1876,405.5325 MX,2,19995,20145,405.5325,514 MX,0,20145,20182,514,521.694 MX,0,20182,20220,521.694,524.9655 MX,0,20220,20257,524.9655,522.5197 MX,0,20257,20295,522.5197,516 MX,2,20295,20445,516,472 MX,0,20445,20482,472,450.0693 MX,0,20482,20520,450.0693,428.1385 MX,0,20520,20557,428.1385,406.2078 MX,0,20557,20595,406.2078,384.2771 MX,2,20595,20745,384.2771,239 MX,0,20745,20782,239,246.5567 MX,0,20782,20820,246.5567,250.0023 MX,0,20820,20857,250.0023,248.0623 MX,0,20857,20895,248.0623,242 MX,0,20895,20932,242,248.0623 MX,0,20932,20970,248.0623,250.0023 MX,0,20970,21007,250.0023,246.5567 MX,0,21007,21045,246.5567,239 MX,2,21045,21345,239,176 MX,2,21345,21645,176,127 MX,2,21645,21945,127,95 MX,2,21945,22245,95 MX,0,22245,22282,95,115.8823 MX,0,22282,22320,115.8823,137.6688 MX,0,22320,22357,137.6688,159.42 MX,0,22357,22395,159.42,179.8895 MX,2,22395,22545,179.8895,338 MX,0,22545,22582,338,317.1318 MX,0,22582,22620,317.1318,295.343 MX,0,22620,22657,295.343,273.6992 MX,0,22657,22695,273.6992,253.2293 MX,2,22695,22845,253.2293,135 MX,0,22845,22882,135,126.7299 MX,0,22882,22920,126.7299,123.0279 MX,0,22920,22957,123.0279,125.3072 MX,0,22957,22995,125.3072,132 MX,2,22995,23145,132,296 MX,0,23145,23182,296,274.8057 MX,0,23182,23220,274.8057,252.9876 MX,0,23220,23257,252.9876,231.0909 MX,0,23257,23295,231.0909,209.8417 MX,0,23295,23332,209.8417,189.8017 MX,0,23332,23370,189.8017,171.5709 MX,0,23370,23407,171.5709,155.6822 MX,0,23407,23445,155.6822,142.8455 MX,2,23445,23745,142.8455,451 MX,0,23745,23782,451,448.9465 MX,0,23782,23820,448.9465,446.893 MX,0,23820,23857,446.893,444.8395 MX,0,23857,23895,444.8395,442.786 MX,2,23895,24045,442.786,527 MX,0,24045,24082,527,528.827 MX,0,24082,24120,528.827,530.654 MX,0,24120,24157,530.654,532.481 MX,0,24157,24195,532.481,534.308 MX,2,24195,24345,534.308,464 MX,0,24345,24382,464,460.2425 MX,0,24382,24420,460.2425,450.8554 MX,0,24420,24457,450.8554,437.1783 MX,0,24457,24495,437.1783,423.149 MX,0,24495,24532,423.149,414.2534 MX,0,24532,24570,414.2534,411.8703 MX,0,24570,24607,411.8703,417.1166 MX,0,24607,24645,417.1166,428.6062 MX,2,24645,24795,428.6062,429 MX,2,24795,24945,429,270 MX,0,24945,24982,270,291.9224 MX,0,24982,25020,291.9224,313.8448 MX,0,25020,25057,313.8448,335.7672 MX,0,25057,25095,335.7672,357.6896 MX,2,25095,25245,357.6896,158 MX,0,25245,25282,158,179.9019 MX,0,25282,25320,179.9019,201.8039 MX,0,25320,25357,201.8039,223.7058 MX,0,25357,25395,223.7058,245.6077 MX,2,25395,25545,245.6077,84 MX,0,25545,25582,84,70.03647 MX,0,25582,25620,70.03647,59.47113 MX,0,25620,25657,59.47113,55.33977 MX,0,25657,25695,55.33977,59.06597 MX,0,25695,25732,59.06597,70.41528 MX,0,25732,25770,70.41528,84.27518 MX,0,25770,25807,84.27518,97.42152 MX,0,25807,25845,97.42152,105.9719 MX,2,25845,26145,105.9719,68 MX,0,26145,26182,68,89.91962 MX,0,26182,26220,89.91962,111.8392 MX,0,26220,26257,111.8392,133.7589 MX,0,26257,26295,133.7589,155.6785 MX,0,26295,26332,155.6785,177.5981 MX,0,26332,26370,177.5981,199.5178 MX,0,26370,26407,199.5178,221.4374 MX,0,26407,26445,221.4374,243 MX,2,26445,26595,243 MX,2,26595,26745,243,203 MX,0,26745,26782,203,186.3032 MX,0,26782,26820,186.3032,173.5956 MX,0,26820,26857,173.5956,165.9754 MX,0,26857,26895,165.9754,164.4601 MX,2,26895,27045,164.4601,200 MX,0,27045,27082,200,221.9076 MX,0,27082,27120,221.9076,243.8152 MX,0,27120,27157,243.8152,265.7227 MX,0,27157,27195,265.7227,287 MX,2,27195,27345,287,425 MX,0,27345,27382,425,406.8443 MX,0,27382,27420,406.8443,391.5135 MX,0,27420,27457,391.5135,380.1924 MX,0,27457,27495,380.1924,373.052 MX,0,27495,27532,373.052,370.5114 MX,0,27532,27570,370.5114,373.0579 MX,0,27570,27607,373.0579,380.0797 MX,0,27607,27645,380.0797,391.3215 MX,2,27645,27795,391.3215,442 MX,2,27795,27945,442,459 MX,0,27945,27982,459,431.09 MX,0,27982,28020,431.09,403.1799 MX,0,28020,28057,403.1799,375.2699 MX,0,28057,28094,375.2699,347.3599 MX,2,28094,28245,347.3599,226 MX,0,28245,28282,226,253.9084 MX,0,28282,28320,253.9084,281.8168 MX,0,28320,28357,281.8168,309.7253 MX,0,28357,28394,309.7253,337 MX,2,28394,28545,337,477 MX,0,28545,28582,477,490.1909 MX,0,28582,28620,490.1909,494.8607 MX,0,28620,28657,494.8607,490.6669 MX,0,28657,28694,490.6669,477.5085 MX,2,28694,28845,477.5085,252 F,1,28815,29115,0.2,0 MX,2,28845,28995,252,412
//Storyboard Sound Samples

[TimingPoints]
345,300,4,2,1,30,1,0
345,-133.333333333333,4,2,1,30,0,0
7995,-133.333333333333,4,2,1,5,0,0
8145,-133.333333333333,4,2,1,30,0,0
9195,-133.333333333333,4,2,1,5,0,0
9345,-250.333333333333,4,2,1,30,0,0
9795,-250.333333333333,4,2,1,5,0,0
9945,-100,4,2,1,30,0,0
17070,-100,4,2,1,5,0,0
17145,-100,4,2,1,30,0,0
18945,-71.4285714285714,4,2,1,30,0,0
19245,-62.5,4,2,1,30,0,0
19545,-90.9090909090909,4,2,1,30,0,0
24345,-133.333333333333,4,2,1,30,0,0
24945,-90.9090909090909,4,2,1,30,0,0
25545,-133.333333333333,4,2,1,30,0,0
26145,-90.9090909090909,4,2,1,30,0,0
27795,-71.4285714285714,4,2,1,30,0,0
29145,-100,4,2,1,30,0,0
30345,-83.3333333333333,4,2,1,30,0,0
31545,-100,4,2,1,30,0,0
32745,-83.3333333333333,4,2,1,30,0,0
33945,-100,4,2,1,30,0,0
35145,-83.3333333333333,4,2,1,30,0,0
36345,-90.9090909090909,4,2,1,30,0,0
37470,-90.9090909090909,4,2,1,5,0,0
37545,-71.4285714285714,4,2,1,30,0,0
38145,-62.5,4,2,1,30,0,0
38745,-90.9090909090909,4,2,1,30,0,0
41970,-90.9090909090909,4,2,1,5,0,0
42045,-90.9090909090909,4,2,1,30,0,0
43545,-83.3333333333333,4,2,1,40,0,0
43770,-83.3333333333333,4,2,1,5,0,0
43845,-100,4,2,1,40,0,0
44745,-83.3333333333333,4,2,1,40,0,0
44970,-83.3333333333333,4,2,1,5,0,0
45045,-100,4,2,1,40,0,0
45945,-142.857142857143,4,2,1,30,0,0
47070,-142.857142857143,4,2,1,5,0,0
47145,-66.6666666666667,4,2,1,30,0,0
48270,-66.6666666666667,4,2,1,5,0,0
48345,-83.3333333333333,4,2,1,60,0,1
50970,-83.3333333333333,4,2,1,5,0,1
51045,-83.3333333333333,4,2,1,60,0,1
53070,-83.3333333333333,4,2,1,5,0,1
53145,-83.3333333333333,4,2,1,60,0,1
62670,-83.3333333333333,4,2,1,5,0,1
62745,-76.9230769230769,4,2,1,60,0,1
63345,-71.4285714285714,4,2,1,60,0,1
65145,-66.6666666666667,4,2,1,60,0,1
67545,-83.3333333333333,4,2,1,30,0,0

[Colours]
Combo1 : 148,148,148
Combo2 : 220,220,220

[HitObjects]
88,90,345,5,2,0:0:0:0:
207,165,645,1,0,0:0:0:0:
126,161,795,1,2,0:0:0:0:
250,96,1095,1,2,0:0:0:0:
34,149,1395,2,0,P|10:73|166:92,1,300.000011444092,2|2,0:0|0:0,0:0:0:0:
164,230,2445,1,2,0:0:0:0:
250,96,2745,5,2,0:0:0:0:
280,239,3045,1,0,0:0:0:0:
306,161,3195,1,2,0:0:0:0:
83,277,3645,1,0,0:0:0:0:
25,367,3945,2,0,B|82:396|141:367|141:367|198:337|255:366,1,240.000009155274,2|2,0:0|0:0,0:0:0:0:
405,353,5145,5,2,0:0:0:0:
435,210,5445,1,0,0:0:0:0:
461,288,5595,1,0,0:0:0:0:
397,95,6045,2,0,L|261:83,1,120.000004577637,2|0,0:0|0:0,0:0:0:0:
132,69,6645,1,2,0:0:0:0:
102,212,6945,1,2,0:0:0:0:
76,134,7095,1,2,0:0:0:0:
142,338,7545,6,0,P|180:288|167:356,1,180.000006866455,2|0,0:0|0:0,0:0:0:0:
68,347,8145,2,0,P|181:216|261:380,1,420.000016021729,0|0,0:0|0:0,0:0:0:0:
346,288,9345,6,0,L|354:192,1,95.8721723873412,0|0,0:0|0:0,0:0:0:0:
361,101,9945,5,2,0:0:0:0:
361,101,10245,2,0,L|281:94,1,80,2|0,0:0|0:0,0:0:0:0:
132,161,10545,2,0,L|211:154,1,80,0|0,0:0|0:0,0:0:0:0:
353,228,10845,2,0,L|273:221,1,80,0|0,0:0|0:0,0:0:0:0:
214,293,11145,1,0,0:0:0:0:
214,293,11295,1,0,0:0:0:0:
157,227,11445,2,0,P|129:298|173:363,1,160,0|0,0:0|0:0,0:0:0:0:
172,361,12045,1,0,0:0:0:0:
353,228,12345,5,0,0:0:0:0:
353,228,12645,2,0,L|359:148,1,80,2|0,0:0|0:0,0:0:0:0:
443,298,12945,2,0,L|436:218,1,80,0|0,0:0|0:0,0:0:0:0:
303,376,13245,2,0,L|296:296,1,80,0|0,0:0|0:0,0:0:0:0:
245,228,13545,1,0,0:0:0:0:
245,228,13695,1,0,0:0:0:0:
210,302,13845,2,0,P|146:345|75:317,1,160,0|0,0:0|0:0,0:0:0:0:
75,317,14445,2,0,P|82:275|76:232,1,80,2|2,0:0|0:0,0:0:0:0:
37,155,14745,6,0,L|117:148,1,80,2|0,0:0|0:0,0:0:0:0:
212,137,15045,1,2,0:0:0:0:
152,35,15195,1,2,0:0:0:0:
116,148,15345,2,0,P|111:187|118:226,1,80,2|0,0:0|0:0,0:0:0:0:
195,355,15645,2,0,P|199:315|192:276,1,80,2|2,0:0|0:0,0:0:0:0:
116,148,15945,5,2,0:0:0:0:
192,276,16245,6,0,L|272:283,1,80,2|2,0:0|0:0,0:0:0:0:
402,351,16545,2,0,L|322:358,1,80,2|0,0:0|0:0,0:0:0:0:
460,278,16845,2,0,P|440:219|453:157,1,120,2|0,0:0|0:0,0:0:0:0:
465,137,17145,5,2,0:0:0:0:
301,53,17445,1,8,0:3:0:0:
379,28,17595,1,2,0:0:0:0:
313,166,17895,2,0,P|235:143|157:168,1,160,8|0,0:3|0:0,0:0:0:0:
96,228,18345,5,8,0:3:0:0:
35,67,18645,1,0,0:0:0:0:
43,293,18945,6,0,P|98:314|161:279,1,111.999996582031,2|0,0:0|0:0,0:0:0:0:
256,103,19245,2,0,P|227:158|247:216,1,128,2|0,0:0|0:0,0:0:0:0:
340,296,19545,5,4,0:0:0:0:
340,296,19845,2,0,P|331:255|343:208,1,88.000002685547,2|8,2:0|2:1,0:0:0:0:
450,78,20145,2,0,P|461:120|452:162,1,88.000002685547,2|0,0:0|0:0,0:0:0:0:
408,255,20445,2,0,L|320:262,1,88.000002685547,2|0,0:0|0:0,0:0:0:0:
175,233,20745,2,0,P|186:275|178:318,2,88.000002685547,2|0|8,0:0|0:0|0:1,0:0:0:0:
112,90,21345,1,8,0:1:0:0:
63,231,21645,1,0,0:0:0:0:
31,15,21945,5,8,0:1:0:0:
31,15,22245,2,0,P|72:6|118:18,1,88.000002685547,2|8,0:0|0:1,0:0:0:0:
274,132,22545,2,0,P|233:141|186:128,1,88.000002685547,8|0,0:1|0:0,0:0:0:0:
71,88,22845,2,0,P|59:130|68:172,1,88.000002685547,0|8,0:0|0:1,0:0:0:0:
232,230,23145,6,0,P|170:223|68:305,1,176.000005371094,2|0,0:0|0:0,0:0:0:0:
387,107,23745,2,0,L|378:11,1,88.000002685547,8|0,0:0|0:0,0:0:0:0:
463,219,24045,2,0,L|471:123,1,88.000002685547,2|0,0:0|0:0,0:0:0:0:
400,289,24345,6,0,P|382:261|386:310,1,120.000004577637,8|0,0:1|0:0,0:0:0:0:
365,311,24795,1,0,0:0:0:0:
206,363,24945,2,0,L|301:371,1,88.000002685547,8|0,0:0|0:0,0:0:0:0:
94,287,25245,2,0,L|189:278,1,88.000002685547,2|8,0:0|0:1,0:0:0:0:
20,384,25545,6,0,P|-8:366|41:370,1,120.000004577637,2|0,0:0|0:0,0:0:0:0:
4,156,26145,2,0,L|179:171,1,176.000005371094,2|0,0:0|0:0,0:0:0:0:
179,171,26595,1,0,0:0:0:0:
139,103,26745,2,0,P|106:142|101:186,1,88.000002685547,8|0,0:1|0:0,0:0:0:0:
136,269,27045,2,0,L|223:261,1,88.000002685547,2|0,0:0|0:0,0:0:0:0:
361,321,27345,6,0,P|312:265|331:166,1,176.000005371094,8|0,0:0|0:0,0:0:0:0:
378,98,27795,1,8,0:1:0:0:
395,233,27945,2,0,L|283:242,1,111.999996582031,0|8,0:0|0:1,0:0:0:0:
162,340,28245,2,0,L|273:349,1,111.999996582031,0|8,0:0|0:1,0:0:0:0:
413,215,28545,6,0,P|431:156|395:93,1,111.999996582031,8|2,0:0|0:0,0:0:0:0:
188,211,28845,5,8,0:0:0:0:
348,161,28995,1,0,3:0:0:0:
137,133,29145,6,0,L|49:125,1,80,4|0,0:0|0:0,0:0:0:0:
29,277,29445,2,0,L|117:269,1,80,0|0,3:0|0:0,0:0:0:0:
205,195,29745,2,0,L|293:187,1,80,0|0,3:0|0:0,0:0:0:0:
313,339,30045,2,0,L|225:331,1,80,0|0,3:0|0:0,0:0:0:0:
380,247,30345,6,0,P|429:223|483:218,1,95.9999970703126,0|0,3:0|0:0,0:0:0:0:
284,187,30645,2,0,P|235:163|181:158,1,95.9999970703126,0|0,3:0|0:0,0:0:0:0:
383,139,30945,2,0,P|432:115|486:110,1,95.9999970703126,0|0,3:0|0:0,0:0:0:0:
287,79,31245,2,0,P|238:55|184:50,1,95.9999970703126,0|0,3:0|0:0,0:0:0:0:
82,105,31545,6,0,L|74:193,1,80,4|0,0:0|0:0,0:0:0:0:
227,213,31845,2,0,L|219:125,1,80,0|0,3:0|0:0,0:0:0:0:
138,247,32145,2,0,L|130:335,1,80,0|0,3:0|0:0,0:0:0:0:
283,355,32445,2,0,L|275:267,1,80,0|0,3:0|0:0,0:0:0:0:
296,124,32745,6,0,P|345:100|399:95,1,95.9999970703126,4|0,0:0|0:0,0:0:0:0:
461,204,33045,2,0,P|416:186|368:184,1,95.9999970703126,0|0,3:0|0:0,0:0:0:0:
310,299,33345,2,0,P|359:275|413:270,1,95.9999970703126,0|0,3:0|0:0,0:0:0:0:
474,378,33645,2,0,P|429:360|382:358,1,95.9999970703126,0|0,3:0|0:0,0:0:0:0:
217,379,33945,6,0,L|209:299,1,80,4|0,0:0|0:0,0:0:0:0:
64,350,34245,2,0,L|72:271,1,80,0|0,3:0|0:0,0:0:0:0:
142,143,34545,2,0,L|149:222,1,80,0|0,3:0|0:0,0:0:0:0:
294,171,34845,2,0,L|286:250,1,80,0|0,3:0|0:0,0:0:0:0:
344,333,35145,6,0,P|391:330|436:312,1,95.9999970703126,0|0,3:0|0:0,0:0:0:0:
374,239,35445,2,0,P|414:213|443:175,1,95.9999970703126,0|0,3:0|0:0,0:0:0:0:
294,171,35745,2,0,P|246:168|201:150,1,95.9999970703126,0|0,3:0|0:0,0:0:0:0:
264,77,36045,2,0,P|223:51|194:13,1,95.9999970703126,0|0,3:0|0:0,0:0:0:0:
447,86,36345,6,0,L|359:93,1,88.000002685547,4|0,0:0|0:0,0:0:0:0:
286,250,36645,2,0,L|373:257,1,88.000002685547,0|0,3:0|0:0,0:0:0:0:
466,68,36945,1,0,3:0:0:0:
237,190,37245,2,0,P|209:250|242:318,1,132.00000402832,0|0,3:0|0:0,0:0:0:0:
253,336,37545,5,12,0:0:0:0:
364,310,37695,1,0,0:0:0:0:
286,250,37845,5,0,3:0:0:0:
175,224,37995,1,0,0:0:0:0:
361,180,38145,2,0,P|421:147|446:80,1,128,12|0,0:0|0:0,0:0:0:0:
139,91,38445,2,0,P|79:58|54:-9,1,128,6|0,0:0|0:0,0:0:0:0:
256,48,38745,5,4,0:0:0:0:
256,48,38895,1,8,0:1:0:0:
160,211,39195,5,0,3:0:0:0:
214,268,39345,2,0,P|236:230|234:186,1,88.000002685547,0|0,0:0|0:1,0:0:0:0:
137,288,39645,2,0,P|165:330|225:349,1,88.000002685547,0|8,0:0|0:1,0:0:0:0:
160,211,39945,2,0,P|100:217|71:334,1,176.000005371094,2|0,0:0|0:0,0:0:0:0:
270,357,40395,1,8,0:1:0:0:
407,211,40545,6,0,P|379:253|323:265,1,88.000002685547,8|0,0:0|0:0,0:0:0:0:
388,136,40845,2,0,P|432:137|467:161,1,88.000002685547,2|0,0:0|0:0,0:0:0:0:
330,187,41145,2,0,P|311:149|391:59,1,176.000005371094,8|0,0:0|0:0,0:0:0:0:
456,279,41595,1,0,3:0:0:0:
270,357,41745,6,0,P|298:297|241:223,1,132.00000402832,8|0,0:0|0:0,0:0:0:0:
157,241,42045,2,0,P|185:280|241:295,1,88.000002685547,2|8,0:0|0:1,0:0:0:0:
142,158,42345,2,0,P|102:175|78:211,1,88.000002685547,0|0,0:0|3:0,0:0:0:0:
157,349,42645,2,0,P|196:331|220:295,1,88.000002685547,0|0,0:0|3:0,0:0:0:0:
206,107,42945,2,0,P|170:81|127:78,1,88.000002685547,8|0,0:0|3:0,0:0:0:0:
16,263,43245,2,0,P|51:288|94:291,1,88.000002685547,0|0,3:0|3:0,0:0:0:0:
47,26,43545,6,0,L|190:38,1,143.999995605469,4|0,0:0|0:0,0:0:0:0:
225,57,43845,2,0,P|214:94|221:133,1,80,0|0,3:0|3:0,0:0:0:0:
345,189,44145,2,0,L|424:196,1,80,2|0,0:0|0:0,0:0:0:0:
375,93,44445,2,0,L|295:99,1,80,2|0,0:0|0:0,0:0:0:0:
178,181,44745,6,0,L|190:37,1,143.999995605469,0|0,3:0|0:0,0:0:0:0:
162,67,45045,2,0,P|125:78|86:71,1,80,0|0,3:0|0:0,0:0:0:0:
26,164,45345,2,0,L|32:243,1,80,0|0,3:0|0:0,0:0:0:0:
114,359,45645,2,0,L|120:279,1,80,0|0,3:0|0:0,0:0:0:0:
178,181,45945,6,0,B|202:136|240:126|240:126|317:150|349:72|322:26|212:17|241:126|241:126|234:167|261:199,1,419.999987182618,0|0,3:0|0:0,0:0:0:0:
278,236,47145,5,12,0:0:0:0:
421,182,47295,1,0,3:0:0:0:
236,125,47445,1,0,0:0:0:0:
350,284,47595,5,12,3:0:0:0:
396,78,47745,1,8,0:0:0:0:
423,323,47895,1,0,3:0:0:0:
396,355,47970,1,0,3:0:0:0:
363,371,48045,2,0,P|301:350|175:377,1,180.000006866455,12|0,0:0|0:0,0:0:0:0:
134,306,48345,6,0,P|152:263|137:207,1,95.9999970703126,4|0,0:0|0:0,0:0:0:0:
78,127,48645,2,0,P|121:145|176:130,1,95.9999970703126,8|0,0:0|0:0,0:0:0:0:
238,72,48945,1,0,3:0:0:0:
226,198,49095,1,0,0:0:0:0:
315,48,49245,1,0,3:0:0:0:
214,208,49395,6,0,L|118:215,1,95.9999970703126,12|0,0:0|0:0,0:0:0:0:
281,306,49695,2,0,L|376:313,1,95.9999970703126,0|8,0:0|0:0,0:0:0:0:
199,220,49995,2,0,L|103:227,1,95.9999970703126,0|0,3:0|0:0,0:0:0:0:
266,318,50295,2,0,L|361:325,1,95.9999970703126,0|8,3:0|0:0,0:0:0:0:
185,230,50595,1,0,0:0:0:0:
126,311,50745,6,0,P|57:297|22:236,1,143.999995605469,4|0,0:0|0:0,0:0:0:0:
5,151,51045,1,8,0:0:0:0:
103,230,51195,1,0,0:0:0:0:
115,78,51345,1,0,3:0:0:0:
231,161,51495,2,0,P|277:150|315:121,1,95.9999970703126,0|8,3:0|0:0,0:0:0:0:
410,26,51795,2,0,L|400:121,1,95.9999970703126,8|0,0:0|0:0,0:0:0:0:
435,236,52095,6,0,P|390:219|342:221,1,95.9999970703126,0|8,3:0|0:0,0:0:0:0:
287,317,52395,1,0,0:0:0:0:
198,196,52545,1,8,0:0:0:0:
339,150,52695,1,0,3:0:0:0:
223,271,52845,2,0,P|154:261|118:202,1,143.999995605469,8|0,0:0|0:0,0:0:0:0:
151,123,53145,6,0,L|246:114,1,95.9999970703126,4|0,0:0|0:0,0:0:0:0:
417,170,53445,2,0,P|414:122|386:84,1,95.9999970703126,8|0,0:0|0:0,0:0:0:0:
318,21,53745,1,0,3:0:0:0:
339,150,53895,1,0,3:0:0:0:
434,12,54045,1,8,0:0:0:0:
321,171,54195,6,0,P|274:175|228:163,1,95.9999970703126,12|0,0:0|0:0,0:0:0:0:
72,70,54495,2,0,P|119:65|165:77,1,95.9999970703126,2|8,0:0|0:0,0:0:0:0:
297,210,54795,2,0,P|250:198|211:171,1,95.9999970703126,0|0,3:0|0:0,0:0:0:0:
96,30,55095,2,0,P|143:42|182:69,1,95.9999970703126,0|8,3:0|0:0,0:0:0:0:
91,160,55395,1,0,0:0:0:0:
46,269,55545,6,0,P|90:253|138:265,1,95.9999970703126,4|0,0:0|0:0,0:0:0:0:
205,325,55845,1,8,0:0:0:0:
185,208,55995,1,0,0:0:0:0:
98,345,56145,1,0,3:0:0:0:
98,344,56295,2,0,P|94:296|81:250,1,95.9999970703126,0|8,3:0|0:0,0:0:0:0:
159,93,56595,6,0,L|149:204,1,95.9999970703126,0|0,3:0|0:0,0:0:0:0:
268,281,56895,2,0,L|259:185,1,95.9999970703126,0|8,0:0|3:0,0:0:0:0:
145,72,57195,2,0,L|135:183,1,95.9999970703126,0|0,0:0|3:0,0:0:0:0:
254,260,57495,2,0,L|245:164,1,95.9999970703126,0|8,3:0|0:0,0:0:0:0:
237,70,57795,1,0,0:0:0:0:
327,181,57945,6,0,P|370:199|416:187,1,95.9999970703126,4|0,0:0|0:0,0:0:0:0:
389,33,58245,2,0,P|368:75|376:121,1,95.9999970703126,8|0,0:0|0:0,0:0:0:0:
489,210,58545,1,0,3:0:0:0:
364,270,58695,1,0,0:0:0:0:
460,313,58845,1,0,3:0:0:0:
347,258,58995,6,0,L|251:249,1,95.9999970703126,12|0,0:0|0:0,0:0:0:0:
129,162,59295,2,0,L|224:153,1,95.9999970703126,2|8,0:0|0:0,0:0:0:0:
335,270,59595,2,0,L|239:261,1,95.9999970703126,0|0,3:0|0:0,0:0:0:0:
117,174,59895,2,0,L|212:165,1,95.9999970703126,0|8,3:0|0:0,0:0:0:0:
387,129,60195,6,0,P|378:56|335:120,1,191.999994140625,0|0,0:0|0:0,0:0:0:0:
430,226,60645,1,8,0:0:0:0:
307,253,60795,1,0,0:0:0:0:
454,248,60945,1,0,3:0:0:0:
286,226,61095,2,4,P|239:223|192:234,1,95.9999970703126,0|8,0:0|0:0,0:0:0:0:
101,349,61395,6,0,L|92:253,1,95.9999970703126,12|0,0:0|0:0,0:0:0:0:
185,144,61695,2,4,L|176:239,2,95.9999970703126,0|8|0,3:0|0:0|0:0,0:0:0:0:
243,66,62145,1,8,0:0:0:0:
101,120,62295,1,0,3:0:0:0:
301,5,62445,2,0,P|327:69|298:133,1,143.999995605469,8|0,0:0|0:0,0:0:0:0:
247,205,62745,6,0,P|297:210|333:246,1,103.999995239258,4|0,0:0|0:0,0:0:0:0:
221,369,63045,2,0,P|225:318|261:282,1,103.999995239258,8|0,0:0|0:0,0:0:0:0:
417,286,63345,1,0,3:0:0:0:
300,354,63495,1,0,0:0:0:0:
433,297,63645,1,8,0:0:0:0:
265,208,63795,1,4,3:0:0:0:
401,136,63945,6,0,L|512:125,1,111.999996582031,0|0,0:0|3:0,0:0:0:0:
212,66,64245,2,0,L|100:55,1,111.999996582031,8|0,0:0|0:0,0:0:0:0:
190,154,64545,1,8,0:0:0:0:
295,35,64695,1,0,3:0:0:0:
109,148,64845,2,0,P|124:205|196:241,1,111.999996582031,8|0,0:0|0:0,0:0:0:0:
302,259,65145,6,0,P|243:267|201:308,1,120.000004577637,4|0,0:0|0:0,0:0:0:0:
446,358,65445,2,0,P|480:310|480:251,1,120.000004577637,8|0,0:0|0:0,0:0:0:0:
423,148,65745,1,8,0:0:0:0:
392,281,65895,1,8,3:0:0:0:
356,96,66045,1,8,0:0:0:0:
236,225,66195,6,0,P|170:237|228:147,1,240.000009155274,12|0,0:0|3:0,0:0:0:0:
302,259,66645,1,8,0:0:0:0:
302,117,66795,2,0,P|390:78|365:172,1,240.000009155274,0|0,3:0|3:0,0:0:0:0:
220,142,67245,1,8,0:0:0:0:
234,299,67395,1,0,3:0:0:0:
236,333,67470,1,0,3:0:0:0:
239,367,67545,5,4,0:0:0:0:
