osu file format v14

[General]
AudioFilename: audio.mp3
AudioLeadIn: 0
PreviewTime: 9945
Countdown: 0
SampleSet: Soft
StackLeniency: 0.4
Mode: 0
LetterboxInBreaks: 0
EpilepsyWarning: 1
WidescreenStoryboard: 1

[Editor]
Bookmarks: 345,67545
DistanceSpacing: 0.9
BeatDivisor: 4
GridSize: 4
TimelineZoom: 1

[Metadata]
Title:Chase Me
TitleUnicode:Chase Me
Artist:Dreamcatcher
ArtistUnicode:드림캐쳐
Creator:DominiGG
Version:Gero's Normal
Source:
Tags:gero minorsonek megapcmx nightmare rock krock 드림캐쳐 JiU SuA Siyeon Handong Yoohyeon Dami Gahyeon kpop Short version 드림캐쳐
BeatmapID:1592431
BeatmapSetID:744531

[Difficulty]
HPDrainRate:4
CircleSize:3.5
OverallDifficulty:4
ApproachRate:5
SliderMultiplier:0.8
SliderTickRate:1

[Events]
//Background and Video events
0,0,"dream.jpg",0,0
//Break Periods
//Storyboard Layer 0 (Background)
//Storyboard Layer 1 (Fail)
//Storyboard Layer 2 (Pass)
//Storyboard Layer 3 (Foreground)
Sprite,Foreground,Centre,"sb\hb2.png",0,240 F,0,0,315,0,0.2 V,0,0,315,0.2,0.2,1.2,1.313 P,0,0,315,A MX,2,315,,188 MX,0,315,390,188,208 MX,0,390,465,208,228 MX,0,465,540,228,248 MX,0,540,615,248,268 MX,2,615,765,268,291 MX,0,765,840,291,284.9774 MX,0,840,915,284.9774,279.0453 MX,0,915,990,279.0453,285.0679 MX,0,990,1065,285.0679,291 MX,2,1065,1365,291,372 MX,0,1365,1440,372,386.2598 MX,0,1440,1515,386.2598,402.6304 MX,0,1515,1590,402.6304,420.6539 MX,0,1590,1665,420.6539,439.9249 MX,0,1665,1740,439.9249,459.7675 MX,0,1740,1815,459.7675,479.6265 MX,0,1815,1890,479.6265,498.9113 MX,0,1890,1965,498.9113,516.975 MX,0,1965,2040,516.975,533.392 MX,0,2040,2115,533.392,547.6948 MX,2,2115,2415,547.6948,485 MX,2,2415,2715,485,547 MX,0,2715,2790,547,529.3853 MX,0,2790,2865,529.3853,511.7705 MX,0,2865,2940,511.7705,494.1557 MX,0,2940,3015,494.1557,476.541 MX,0,3015,3090,476.541,458.9262 MX,0,3090,3165,458.9262,441.3115 MX,0,3165,3240,441.3115,458.9262 MX,0,3240,3315,458.9262,476.541 MX,0,3315,3390,476.541,494.1557 MX,0,3390,3465,494.1557,511.7705 MX,0,3465,3540,511.7705,529.3853 MX,0,3540,3615,529.3853,547 MX,2,3615,3915,547,485 MX,0,3915,3990,485,467.3946 MX,0,3990,4065,467.3946,449.7892 MX,0,4065,4140,449.7892,432.1838 MX,0,4140,4215,432.1838,414.5784 MX,0,4215,4290,414.5784,396.973 MX,0,4290,4365,396.973,379.3675 MX,0,4365,4440,379.3675,361.7621 MX,0,4440,4515,361.7621,344.1567 MX,2,4515,5115,344.1567,220 MX,0,5115,5190,220,215.9811 MX,0,5190,5265,215.9811,212.0378 MX,0,5265,5340,212.0378,216.0567 MX,0,5340,5415,216.0567,220 MX,2,5415,5565,220,251 MX,2,5565,6015,251,359 MX,0,6015,6090,359,367.9433 MX,0,6090,6165,367.9433,374.4614 MX,0,6165,6240,374.4614,378.6137 MX,0,6240,6315,378.6137,379.8159 MX,0,6315,6390,379.8159,378.3916 MX,0,6390,6465,378.3916,374.4668 MX,0,6465,6540,374.4668,367.7376 MX,0,6540,6615,367.7376,359 MX,2,6615,6915,359,421 MX,2,6915,7065,421 MX,2,7065,7515,421,320 MX,2,7515,7590,320 MX,2,9315,9915,320 MX,0,9915,9990,320,312.5722 MX,0,9990,10065,312.5722,305.1444 MX,0,10065,10140,305.1444,297.7166 MX,0,10140,10215,297.7166,290.2888 MX,2,10215,10515,290.2888,360 MX,0,10515,10590,360,352.5722 MX,0,10590,10665,352.5722,345.1444 MX,0,10665,10740,345.1444,337.7166 MX,0,10740,10815,337.7166,330.2888 MX,2,10815,11115,330.2888,400 MX,0,11115,11190,400,420 MX,0,11190,11265,420,440 MX,0,11265,11340,440,459.9642 MX,0,11340,11415,459.9642,479.5199 MX,0,11415,11490,479.5199,497.9222 MX,0,11490,11565,497.9222,514.3026 MX,0,11565,11640,514.3026,528.0674 MX,0,11640,11715,528.0674,539 MX,2,11715,12015,539,488 MX,2,12015,12315,488,539 MX,0,12315,12390,539,528.0563 MX,0,12390,12465,528.0563,514.4323 MX,0,12465,12540,514.4323,498.1768 MX,0,12540,12615,498.1768,479.8519 MX,0,12615,12690,479.8519,460.3251 MX,0,12690,12765,460.3251,440.3648 MX,0,12765,12840,440.3648,420.3648 MX,0,12840,12915,420.3648,400.3648 MX,2,12915,13215,400.3648,320 MX,2,13215,13515,320,240 MX,0,13515,13590,240,220 MX,0,13590,13665,220,200 MX,0,13665,13740,200,180.0369 MX,0,13740,13815,180.0369,160.4906 MX,0,13815,13890,160.4906,142.1002 MX,0,13890,13965,142.1002,125.6978 MX,0,13965,14040,125.6978,111.8241 MX,0,14040,14115,111.8241,100.5483 MX,2,14115,14415,100.5483,152 MX,2,14415,14565,152 MX,2,14565,14715,152 MX,2,14715,15015,152,204 MX,0,15015,15090,204,189.8579 MX,0,15090,15165,189.8579,175.7157 MX,0,15165,15240,175.7157,189.8579 MX,0,15240,15315,189.8579,204 MX,2,15315,15615,204,256 MX,2,15615,15765,256 MX,2,15765,15915,256 MX,2,15915,16215,256,308 MX,0,16215,16290,308,293.8578 MX,0,16290,16365,293.8578,279.7157 MX,0,16365,16440,279.7157,293.8578 MX,0,16440,16515,293.8578,308 MX,2,16515,16815,308,360 MX,2,16815,17115,360,412 MX,2,17115,17415,412,464 MX,2,17415,17565,464 MX,0,17565,17640,464,469.7331 MX,0,17640,17715,469.7331,471.6758 MX,0,17715,17790,471.6758,469.7732 MX,0,17790,17865,469.7732,464.0605 MX,2,17865,18165,464.0605,412 MX,2,18165,18315,412 MX,0,18315,18390,412,398.4551 MX,0,18390,18465,398.4551,382.2482 MX,0,18465,18540,382.2482,363.6956 MX,0,18540,18615,363.6956,343.8863 MX,0,18615,18690,343.8863,323.8863 MX,0,18690,18765,323.8863,303.8863 MX,2,18765,18915,303.8863,272 MX,0,18915,18990,272,257.8578 MX,0,18990,19065,257.8578,243.7157 MX,0,19065,19140,243.7157,229.5736 MX,0,19140,19215,229.5736,215.4315 MX,2,19215,19515,215.4315,153 MX,0,19515,19590,153,156.0566 MX,0,19590,19665,156.0566,162.403 MX,0,19665,19740,162.403,171.6852 MX,0,19740,19815,171.6852,184.1685 MX,0,19815,19890,184.1685,199.0964 MX,0,19890,19965,199.0964,215.9932 MX,0,19965,20040,215.9932,234.5665 MX,0,20040,20115,234.5665,253 MX,2,20115,20415,253,320 MX,2,20415,20715,320,386 MX,0,20715,20790,386,405.4659 MX,0,20790,20865,405.4659,423.892 MX,0,20865,20940,423.892,440.8734 MX,0,20940,21015,440.8734,455.5483 MX,0,21015,21090,455.5483,467.7156 MX,0,21090,21165,467.7156,477.1157 MX,0,21165,21240,477.1157,483.0901 MX,0,21240,21315,483.0901,486 MX,2,21315,21615,486,424 MX,2,21615,21915,424,362 MX,0,21915,21990,362,345.4785 MX,0,21990,22065,345.4785,332.365 MX,0,22065,22140,332.365,323.8827 MX,0,22140,22215,323.8827,320.0155 MX,0,22215,22290,320.0155,316.2168 MX,0,22290,22365,316.2168,307.8152 MX,0,22365,22440,307.8152,294.7723 MX,0,22440,22515,294.7723,278.2939 MX,2,22515,22815,278.2939,216 MX,2,22815,23115,216,278 MX,0,23115,23190,278,294.5215 MX,0,23190,23265,294.5215,307.635 MX,0,23265,23340,307.635,316.1172 MX,0,23340,23415,316.1172,319.9845 MX,0,23415,23490,319.9845,323.7832 MX,0,23490,23565,323.7832,332.1848 MX,0,23565,23640,332.1848,345.2277 MX,0,23640,23715,345.2277,361.7061 MX,2,23715,24015,361.7061,424 MX,2,24015,24315,424,486 MX,0,24315,24390,486,499.9295 MX,0,24390,24465,499.9295,513.859 MX,0,24465,24540,513.859,524.1188 MX,0,24540,24615,524.1188,535.9818 MX,0,24615,24690,535.9818,550.1239 MX,0,24690,24765,550.1239,563 MX,2,24765,24915,563,532 MX,2,24915,25215,532,469 MX,2,25215,25515,469,406 MX,0,25515,25590,406,386 MX,0,25590,25665,386,366 MX,0,25665,25740,366,346.9502 MX,0,25740,25815,346.9502,327.8885 MX,0,25815,25890,327.8885,307.8885 MX,0,25890,25965,307.8885,287.8885 MX,2,25965,26115,287.8885,260 MX,0,26115,26190,260 MX,0,26190,26265,260 MX,0,26265,26340,260,257.8478 MX,0,26340,26415,257.8478,250.7475 MX,0,26415,26490,250.7475,239.2696 MX,0,26490,26565,239.2696,224.6964 MX,2,26565,26715,224.6964,197 MX,2,26715,27315,197,320 MX,0,27315,27390,320,338.2588 MX,0,27390,27465,338.2588,357.9117 MX,0,27465,27540,357.9117,377.5489 MX,0,27540,27615,377.5489,395.8455 MX,2,27615,27765,395.8455,427 MX,2,27765,27915,427,458 MX,0,27915,27990,458,475.1662 MX,0,27990,28065,475.1662,494.0345 MX,0,28065,28140,494.0345,513.7896 MX,0,28140,28215,513.7896,533.5691 MX,0,28215,28290,533.5691,552.4573 MX,0,28290,28365,552.4573,569.667 MX,0,28365,28440,569.667,552.4573 MX,0,28440,28515,552.4573,533.5691 MX,0,28515,28590,533.5691,513.7896 MX,0,28590,28665,513.7896,494.0345 MX,0,28665,28740,494.0345,475.1662 MX,0,28740,28815,475.1662,458 F,1,28815,29115,0.2,0 MX,2,28815,29115,458,394
//Storyboard Sound Samples

[TimingPoints]
345,300,4,2,1,30,1,0
345,-100,4,2,1,30,0,0
3645,-100,4,2,1,30,0,0
10245,-100,4,2,1,30,0,0
18945,-100,4,2,1,30,0,0
19245,-100,4,2,1,30,0,0
19845,-100,4,2,1,45,0,0
21345,-100,4,2,1,45,0,0
22245,-100,4,2,1,45,0,0
24045,-100,4,2,1,45,0,0
24345,-100,4,2,1,45,0,0
25245,-100,4,2,1,45,0,0
25545,-100,4,2,1,45,0,0
27795,-100,4,2,1,45,0,0
29145,-100,4,2,1,50,0,0
30345,-100,4,2,1,50,0,0
31545,-100,4,2,1,50,0,0
32745,-100,4,2,1,50,0,0
33945,-100,4,2,1,50,0,0
35145,-100,4,2,1,50,0,0
38445,-100,4,2,1,50,0,0
39345,-100,4,2,1,50,0,0
43545,-100,4,2,1,50,0,0
45945,-100,4,2,1,50,0,0
47145,-83.3333333333333,4,2,1,50,0,0
48045,-83.3333333333333,4,2,1,50,0,0
48345,-83.3333333333333,4,2,1,80,0,1
62745,-83.3333333333333,4,2,1,80,0,1
63045,-83.3333333333333,4,2,1,80,0,1
65145,-83.3333333333333,4,2,1,80,0,1
67545,-83.3333333333333,4,2,1,80,0,0

[Colours]
Combo1 : 216,20,20
Combo2 : 140,140,140
Combo3 : 239,239,239
Combo4 : 174,72,176
SliderBorder : 255,9,101
SliderTrackOverride : 30,30,30

[HitObjects]
124,192,345,6,0,L|212:192,1,80,2|0,0:0|0:0,0:0:0:0:
227,154,795,2,0,B|215:192|215:192|227:230,1,80,2|2,0:0|0:0,0:0:0:0:
308,192,1395,2,0,P|396:151|484:192,1,200,2|2,0:0|0:0,0:0:0:0:
421,253,2445,1,2,0:0:0:0:
483,314,2745,6,0,L|377:371,2,120,2|2|2,0:0|0:0|0:0,0:0:0:0:
421,253,3945,2,0,L|280:329,1,160,2|2,0:0|0:0,0:0:0:0:
156,207,5145,38,0,B|148:168|148:168|156:129,1,80,2|0,0:0|0:0,0:0:0:0:
187,97,5595,1,2,0:0:0:0:
295,21,6045,2,0,P|316:97|295:173,1,160,2|2,0:0|0:0,0:0:0:0:
357,235,6945,1,2,0:0:0:0:
357,235,7095,1,2,0:0:0:0:
256,320,7545,5,2,0:0:0:0:
256,192,7620,12,2,9345,0:0:0:0:
256,320,9945,38,0,L|226:245,1,80,2|2,0:0|0:0,0:0:0:0:
296,192,10545,2,0,L|266:117,1,80,2|2,0:0|0:0,0:0:0:0:
336,64,11145,2,0,B|380:64|380:64|444:64|475:119,1,160,2|2,0:0|0:0,0:0:0:0:
424,192,12045,1,2,0:0:0:0:
475,264,12345,6,0,B|444:320|380:320|380:320|336:320,1,160,2|2,0:0|0:0,0:0:0:0:
256,356,13245,1,2,0:0:0:0:
176,320,13545,2,0,B|132:320|132:320|68:320|36:264,1,160,2|2,0:0|0:0,0:0:0:0:
88,192,14445,1,2,0:0:0:0:
88,192,14595,1,2,0:0:0:0:
88,192,14745,37,2,0:0:0:0:
140,118,15045,2,0,L|111:89,2,40,2|2|2,0:0|0:0|0:0,0:0:0:0:
192,192,15645,1,2,0:0:0:0:
192,192,15795,1,2,0:0:0:0:
192,192,15945,5,2,0:0:0:0:
244,118,16245,2,0,L|215:89,2,40,2|2|2,0:0|0:0|0:0,0:0:0:0:
296,192,16845,1,2,0:0:0:0:
348,118,17145,37,2,0:0:0:0:
400,192,17445,1,8,0:3:0:0:
400,192,17595,2,0,P|408:231|400:270,1,80,2|8,0:0|0:3,0:0:0:0:
348,344,18195,1,0,0:0:0:0:
348,344,18345,6,0,B|320:308|280:308|280:308|239:308,1,120,8|8,0:3|0:3,0:0:0:0:
208,339,18945,2,0,L|151:282,1,80,2|2,0:0|0:0,0:0:0:0:
89,219,19545,38,0,P|120:147|189:112,1,160,4|8,0:0|1:2,0:0:0:0:
256,168,20445,1,2,0:0:0:0:
322,112,20745,2,0,P|391:147|422:219,1,160,8|8,0:1|1:2,0:0:0:0:
360,282,21645,1,2,0:0:0:0:
298,344,21945,6,0,B|260:324|256:280|256:280|252:324|214:344,1,160,8|8,0:1|1:2,0:0:0:0:
152,282,22845,1,2,0:0:0:0:
214,220,23145,2,0,B|252:200|256:156|256:156|260:200|298:220,1,160,8|8,0:1|1:2,0:0:0:0:
360,282,24045,1,2,0:0:0:0:
422,220,24345,38,0,B|455:186|455:186|463:183|463:183|458:178|458:178|466:175|466:175|499:142,1,120,8|2,0:1|0:0,0:0:0:0:
468,111,24945,1,8,1:2:0:0:
405,48,25245,1,2,0:0:0:0:
342,111,25545,6,0,B|291:111|291:111|283:115|283:115|275:119|275:119|223:119,1,120,8|2,0:1|0:0,0:0:0:0:
196,83,26145,2,0,B|196:124|196:124|196:164|160:192,1,120,8|2,1:2|0:0,0:0:0:0:
133,227,26745,37,8,0:1:0:0:
256,352,27345,2,0,P|294:363|332:352,1,80,8|2,1:2|0:0,0:0:0:0:
363,320,27795,1,8,0:1:0:0:
394,288,27945,6,0,P|450:269|506:288,2,120,2|8|8,0:0|0:1|1:2,0:0:0:0:
330,224,29145,38,0,P|229:170|212:55,1,240,4|0,0:0|3:0,0:0:0:0:
299,55,30345,2,0,P|282:170|181:224,1,240,0|0,3:0|3:0,0:0:0:0:
118,288,31545,6,0,P|62:269|6:288,2,120,4|0|0,0:0|3:0|3:0,0:0:0:0:
180,352,32745,2,0,P|218:363|256:352,1,80,4|0,0:0|3:0,0:0:0:0:
318,288,33345,2,0,P|356:277|394:288,1,80,0|0,3:0|3:0,0:0:0:0:
456,224,33945,38,0,B|456:172|456:172|470:148|470:148|456:124|456:124|456:72,1,160,4|0,0:0|3:0,0:0:0:0:
393,8,34845,1,0,3:0:0:0:
330,72,35145,2,0,B|330:124|330:124|316:148|316:148|330:172|330:172|330:224,1,160,0|0,3:0|3:0,0:0:0:0:
393,287,36045,1,0,3:0:0:0:
329,350,36345,6,0,L|256:316,1,80,4|0,0:0|3:0,0:0:0:0:
194,253,36945,2,0,L|121:219,1,80,0|0,3:0|3:0,0:0:0:0:
59,156,37545,38,0,B|104:112|104:112|161:112,1,120,12|0,0:0|0:0,0:0:0:0:
192,80,38145,1,8,0:0:0:0:
256,16,38445,1,2,0:0:0:0:
320,80,38745,6,0,B|340:117|324:153|320:157|316:161|300:197|320:234,1,160,4|8,0:0|1:2,0:0:0:0:
256,298,39645,1,2,0:0:0:0:
192,234,39945,2,0,B|212:197|196:161|192:157|188:153|172:117|192:80,1,160,2|8,0:0|1:2,0:0:0:0:
256,16,40845,1,2,0:0:0:0:
320,80,41145,38,0,B|256:128|256:128|192:80,1,160,2|8,0:0|1:2,0:0:0:0:
128,144,42045,1,2,0:0:0:0:
64,80,42345,2,0,L|16:144,1,80,2|2,0:0|0:0,0:0:0:0:
72,212,42945,2,0,L|24:276,1,80,8|2,1:2|0:0,0:0:0:0:
80,344,43545,6,0,B|100:344|116:359|116:359|132:344|152:344,1,80,4|0,0:0|3:0,0:0:0:0:
208,276,44145,2,0,L|184:243,2,40,2|2|2,0:0|0:0|0:0,0:0:0:0:
256,200,44745,2,0,L|256:160,2,40,0|0|0,3:0|3:0|3:0,0:0:0:0:
304,276,45345,2,0,L|328:243,2,40,2|2|2,0:0|3:0|0:0,0:0:0:0:
360,344,45945,1,4,3:2:0:0:
360,344,47145,38,0,B|393:364|425:348|429:344|433:340|465:324|498:344,2,143.999995605469,12|12|12,1:2|1:2|1:2,0:0:0:0:
396,264,48345,22,0,P|410:219|396:174,1,95.9999970703126,4|8,0:0|0:0,0:0:0:0:
334,112,48945,1,0,3:0:0:0:
334,112,49095,2,0,B|328:89|328:89|334:66,2,47.9999985351563,0|8|4,0:0|0:0|0:0,0:0:0:0:
273,174,49695,2,0,B|279:197|279:197|273:220,1,47.9999985351563,0|8,0:0|0:0,0:0:0:0:
256,260,49995,2,0,B|232:274|232:274|192:274|192:274|168:260,1,95.9999970703126,0|0,3:0|3:0,0:0:0:0:
152,221,50445,1,8,0:0:0:0:
120,140,50745,22,0,B|105:108|105:108|98:102|98:102|105:99|105:99|98:93|98:93|83:62,1,95.9999970703126,4|8,0:0|0:0,0:0:0:0:
177,61,51345,2,0,B|156:17,2,47.9999985351563,0|0|8,3:0|3:0|0:0,0:0:0:0:
207,91,51795,1,4,0:0:0:0:
288,61,52095,2,0,B|314:61|314:61|329:76,1,47.9999985351563,0|8,3:0|0:0,0:0:0:0:
360,107,52395,2,0,P|374:152|360:197,1,95.9999970703126,0|0,0:0|3:0,0:0:0:0:
329,227,52845,1,8,0:0:0:0:
256,272,53145,21,4,0:0:0:0:
183,227,53445,1,8,0:0:0:0:
110,272,53745,1,0,3:0:0:0:
110,272,53895,2,0,L|110:320,2,47.9999985351563,0|8|4,3:0|0:0|0:0,0:0:0:0:
37,227,54495,2,0,L|37:179,1,47.9999985351563,0|8,3:0|0:0,0:0:0:0:
37,135,54795,2,0,B|61:103|93:103|93:103|121:103,1,95.9999970703126,0|0,3:0|3:0,0:0:0:0:
152,72,55245,1,8,0:0:0:0:
213,133,55545,22,0,B|249:117|281:140|281:140|313:117|349:133,2,143.999995605469,4|0|8,0:0|0:0|0:0,0:0:0:0:
152,72,56745,2,0,B|116:88|84:65|84:65|52:88|16:72,2,143.999995605469,0|0|8,0:0|0:0|0:0,0:0:0:0:
213,133,57945,38,0,B|227:179|227:179|213:225,1,95.9999970703126,4|8,0:0|0:0,0:0:0:0:
274,285,58545,1,0,3:0:0:0:
274,285,58695,2,0,B|268:308|268:308|274:331,2,47.9999985351563,0|8|4,0:0|0:0|0:0,0:0:0:0:
335,225,59295,2,0,B|329:202|329:202|335:179,1,47.9999985351563,0|8,3:0|0:0,0:0:0:0:
352,139,59595,2,0,B|361:115|386:107|386:107|411:115|420:139,1,95.9999970703126,0|0,3:0|3:0,0:0:0:0:
437,179,60045,1,8,0:0:0:0:
476,256,60345,6,0,B|476:284|476:284|476:316|448:344,1,95.9999970703126,4|8,0:0|0:0,0:0:0:0:
364,320,60945,2,0,B|360:344|360:344|364:368,2,47.9999985351563,0|0|8,3:0|0:0|0:0,0:0:0:0:
320,308,61395,1,4,0:0:0:0:
236,288,61695,2,0,P|213:282|190:288,1,47.9999985351563,0|8,3:0|0:0,0:0:0:0:
159,257,61995,2,0,P|145:212|159:167,1,95.9999970703126,0|0,0:0|3:0,0:0:0:0:
190,136,62445,1,8,0:0:0:0:
256,80,62745,37,4,0:0:0:0:
322,136,63045,2,0,B|350:136|350:136|366:148|366:148|382:136|382:136|410:136,1,95.9999970703126,8|0,0:0|3:0,0:0:0:0:
476,192,63645,2,0,P|482:215|476:238,1,47.9999985351563,8|4,0:0|0:0,0:0:0:0:
445,268,63945,5,0,0:0:0:0:
383,329,64245,1,8,0:0:0:0:
321,268,64545,2,0,B|299:268|299:268|281:286,1,47.9999985351563,8|0,0:0|3:0,0:0:0:0:
249,255,64845,2,0,B|231:273|231:273|209:273,1,47.9999985351563,8|0,0:0|0:0,0:0:0:0:
177,242,65145,38,0,B|177:204|177:204|181:196|181:196|185:188|185:188|185:147,1,95.9999970703126,4|8,0:0|0:0,0:0:0:0:
256,96,65745,2,0,L|256:48,2,47.9999985351563,8|0|8,0:0|3:0|0:0,0:0:0:0:
286,126,66195,2,0,P|330:142|374:126,1,95.9999970703126,12|0,0:0|3:0,0:0:0:0:
404,96,66645,5,8,0:0:0:0:
465,157,66945,1,12,0:0:0:0:
404,218,67245,1,12,0:0:0:0:
404,218,67395,1,8,3:0:0:0:
404,218,67545,5,4,0:0:0:0:
