osu file format v14

[General]
AudioFilename: audio.mp3
AudioLeadIn: 0
PreviewTime: 9945
Countdown: 0
SampleSet: Soft
StackLeniency: 0.4
Mode: 0
LetterboxInBreaks: 0
EpilepsyWarning: 1
WidescreenStoryboard: 1

[Editor]
Bookmarks: 10245,12645,19845,47145,48345
DistanceSpacing: 1.7
BeatDivisor: 4
GridSize: 16
TimelineZoom: 2.4

[Metadata]
Title:Chase Me
TitleUnicode:Chase Me
Artist:Dreamcatcher
ArtistUnicode:드림캐쳐
Creator:DominiGG
Version:Extra
Source:
Tags:gero minorsonek megapcmx nightmare rock krock 드림캐쳐 JiU SuA Siyeon Handong Yoohyeon Dami Gahyeon kpop Short version 드림캐쳐
BeatmapID:1626556
BeatmapSetID:744531

[Difficulty]
HPDrainRate:6
CircleSize:4.3
OverallDifficulty:8.5
ApproachRate:9.6
SliderMultiplier:1.56
SliderTickRate:1

[Events]
//Background and Video events
0,0,"dream.jpg",0,0
//Break Periods
//Storyboard Layer 0 (Background)
//Storyboard Layer 1 (Fail)
//Storyboard Layer 2 (Pass)
//Storyboard Layer 3 (Foreground)
Sprite,Foreground,Centre,"sb\hb2.png",0,237.4 F,0,0,315,0,0.2 V,0,0,315,0.2,0.2,1.2,1.313 P,0,0,315,A MX,2,345,,230 MX,0,345,420,230,200.8662 MX,0,420,495,200.8662,169.9961 MX,0,495,570,169.9961,141.4599 MX,0,570,645,141.4599,119.1095 MX,2,645,795,119.1095,115 MX,2,795,1095,115,161 MX,2,1095,1395,161,190 MX,2,1395,2145,190,310 MX,2,2145,2445,310 MX,2,2445,2745,310,410 MX,0,2745,2820,410,439.1338 MX,0,2820,2895,439.1338,470.0039 MX,0,2895,2970,470.0039,498.5401 MX,0,2970,3045,498.5401,520.8905 MX,2,3045,3195,520.8905,450 MX,0,3195,3270,450,420.5573 MX,0,3270,3345,420.5573,389.7409 MX,0,3345,3420,389.7409,361.769 MX,0,3420,3495,361.769,340.6479 MX,0,3495,3570,340.6479,329.4071 MX,0,3570,3645,329.4071,329.6662 MX,2,3645,3945,329.6662,520 MX,2,3945,4545,520 MX,2,4545,5145,520,190 MX,0,5145,5220,190,187.8285 MX,0,5220,5295,187.8285,185.6571 MX,0,5295,5370,185.6571,183.4856 MX,0,5370,5445,183.4856,181.3141 MX,2,5445,5595,181.3141,228 MX,2,5595,6045,228,190 MX,2,6045,6645,190,149 MX,2,6645,6945,149,266 MX,2,6945,7095,266,228 MX,2,7095,7545,228,190 MX,2,7545,9945,190,320 MX,2,9945,10245,320 MX,2,10245,10395,320,358 MX,2,10395,10545,358,431 MX,2,10545,10695,431,485 MX,2,10695,10845,485,480 MX,2,10845,10995,480,418 MX,2,10995,11145,418,347 MX,2,11145,11295,347,359 MX,2,11295,11445,359,418 MX,2,11445,12645,418,283 MX,2,12645,12795,283,212 MX,2,12795,12945,212,159 MX,2,12945,13095,159,196 MX,2,13095,13245,196,273 MX,2,13245,13395,273,283 MX,2,13395,13545,283,346 MX,2,13545,13695,346,273 MX,2,13695,13845,273,283 MX,2,13845,14445,283,123 MX,2,14445,14595,123,138 MX,2,14595,14745,138,199 MX,2,14745,15045,199,517 MX,2,15045,15195,517,502 MX,2,15195,15345,502,441 MX,2,15345,15645,441,199 MX,2,15645,15795,199 MX,2,15795,15945,199,269 MX,2,15945,16245,269,442 MX,2,16245,16395,442,441 MX,2,16395,16545,441,371 MX,2,16545,16845,371,320 MX,2,16845,17145,320 MX,2,17145,17445,320 MX,2,17445,17595,320 MX,0,17595,17670,320,281 MX,0,17670,17745,281,242 MX,0,17745,17820,242,203 MX,2,17820,17895,203,176 MX,2,17895,18045,176,224 MX,2,18045,18195,224,176 MX,2,18195,18345,176,112 MX,0,18345,18420,112,87.82059 MX,0,18420,18495,87.82059,75.70517 MX,0,18495,18570,75.70517,77.45541 MX,0,18570,18645,77.45541,92.8717 MX,2,18645,18795,92.8717,269 MX,2,18795,18945,269,176 MX,0,18945,19020,176,222.7977 MX,0,19020,19094,222.7977,269.5954 MX,2,19094,19245,269.5954,512 MX,0,19245,19320,512,461.3 MX,0,19320,19395,461.3,410.6 MX,0,19395,19469,410.6,359.9 MX,2,19469,19545,359.9,359 MX,2,19545,19845,359,402 MX,0,19845,19920,402,359.8646 MX,0,19920,19995,359.8646,323.4585 MX,2,19995,20145,323.4585,458 MX,0,20145,20220,458,481.863 MX,0,20220,20295,481.863,481.9541 MX,2,20295,20445,481.9541,380 MX,2,20445,20595,380,437 MX,2,20595,20745,437,359 MX,0,20745,20820,359,322.1891 MX,0,20820,20895,322.1891,301.4534 MX,0,20895,20970,301.4534,302.6736 MX,0,20970,21045,302.6736,325.4577 MX,2,21045,21195,325.4577,437 MX,2,21195,21345,437,307 MX,0,21345,21420,307,272.0047 MX,0,21420,21495,272.0047,237.0094 MX,0,21495,21570,237.0094,202.0142 MX,0,21570,21644,202.0142,167.0189 MX,2,21644,21795,167.0189,110 MX,2,21795,21945,110,166 MX,0,21945,22020,166,174.3116 MX,0,22020,22094,174.3116,166.9514 MX,2,22094,22245,166.9514,95 MX,0,22245,22320,95,137.8443 MX,0,22320,22395,137.8443,180.6885 MX,2,22395,22545,180.6885,271 MX,2,22545,22695,271,250 MX,2,22695,22845,250,369 MX,2,22845,22995,369,390 MX,2,22995,23145,390,284 MX,0,23145,23220,284,266.6142 MX,0,23220,23295,266.6142,249.2284 MX,2,23295,23445,249.2284,390 MX,0,23445,23520,390,373.0407 MX,0,23520,23595,373.0407,356.0814 MX,2,23595,23745,356.0814,453 MX,0,23745,23820,453,449.1425 MX,0,23820,23895,449.1425,420 MX,2,23895,24045,420,336 MX,0,24045,24120,336,311.7987 MX,0,24120,24194,311.7987,304.8734 MX,2,24194,24345,304.8734,206 MX,0,24345,24420,206,203.5092 MX,0,24420,24495,203.5092,157.9742 MX,0,24495,24570,157.9742,145.2002 MX,0,24570,24644,145.2002,186.3079 MX,2,24644,24795,186.3079,284 MX,2,24795,24945,284,232 MX,0,24945,25020,232,235.4861 MX,0,25020,25094,235.4861,262.968 MX,2,25094,25245,262.968,354 MX,0,25245,25320,354,373.3562 MX,0,25320,25394,373.3562,385.0194 MX,2,25394,25545,385.0194,491 MX,0,25545,25620,491,474.1772 MX,0,25620,25695,474.1772,505.915 MX,0,25695,25770,505.915,532.562 MX,0,25770,25845,532.562,509.9486 MX,2,25845,26145,509.9486,496 MX,0,26145,26220,496,453.891 MX,0,26220,26295,453.891,411.782 MX,0,26295,26370,411.782,369.673 MX,0,26370,26445,369.673,327.564 MX,2,26445,26595,327.564,271 MX,2,26595,26745,271,242 MX,0,26745,26820,242,258.1572 MX,0,26820,26895,258.1572,292.2648 MX,2,26895,27045,292.2648,271 MX,2,27045,27195,271,180 MX,2,27195,27345,180,151 MX,0,27345,27420,151,144.2398 MX,0,27420,27495,144.2398,137.4796 MX,2,27495,27645,137.4796,198 MX,2,27645,27795,198,288 MX,0,27795,27870,288,289.7549 MX,0,27870,27945,289.7549,291.5099 MX,2,27945,28095,291.5099,154 MX,0,28095,28170,154,152.245 MX,0,28170,28245,152.245,150.4901 MX,0,28245,28320,150.4901,152.245 MX,0,28320,28395,152.245,154 MX,2,28395,28545,154,224 MX,2,28545,28695,224,343 MX,2,28695,28845,343,162 MX,2,28845,28995,162,333 MX,2,28995,29145,333,343 MX,0,29145,29220,343,348.0614 MX,0,29220,29295,348.0614,353.1229 MX,2,29295,29445,353.1229,435 MX,0,29445,29520,435,440.0614 MX,0,29520,29595,440.0614,445.1229 MX,2,29595,29745,445.1229,424 MX,2,29745,29895,424,512 MX,2,29895,30045,512,493 MX,2,30045,30195,493,424 MX,2,30195,30345,424,512 MX,0,30345,30420,512,537.7692 MX,0,30420,30494,537.7692,534.5106 MX,2,30494,30645,534.5106,424 MX,0,30645,30720,424,398.2308 MX,0,30720,30794,398.2308,401.4894 MX,2,30794,30945,401.4894,343 MX,0,30945,31020,343,292.3 MX,0,31020,31094,292.3,241.6 MX,2,31094,31245,241.6,188 MX,0,31245,31320,188,238.7 MX,0,31320,31394,238.7,289.4 MX,2,31394,31545,289.4,241 MX,0,31545,31620,241,236.2147 MX,0,31620,31695,236.2147,231.4295 MX,2,31695,31845,231.4295,136 MX,0,31845,31920,136,131.045 MX,0,31920,31995,131.045,126.09 MX,2,31995,32145,126.09,188 MX,0,32145,32220,188,201.1791 MX,0,32220,32295,201.1791,191.9371 MX,2,32295,32445,191.9371,285 MX,0,32445,32520,285,325.2526 MX,0,32520,32595,325.2526,366.5399 MX,2,32595,32745,366.5399,476 MX,0,32745,32820,476,494.1046 MX,0,32820,32894,494.1046,491.3623 MX,2,32894,33045,491.3623,408 MX,0,33045,33120,408,389.8954 MX,0,33120,33194,389.8954,392.6377 MX,2,33194,33345,392.6377,490 MX,0,33345,33420,490,452.9497 MX,0,33420,33494,452.9497,403.6641 MX,2,33494,33645,403.6641,305 MX,0,33645,33720,305,342.0503 MX,0,33720,33794,342.0503,391.3359 MX,2,33794,33945,391.3359,310 MX,0,33945,34020,310,267.2873 MX,0,34020,34095,267.2873,224.5746 MX,2,34095,34245,224.5746,197 MX,0,34245,34320,197,239.7127 MX,0,34320,34395,239.7127,282.4254 MX,2,34395,34545,282.4254,224 MX,2,34545,34695,224,195 MX,2,34695,34845,195,139 MX,2,34845,34995,139,224 MX,2,34995,35145,224,195 MX,0,35145,35220,195,148.481 MX,0,35220,35294,148.481,99.45313 MX,2,35294,35445,99.45313,74 MX,0,35445,35520,74,117.7711 MX,0,35520,35594,117.7711,167.4842 MX,2,35594,35745,167.4842,305 MX,0,35745,35820,305,314.6119 MX,0,35820,35894,314.6119,298.418 MX,2,35894,36045,298.418,161 MX,0,36045,36120,161,150.4444 MX,0,36120,36194,150.4444,166.9369 MX,2,36194,36345,166.9369,298 MX,0,36345,36420,298,348.7 MX,0,36420,36494,348.7,399.4 MX,2,36494,36645,399.4,262 MX,0,36645,36720,262,211.3 MX,0,36720,36794,211.3,160.6 MX,2,36794,36945,160.6,352 MX,0,36945,37020,352,352.4084 MX,0,37020,37094,352.4084,325.4795 MX,2,37094,37245,325.4795,298 MX,0,37245,37320,298,297.5916 MX,0,37320,37394,297.5916,324.5205 MX,2,37394,37545,324.5205,521 MX,2,37545,37695,521,375 MX,2,37695,37845,375,438 MX,2,37845,37995,438,461 MX,2,37995,38145,461,354 MX,0,38145,38220,354,305.7712 MX,0,38220,38294,305.7712,256.4977 MX,2,38294,38445,256.4977,193 MX,0,38445,38520,193,245.0717 MX,0,38520,38594,245.0717,297.1308 MX,2,38594,38745,297.1308,113 MX,0,38745,38820,113,112.0825 MX,0,38820,38894,112.0825,111.165 MX,2,38894,39045,111.165,161 MX,2,39045,39195,161,198 MX,2,39195,39345,198,284 MX,0,39345,39420,284,323.3944 MX,0,39420,39495,323.3944,365.9881 MX,2,39495,39645,365.9881,483 MX,0,39645,39720,483,443.6056 MX,0,39720,39795,443.6056,401.0119 MX,2,39795,39945,401.0119,548 MX,0,39945,40020,548,569.4882 MX,0,40020,40095,569.4882,572.913 MX,0,40095,40170,572.913,557.6334 MX,0,40170,40245,557.6334,526.7931 MX,2,40245,40395,526.7931,324 MX,2,40395,40545,324,445 MX,0,40545,40620,445,487.9 MX,0,40620,40695,487.9,530.8 MX,2,40695,40845,530.8,323 MX,0,40845,40920,323,280.1 MX,0,40920,40995,280.1,237.2 MX,2,40995,41145,237.2,188 MX,0,41145,41220,188,215.8637 MX,0,41220,41295,215.8637,230.8307 MX,0,41295,41370,230.8307,231.0765 MX,0,41370,41445,231.0765,216.6962 MX,2,41445,41595,216.6962,121 MX,2,41595,41745,121,131 MX,0,41745,41820,131,168.4322 MX,0,41820,41895,168.4322,210.7695 MX,2,41895,42045,210.7695,400 MX,0,42045,42120,400,362.5678 MX,0,42120,42195,362.5678,320.2305 MX,2,42195,42345,320.2305,425 MX,2,42345,42495,425,480 MX,2,42495,42645,480,342 MX,2,42645,42795,342,325 MX,2,42795,42945,325,503 MX,0,42945,43020,503,512.0129 MX,0,43020,43095,512.0129,499.0062 MX,2,43095,43245,499.0062,320 MX,0,43245,43320,320,310.9871 MX,0,43320,43395,310.9871,323.9937 MX,2,43395,43545,323.9937,559 MX,0,43545,43620,559,513.8937 MX,0,43620,43694,513.8937,467.9715 MX,2,43694,43845,467.9715,250 MX,0,43845,43920,250,295.1064 MX,0,43920,43994,295.1064,341.0285 MX,2,43994,44145,341.0285,381 MX,2,44145,44295,381,337 MX,2,44295,44445,337,384 MX,2,44445,44595,384,504 MX,2,44595,44745,504,272 MX,0,44745,44820,272,225.2 MX,0,44820,44894,225.2,178.4 MX,2,44894,45045,178.4,110 MX,0,45045,45120,110,156.8 MX,0,45120,45194,156.8,203.6 MX,2,45194,45345,203.6,267 MX,2,45345,45495,267,223 MX,2,45495,45645,223,270 MX,2,45645,45795,270,390 MX,2,45795,45945,390,246 MX,0,45945,46020,246,219.0522 MX,0,46020,46095,219.0522,192.6764 MX,0,46095,46170,192.6764,169.6268 MX,0,46170,46245,169.6268,153.0386 MX,0,46245,46320,153.0386,144.4861 MX,0,46320,46395,144.4861,144.7447 MX,0,46395,46470,144.7447,154.3873 MX,0,46470,46545,154.3873,171.6086 MX,0,46545,46620,171.6086,195.1206 MX,0,46620,46695,195.1206,221.725 MX,0,46695,46770,221.725,248.5118 MX,0,46770,46845,248.5118,272.2487 MX,0,46845,46920,272.2487,290.3093 MX,0,46920,46994,290.3093,300.9383 MX,2,46994,47145,300.9383,223 MX,2,47145,47295,223,386 MX,2,47295,47445,386,314 MX,2,47445,47595,314,218 MX,2,47595,47745,218,426 MX,2,47745,47895,426,222 MX,2,47895,47970,222,200 MX,2,47970,48045,200,179 MX,0,48045,48120,179,168.035 MX,0,48120,48195,168.035,163.4414 MX,0,48195,48270,163.4414,166.6472
//Storyboard Sound Samples

[TimingPoints]
345,300,4,2,1,30,1,0
345,-125,4,2,1,30,0,0
3570,-125,4,2,1,5,0,0
3645,-125,4,2,1,30,0,0
10245,-100,4,2,1,30,0,0
17445,-100,4,2,1,40,0,0
18945,-83.3333333333333,4,2,1,30,0,0
19245,-76.9230769230769,4,2,1,30,0,0
19845,-90.9090909090909,4,2,1,45,0,0
21345,-111.111111111111,4,2,1,45,0,0
22245,-90.9090909090909,4,2,1,45,0,0
24045,-83.3333333333333,4,2,1,45,0,0
24345,-76.9230769230769,4,2,1,45,0,0
25245,-83.3333333333333,4,2,1,45,0,0
25545,-90.9090909090909,4,2,1,45,0,0
27795,-125,4,2,1,45,0,0
29145,-90.9090909090909,4,2,1,50,0,0
30345,-76.9230769230769,4,2,1,65,0,0
31545,-90.9090909090909,4,2,1,50,0,0
32745,-76.9230769230769,4,2,1,65,0,0
33945,-90.9090909090909,4,2,1,50,0,0
35145,-76.9230769230769,4,2,1,65,0,0
36345,-76.9230769230769,4,2,1,70,0,0
38445,-71.4285714285714,4,2,1,50,0,0
38745,-71.4285714285714,4,2,1,45,0,0
39345,-90.9090909090909,4,2,1,45,0,0
43545,-83.3333333333333,4,2,1,50,0,0
45945,-142.857142857143,4,2,1,20,0,0
47145,-142.857142857143,4,2,1,50,0,0
48045,-200,4,2,1,25,0,0
48345,-71.4285714285714,4,2,1,60,0,1
62745,-66.6666666666667,4,2,1,60,0,1
63045,-62.5,4,2,1,60,0,1
65145,-58.8235294117647,4,2,1,60,0,1
67545,-71.4285714285714,4,2,1,30,0,0

[Colours]
Combo1 : 148,148,148
Combo2 : 220,220,220

[HitObjects]
166,86,345,6,0,P|105:76|52:114,1,124.8,2|0,0:0|0:0,0:0:0:0:
51,188,795,1,2,0:0:0:0:
97,294,1095,1,2,0:0:0:0:
126,157,1395,1,2,0:0:0:0:
246,192,2145,1,2,0:0:0:0:
246,192,2445,1,2,0:0:0:0:
346,298,2745,6,0,P|407:308|460:270,1,124.8,2|0,0:0|0:0,0:0:0:0:
386,228,3195,2,0,P|302:230|269:328,1,187.2,2|0,0:0|0:0,0:0:0:0:
456,274,3945,1,2,0:0:0:0:
456,274,4545,1,2,0:0:0:0:
126,157,5145,6,0,L|117:286,1,124.8,2|0,0:0|0:0,0:0:0:0:
164,339,5595,1,0,0:0:0:0:
126,157,6045,1,2,0:0:0:0:
85,351,6645,1,2,0:0:0:0:
202,266,6945,1,2,0:0:0:0:
164,339,7095,1,2,0:0:0:0:
126,157,7545,1,2,0:0:0:0:
256,192,7620,12,2,9945,0:0:0:0:
256,192,10245,5,2,0:0:0:0:
294,127,10395,1,0,0:0:0:0:
367,116,10545,1,0,0:0:0:0:
421,167,10695,1,0,0:0:0:0:
416,241,10845,1,0,0:0:0:0:
354,283,10995,1,0,0:0:0:0:
283,261,11145,5,0,0:0:0:0:
295,336,11295,1,0,0:0:0:0:
354,283,11445,1,0,0:0:0:0:
219,124,12645,5,2,0:0:0:0:
148,156,12795,1,0,0:0:0:0:
95,99,12945,1,0,0:0:0:0:
132,31,13095,1,0,0:0:0:0:
209,46,13245,1,0,0:0:0:0:
219,124,13395,1,0,0:0:0:0:
282,71,13545,5,0,0:0:0:0:
209,46,13695,1,0,0:0:0:0:
219,124,13845,1,0,0:0:0:0:
59,262,14445,5,2,0:0:0:0:
74,181,14595,1,2,0:0:0:0:
135,235,14745,1,2,0:0:0:0:
453,262,15045,5,2,0:0:0:0:
438,181,15195,1,2,0:0:0:0:
377,235,15345,1,2,0:0:0:0:
135,318,15645,5,2,0:0:0:0:
135,235,15795,1,2,0:0:0:0:
205,278,15945,1,2,0:0:0:0:
378,318,16245,5,2,0:0:0:0:
377,235,16395,1,2,0:0:0:0:
307,278,16545,1,2,0:0:0:0:
256,192,16845,1,2,0:0:0:0:
256,336,17145,5,2,0:0:0:0:
256,192,17445,1,8,0:3:0:0:
256,112,17595,2,0,L|112:112,1,117,2|0,0:0|0:0,0:0:0:0:
112,112,17895,1,8,0:3:0:0:
160,192,18045,1,0,0:0:0:0:
112,272,18195,1,0,0:0:0:0:
48,192,18345,6,0,P|11:263|39:346,1,156,8|0,0:3|0:0,0:0:0:0:
205,272,18795,1,8,0:3:0:0:
112,272,18945,2,0,L|213:273,1,93.5999971435548,2|0,0:0|0:0,0:0:0:0:
448,272,19245,2,0,L|272:272,1,152.099993037415,2|0,0:0|0:0,0:0:0:0:
295,272,19545,1,4,0:0:0:0:
338,115,19845,6,0,P|286:115|246:155,1,85.8000026184083,2|8,2:0|2:1,0:0:0:0:
394,175,20145,2,0,P|421:123|401:69,1,85.8000026184083,2|0,0:0|0:0,0:0:0:0:
316,194,20445,1,2,0:0:0:0:
373,250,20595,1,0,0:0:0:0:
295,272,20745,2,0,P|235:200|284:122,1,171.600005236817,2|8,0:0|0:1,0:0:0:0:
373,250,21195,1,0,0:0:0:0:
243,339,21345,2,0,L|88:327,1,140.399995715332,8|0,0:1|0:0,0:0:0:0:
46,265,21795,1,2,0:0:0:0:
102,202,21945,2,0,P|109:152|96:122,1,70.1999978576661,8|8,0:1|0:1,0:0:0:0:
31,44,22245,6,0,L|129:49,1,85.8000026184083,2|8,0:0|0:1,0:0:0:0:
207,27,22545,1,8,0:1:0:0:
186,109,22695,1,0,0:0:0:0:
305,27,22845,1,0,0:0:0:0:
326,109,22995,1,8,0:1:0:0:
220,187,23145,2,0,L|177:90,1,85.8000026184083,2|8,0:0|0:1,0:0:0:0:
326,108,23445,2,0,L|292:187,1,85.8000026184083,8|0,0:1|0:0,0:0:0:0:
389,238,23745,6,0,P|386:273|356:254,1,85.8000026184083,8|0,0:0|0:0,0:0:0:0:
272,272,24045,2,0,P|252:301|248:260,1,93.5999971435548,2|0,0:0|0:0,0:0:0:0:
142,245,24345,2,0,P|116:303|128:234,1,202.799990716553,8|0,0:1|0:0,0:0:0:0:
220,187,24795,1,0,0:0:0:0:
168,113,24945,6,0,P|160:82|193:111,1,101.399995358277,8|0,0:0|0:0,0:0:0:0:
290,133,25245,2,0,P|306:101|296:139,1,93.5999971435548,2|8,0:0|0:1,0:0:0:0:
427,167,25545,2,0,P|443:109|445:169,1,171.600005236817,2|0,0:0|0:0,0:0:0:0:
432,321,26145,6,0,L|242:284,1,171.600005236817,2|0,0:0|0:0,0:0:0:0:
207,364,26595,1,0,0:0:0:0:
178,274,26745,2,0,P|200:228|249:205,1,85.8000026184083,8|0,0:1|0:0,0:0:0:0:
207,364,27045,1,2,0:0:0:0:
116,343,27195,1,0,0:0:0:0:
87,253,27345,6,0,L|72:159,1,85.8000026184083,8|0,0:0|0:0,0:0:0:0:
134,72,27645,1,0,0:0:0:0:
224,147,27795,2,0,L|228:218,1,62.4,8|0,0:1|0:0,0:0:0:0:
90,190,28095,2,0,L|86:261,2,62.4,8|0|8,0:1|0:0|0:1,0:0:0:0:
160,44,28545,5,8,0:0:0:0:
279,220,28695,1,2,0:0:0:0:
98,156,28845,5,8,0:0:0:0:
269,69,28995,1,0,3:0:0:0:
279,220,29145,6,0,L|291:321,1,85.8000026184083,4|0,0:0|0:0,0:0:0:0:
371,352,29445,2,0,L|383:251,1,85.8000026184083,0|0,3:0|0:0,0:0:0:0:
360,174,29745,1,0,3:0:0:0:
448,206,29895,1,0,0:0:0:0:
429,112,30045,1,0,3:0:0:0:
360,174,30195,1,0,0:0:0:0:
448,206,30345,6,0,P|475:254|460:318,1,101.399995358277,0|0,3:0|0:0,0:0:0:0:
360,174,30645,2,0,P|333:126|348:62,1,101.399995358277,0|0,3:0|0:0,0:0:0:0:
279,220,30945,2,0,L|167:220,1,101.399995358277,0|0,3:0|0:0,0:0:0:0:
124,121,31245,2,0,L|236:121,1,101.399995358277,0|0,3:0|0:0,0:0:0:0:
177,220,31545,6,0,L|166:318,1,85.8000026184083,4|0,0:0|0:0,0:0:0:0:
72,301,31845,2,0,L|62:215,1,85.8000026184083,0|0,3:0|0:0,0:0:0:0:
124,121,32145,2,0,P|137:69|120:27,1,85.8000026184083,0|0,3:0|0:0,0:0:0:0:
221,49,32445,2,0,P|273:62|315:45,1,85.8000026184083,0|0,3:0|0:0,0:0:0:0:
412,74,32745,6,0,P|431:125|422:187,1,101.399995358277,4|0,0:0|0:0,0:0:0:0:
344,245,33045,2,0,P|325:194|334:132,1,101.399995358277,0|0,3:0|0:0,0:0:0:0:
426,299,33345,2,0,P|378:337|319:335,1,101.399995358277,0|0,3:0|0:0,0:0:0:0:
241,189,33645,2,0,P|289:151|348:153,1,101.399995358277,0|0,3:0|0:0,0:0:0:0:
246,285,33945,6,0,L|150:276,1,85.8000026184083,4|0,0:0|0:0,0:0:0:0:
133,185,34245,2,0,L|229:176,1,85.8000026184083,0|0,3:0|0:0,0:0:0:0:
160,276,34545,1,0,3:0:0:0:
131,357,34695,1,0,0:0:0:0:
75,291,34845,1,0,3:0:0:0:
160,276,34995,1,0,0:0:0:0:
131,357,35145,6,0,P|75:376|27:362,1,101.399995358277,0|0,3:0|0:0,0:0:0:0:
10,234,35445,2,0,P|63:208|112:216,1,101.399995358277,0|0,3:0|0:0,0:0:0:0:
241,314,35745,2,0,P|251:265|234:217,1,101.399995358277,0|0,3:0|0:0,0:0:0:0:
97,116,36045,2,0,P|86:164|103:212,1,101.399995358277,0|0,3:0|0:0,0:0:0:0:
234,217,36345,6,0,L|346:217,1,101.399995358277,4|0,0:0|0:0,0:0:0:0:
198,116,36645,2,0,L|86:116,1,101.399995358277,0|0,3:0|0:0,0:0:0:0:
288,140,36945,2,0,P|285:80|251:40,1,101.399995358277,0|0,3:0|0:0,0:0:0:0:
234,217,37245,2,0,P|237:277|271:317,1,101.399995358277,0|0,3:0|0:0,0:0:0:0:
457,280,37545,5,12,0:0:0:0:
311,243,37695,1,0,0:0:0:0:
374,308,37845,1,0,3:0:0:0:
397,221,37995,1,0,0:0:0:0:
290,325,38145,2,0,P|244:339|184:326,1,101.399995358277,12|0,0:0|0:0,0:0:0:0:
129,217,38445,2,0,P|175:203|242:222,1,109.199996667481,6|0,0:0|0:0,0:0:0:0:
49,294,38745,6,0,L|47:175,1,109.199996667481,4|8,0:0|0:1,0:0:0:0:
97,65,39045,1,0,0:0:0:0:
134,189,39195,1,0,3:0:0:0:
220,96,39345,6,0,P|268:78|323:83,1,85.8000026184083,0|0,3:0|0:0,0:0:0:0:
419,152,39645,2,0,P|371:170|316:165,1,85.8000026184083,0|8,0:0|0:1,0:0:0:0:
484,83,39945,6,0,P|510:143|450:237,1,171.600005236817,2|0,0:0|0:0,0:0:0:0:
260,229,40395,1,8,0:1:0:0:
381,260,40545,2,0,L|477:260,1,85.8000026184083,8|0,0:0|0:0,0:0:0:0:
259,326,40845,2,0,L|163:326,1,85.8000026184083,2|0,0:0|0:0,0:0:0:0:
124,173,41145,6,0,P|168:251|140:346,1,171.600005236817,8|0,0:0|0:0,0:0:0:0:
57,273,41595,1,0,3:0:0:0:
67,109,41745,2,0,P|118:87|175:105,1,85.8000026184083,8|0,0:0|0:0,0:0:0:0:
336,169,42045,2,0,P|285:191|228:173,1,85.8000026184083,2|8,0:0|0:1,0:0:0:0:
361,82,42345,5,0,0:0:0:0:
416,237,42495,1,0,3:0:0:0:
278,109,42645,1,0,0:0:0:0:
261,270,42795,1,0,3:0:0:0:
439,120,42945,2,0,P|445:60|419:20,1,85.8000026184083,8|0,0:0|3:0,0:0:0:0:
256,187,43245,2,0,P|250:247|276:287,1,85.8000026184083,0|0,3:0|3:0,0:0:0:0:
495,265,43545,6,0,B|448:278|448:278|396:268,1,93.5999971435548,4|0,0:0|0:0,0:0:0:0:
186,113,43845,2,0,B|233:100|233:100|285:110,1,93.5999971435548,0|0,3:0|3:0,0:0:0:0:
317,335,44145,1,2,0:0:0:0:
273,148,44295,1,0,0:0:0:0:
320,354,44445,1,2,0:0:0:0:
440,152,44595,1,0,0:0:0:0:
208,313,44745,6,0,L|112:313,1,93.5999971435548,0|0,3:0|0:0,0:0:0:0:
46,166,45045,2,0,L|142:166,1,93.5999971435548,0|0,3:0|0:0,0:0:0:0:
203,338,45345,1,0,3:0:0:0:
159,151,45495,1,0,0:0:0:0:
206,357,45645,1,0,3:0:0:0:
326,155,45795,1,0,0:0:0:0:
182,228,45945,6,0,P|130:77|238:139,1,382.199988336182,0|0,3:0|0:0,0:0:0:0:
159,151,47145,1,12,0:0:0:0:
322,139,47295,1,0,3:0:0:0:
250,286,47445,1,0,0:0:0:0:
154,128,47595,1,12,3:0:0:0:
362,231,47745,1,8,0:0:0:0:
158,359,47895,1,0,3:0:0:0:
136,358,47970,1,0,3:0:0:0:
115,358,48045,2,0,B|98:333|98:333|104:297,1,58.5,12|0,0:0|0:0,0:0:0:0:
113,282,48345,6,0,P|141:235|150:108,1,163.799995001221,4|0,0:0|0:0,0:0:0:0:
119,44,48645,2,0,P|63:78|164:102,1,218.399993334961,8|0,0:0|3:0,0:0:0:0:
304,64,49095,1,0,0:0:0:0:
257,305,49245,1,0,3:0:0:0:
393,119,49395,2,0,P|413:48|380:-15,1,109.199996667481,12|0,0:0|0:0,0:0:0:0:
182,248,49695,2,0,P|162:319|195:382,1,109.199996667481,0|8,0:0|0:0,0:0:0:0:
393,349,49995,5,0,3:0:0:0:
393,119,50145,1,0,0:0:0:0:
257,305,50295,1,0,3:0:0:0:
476,234,50445,1,8,0:0:0:0:
257,163,50595,1,0,0:0:0:0:
379,323,50745,6,0,L|249:325,1,109.199996667481,4|0,0:0|0:0,0:0:0:0:
74,195,51045,1,8,0:0:0:0:
268,178,51195,1,0,0:0:0:0:
122,307,51345,1,0,3:0:0:0:
165,116,51495,1,0,3:0:0:0:
241,295,51645,1,8,0:0:0:0:
85,115,51795,6,0,P|123:45|173:34,1,109.199996667481,8|0,0:0|0:0,0:0:0:0:
332,30,52095,1,0,3:0:0:0:
392,195,52245,2,0,L|279:195,1,109.199996667481,8|0,0:0|0:0,0:0:0:0:
213,56,52545,1,8,0:0:0:0:
147,286,52695,1,0,3:0:0:0:
411,193,52845,1,8,0:0:0:0:
157,194,52995,1,0,0:0:0:0:
450,271,53145,6,0,P|495:210|491:160,1,109.199996667481,4|0,0:0|0:0,0:0:0:0:
265,206,53445,2,0,L|265:350,1,109.199996667481,8|0,0:0|0:0,0:0:0:0:
356,127,53745,1,0,3:0:0:0:
253,324,53895,1,0,3:0:0:0:
151,161,54045,1,8,0:0:0:0:
411,193,54195,6,0,P|440:129|425:76,1,109.199996667481,12|0,0:0|0:0,0:0:0:0:
173,60,54495,2,0,P|144:124|159:177,1,109.199996667481,2|8,0:0|0:0,0:0:0:0:
253,324,54795,2,0,B|196:340|196:340|126:328,1,109.199996667481,0|0,3:0|0:0,0:0:0:0:
64,183,55095,1,0,3:0:0:0:
148,351,55245,1,8,0:0:0:0:
230,133,55395,1,0,0:0:0:0:
282,331,55545,6,0,B|298:274|298:274|283:222,1,109.199996667481,4|0,0:0|0:0,0:0:0:0:
123,122,55845,1,8,0:0:0:0:
42,204,55995,2,0,L|45:321,1,109.199996667481,0|0,0:0|3:0,0:0:0:0:
230,133,56295,2,0,L|227:16,1,109.199996667481,0|8,3:0|0:0,0:0:0:0:
306,217,56595,5,0,3:0:0:0:
123,122,56745,1,0,0:0:0:0:
214,236,56895,1,0,0:0:0:0:
336,89,57045,1,8,3:0:0:0:
384,239,57195,2,0,L|389:363,1,109.199996667481,0|0,0:0|3:0,0:0:0:0:
250,321,57495,1,0,3:0:0:0:
465,251,57645,2,0,P|454:195|396:161,1,109.199996667481,8|0,0:0|0:0,0:0:0:0:
256,83,57945,6,0,P|219:155|214:236,1,163.799995001221,4|0,0:0|0:0,0:0:0:0:
250,321,58245,2,0,P|305:249|214:238,1,218.399993334961,8|0,0:0|3:0,0:0:0:0:
107,309,58695,1,0,0:0:0:0:
111,89,58845,1,0,3:0:0:0:
33,259,58995,2,0,P|18:328|34:367,1,109.199996667481,12|0,0:0|0:0,0:0:0:0:
193,141,59295,2,0,P|208:72|192:33,1,109.199996667481,2|8,0:0|0:0,0:0:0:0:
111,220,59595,5,0,3:0:0:0:
313,154,59745,1,0,0:0:0:0:
111,89,59895,1,0,3:0:0:0:
236,260,60045,1,8,0:0:0:0:
236,48,60195,1,0,0:0:0:0:
122,243,60345,6,0,L|242:243,1,109.199996667481,4|0,0:0|0:0,0:0:0:0:
397,231,60645,1,8,0:0:0:0:
217,275,60795,1,0,0:0:0:0:
337,133,60945,1,0,3:0:0:0:
325,320,61095,1,0,0:0:0:0:
225,161,61245,1,8,0:0:0:0:
423,247,61395,6,0,L|429:123,1,109.199996667481,12|0,0:0|0:0,0:0:0:0:
258,62,61695,1,0,3:0:0:0:
144,174,61845,2,0,P|166:219|241:246,1,109.199996667481,8|0,0:0|0:0,0:0:0:0:
258,62,62145,1,8,0:0:0:0:
225,161,62295,1,0,3:0:0:0:
395,38,62445,1,8,0:0:0:0:
428,137,62595,1,0,0:0:0:0:
164,82,62745,6,0,P|100:83|56:127,1,117.000004463196,4|0,0:0|0:0,0:0:0:0:
398,218,63045,2,0,P|462:217|509:169,1,124.8,8|0,0:0|0:0,0:0:0:0:
285,84,63345,1,0,3:0:0:0:
185,257,63495,1,0,0:0:0:0:
334,170,63645,1,8,0:0:0:0:
135,170,63795,1,4,3:0:0:0:
285,257,63945,6,0,P|359:266|424:229,1,124.8,0|0,0:0|3:0,0:0:0:0:
395,38,64245,2,0,P|321:29|256:66,1,124.8,8|0,0:0|0:0,0:0:0:0:
427,231,64545,1,8,0:0:0:0:
160,171,64695,1,0,3:0:0:0:
271,353,64845,1,8,0:0:0:0:
337,126,64995,1,0,0:0:0:0:
164,283,65145,6,0,B|98:305|98:305|34:297,1,132.600002529144,4|0,0:0|0:0,0:0:0:0:
337,126,65445,2,0,B|403:104|403:104|467:112,1,132.600002529144,8|0,0:0|0:0,0:0:0:0:
138,200,65745,1,8,0:0:0:0:
374,200,65895,1,8,3:0:0:0:
255,42,66045,1,8,0:0:0:0:
199,279,66195,6,0,P|250:357|221:267,1,265.200005058289,12|0,0:0|3:0,0:0:0:0:
73,109,66645,1,8,0:0:0:0:
78,348,66795,1,0,3:0:0:0:
312,105,66945,1,12,0:0:0:0:
316,343,67095,1,0,3:0:0:0:
78,221,67245,1,8,0:0:0:0:
389,153,67395,1,0,3:0:0:0:
405,117,67470,1,0,3:0:0:0:
401,78,67545,5,4,0:0:0:0:
