osu file format v14

[General]
AudioFilename: audio.mp3
AudioLeadIn: 0
PreviewTime: 47854
Countdown: 0
SampleSet: Soft
StackLeniency: 0.7
Mode: 3
LetterboxInBreaks: 0
SpecialStyle: 0
WidescreenStoryboard: 1

[Editor]
DistanceSpacing: 0.4
BeatDivisor: 4
GridSize: 32
TimelineZoom: 2.2

[Metadata]
Title:Chase Me
TitleUnicode:Chase Me
Artist:Dreamcatcher
ArtistUnicode:Dreamcatcher
Creator:-[ Peachy ]-
Version:NOVICE
Source:Pump It Up Prime 2
Tags:Pump It Up Prime 2 2017 andamiro musicgame rythmm game
BeatmapID:1431465
BeatmapSetID:676812

[Difficulty]
HPDrainRate:7
CircleSize:4
OverallDifficulty:6
ApproachRate:5
SliderMultiplier:1.3
SliderTickRate:1

[Events]
//Background and Video events
0,0,"maxresdefault (2).jpg",0,0
//Break Periods
2,96354,104554
//Storyboard Layer 0 (Background)
//Storyboard Layer 1 (Fail)
//Storyboard Layer 2 (Pass)
//Storyboard Layer 3 (Foreground)
//Storyboard Sound Samples

[TimingPoints]
154,300,4,2,0,20,1,0
181,-100,4,2,0,20,0,0

[HitObjects]
64,192,9754,128,0,10054:0:0:0:0:
320,192,10054,128,0,10204:0:0:0:0:
192,192,10204,128,0,10504:0:0:0:0:
448,192,10504,128,0,10804:0:0:0:0:
64,192,10804,128,0,11554:0:0:0:0:
448,192,11554,128,0,12154:0:0:0:0:
320,192,11854,128,0,12154:0:0:0:0:
64,192,12154,128,0,12454:0:0:0:0:
192,192,12454,128,0,12604:0:0:0:0:
320,192,12604,128,0,12904:0:0:0:0:
64,192,12904,128,0,13204:0:0:0:0:
448,192,13204,128,0,13954:0:0:0:0:
192,192,13954,128,0,14554:0:0:0:0:
320,192,14254,128,0,14554:0:0:0:0:
64,192,14554,128,0,14854:0:0:0:0:
192,192,14854,128,0,15004:0:0:0:0:
448,192,15004,128,0,15304:0:0:0:0:
192,192,15304,128,0,15604:0:0:0:0:
320,192,15604,128,0,16354:0:0:0:0:
64,192,16354,128,0,16954:0:0:0:0:
448,192,16654,128,0,16954:0:0:0:0:
192,192,16954,128,0,17254:0:0:0:0:
320,192,17254,128,0,17404:0:0:0:0:
192,192,17404,128,0,17704:0:0:0:0:
320,192,17704,128,0,17854:0:0:0:0:
448,192,17854,128,0,18154:0:0:0:0:
64,192,18154,128,0,18529:0:0:0:0:
192,192,18754,1,0,0:0:0:0:
448,192,18754,1,0,0:0:0:0:
192,192,19054,1,0,0:0:0:0:
448,192,19054,1,0,0:0:0:0:
64,192,19354,1,0,0:0:0:0:
448,192,19354,1,0,0:0:0:0:
192,192,19654,1,0,0:0:0:0:
320,192,19804,1,0,0:0:0:0:
192,192,19954,1,0,0:0:0:0:
448,192,20104,1,0,0:0:0:0:
192,192,20254,1,0,0:0:0:0:
448,192,20404,1,0,0:0:0:0:
64,192,20554,128,0,21154:0:0:0:0:
192,192,20554,1,0,0:0:0:0:
448,192,21154,128,0,21754:0:0:0:0:
320,192,21754,1,0,0:0:0:0:
64,192,22054,1,0,0:0:0:0:
192,192,22204,1,0,0:0:0:0:
320,192,22354,1,0,0:0:0:0:
192,192,22504,1,0,0:0:0:0:
320,192,22654,1,0,0:0:0:0:
448,192,22804,1,0,0:0:0:0:
64,192,22954,128,0,23329:0:0:0:0:
448,192,23554,1,0,0:0:0:0:
192,192,23554,1,0,0:0:0:0:
64,192,23854,1,0,0:0:0:0:
320,192,23854,1,0,0:0:0:0:
320,192,24154,1,0,0:0:0:0:
192,192,24154,128,0,24754:0:0:0:0:
448,192,24754,128,0,25054:0:0:0:0:
64,192,25054,128,0,25354:0:0:0:0:
320,192,25354,128,0,25954:0:0:0:0:
448,192,25354,1,0,0:0:0:0:
64,192,25954,128,0,26554:0:0:0:0:
192,192,25954,1,0,0:0:0:0:
320,192,26554,1,0,0:0:0:0:
448,192,26554,128,0,27154:0:0:0:0:
64,192,27154,128,0,27754:0:0:0:0:
192,192,27754,128,0,28354:0:0:0:0:
320,192,28354,1,0,0:0:0:0:
448,192,28354,1,0,0:0:0:0:
192,192,28654,1,0,0:0:0:0:
64,192,28654,1,0,0:0:0:0:
192,192,28954,1,0,0:0:0:0:
320,192,29104,1,0,0:0:0:0:
192,192,29254,1,0,0:0:0:0:
320,192,29404,1,0,0:0:0:0:
64,192,29554,1,0,0:0:0:0:
320,192,29704,1,0,0:0:0:0:
192,192,29854,1,0,0:0:0:0:
320,192,30004,1,0,0:0:0:0:
64,192,30154,1,0,0:0:0:0:
320,192,30304,1,0,0:0:0:0:
192,192,30454,1,0,0:0:0:0:
320,192,30604,1,0,0:0:0:0:
192,192,30754,1,0,0:0:0:0:
320,192,30904,1,0,0:0:0:0:
64,192,31054,1,0,0:0:0:0:
192,192,31204,1,0,0:0:0:0:
448,192,31354,1,0,0:0:0:0:
64,192,31504,1,0,0:0:0:0:
448,192,31654,1,0,0:0:0:0:
64,192,31804,1,0,0:0:0:0:
320,192,31954,1,0,0:0:0:0:
64,192,32104,1,0,0:0:0:0:
448,192,32254,1,0,0:0:0:0:
64,192,32404,1,0,0:0:0:0:
192,192,32554,1,0,0:0:0:0:
448,192,32704,1,0,0:0:0:0:
64,192,32854,1,0,0:0:0:0:
448,192,33004,1,0,0:0:0:0:
192,192,33154,1,0,0:0:0:0:
448,192,33304,1,0,0:0:0:0:
64,192,33454,1,0,0:0:0:0:
448,192,33604,1,0,0:0:0:0:
320,192,33754,1,0,0:0:0:0:
192,192,33904,1,0,0:0:0:0:
320,192,34054,1,0,0:0:0:0:
192,192,34204,1,0,0:0:0:0:
64,192,34354,1,0,0:0:0:0:
192,192,34504,1,0,0:0:0:0:
64,192,34654,1,0,0:0:0:0:
192,192,34804,1,0,0:0:0:0:
320,192,34954,1,0,0:0:0:0:
448,192,35104,1,0,0:0:0:0:
320,192,35254,1,0,0:0:0:0:
448,192,35404,1,0,0:0:0:0:
320,192,35554,1,0,0:0:0:0:
192,192,35704,1,0,0:0:0:0:
64,192,35854,1,0,0:0:0:0:
192,192,36004,1,0,0:0:0:0:
64,192,36154,128,0,36454:0:0:0:0:
192,192,36154,1,0,0:0:0:0:
448,192,36454,128,0,36754:0:0:0:0:
320,192,36454,1,0,0:0:0:0:
64,192,36754,128,0,37054:0:0:0:0:
192,192,37054,1,0,0:0:0:0:
448,192,37054,128,0,37354:0:0:0:0:
320,192,37354,128,0,37954:0:0:0:0:
64,192,37954,128,0,38254:0:0:0:0:
192,192,38254,128,0,38554:0:0:0:0:
448,192,38554,1,0,0:0:0:0:
320,192,38704,1,0,0:0:0:0:
192,192,38854,1,0,0:0:0:0:
64,192,39004,1,0,0:0:0:0:
320,192,39154,1,0,0:0:0:0:
448,192,39154,1,0,0:0:0:0:
64,192,39304,1,0,0:0:0:0:
192,192,39454,1,0,0:0:0:0:
320,192,39604,1,0,0:0:0:0:
448,192,39754,1,0,0:0:0:0:
320,192,39904,1,0,0:0:0:0:
192,192,40054,1,0,0:0:0:0:
64,192,40204,1,0,0:0:0:0:
320,192,40354,1,0,0:0:0:0:
192,192,40354,1,0,0:0:0:0:
448,192,40504,1,0,0:0:0:0:
320,192,40654,1,0,0:0:0:0:
192,192,40804,1,0,0:0:0:0:
64,192,40954,1,0,0:0:0:0:
192,192,41104,1,0,0:0:0:0:
320,192,41254,1,0,0:0:0:0:
448,192,41404,1,0,0:0:0:0:
192,192,41554,1,0,0:0:0:0:
320,192,41554,1,0,0:0:0:0:
64,192,41704,1,0,0:0:0:0:
192,192,41854,1,0,0:0:0:0:
320,192,42004,1,0,0:0:0:0:
64,192,42154,1,0,0:0:0:0:
192,192,42154,1,0,0:0:0:0:
320,192,42304,1,0,0:0:0:0:
448,192,42454,1,0,0:0:0:0:
64,192,42604,1,0,0:0:0:0:
320,192,42754,1,0,0:0:0:0:
448,192,42754,1,0,0:0:0:0:
192,192,42904,1,0,0:0:0:0:
64,192,43054,1,0,0:0:0:0:
192,192,43204,1,0,0:0:0:0:
320,192,43354,1,0,0:0:0:0:
448,192,43354,128,0,43654:0:0:0:0:
64,192,43654,128,0,43954:0:0:0:0:
192,192,43654,1,0,0:0:0:0:
448,192,43954,128,0,44254:0:0:0:0:
320,192,43954,1,0,0:0:0:0:
64,192,44254,128,0,44554:0:0:0:0:
192,192,44254,1,0,0:0:0:0:
448,192,44554,128,0,44854:0:0:0:0:
320,192,44554,1,0,0:0:0:0:
192,192,44854,128,0,45154:0:0:0:0:
64,192,44854,1,0,0:0:0:0:
320,192,45154,128,0,45454:0:0:0:0:
448,192,45154,1,0,0:0:0:0:
192,192,45454,128,0,45754:0:0:0:0:
64,192,45454,1,0,0:0:0:0:
320,192,45754,128,0,46804:0:0:0:0:
448,192,45754,1,0,0:0:0:0:
64,192,46954,1,0,0:0:0:0:
448,192,46954,1,0,0:0:0:0:
320,192,47104,1,0,0:0:0:0:
192,192,47254,1,0,0:0:0:0:
448,192,47404,1,0,0:0:0:0:
64,192,47404,1,0,0:0:0:0:
192,192,47554,1,0,0:0:0:0:
320,192,47704,1,0,0:0:0:0:
192,192,47779,1,0,0:0:0:0:
64,192,47854,1,0,0:0:0:0:
448,192,47854,1,0,0:0:0:0:
192,192,48154,1,0,0:0:0:0:
320,192,48154,1,0,0:0:0:0:
192,192,48454,1,0,0:0:0:0:
320,192,48454,1,0,0:0:0:0:
64,192,48754,1,0,0:0:0:0:
192,192,48904,1,0,0:0:0:0:
448,192,49054,1,0,0:0:0:0:
192,192,49204,128,0,49504:0:0:0:0:
320,192,49204,128,0,49504:0:0:0:0:
64,192,49504,128,0,49804:0:0:0:0:
448,192,49504,128,0,49804:0:0:0:0:
192,192,49804,128,0,50104:0:0:0:0:
320,192,49804,128,0,50104:0:0:0:0:
64,192,50104,128,0,50329:0:0:0:0:
448,192,50104,128,0,50329:0:0:0:0:
64,192,50554,1,0,0:0:0:0:
448,192,50554,1,0,0:0:0:0:
192,192,50704,1,0,0:0:0:0:
320,192,50854,1,0,0:0:0:0:
448,192,51004,1,0,0:0:0:0:
192,192,51154,1,0,0:0:0:0:
320,192,51304,1,0,0:0:0:0:
64,192,51454,1,0,0:0:0:0:
192,192,51604,1,0,0:0:0:0:
320,192,51754,1,0,0:0:0:0:
192,192,51904,1,0,0:0:0:0:
448,192,52054,1,0,0:0:0:0:
320,192,52204,1,0,0:0:0:0:
64,192,52354,1,0,0:0:0:0:
192,192,52504,1,0,0:0:0:0:
320,192,52654,1,0,0:0:0:0:
448,192,52804,1,0,0:0:0:0:
64,192,52954,1,0,0:0:0:0:
320,192,52954,1,0,0:0:0:0:
192,192,53254,1,0,0:0:0:0:
448,192,53254,1,0,0:0:0:0:
64,192,53554,1,0,0:0:0:0:
192,192,53704,1,0,0:0:0:0:
320,192,53854,1,0,0:0:0:0:
192,192,54004,1,0,0:0:0:0:
64,192,54004,128,0,54304:0:0:0:0:
320,192,54304,1,0,0:0:0:0:
448,192,54304,128,0,54604:0:0:0:0:
192,192,54604,1,0,0:0:0:0:
64,192,54604,128,0,54904:0:0:0:0:
320,192,54904,1,0,0:0:0:0:
448,192,54904,128,0,55354:0:0:0:0:
64,192,55204,1,0,0:0:0:0:
192,192,55354,1,0,0:0:0:0:
320,192,55354,128,0,55654:0:0:0:0:
64,192,55654,128,0,55804:0:0:0:0:
192,192,55804,128,0,56104:0:0:0:0:
320,192,56104,128,0,56404:0:0:0:0:
448,192,56404,128,0,56704:0:0:0:0:
320,192,56704,128,0,57004:0:0:0:0:
192,192,57004,128,0,57304:0:0:0:0:
64,192,57304,128,0,57754:0:0:0:0:
320,192,57754,1,0,0:0:0:0:
448,192,57754,1,0,0:0:0:0:
192,192,58054,1,0,0:0:0:0:
320,192,58054,1,0,0:0:0:0:
64,192,58354,1,0,0:0:0:0:
192,192,58504,1,0,0:0:0:0:
320,192,58654,1,0,0:0:0:0:
64,192,58804,1,0,0:0:0:0:
448,192,58804,1,0,0:0:0:0:
64,192,59104,1,0,0:0:0:0:
448,192,59104,1,0,0:0:0:0:
192,192,59404,1,0,0:0:0:0:
320,192,59404,1,0,0:0:0:0:
192,192,59704,1,0,0:0:0:0:
320,192,59704,1,0,0:0:0:0:
64,192,60154,1,0,0:0:0:0:
448,192,60154,1,0,0:0:0:0:
192,192,60304,1,0,0:0:0:0:
320,192,60454,1,0,0:0:0:0:
192,192,60604,1,0,0:0:0:0:
448,192,60754,1,0,0:0:0:0:
320,192,60904,1,0,0:0:0:0:
192,192,61054,1,0,0:0:0:0:
64,192,61204,1,0,0:0:0:0:
192,192,61354,1,0,0:0:0:0:
320,192,61504,1,0,0:0:0:0:
64,192,61654,1,0,0:0:0:0:
192,192,61804,1,0,0:0:0:0:
320,192,61954,1,0,0:0:0:0:
192,192,62104,1,0,0:0:0:0:
448,192,62254,1,0,0:0:0:0:
320,192,62404,1,0,0:0:0:0:
64,192,62554,1,0,0:0:0:0:
448,192,62554,1,0,0:0:0:0:
192,192,62704,1,0,0:0:0:0:
320,192,62854,1,0,0:0:0:0:
448,192,63004,1,0,0:0:0:0:
320,192,63154,1,0,0:0:0:0:
192,192,63304,1,0,0:0:0:0:
64,192,63454,1,0,0:0:0:0:
320,192,63604,1,0,0:0:0:0:
448,192,63604,1,0,0:0:0:0:
64,192,63754,1,0,0:0:0:0:
192,192,63904,1,0,0:0:0:0:
320,192,64054,1,0,0:0:0:0:
448,192,64204,1,0,0:0:0:0:
320,192,64354,1,0,0:0:0:0:
192,192,64504,1,0,0:0:0:0:
64,192,64654,1,0,0:0:0:0:
448,192,64804,1,0,0:0:0:0:
64,192,64954,1,0,0:0:0:0:
192,192,64954,1,0,0:0:0:0:
320,192,65104,1,0,0:0:0:0:
192,192,65254,1,0,0:0:0:0:
64,192,65404,1,0,0:0:0:0:
192,192,65554,1,0,0:0:0:0:
320,192,65704,1,0,0:0:0:0:
448,192,65854,1,0,0:0:0:0:
192,192,66004,1,0,0:0:0:0:
320,192,66004,1,0,0:0:0:0:
64,192,66154,1,0,0:0:0:0:
192,192,66304,1,0,0:0:0:0:
320,192,66454,1,0,0:0:0:0:
448,192,66604,1,0,0:0:0:0:
320,192,66754,1,0,0:0:0:0:
192,192,66904,1,0,0:0:0:0:
64,192,67054,1,0,0:0:0:0:
192,192,67204,1,0,0:0:0:0:
320,192,67279,1,0,0:0:0:0:
64,192,67354,128,0,67579:0:0:0:0:
448,192,67354,128,0,67579:0:0:0:0:
192,192,67804,1,0,0:0:0:0:
320,192,67954,1,0,0:0:0:0:
192,192,68104,1,0,0:0:0:0:
320,192,68254,1,0,0:0:0:0:
192,192,68404,1,0,0:0:0:0:
320,192,68554,128,0,69154:0:0:0:0:
448,192,69154,1,0,0:0:0:0:
64,192,69454,1,0,0:0:0:0:
192,192,69604,1,0,0:0:0:0:
448,192,69754,128,0,70054:0:0:0:0:
320,192,70054,1,0,0:0:0:0:
192,192,70204,1,0,0:0:0:0:
64,192,70354,128,0,70654:0:0:0:0:
192,192,70654,1,0,0:0:0:0:
320,192,70804,128,0,71329:0:0:0:0:
64,192,71554,1,0,0:0:0:0:
448,192,71554,1,0,0:0:0:0:
64,192,71854,1,0,0:0:0:0:
448,192,71854,1,0,0:0:0:0:
192,192,72154,1,0,0:0:0:0:
320,192,72154,1,0,0:0:0:0:
64,192,72604,1,0,0:0:0:0:
192,192,72754,1,0,0:0:0:0:
320,192,72904,1,0,0:0:0:0:
448,192,73054,1,0,0:0:0:0:
320,192,73204,1,0,0:0:0:0:
64,192,73354,128,0,73954:0:0:0:0:
448,192,73954,1,0,0:0:0:0:
192,192,74104,1,0,0:0:0:0:
320,192,74254,1,0,0:0:0:0:
448,192,74404,1,0,0:0:0:0:
64,192,74554,128,0,74854:0:0:0:0:
192,192,74854,128,0,75004:0:0:0:0:
320,192,75004,128,0,75304:0:0:0:0:
448,192,75304,128,0,75604:0:0:0:0:
320,192,75604,128,0,76354:0:0:0:0:
192,192,76354,128,0,76954:0:0:0:0:
448,192,76954,128,0,78154:0:0:0:0:
64,192,77254,1,0,0:0:0:0:
64,192,77554,1,0,0:0:0:0:
64,192,77854,1,0,0:0:0:0:
320,192,78154,128,0,79354:0:0:0:0:
192,192,78154,1,0,0:0:0:0:
192,192,78454,1,0,0:0:0:0:
192,192,78754,1,0,0:0:0:0:
192,192,79054,1,0,0:0:0:0:
192,192,79354,128,0,80554:0:0:0:0:
448,192,79354,1,0,0:0:0:0:
448,192,79654,1,0,0:0:0:0:
448,192,79954,1,0,0:0:0:0:
448,192,80254,1,0,0:0:0:0:
64,192,80554,128,0,81754:0:0:0:0:
320,192,80554,1,0,0:0:0:0:
320,192,80854,1,0,0:0:0:0:
320,192,81154,1,0,0:0:0:0:
320,192,81454,1,0,0:0:0:0:
192,192,81754,128,0,82954:0:0:0:0:
448,192,81754,1,0,0:0:0:0:
448,192,82054,1,0,0:0:0:0:
448,192,82354,1,0,0:0:0:0:
448,192,82654,1,0,0:0:0:0:
320,192,82954,128,0,84154:0:0:0:0:
64,192,82954,1,0,0:0:0:0:
64,192,83254,1,0,0:0:0:0:
64,192,83554,1,0,0:0:0:0:
64,192,83854,1,0,0:0:0:0:
448,192,84154,128,0,85354:0:0:0:0:
192,192,84154,1,0,0:0:0:0:
192,192,84454,1,0,0:0:0:0:
192,192,84754,1,0,0:0:0:0:
192,192,85054,1,0,0:0:0:0:
320,192,85354,128,0,86554:0:0:0:0:
64,192,85354,1,0,0:0:0:0:
64,192,85654,1,0,0:0:0:0:
64,192,85954,1,0,0:0:0:0:
64,192,86254,1,0,0:0:0:0:
64,192,86554,1,0,0:0:0:0:
192,192,86704,1,0,0:0:0:0:
320,192,86854,1,0,0:0:0:0:
192,192,87004,1,0,0:0:0:0:
320,192,87154,1,0,0:0:0:0:
448,192,87154,1,0,0:0:0:0:
192,192,87304,1,0,0:0:0:0:
320,192,87454,1,0,0:0:0:0:
192,192,87604,1,0,0:0:0:0:
320,192,87754,1,0,0:0:0:0:
192,192,87904,1,0,0:0:0:0:
320,192,88054,1,0,0:0:0:0:
448,192,88204,1,0,0:0:0:0:
64,192,88354,1,0,0:0:0:0:
192,192,88354,1,0,0:0:0:0:
320,192,88504,1,0,0:0:0:0:
192,192,88654,1,0,0:0:0:0:
320,192,88804,1,0,0:0:0:0:
192,192,88954,1,0,0:0:0:0:
320,192,89104,1,0,0:0:0:0:
192,192,89254,1,0,0:0:0:0:
320,192,89404,1,0,0:0:0:0:
64,192,89554,1,0,0:0:0:0:
448,192,89554,1,0,0:0:0:0:
192,192,89704,1,0,0:0:0:0:
320,192,89854,1,0,0:0:0:0:
192,192,90004,1,0,0:0:0:0:
320,192,90154,1,0,0:0:0:0:
192,192,90304,1,0,0:0:0:0:
320,192,90454,1,0,0:0:0:0:
192,192,90604,1,0,0:0:0:0:
320,192,90754,1,0,0:0:0:0:
448,192,90754,1,0,0:0:0:0:
192,192,90904,1,0,0:0:0:0:
320,192,91054,1,0,0:0:0:0:
192,192,91204,1,0,0:0:0:0:
320,192,91354,1,0,0:0:0:0:
64,192,91354,1,0,0:0:0:0:
192,192,91654,1,0,0:0:0:0:
448,192,91654,1,0,0:0:0:0:
64,192,91954,1,0,0:0:0:0:
448,192,91954,1,0,0:0:0:0:
192,192,92254,1,0,0:0:0:0:
320,192,92254,1,0,0:0:0:0:
64,192,92554,1,0,0:0:0:0:
192,192,92554,1,0,0:0:0:0:
320,192,92854,1,0,0:0:0:0:
448,192,92854,1,0,0:0:0:0:
64,192,93154,1,0,0:0:0:0:
448,192,93154,1,0,0:0:0:0:
192,192,93454,1,0,0:0:0:0:
320,192,93454,1,0,0:0:0:0:
448,192,93754,1,0,0:0:0:0:
64,192,93754,128,0,94954:0:0:0:0:
448,192,94954,128,0,96154:0:0:0:0:
64,192,96154,1,0,0:0:0:0:
64,192,105754,5,0,0:0:0:0:
320,192,105754,1,0,0:0:0:0:
192,192,106054,1,0,0:0:0:0:
448,192,106054,1,0,0:0:0:0:
64,192,106354,1,0,0:0:0:0:
192,192,106504,1,0,0:0:0:0:
320,192,106654,1,0,0:0:0:0:
64,192,106804,1,0,0:0:0:0:
448,192,106804,1,0,0:0:0:0:
64,192,107104,1,0,0:0:0:0:
448,192,107104,1,0,0:0:0:0:
64,192,107404,1,0,0:0:0:0:
448,192,107404,1,0,0:0:0:0:
192,192,107704,1,0,0:0:0:0:
320,192,107704,1,0,0:0:0:0:
64,192,108154,1,0,0:0:0:0:
448,192,108154,1,0,0:0:0:0:
192,192,108304,1,0,0:0:0:0:
320,192,108454,1,0,0:0:0:0:
448,192,108604,1,0,0:0:0:0:
320,192,108754,1,0,0:0:0:0:
192,192,108904,1,0,0:0:0:0:
64,192,109054,1,0,0:0:0:0:
192,192,109204,1,0,0:0:0:0:
320,192,109204,1,0,0:0:0:0:
448,192,109354,1,0,0:0:0:0:
192,192,109504,1,0,0:0:0:0:
320,192,109654,1,0,0:0:0:0:
64,192,109804,1,0,0:0:0:0:
192,192,109954,1,0,0:0:0:0:
448,192,110104,1,0,0:0:0:0:
320,192,110254,1,0,0:0:0:0:
64,192,110404,1,0,0:0:0:0:
320,192,110554,1,0,0:0:0:0:
448,192,110554,1,0,0:0:0:0:
64,192,110704,1,0,0:0:0:0:
448,192,110854,1,0,0:0:0:0:
64,192,111004,1,0,0:0:0:0:
320,192,111154,1,0,0:0:0:0:
192,192,111304,1,0,0:0:0:0:
320,192,111454,1,0,0:0:0:0:
64,192,111604,1,0,0:0:0:0:
448,192,111604,1,0,0:0:0:0:
320,192,111754,1,0,0:0:0:0:
64,192,111904,1,0,0:0:0:0:
192,192,112054,1,0,0:0:0:0:
320,192,112204,1,0,0:0:0:0:
64,192,112354,1,0,0:0:0:0:
448,192,112504,1,0,0:0:0:0:
192,192,112654,1,0,0:0:0:0:
320,192,112804,1,0,0:0:0:0:
64,192,112954,1,0,0:0:0:0:
192,192,112954,1,0,0:0:0:0:
448,192,113104,1,0,0:0:0:0:
192,192,113254,1,0,0:0:0:0:
320,192,113404,1,0,0:0:0:0:
64,192,113554,1,0,0:0:0:0:
448,192,113704,1,0,0:0:0:0:
192,192,113854,1,0,0:0:0:0:
320,192,114004,1,0,0:0:0:0:
448,192,114004,1,0,0:0:0:0:
64,192,114154,1,0,0:0:0:0:
448,192,114304,1,0,0:0:0:0:
320,192,114454,1,0,0:0:0:0:
448,192,114604,1,0,0:0:0:0:
64,192,114754,1,0,0:0:0:0:
192,192,114904,1,0,0:0:0:0:
64,192,115054,1,0,0:0:0:0:
192,192,115204,1,0,0:0:0:0:
320,192,115279,1,0,0:0:0:0:
448,192,115354,128,0,115504:0:0:0:0:
192,192,115504,128,0,115654:0:0:0:0:
320,192,115654,128,0,115804:0:0:0:0:
64,192,115804,128,0,115954:0:0:0:0:
192,192,115954,128,0,116104:0:0:0:0:
448,192,116104,128,0,116254:0:0:0:0:
320,192,116254,128,0,116404:0:0:0:0:
192,192,116404,128,0,116554:0:0:0:0:
448,192,116554,128,0,116704:0:0:0:0:
192,192,116704,128,0,116854:0:0:0:0:
64,192,116854,128,0,117004:0:0:0:0:
192,192,117004,128,0,117154:0:0:0:0:
448,192,117154,128,0,117304:0:0:0:0:
320,192,117304,128,0,117454:0:0:0:0:
192,192,117454,128,0,117604:0:0:0:0:
448,192,117604,128,0,117754:0:0:0:0:
64,192,117754,128,0,117904:0:0:0:0:
192,192,117904,128,0,118054:0:0:0:0:
64,192,118054,128,0,118204:0:0:0:0:
320,192,118204,128,0,118354:0:0:0:0:
192,192,118354,128,0,118504:0:0:0:0:
320,192,118504,128,0,118654:0:0:0:0:
64,192,118654,128,0,118804:0:0:0:0:
192,192,118804,128,0,118954:0:0:0:0:
448,192,118954,128,0,119854:0:0:0:0:
