osu file format v14

[General]
AudioFilename: audio.mp3
AudioLeadIn: 0
PreviewTime: 45717
Countdown: 0
SampleSet: Soft
StackLeniency: 0.7
Mode: 3
LetterboxInBreaks: 0
SpecialStyle: 0
WidescreenStoryboard: 1

[Editor]
Bookmarks: 13247,24541
DistanceSpacing: 2.1
BeatDivisor: 2
GridSize: 32
TimelineZoom: 1.699999

[Metadata]
Title:BEcause
TitleUnicode:BEcause
Artist:Dreamcatcher
ArtistUnicode:드림캐쳐
Creator:Gahyeonln
Version:Hard
Source:
Tags:Special Mini Album 2 summer holiday 《Summer Holiday》 드캐 deukae idol 아이돌 Girl group 걸그룹 유현 yoohyeon 가현 gahyeon 수아 sua 지우 jiu 다미 dami 한동 handong 시연 siyeon k-pop kpop pop korean leez Ollunderer title song
BeatmapID:3195213
BeatmapSetID:1539091

[Difficulty]
HPDrainRate:7.5
CircleSize:4
OverallDifficulty:7.8
ApproachRate:5
SliderMultiplier:2
SliderTickRate:1

[Events]
//Background and Video events
Video,15,"video.mp4"
0,0,"bg.jpg",0,0
//Break Periods
//Storyboard Layer 0 (Background)
//Storyboard Layer 1 (Fail)
//Storyboard Layer 2 (Pass)
//Storyboard Layer 3 (Foreground)
//Storyboard Layer 4 (Overlay)
//Storyboard Sound Samples

[TimingPoints]
1953,352.941176470588,4,2,1,62,1,0
47129,-100,4,2,1,62,0,1
69717,-100,4,2,1,62,0,0
103600,-100,4,2,1,62,0,1
126188,-100,4,2,1,62,0,0
160070,-100,4,2,1,62,0,1
182658,-100,4,2,1,62,0,0

[HitObjects]
448,192,1952,5,0,0:0:0:0:
64,192,2305,1,0,0:0:0:0:
448,192,2658,1,0,0:0:0:0:
320,192,2835,1,0,0:0:0:0:
192,192,3011,1,0,0:0:0:0:
64,192,3188,1,0,0:0:0:0:
320,192,3541,1,0,0:0:0:0:
192,192,3894,1,0,0:0:0:0:
64,192,4423,1,0,0:0:0:0:
192,192,4600,1,0,0:0:0:0:
320,192,4776,1,0,0:0:0:0:
448,192,5129,1,0,0:0:0:0:
448,192,5482,1,0,0:0:0:0:
320,192,5658,1,0,0:0:0:0:
192,192,5835,1,0,0:0:0:0:
64,192,6011,1,0,0:0:0:0:
448,192,6364,1,0,0:0:0:0:
320,192,6541,1,0,0:0:0:0:
192,192,6717,1,0,0:0:0:0:
448,192,6894,1,0,0:0:0:0:
320,192,7070,1,0,0:0:0:0:
64,192,7600,1,0,0:0:0:0:
448,192,7952,1,0,0:0:0:0:
64,192,8305,1,0,0:0:0:0:
192,192,8482,1,0,0:0:0:0:
320,192,8658,1,0,0:0:0:0:
448,192,8835,1,0,0:0:0:0:
192,192,9188,1,0,0:0:0:0:
320,192,9541,1,0,0:0:0:0:
448,192,10070,1,0,0:0:0:0:
320,192,10247,1,0,0:0:0:0:
192,192,10423,1,0,0:0:0:0:
64,192,10776,1,0,0:0:0:0:
448,192,11129,1,0,0:0:0:0:
320,192,11305,1,0,0:0:0:0:
192,192,11482,1,0,0:0:0:0:
64,192,11658,1,0,0:0:0:0:
64,192,12011,1,0,0:0:0:0:
192,192,12188,1,0,0:0:0:0:
320,192,12364,1,0,0:0:0:0:
64,192,12541,1,0,0:0:0:0:
192,192,12717,1,0,0:0:0:0:
64,192,12894,1,8,0:0:0:70:snare04.wav
320,192,12894,1,0,0:0:0:0:
448,192,12894,1,0,0:0:0:0:
64,192,13247,128,2,13423:0:0:0:70:kick_best.wav
320,192,13247,1,4,0:0:0:70:drum-hitfinish.wav
448,192,13247,1,0,0:0:0:0:
64,192,13600,1,8,0:0:0:70:snare04.wav
320,192,13600,128,0,13776:0:0:0:0:
448,192,13776,1,0,0:0:0:0:
192,192,13952,128,0,14129:0:0:0:0:
320,192,14129,1,2,0:0:0:70:kick_best.wav
448,192,14129,1,0,0:0:0:0:
64,192,14305,1,8,0:0:0:70:snare04.wav
320,192,14305,128,0,14482:0:0:0:0:
192,192,14482,1,2,0:0:0:70:kick_best.wav
448,192,14482,1,0,0:0:0:0:
64,192,14658,128,0,14835:0:0:0:0:
192,192,14835,128,2,15011:0:0:0:70:kick_best.wav
448,192,14835,1,0,0:0:0:0:
64,192,15011,1,8,0:0:0:70:snare04.wav
320,192,15011,128,0,15188:0:0:0:0:
448,192,15188,128,0,15364:0:0:0:0:
192,192,15364,1,0,0:0:0:0:
64,192,15541,1,2,0:0:0:70:kick_best.wav
320,192,15541,1,0,0:0:0:0:
192,192,15717,1,8,0:0:0:70:snare04.wav
448,192,15717,1,0,0:0:0:0:
192,192,16070,1,2,0:0:0:70:kick_best.wav
448,192,16070,1,0,0:0:0:0:
320,192,16247,1,0,0:0:0:0:
192,192,16423,1,8,0:0:0:70:snare04.wav
448,192,16423,128,0,16600:0:0:0:0:
64,192,16600,1,0,0:0:0:0:
192,192,16776,128,0,16952:0:0:0:0:
64,192,16952,1,2,0:0:0:70:kick_best.wav
320,192,16952,1,0,0:0:0:0:
320,192,17129,1,8,0:0:0:70:snare04.wav
448,192,17129,1,0,0:0:0:0:
64,192,17305,128,2,17658:0:0:0:70:kick_best.wav
192,192,17305,1,0,0:0:0:0:
320,192,17658,1,2,0:0:0:70:kick_best.wav
448,192,17658,128,0,17835:0:0:0:0:
64,192,17835,1,8,0:0:0:70:snare04.wav
192,192,17835,128,0,18011:0:0:0:0:
320,192,18011,128,2,18188:0:0:0:70:kick_best.wav
448,192,18011,1,0,0:0:0:0:
64,192,18188,1,0,0:0:0:70:snare05.wav
192,192,18188,1,0,0:0:0:0:
320,192,18364,1,2,0:0:0:70:kick_best.wav
448,192,18364,1,0,0:0:0:0:
64,192,18541,1,8,0:0:0:70:snare04.wav
192,192,18541,1,0,0:0:0:0:
320,192,18717,1,0,0:0:0:0:
64,192,18894,1,2,0:0:0:70:kick_best.wav
448,192,18894,128,0,19247:0:0:0:0:
192,192,19247,128,8,19423:0:0:0:70:snare04.wav
320,192,19247,1,0,0:0:0:0:
64,192,19423,1,0,0:0:0:0:
320,192,19600,128,0,19776:0:0:0:0:
64,192,19776,1,2,0:0:0:70:kick_best.wav
192,192,19776,1,0,0:0:0:0:
192,192,19952,1,8,0:0:0:70:snare04.wav
448,192,19952,1,0,0:0:0:0:
320,192,20129,1,2,0:0:0:70:kick_best.wav
448,192,20129,128,0,20482:0:0:0:0:
64,192,20482,1,2,0:0:0:70:kick_best.wav
320,192,20482,128,0,20658:0:0:0:0:
192,192,20658,128,8,20835:0:0:0:70:snare04.wav
448,192,20658,1,0,0:0:0:0:
64,192,20835,128,0,21011:0:0:0:0:
320,192,21011,1,0,0:0:0:0:
192,192,21188,1,2,0:0:0:70:kick_best.wav
448,192,21188,128,0,21364:0:0:0:0:
64,192,21364,1,8,0:0:0:70:snare04.wav
192,192,21364,128,0,21541:0:0:0:0:
320,192,21541,128,0,21717:0:0:0:0:
64,192,21717,1,2,0:0:0:70:kick_best.wav
448,192,21717,1,0,0:0:0:0:
192,192,21894,1,0,0:0:0:0:
64,192,22070,128,8,22247:0:0:0:70:snare04.wav
320,192,22070,1,0,0:0:0:0:
448,192,22247,1,0,0:0:0:0:
320,192,22423,128,0,22600:0:0:0:0:
64,192,22600,1,2,0:0:0:70:kick_best.wav
192,192,22600,1,0,0:0:0:0:
320,192,22776,1,8,0:0:0:70:snare04.wav
448,192,22776,1,0,0:0:0:0:
320,192,22952,1,2,0:0:0:70:kick_best.wav
448,192,22952,128,0,23305:0:0:0:0:
64,192,23305,1,2,0:0:0:70:kick_best.wav
192,192,23305,1,0,0:0:0:0:
320,192,23482,1,8,0:0:0:70:snare04.wav
448,192,23482,1,0,0:0:0:0:
64,192,23658,1,2,0:0:0:70:kick_best.wav
192,192,23658,1,0,0:0:0:0:
320,192,23835,1,0,0:0:0:70:snare05.wav
448,192,23835,1,0,0:0:0:0:
192,192,24011,1,2,0:0:0:70:kick_best.wav
448,192,24011,1,0,0:0:0:0:
64,192,24188,1,8,0:0:0:70:snare04.wav
320,192,24188,1,0,0:0:0:0:
192,192,24364,1,0,0:0:0:0:
64,192,24541,128,2,24894:0:0:0:70:kick_best.wav
320,192,24541,1,0,0:0:0:70:drum-hitfinish.wav
448,192,24541,1,0,0:0:0:0:
192,192,24894,1,8,0:0:0:70:snare04.wav
320,192,24894,1,0,0:0:0:0:
448,192,25070,128,0,25247:0:0:0:0:
320,192,25247,128,0,25423:0:0:0:0:
64,192,25423,1,2,0:0:0:70:kick_best.wav
192,192,25423,1,0,0:0:0:0:
320,192,25600,1,8,0:0:0:70:snare04.wav
448,192,25600,1,0,0:0:0:0:
64,192,25776,1,2,0:0:0:70:kick_best.wav
192,192,25776,128,0,26129:0:0:0:0:
320,192,26129,1,2,0:0:0:70:kick_best.wav
448,192,26129,128,0,26305:0:0:0:0:
64,192,26305,128,8,26482:0:0:0:70:snare04.wav
192,192,26305,1,0,0:0:0:0:
320,192,26482,1,2,0:0:0:70:kick_best.wav
448,192,26482,1,0,0:0:0:0:
192,192,26658,1,0,0:0:0:0:
64,192,26835,1,2,0:0:0:70:kick_best.wav
192,192,26835,1,0,0:0:0:0:
320,192,27011,1,8,0:0:0:70:snare04.wav
448,192,27011,1,0,0:0:0:0:
192,192,27188,128,0,27364:0:0:0:0:
64,192,27364,1,2,0:0:0:70:kick_best.wav
320,192,27364,1,0,0:0:0:0:
320,192,27541,128,0,27717:0:0:0:0:
192,192,27717,128,8,27894:0:0:0:70:snare04.wav
448,192,27717,1,0,0:0:0:0:
64,192,27894,128,0,28070:0:0:0:0:
320,192,28070,1,0,0:0:0:0:
64,192,28247,1,2,0:0:0:70:kick_best.wav
192,192,28247,128,0,28423:0:0:0:0:
320,192,28423,1,8,0:0:0:70:snare04.wav
448,192,28423,1,0,0:0:0:0:
320,192,28600,1,2,0:0:0:70:kick_best.wav
448,192,28600,128,0,28952:0:0:0:0:
64,192,28952,1,2,0:0:0:70:kick_best.wav
192,192,28952,128,0,29129:0:0:0:0:
320,192,29129,1,8,0:0:0:70:snare04.wav
448,192,29129,1,0,0:0:0:0:
192,192,29305,1,2,0:0:0:70:kick_best.wav
448,192,29305,128,0,29482:0:0:0:0:
64,192,29482,1,0,0:0:0:70:snare05.wav
320,192,29482,1,0,0:0:0:0:
192,192,29658,1,2,0:0:0:70:kick_best.wav
320,192,29658,1,0,0:0:0:0:
64,192,29835,1,8,0:0:0:70:snare04.wav
448,192,29835,1,0,0:0:0:0:
192,192,30011,1,0,0:0:0:0:
64,192,30188,128,2,30541:0:0:0:70:kick_best.wav
320,192,30188,1,0,0:0:0:0:
192,192,30541,1,8,0:0:0:70:snare04.wav
448,192,30541,1,0,0:0:0:0:
320,192,30717,128,0,30894:0:0:0:0:
448,192,30894,128,0,31070:0:0:0:0:
64,192,31070,1,2,0:0:0:70:kick_best.wav
192,192,31070,1,0,0:0:0:0:
320,192,31247,1,8,0:0:0:70:snare04.wav
448,192,31247,1,0,0:0:0:0:
64,192,31423,1,2,0:0:0:70:kick_best.wav
192,192,31423,128,0,31776:0:0:0:0:
320,192,31776,1,2,0:0:0:70:kick_best.wav
448,192,31776,128,0,31952:0:0:0:0:
64,192,31952,128,8,32129:0:0:0:70:snare04.wav
192,192,31952,1,0,0:0:0:0:
320,192,32129,1,2,0:0:0:70:kick_best.wav
448,192,32129,1,0,0:0:0:0:
320,192,32305,1,0,0:0:0:0:
192,192,32482,128,2,32658:0:0:0:70:kick_best.wav
448,192,32482,1,0,0:0:0:0:
64,192,32658,128,8,32835:0:0:0:70:snare04.wav
320,192,32658,1,0,0:0:0:0:
448,192,32835,128,0,33011:0:0:0:0:
64,192,33011,1,2,0:0:0:70:kick_best.wav
320,192,33011,128,0,33188:0:0:0:0:
192,192,33188,128,0,33364:0:0:0:0:
64,192,33364,1,8,0:0:0:70:snare04.wav
320,192,33364,1,0,0:0:0:0:
64,192,33541,128,2,33717:0:0:0:70:kick_best.wav
448,192,33541,1,0,0:0:0:0:
64,192,33894,1,2,0:0:0:70:kick_best.wav
320,192,33894,128,0,34070:0:0:0:0:
192,192,34070,1,8,0:0:0:70:snare04.wav
448,192,34070,1,0,0:0:0:0:
64,192,34247,1,2,0:0:0:70:kick_best.wav
448,192,34247,128,0,34423:0:0:0:0:
320,192,34423,1,0,0:0:0:0:
64,192,34600,1,2,0:0:0:70:kick_best.wav
192,192,34600,1,0,0:0:0:0:
320,192,34776,1,8,0:0:0:70:snare04.wav
448,192,34776,1,0,0:0:0:0:
192,192,34952,1,2,0:0:0:70:kick_best.wav
320,192,34952,1,0,0:0:0:0:
64,192,35129,1,8,0:0:0:70:snare04.wav
448,192,35129,1,0,0:0:0:0:
192,192,35305,1,2,0:0:0:70:kick_best.wav
320,192,35305,1,0,0:0:0:0:
320,192,35482,1,8,0:0:0:70:snare04.wav
448,192,35482,1,0,0:0:0:0:
64,192,35658,1,0,0:0:0:0:
192,192,35835,1,2,0:0:0:70:kick_best.wav
320,192,35835,1,4,0:0:0:70:drum-hitfinish.wav
448,192,35835,128,0,36188:0:0:0:0:
320,192,36188,1,0,0:0:0:0:
64,192,36364,1,2,0:0:0:70:kick_best.wav
192,192,36364,1,0,0:0:0:0:
320,192,36541,1,8,0:0:0:70:snare04.wav
448,192,36541,1,0,0:0:0:0:
192,192,36717,1,0,0:0:0:0:
448,192,36894,128,0,37070:0:0:0:0:
64,192,37070,1,2,0:0:0:70:kick_best.wav
320,192,37070,128,0,37247:0:0:0:0:
192,192,37247,128,0,37423:0:0:0:0:
64,192,37423,1,8,0:0:0:70:snare04.wav
448,192,37423,1,0,0:0:0:0:
192,192,37600,1,2,0:0:0:70:kick_best.wav
320,192,37600,1,0,0:0:0:0:
320,192,37776,1,2,0:0:0:70:kick_best.wav
448,192,37776,1,0,0:0:0:0:
64,192,37952,128,8,38129:0:0:0:70:snare04.wav
192,192,37952,1,0,0:0:0:0:
320,192,38129,1,2,0:0:0:70:kick_best.wav
448,192,38129,1,0,0:0:0:0:
448,192,38305,128,0,38482:0:0:0:0:
64,192,38482,1,8,0:0:0:70:snare04.wav
320,192,38482,1,0,0:0:0:0:
192,192,38658,1,2,0:0:0:70:kick_best.wav
448,192,38658,1,4,0:0:0:70:drum-hitfinish.wav
192,192,38835,1,0,0:0:0:0:
64,192,39188,1,2,0:0:0:70:kick_best.wav
320,192,39188,1,0,0:0:0:0:
192,192,39364,1,8,0:0:0:70:snare04.wav
448,192,39364,1,0,0:0:0:0:
320,192,39717,1,0,0:0:0:0:
64,192,39894,1,2,0:0:0:70:kick_best.wav
320,192,39894,1,0,0:0:0:0:
192,192,40247,1,2,0:0:0:70:kick_best.wav
448,192,40247,1,8,0:0:0:70:snare04.wav
320,192,40423,1,0,0:0:0:0:
64,192,40600,1,2,0:0:0:70:kick_best.wav
192,192,40600,1,0,0:0:0:0:
320,192,40776,1,8,0:0:0:70:snare04.wav
448,192,40776,1,0,0:0:0:0:
192,192,40952,1,2,0:0:0:70:kick_best.wav
320,192,40952,1,0,0:0:0:0:
64,192,41129,1,8,0:0:0:70:snare04.wav
192,192,41129,1,0,0:0:0:0:
320,192,41305,1,8,0:0:0:70:snare04.wav
448,192,41305,1,0,0:0:0:0:
64,192,41482,1,2,0:0:0:70:kick_best.wav
192,192,41482,1,4,0:0:0:70:drum-hitfinish.wav
320,192,41658,1,0,0:0:0:0:
64,192,41835,1,2,0:0:0:70:kick_best.wav
448,192,41835,1,0,0:0:0:0:
192,192,42011,1,0,0:0:0:0:
64,192,42188,1,2,0:0:0:70:kick_best.wav
320,192,42188,1,0,0:0:0:0:
448,192,42364,1,0,0:0:0:0:
192,192,42541,1,2,0:0:0:70:kick_best.wav
320,192,42541,1,0,0:0:0:0:
448,192,42717,1,0,0:0:0:0:
64,192,42894,1,2,0:0:0:70:kick_best.wav
192,192,42894,1,0,0:0:0:0:
320,192,43070,1,0,0:0:0:0:
64,192,43247,1,2,0:0:0:70:kick_best.wav
448,192,43247,1,0,0:0:0:0:
192,192,43423,1,0,0:0:0:0:
64,192,43600,1,2,0:0:0:70:kick_best.wav
320,192,43600,1,0,0:0:0:0:
448,192,43776,1,0,0:0:0:0:
192,192,43952,1,2,0:0:0:70:kick_best.wav
320,192,43952,1,0,0:0:0:0:
64,192,44129,1,0,0:0:0:0:
320,192,44305,1,2,0:0:0:70:kick_best.wav
448,192,44305,1,0,0:0:0:0:
192,192,44482,1,2,0:0:0:70:kick_best.wav
320,192,44482,1,0,0:0:0:0:
64,192,44658,1,2,0:0:0:70:kick_best.wav
448,192,44658,1,0,0:0:0:0:
192,192,44835,1,2,0:0:0:70:kick_best.wav
320,192,44835,1,0,0:0:0:0:
64,192,45011,1,2,0:0:0:70:kick_best.wav
192,192,45011,1,0,0:0:0:0:
320,192,45188,1,2,0:0:0:70:kick_best.wav
448,192,45188,1,0,0:0:0:0:
320,192,45364,1,2,0:0:0:70:kick_best.wav
448,192,45364,128,0,45717:0:0:0:0:
192,192,45717,128,0,46776:0:0:0:0:
320,192,46776,1,0,0:0:0:0:
64,192,47129,128,2,47482:0:0:0:70:kick_best.wav
192,192,47129,1,4,0:0:0:70:drum-hitfinish.wav
448,192,47129,128,0,47482:0:0:0:0:
320,192,47482,128,0,47658:0:0:0:0:
192,192,47658,128,0,47835:0:0:0:0:
64,192,47835,1,8,0:0:0:70:snare04.wav
448,192,47835,128,0,48011:0:0:0:0:
320,192,48011,128,0,48188:0:0:0:0:
192,192,48188,128,0,48364:0:0:0:0:
64,192,48364,128,2,48541:0:0:0:70:kick_best.wav
448,192,48364,1,0,0:0:0:0:
192,192,48717,1,2,0:0:0:70:kick_best.wav
448,192,48717,1,0,0:0:0:0:
320,192,48894,1,2,0:0:0:70:kick_best.wav
448,192,48894,1,0,0:0:0:0:
64,192,49070,1,0,0:0:0:0:
192,192,49247,1,8,0:0:0:70:snare04.wav
320,192,49247,1,0,0:0:0:0:
448,192,49423,1,0,0:0:0:0:
64,192,49600,1,0,0:0:0:0:
192,192,49688,1,0,0:0:0:0:
320,192,49776,1,0,0:0:0:0:
64,192,49952,128,2,50129:0:0:0:70:kick_best.wav
448,192,49952,1,0,0:0:0:0:
192,192,50129,1,2,0:0:0:70:kick_best.wav
320,192,50129,1,0,0:0:0:0:
448,192,50305,1,0,0:0:0:0:
320,192,50482,128,0,50658:0:0:0:0:
64,192,50658,1,8,0:0:0:70:snare04.wav
192,192,50658,128,0,50835:0:0:0:0:
320,192,50835,1,0,0:0:0:0:
448,192,51011,128,0,51188:0:0:0:0:
64,192,51188,1,2,0:0:0:70:kick_best.wav
320,192,51188,128,0,51364:0:0:0:0:
192,192,51364,1,0,0:0:0:0:
320,192,51541,1,2,0:0:0:70:kick_best.wav
448,192,51541,1,0,0:0:0:0:
64,192,51717,1,2,0:0:0:70:kick_best.wav
192,192,51717,1,0,0:0:0:0:
320,192,51894,1,0,0:0:0:0:
64,192,52070,1,8,0:0:0:70:snare04.wav
448,192,52070,1,0,0:0:0:0:
192,192,52247,1,2,0:0:0:70:kick_best.wav
320,192,52247,1,0,0:0:0:0:
448,192,52423,1,0,0:0:0:0:
320,192,52511,1,0,0:0:0:0:
64,192,52600,1,0,0:0:0:0:
192,192,52688,1,0,0:0:0:0:
64,192,52776,128,2,53129:0:0:0:70:kick_best.wav
320,192,52776,1,4,0:0:0:70:drum-hitfinish.wav
448,192,52776,128,0,53129:0:0:0:0:
192,192,53129,1,2,0:0:0:70:kick_best.wav
320,192,53129,1,0,0:0:0:0:
192,192,53305,1,0,0:0:0:0:
448,192,53305,1,0,0:0:0:0:
64,192,53482,1,8,0:0:0:70:snare04.wav
320,192,53482,1,0,0:0:0:0:
192,192,53658,1,0,0:0:0:0:
448,192,53658,1,0,0:0:0:0:
64,192,53835,1,0,0:0:0:0:
192,192,53835,1,0,0:0:0:0:
320,192,54011,1,2,0:0:0:70:kick_best.wav
448,192,54011,1,0,0:0:0:0:
64,192,54188,1,0,0:0:0:0:
192,192,54188,1,0,0:0:0:0:
448,192,54364,1,0,0:0:0:0:
64,192,54541,1,2,0:0:0:70:kick_best.wav
192,192,54541,1,0,0:0:0:0:
320,192,54717,1,0,0:0:0:0:
64,192,54894,1,8,0:0:0:70:snare04.wav
448,192,54894,1,0,0:0:0:0:
320,192,55070,1,0,0:0:0:0:
64,192,55247,1,0,0:0:0:0:
192,192,55335,1,0,0:0:0:0:
320,192,55423,1,0,0:0:0:0:
192,192,55600,128,2,55952:0:0:0:70:kick_best.wav
448,192,55600,128,0,55952:0:0:0:0:
320,192,55952,1,0,0:0:0:0:
64,192,56129,1,0,0:0:0:0:
192,192,56305,128,2,56658:0:0:0:70:kick_best.wav
448,192,56305,128,0,56658:0:0:0:0:
320,192,56658,1,0,0:0:0:0:
64,192,56835,1,0,0:0:0:0:
192,192,57011,128,2,57188:0:0:0:70:kick_best.wav
448,192,57011,128,0,57364:0:0:0:0:
320,192,57188,1,0,0:0:0:0:
64,192,57364,1,2,0:0:0:70:kick_best.wav
192,192,57364,1,0,0:0:0:0:
320,192,57541,1,0,0:0:0:0:
64,192,57717,1,8,0:0:0:70:snare04.wav
448,192,57717,1,0,0:0:0:0:
64,192,57894,1,8,0:0:0:70:snare04.wav
192,192,57894,1,0,0:0:0:0:
320,192,58070,128,2,58423:0:0:0:70:kick_best.wav
448,192,58070,1,0,0:0:0:0:
64,192,58423,128,2,58776:0:0:0:70:kick_best.wav
192,192,58423,1,4,0:0:0:70:drum-hitfinish.wav
448,192,58423,1,0,0:0:0:0:
320,192,58776,1,0,0:0:0:70:kick_best.wav
448,192,58776,128,0,59129:0:0:0:0:
64,192,59129,1,8,0:0:0:70:snare04.wav
320,192,59129,1,0,0:0:0:0:
192,192,59305,1,0,0:0:0:0:
320,192,59482,1,2,0:0:0:70:kick_best.wav
448,192,59482,1,0,0:0:0:0:
64,192,59658,128,2,60011:0:0:0:70:kick_best.wav
192,192,59658,1,0,0:0:0:0:
320,192,60011,1,2,0:0:0:70:kick_best.wav
448,192,60011,1,0,0:0:0:0:
192,192,60188,1,2,0:0:0:70:kick_best.wav
320,192,60188,1,0,0:0:0:0:
64,192,60364,1,2,0:0:0:70:kick_best.wav
192,192,60364,1,0,0:0:0:0:
320,192,60541,1,8,0:0:0:70:snare04.wav
448,192,60541,1,0,0:0:0:0:
192,192,60717,1,2,0:0:0:70:kick_best.wav
448,192,60717,1,0,0:0:0:0:
64,192,60894,1,2,0:0:0:70:kick_best.wav
192,192,60894,1,0,0:0:0:0:
64,192,61070,1,2,0:0:0:70:kick_best.wav
320,192,61070,1,0,0:0:0:0:
320,192,61247,1,2,0:0:0:70:kick_best.wav
448,192,61247,128,0,61600:0:0:0:0:
64,192,61600,1,2,0:0:0:70:kick_best.wav
192,192,61600,128,0,61952:0:0:0:0:
320,192,61952,1,8,0:0:0:70:snare04.wav
448,192,61952,1,0,0:0:0:0:
64,192,62129,1,0,0:0:0:0:
192,192,62305,1,2,0:0:0:70:kick_best.wav
320,192,62305,1,0,0:0:0:0:
64,192,62482,128,2,62835:0:0:0:70:kick_best.wav
448,192,62482,1,0,0:0:0:0:
192,192,62658,128,0,62835:0:0:0:0:
320,192,62835,1,2,0:0:0:70:kick_best.wav
448,192,62835,1,0,0:0:0:0:
320,192,63011,1,2,0:0:0:70:kick_best.wav
448,192,63011,1,0,0:0:0:0:
64,192,63188,1,2,0:0:0:70:kick_best.wav
192,192,63188,1,0,0:0:0:0:
192,192,63364,1,8,0:0:0:70:snare04.wav
448,192,63364,1,0,0:0:0:0:
320,192,63541,1,2,0:0:0:70:kick_best.wav
448,192,63541,1,0,0:0:0:0:
64,192,63717,1,2,0:0:0:70:kick_best.wav
192,192,63717,128,0,64070:0:0:0:0:
320,192,63894,1,2,0:0:0:70:kick_best.wav
448,192,63894,1,0,0:0:0:0:
64,192,64070,1,2,0:0:0:70:kick_best.wav
320,192,64070,1,4,0:0:0:70:drum-hitfinish.wav
448,192,64070,128,0,64423:0:0:0:0:
64,192,64423,128,2,64776:0:0:0:70:kick_best.wav
192,192,64423,1,0,0:0:0:0:
192,192,64776,1,8,0:0:0:70:snare04.wav
448,192,64776,1,0,0:0:0:0:
320,192,64952,1,0,0:0:0:0:
64,192,65129,1,2,0:0:0:70:kick_best.wav
192,192,65129,1,0,0:0:0:0:
320,192,65305,1,2,0:0:0:70:kick_best.wav
448,192,65305,128,0,65658:0:0:0:0:
64,192,65658,1,2,0:0:0:70:kick_best.wav
320,192,65658,1,0,0:0:0:0:
192,192,65835,1,2,0:0:0:70:kick_best.wav
320,192,65835,1,0,0:0:0:0:
64,192,66011,1,2,0:0:0:70:kick_best.wav
192,192,66011,1,0,0:0:0:0:
320,192,66188,1,8,0:0:0:70:snare04.wav
448,192,66188,1,0,0:0:0:0:
192,192,66364,1,2,0:0:0:70:kick_best.wav
448,192,66364,1,0,0:0:0:0:
64,192,66541,1,2,0:0:0:70:kick_best.wav
192,192,66541,1,0,0:0:0:0:
64,192,66717,1,2,0:0:0:70:kick_best.wav
320,192,66717,1,0,0:0:0:0:
320,192,66894,1,2,0:0:0:70:kick_best.wav
448,192,66894,128,0,67247:0:0:0:0:
64,192,67247,1,2,0:0:0:70:kick_best.wav
192,192,67247,128,0,67600:0:0:0:0:
320,192,67600,1,8,0:0:0:70:snare04.wav
448,192,67600,1,0,0:0:0:0:
64,192,67776,1,0,0:0:0:0:
192,192,67952,1,2,0:0:0:70:kick_best.wav
320,192,67952,1,0,0:0:0:0:
64,192,68129,128,2,68482:0:0:0:70:kick_best.wav
448,192,68129,1,0,0:0:0:0:
320,192,68482,1,2,0:0:0:70:kick_best.wav
448,192,68482,1,0,0:0:0:0:
192,192,68658,1,0,0:0:0:70:snare05.wav
448,192,68658,1,0,0:0:0:0:
64,192,68835,1,2,0:0:0:70:kick_best.wav
320,192,68835,1,0,0:0:0:0:
64,192,69011,128,8,69188:0:0:0:70:snare04.wav
192,192,69011,1,0,0:0:0:0:
320,192,69188,1,2,0:0:0:70:kick_best.wav
448,192,69188,1,0,0:0:0:0:
320,192,69364,1,0,0:0:0:70:kick_best.wav
448,192,69364,1,0,0:0:0:0:
64,192,69541,1,2,0:0:0:70:kick_best.wav
192,192,69541,1,0,0:0:0:0:
320,192,69717,128,2,69894:0:0:0:70:kick_best.wav
448,192,69717,1,0,0:0:0:0:
192,192,69894,128,0,70070:0:0:0:0:
64,192,70070,1,0,0:0:0:70:snare04.wav
448,192,70070,128,0,70247:0:0:0:0:
64,192,70247,128,2,70600:0:0:0:70:kick_best.wav
320,192,70247,1,0,0:0:0:0:
320,192,70600,1,0,0:0:0:70:snare04.wav
448,192,70600,1,0,0:0:0:0:
64,192,70776,1,0,0:0:0:0:
192,192,70864,1,0,0:0:0:70:snare04.wav
320,192,70952,1,0,0:0:0:0:
448,192,71041,1,0,0:0:0:70:snare04.wav
64,192,71129,128,2,71305:0:0:0:70:kick_best.wav
192,192,71129,1,0,0:0:0:0:
320,192,71305,128,0,71482:0:0:0:0:
64,192,71482,1,0,0:0:0:70:snare04.wav
448,192,71482,1,0,0:0:0:0:
192,192,71658,128,0,71835:0:0:0:70:kick_best.wav
320,192,71658,1,0,0:0:0:0:
64,192,71835,1,0,0:0:0:70:kick_best.wav
448,192,71835,128,0,72011:0:0:0:0:
192,192,72011,1,0,0:0:0:70:snare04.wav
320,192,72011,1,0,0:0:0:0:
64,192,72188,1,0,0:0:0:0:
192,192,72276,1,0,0:0:0:70:snare04.wav
320,192,72364,1,0,0:0:0:0:
448,192,72452,1,0,0:0:0:0:
64,192,72541,128,0,72717:0:0:0:70:kick_best.wav
192,192,72541,1,0,0:0:0:0:
320,192,72717,1,0,0:0:0:0:
64,192,72894,1,0,0:0:0:70:snare04.wav
448,192,72894,128,0,73070:0:0:0:0:
192,192,73070,1,0,0:0:0:70:kick_best.wav
320,192,73070,1,0,0:0:0:0:
64,192,73247,128,0,73423:0:0:0:0:
192,192,73423,1,0,0:0:0:70:snare04.wav
320,192,73423,1,0,0:0:0:0:
448,192,73600,1,0,0:0:0:0:
320,192,73688,1,0,0:0:0:70:snare04.wav
192,192,73776,1,0,0:0:0:0:
64,192,73864,1,0,0:0:0:70:snare04.wav
320,192,73952,1,0,0:0:0:70:kick_best.wav
448,192,73952,128,0,74129:0:0:0:0:
192,192,74129,1,0,0:0:0:0:
320,192,74305,1,0,0:0:0:70:snare04.wav
448,192,74305,1,0,0:0:0:0:
64,192,74482,128,0,74658:0:0:0:70:kick_best.wav
192,192,74482,1,0,0:0:0:0:
320,192,74658,1,0,0:0:0:0:
448,192,74658,1,0,0:0:0:0:
64,192,74835,1,0,0:0:0:70:snare04.wav
192,192,74835,1,0,0:0:0:0:
448,192,75011,1,0,0:0:0:0:
320,192,75100,1,0,0:0:0:70:snare04.wav
192,192,75188,1,0,0:0:0:0:
64,192,75276,1,0,0:0:0:70:snare04.wav
320,192,75364,1,0,0:0:0:70:kick_best.wav
448,192,75364,128,0,75541:0:0:0:0:
192,192,75541,1,0,0:0:0:0:
64,192,75717,1,0,0:0:0:70:snare04.wav
448,192,75717,1,0,0:0:0:0:
192,192,75894,1,0,0:0:0:70:kick_best.wav
320,192,75894,1,0,0:0:0:0:
64,192,76070,128,0,76247:0:0:0:0:
448,192,76070,1,0,0:0:0:0:
192,192,76247,1,0,0:0:0:70:snare04.wav
320,192,76247,1,0,0:0:0:0:
448,192,76423,1,0,0:0:0:0:
320,192,76511,1,0,0:0:0:70:snare04.wav
192,192,76600,1,0,0:0:0:0:
64,192,76688,1,0,0:0:0:70:snare04.wav
320,192,76776,1,2,0:0:0:70:kick_best.wav
448,192,76776,128,0,76952:0:0:0:0:
192,192,76952,1,0,0:0:0:0:
320,192,77129,1,0,0:0:0:70:snare04.wav
448,192,77129,1,0,0:0:0:0:
192,192,77305,1,2,0:0:0:70:kick_best.wav
320,192,77305,1,0,0:0:0:0:
64,192,77482,128,0,77658:0:0:0:0:
64,192,77835,128,0,78011:0:0:0:0:
320,192,78188,1,0,0:0:0:70:snare04.wav
448,192,78188,1,0,0:0:0:0:
64,192,78364,1,0,0:0:0:70:snare04.wav
192,192,78452,1,0,0:0:0:70:snare04.wav
320,192,78452,1,0,0:0:0:0:
448,192,78541,1,0,0:0:0:0:
64,192,78717,1,0,0:0:0:70:snare04.wav
192,192,78717,1,0,0:0:0:0:
448,192,78894,1,0,0:0:0:0:
192,192,78982,1,0,0:0:0:70:snare04.wav
320,192,79070,1,0,0:0:0:0:
64,192,79158,1,0,0:0:0:70:snare04.wav
448,192,79247,1,0,0:0:0:70:snare04.wav
192,192,79335,1,0,0:0:0:70:snare04.wav
320,192,79423,1,0,0:0:0:0:
64,192,79511,1,0,0:0:0:70:snare04.wav
448,192,79600,1,2,0:0:0:70:kick_best.wav
192,192,79688,1,2,0:0:0:70:kick_best.wav
448,192,79776,1,2,0:0:0:70:kick_best.wav
192,192,79864,1,2,0:0:0:70:kick_best.wav
320,192,79952,1,0,0:0:0:70:tom03.wav
64,192,80041,1,0,0:0:0:70:tom03.wav
320,192,80129,1,0,0:0:0:70:tom03.wav
64,192,80217,1,0,0:0:0:70:tom03.wav
448,192,80305,1,0,0:0:0:70:snare04.wav
64,192,81011,1,2,0:0:0:70:kick_best.wav
192,192,81011,1,0,0:0:0:70:drum-hitfinish.wav
448,192,81011,128,0,81364:0:0:0:0:
192,192,81364,1,2,0:0:0:70:kick_best.wav
320,192,81364,1,0,0:0:0:0:
64,192,81541,128,0,81717:0:0:0:0:
192,192,81717,128,2,81894:0:0:0:70:kick_best.wav
448,192,81717,1,0,0:0:0:0:
320,192,81894,1,0,0:0:0:0:
192,192,82070,1,2,0:0:0:70:kick_best.wav
448,192,82070,128,0,82247:0:0:0:0:
320,192,82247,128,0,82423:0:0:0:0:
64,192,82423,1,2,0:0:0:70:kick_best.wav
448,192,82423,1,0,0:0:0:0:
64,192,82600,128,0,82776:0:0:0:0:
192,192,82776,128,2,82952:0:0:0:70:kick_best.wav
448,192,82776,1,0,0:0:0:0:
320,192,82952,1,0,0:0:0:0:
64,192,83129,1,2,0:0:0:70:kick_best.wav
448,192,83129,1,0,0:0:0:0:
320,192,83305,1,0,0:0:0:0:
64,192,83482,1,0,0:0:0:70:snare04.wav
192,192,83482,1,0,0:0:0:0:
64,192,83658,128,0,83835:0:0:0:0:
320,192,83835,1,2,0:0:0:70:kick_best.wav
448,192,83835,1,0,0:0:0:0:
192,192,84011,128,0,84188:0:0:0:0:
64,192,84188,1,0,0:0:0:70:snare04.wav
320,192,84188,128,0,84364:0:0:0:0:
448,192,84364,128,0,84541:0:0:0:0:
192,192,84541,1,0,0:0:0:0:
64,192,84717,1,2,0:0:0:70:kick_best.wav
320,192,84717,128,0,84894:0:0:0:0:
192,192,84894,1,0,0:0:0:70:snare04.wav
448,192,84894,1,0,0:0:0:0:
64,192,85070,1,2,0:0:0:70:kick_best.wav
192,192,85070,128,0,85423:0:0:0:0:
320,192,85423,128,2,85600:0:0:0:70:kick_best.wav
448,192,85423,1,0,0:0:0:0:
64,192,85600,1,0,0:0:0:70:snare04.wav
192,192,85600,1,0,0:0:0:0:
64,192,85776,128,2,85952:0:0:0:70:kick_best.wav
320,192,85776,1,0,0:0:0:0:
192,192,85952,1,0,0:0:0:70:snare05.wav
448,192,85952,1,0,0:0:0:0:
192,192,86129,1,2,0:0:0:70:kick_best.wav
320,192,86129,1,0,0:0:0:0:
64,192,86305,1,0,0:0:0:70:snare04.wav
448,192,86305,1,0,0:0:0:0:
320,192,86482,1,0,0:0:0:0:
192,192,86658,1,2,0:0:0:70:kick_best.wav
448,192,86658,128,0,87011:0:0:0:0:
64,192,87011,1,0,0:0:0:70:snare04.wav
320,192,87011,1,0,0:0:0:0:
192,192,87188,128,0,87364:0:0:0:0:
64,192,87364,128,0,87541:0:0:0:0:
320,192,87541,1,2,0:0:0:70:kick_best.wav
448,192,87541,1,0,0:0:0:0:
64,192,87717,1,0,0:0:0:70:snare04.wav
192,192,87717,1,0,0:0:0:0:
320,192,87894,128,2,88247:0:0:0:70:kick_best.wav
448,192,87894,1,0,0:0:0:0:
64,192,88247,128,2,88423:0:0:0:70:kick_best.wav
192,192,88247,1,0,0:0:0:0:
320,192,88423,1,0,0:0:0:70:snare04.wav
448,192,88423,128,0,88600:0:0:0:0:
64,192,88600,1,2,0:0:0:70:kick_best.wav
192,192,88600,1,0,0:0:0:0:
192,192,88776,1,0,0:0:0:0:
64,192,88952,1,2,0:0:0:70:kick_best.wav
320,192,88952,128,0,89129:0:0:0:0:
192,192,89129,1,0,0:0:0:70:snare04.wav
448,192,89129,128,0,89305:0:0:0:0:
64,192,89305,128,0,89482:0:0:0:0:
192,192,89482,128,2,89658:0:0:0:70:kick_best.wav
320,192,89482,1,0,0:0:0:0:
320,192,89658,128,0,89835:0:0:0:0:
192,192,89835,1,0,0:0:0:70:snare04.wav
448,192,89835,1,0,0:0:0:0:
64,192,90011,128,2,90188:0:0:0:70:kick_best.wav
448,192,90011,1,0,0:0:0:0:
64,192,90364,1,2,0:0:0:70:kick_best.wav
320,192,90364,128,0,90541:0:0:0:0:
192,192,90541,1,0,0:0:0:70:snare04.wav
448,192,90541,1,0,0:0:0:0:
64,192,90717,1,2,0:0:0:70:kick_best.wav
448,192,90717,128,0,90894:0:0:0:0:
320,192,90894,1,0,0:0:0:0:
64,192,91070,1,2,0:0:0:70:kick_best.wav
192,192,91070,1,0,0:0:0:0:
320,192,91247,1,0,0:0:0:70:snare04.wav
448,192,91247,1,0,0:0:0:0:
192,192,91423,1,2,0:0:0:70:kick_best.wav
320,192,91423,1,0,0:0:0:0:
64,192,91600,1,0,0:0:0:70:snare04.wav
448,192,91600,1,0,0:0:0:0:
192,192,91776,1,2,0:0:0:70:kick_best.wav
320,192,91776,1,0,0:0:0:0:
320,192,91952,1,0,0:0:0:70:snare04.wav
448,192,91952,1,0,0:0:0:0:
64,192,92129,1,0,0:0:0:0:
192,192,92305,1,2,0:0:0:70:kick_best.wav
320,192,92305,1,4,0:0:0:70:drum-hitfinish.wav
448,192,92305,128,0,92658:0:0:0:0:
320,192,92658,1,0,0:0:0:0:
64,192,92835,1,2,0:0:0:70:kick_best.wav
192,192,92835,1,0,0:0:0:0:
320,192,93011,1,8,0:0:0:70:snare04.wav
448,192,93011,1,0,0:0:0:0:
192,192,93188,1,0,0:0:0:0:
448,192,93364,128,0,93541:0:0:0:0:
64,192,93541,1,2,0:0:0:70:kick_best.wav
320,192,93541,128,0,93717:0:0:0:0:
192,192,93717,128,0,93894:0:0:0:0:
64,192,93894,1,8,0:0:0:70:snare04.wav
448,192,93894,1,0,0:0:0:0:
192,192,94070,1,2,0:0:0:70:kick_best.wav
320,192,94070,1,0,0:0:0:0:
320,192,94247,1,2,0:0:0:70:kick_best.wav
448,192,94247,1,0,0:0:0:0:
64,192,94423,128,8,94600:0:0:0:70:snare04.wav
192,192,94423,1,0,0:0:0:0:
320,192,94600,1,2,0:0:0:70:kick_best.wav
448,192,94600,1,0,0:0:0:0:
448,192,94776,128,0,94952:0:0:0:0:
64,192,94952,1,8,0:0:0:70:snare04.wav
320,192,94952,1,0,0:0:0:0:
192,192,95129,1,2,0:0:0:70:kick_best.wav
448,192,95129,1,4,0:0:0:70:drum-hitfinish.wav
448,192,95305,1,0,0:0:0:0:
64,192,95658,1,2,0:0:0:70:kick_best.wav
320,192,95658,1,0,0:0:0:0:
192,192,95835,1,8,0:0:0:70:snare04.wav
448,192,95835,1,0,0:0:0:0:
320,192,96188,1,0,0:0:0:0:
64,192,96364,1,2,0:0:0:70:kick_best.wav
320,192,96364,1,0,0:0:0:0:
192,192,96717,1,2,0:0:0:70:kick_best.wav
448,192,96717,1,8,0:0:0:70:snare04.wav
320,192,96894,1,0,0:0:0:0:
64,192,97070,1,2,0:0:0:70:kick_best.wav
192,192,97070,1,0,0:0:0:0:
320,192,97247,1,0,0:0:0:70:snare04.wav
448,192,97247,1,0,0:0:0:0:
192,192,97423,1,2,0:0:0:70:kick_best.wav
320,192,97423,1,0,0:0:0:0:
64,192,97600,1,0,0:0:0:70:snare04.wav
192,192,97600,1,0,0:0:0:0:
320,192,97776,1,0,0:0:0:70:snare04.wav
448,192,97776,1,0,0:0:0:0:
64,192,97952,1,2,0:0:0:70:kick_best.wav
192,192,97952,1,4,0:0:0:70:drum-hitfinish.wav
320,192,98129,1,0,0:0:0:0:
64,192,98305,1,2,0:0:0:70:kick_best.wav
448,192,98305,1,0,0:0:0:0:
192,192,98482,1,0,0:0:0:0:
64,192,98658,1,2,0:0:0:70:kick_best.wav
320,192,98658,1,0,0:0:0:0:
448,192,98835,1,0,0:0:0:0:
192,192,99011,1,2,0:0:0:70:kick_best.wav
320,192,99011,1,0,0:0:0:0:
448,192,99188,1,0,0:0:0:0:
64,192,99364,1,2,0:0:0:70:kick_best.wav
192,192,99364,1,0,0:0:0:0:
320,192,99541,1,0,0:0:0:0:
64,192,99717,1,2,0:0:0:70:kick_best.wav
448,192,99717,1,0,0:0:0:0:
192,192,99894,1,0,0:0:0:0:
64,192,100070,1,2,0:0:0:70:kick_best.wav
320,192,100070,1,0,0:0:0:0:
448,192,100247,1,0,0:0:0:0:
192,192,100423,1,2,0:0:0:70:kick_best.wav
320,192,100423,1,0,0:0:0:0:
64,192,100600,1,0,0:0:0:0:
320,192,100776,1,2,0:0:0:70:kick_best.wav
448,192,100776,1,0,0:0:0:0:
192,192,100952,1,0,0:0:0:70:kick_best.wav
320,192,100952,1,0,0:0:0:0:
64,192,101129,1,2,0:0:0:70:kick_best.wav
448,192,101129,1,0,0:0:0:0:
192,192,101305,1,2,0:0:0:70:kick_best.wav
320,192,101305,1,0,0:0:0:0:
64,192,101482,1,2,0:0:0:70:kick_best.wav
192,192,101482,1,0,0:0:0:0:
320,192,101658,1,2,0:0:0:70:kick_best.wav
448,192,101658,1,0,0:0:0:0:
64,192,101835,1,2,0:0:0:70:kick_best.wav
192,192,101835,1,0,0:0:0:0:
320,192,102011,1,2,0:0:0:70:kick_best.wav
448,192,102011,1,0,0:0:0:0:
192,192,102188,128,0,103247:0:0:0:0:
320,192,103247,1,0,0:0:0:0:
64,192,103600,128,2,103952:0:0:0:70:kick_best.wav
320,192,103600,1,4,0:0:0:70:drum-hitfinish.wav
448,192,103600,128,0,103952:0:0:0:0:
192,192,103952,128,0,104129:0:0:0:0:
320,192,104129,128,0,104305:0:0:0:0:
64,192,104305,128,8,104482:0:0:0:70:snare04.wav
448,192,104305,1,0,0:0:0:0:
192,192,104482,128,0,104658:0:0:0:0:
320,192,104658,128,0,104835:0:0:0:0:
64,192,104835,1,2,0:0:0:70:kick_best.wav
448,192,104835,128,0,105011:0:0:0:0:
64,192,105188,1,2,0:0:0:70:kick_best.wav
320,192,105188,1,0,0:0:0:0:
64,192,105364,1,2,0:0:0:70:kick_best.wav
192,192,105364,1,0,0:0:0:0:
448,192,105541,1,0,0:0:0:0:
192,192,105717,1,8,0:0:0:70:snare04.wav
320,192,105717,1,0,0:0:0:0:
64,192,105894,1,0,0:0:0:0:
448,192,106070,1,0,0:0:0:0:
320,192,106158,1,0,0:0:0:0:
192,192,106247,1,0,0:0:0:0:
64,192,106423,1,2,0:0:0:70:kick_best.wav
448,192,106423,128,0,106600:0:0:0:0:
192,192,106600,1,2,0:0:0:70:kick_best.wav
320,192,106600,1,0,0:0:0:0:
64,192,106776,1,0,0:0:0:0:
192,192,106952,128,0,107129:0:0:0:0:
320,192,107129,128,8,107305:0:0:0:70:snare04.wav
448,192,107129,1,0,0:0:0:0:
192,192,107305,1,0,0:0:0:0:
64,192,107482,128,0,107658:0:0:0:0:
192,192,107658,128,2,107835:0:0:0:70:kick_best.wav
448,192,107658,1,0,0:0:0:0:
320,192,107835,1,0,0:0:0:0:
64,192,108011,1,2,0:0:0:70:kick_best.wav
192,192,108011,1,0,0:0:0:0:
320,192,108188,1,2,0:0:0:70:kick_best.wav
448,192,108188,1,0,0:0:0:0:
192,192,108364,1,0,0:0:0:0:
64,192,108541,1,8,0:0:0:70:snare04.wav
448,192,108541,1,0,0:0:0:0:
192,192,108717,1,2,0:0:0:70:kick_best.wav
320,192,108717,1,0,0:0:0:0:
64,192,108894,1,0,0:0:0:0:
192,192,108982,1,0,0:0:0:0:
448,192,109070,1,0,0:0:0:0:
320,192,109158,1,0,0:0:0:0:
64,192,109247,128,2,109600:0:0:0:70:kick_best.wav
192,192,109247,1,4,0:0:0:70:drum-hitfinish.wav
448,192,109247,128,0,109600:0:0:0:0:
192,192,109600,1,2,0:0:0:70:kick_best.wav
320,192,109600,1,0,0:0:0:0:
64,192,109776,1,0,0:0:0:0:
320,192,109776,1,0,0:0:0:0:
192,192,109952,1,8,0:0:0:70:snare04.wav
448,192,109952,1,0,0:0:0:0:
64,192,110129,1,0,0:0:0:0:
320,192,110129,1,0,0:0:0:0:
320,192,110305,1,0,0:0:0:0:
448,192,110305,1,0,0:0:0:0:
64,192,110482,1,2,0:0:0:70:kick_best.wav
192,192,110482,1,0,0:0:0:0:
320,192,110658,1,0,0:0:0:0:
448,192,110658,1,0,0:0:0:0:
64,192,110835,1,0,0:0:0:0:
320,192,111011,1,2,0:0:0:70:kick_best.wav
448,192,111011,1,0,0:0:0:0:
192,192,111188,1,0,0:0:0:0:
64,192,111364,1,8,0:0:0:70:snare04.wav
448,192,111364,1,0,0:0:0:0:
192,192,111541,1,0,0:0:0:0:
448,192,111717,1,0,0:0:0:0:
320,192,111805,1,0,0:0:0:0:
192,192,111894,1,0,0:0:0:0:
64,192,112070,128,2,112423:0:0:0:70:kick_best.wav
320,192,112070,128,0,112423:0:0:0:0:
192,192,112423,1,0,0:0:0:0:
448,192,112600,1,0,0:0:0:0:
64,192,112776,128,2,113129:0:0:0:70:kick_best.wav
320,192,112776,128,0,113129:0:0:0:0:
192,192,113129,1,0,0:0:0:0:
448,192,113305,1,0,0:0:0:0:
64,192,113482,128,2,113835:0:0:0:70:kick_best.wav
320,192,113482,128,0,113658:0:0:0:0:
192,192,113658,1,0,0:0:0:0:
320,192,113835,1,2,0:0:0:70:kick_best.wav
448,192,113835,1,0,0:0:0:0:
192,192,114011,1,0,0:0:0:0:
64,192,114188,1,8,0:0:0:70:snare04.wav
448,192,114188,1,0,0:0:0:0:
320,192,114364,1,8,0:0:0:70:snare04.wav
448,192,114364,1,0,0:0:0:0:
64,192,114541,1,2,0:0:0:70:kick_best.wav
192,192,114541,128,0,114894:0:0:0:0:
64,192,114894,1,2,0:0:0:70:kick_best.wav
320,192,114894,1,4,0:0:0:70:drum-hitfinish.wav
448,192,114894,128,0,115247:0:0:0:0:
64,192,115247,128,0,115600:0:0:0:70:kick_best.wav
192,192,115247,1,0,0:0:0:0:
192,192,115600,1,8,0:0:0:70:snare04.wav
448,192,115600,1,0,0:0:0:0:
320,192,115776,1,0,0:0:0:0:
64,192,115952,1,2,0:0:0:70:kick_best.wav
192,192,115952,1,0,0:0:0:0:
320,192,116129,1,2,0:0:0:70:kick_best.wav
448,192,116129,128,0,116482:0:0:0:0:
64,192,116482,1,2,0:0:0:70:kick_best.wav
192,192,116482,1,0,0:0:0:0:
192,192,116658,1,2,0:0:0:70:kick_best.wav
320,192,116658,1,0,0:0:0:0:
320,192,116835,1,2,0:0:0:70:kick_best.wav
448,192,116835,1,0,0:0:0:0:
64,192,117011,1,8,0:0:0:70:snare04.wav
192,192,117011,1,0,0:0:0:0:
64,192,117188,1,2,0:0:0:70:kick_best.wav
320,192,117188,1,0,0:0:0:0:
320,192,117364,1,0,0:0:0:70:kick_best.wav
448,192,117364,1,0,0:0:0:0:
192,192,117541,1,2,0:0:0:70:kick_best.wav
448,192,117541,1,0,0:0:0:0:
64,192,117717,128,2,118070:0:0:0:70:kick_best.wav
192,192,117717,1,0,0:0:0:0:
320,192,118070,128,2,118423:0:0:0:70:kick_best.wav
448,192,118070,1,0,0:0:0:0:
64,192,118423,1,8,0:0:0:70:snare04.wav
192,192,118423,1,0,0:0:0:0:
448,192,118600,1,0,0:0:0:0:
192,192,118776,1,2,0:0:0:70:kick_best.wav
320,192,118776,1,0,0:0:0:0:
64,192,118952,1,2,0:0:0:70:kick_best.wav
448,192,118952,128,0,119305:0:0:0:0:
320,192,119129,128,0,119305:0:0:0:0:
64,192,119305,1,2,0:0:0:70:kick_best.wav
192,192,119305,1,0,0:0:0:0:
64,192,119482,1,2,0:0:0:70:kick_best.wav
192,192,119482,1,0,0:0:0:0:
320,192,119658,1,2,0:0:0:70:kick_best.wav
448,192,119658,1,0,0:0:0:0:
64,192,119835,1,8,0:0:0:70:snare04.wav
320,192,119835,1,0,0:0:0:0:
64,192,120011,1,2,0:0:0:70:kick_best.wav
192,192,120011,1,0,0:0:0:0:
320,192,120188,128,2,120541:0:0:0:70:kick_best.wav
448,192,120188,1,0,0:0:0:0:
64,192,120364,1,2,0:0:0:70:kick_best.wav
192,192,120364,1,0,0:0:0:0:
64,192,120541,128,2,120894:0:0:0:70:kick_best.wav
192,192,120541,1,4,0:0:0:70:drum-hitfinish.wav
448,192,120541,1,0,0:0:0:0:
320,192,120894,1,2,0:0:0:70:kick_best.wav
448,192,120894,128,0,121247:0:0:0:0:
64,192,121247,1,8,0:0:0:70:snare04.wav
320,192,121247,1,0,0:0:0:0:
192,192,121423,1,0,0:0:0:0:
320,192,121600,1,2,0:0:0:70:kick_best.wav
448,192,121600,1,0,0:0:0:0:
64,192,121776,128,2,122129:0:0:0:70:kick_best.wav
192,192,121776,1,0,0:0:0:0:
192,192,122129,1,2,0:0:0:70:kick_best.wav
448,192,122129,1,0,0:0:0:0:
192,192,122305,1,2,0:0:0:70:kick_best.wav
320,192,122305,1,0,0:0:0:0:
320,192,122482,1,2,0:0:0:70:kick_best.wav
448,192,122482,1,0,0:0:0:0:
64,192,122658,1,8,0:0:0:70:snare04.wav
192,192,122658,1,0,0:0:0:0:
64,192,122835,1,2,0:0:0:70:kick_best.wav
320,192,122835,1,0,0:0:0:0:
320,192,123011,1,0,0:0:0:70:kick_best.wav
448,192,123011,1,0,0:0:0:0:
192,192,123188,1,2,0:0:0:70:kick_best.wav
448,192,123188,1,0,0:0:0:0:
64,192,123364,128,2,123717:0:0:0:70:kick_best.wav
192,192,123364,1,0,0:0:0:0:
320,192,123717,128,2,124070:0:0:0:70:kick_best.wav
448,192,123717,1,0,0:0:0:0:
64,192,124070,1,8,0:0:0:70:snare04.wav
192,192,124070,1,0,0:0:0:0:
448,192,124247,1,0,0:0:0:0:
192,192,124423,1,2,0:0:0:70:kick_best.wav
320,192,124423,1,0,0:0:0:0:
64,192,124600,1,2,0:0:0:70:kick_best.wav
448,192,124600,128,0,124952:0:0:0:0:
64,192,124952,1,2,0:0:0:70:kick_best.wav
192,192,124952,1,0,0:0:0:0:
192,192,125129,1,0,0:0:0:70:kick_best.wav
320,192,125129,1,0,0:0:0:0:
320,192,125305,1,2,0:0:0:70:kick_best.wav
448,192,125305,1,0,0:0:0:0:
64,192,125482,1,0,0:0:0:70:snare04.wav
192,192,125482,1,0,0:0:0:0:
64,192,125658,1,0,0:0:0:70:snare04.wav
192,192,125658,1,0,0:0:0:0:
448,192,125835,1,0,0:0:0:0:
320,192,126011,1,0,0:0:0:0:
64,192,126188,1,2,0:0:0:70:kick_best.wav
192,192,126188,1,0,0:0:0:0:
320,192,126541,1,0,0:0:0:0:
448,192,126894,1,0,0:0:0:0:
320,192,127247,1,0,0:0:0:0:
64,192,127600,1,0,0:0:0:0:
192,192,127600,1,0,0:0:0:0:
320,192,127952,1,0,0:0:0:0:
448,192,128305,1,0,0:0:0:0:
320,192,128658,1,0,0:0:0:0:
64,192,129011,1,0,0:0:0:0:
192,192,129011,1,0,0:0:0:0:
320,192,129364,1,0,0:0:0:0:
64,192,129717,1,0,0:0:0:0:
192,192,130070,1,0,0:0:0:0:
320,192,130423,1,0,0:0:0:0:
448,192,130423,1,0,0:0:0:0:
192,192,130776,1,0,0:0:0:0:
64,192,131129,1,0,0:0:0:0:
192,192,131482,1,0,0:0:0:0:
320,192,131658,1,0,0:0:0:0:
64,192,131835,1,0,0:0:0:0:
448,192,131835,1,0,0:0:0:0:
192,192,132188,1,0,0:0:0:0:
320,192,132541,1,0,0:0:0:0:
64,192,132894,1,0,0:0:0:0:
320,192,133247,1,0,0:0:0:0:
448,192,133247,1,0,0:0:0:0:
64,192,133600,1,0,0:0:0:0:
192,192,133952,1,0,0:0:0:0:
320,192,134305,1,0,0:0:0:0:
320,192,134658,128,0,135364:0:0:0:0:
448,192,134658,1,0,0:0:0:0:
64,192,135011,1,0,0:0:0:0:
192,192,135364,128,0,136070:0:0:0:0:
448,192,135717,1,0,0:0:0:0:
64,192,136070,128,0,136776:0:0:0:0:
320,192,136070,1,0,0:0:0:0:
448,192,136423,1,0,0:0:0:0:
192,192,136776,1,0,0:0:0:0:
320,192,137129,1,0,0:0:0:0:
192,192,137482,1,0,0:0:0:0:
448,192,137482,128,0,138894:0:0:0:0:
64,192,137835,1,0,0:0:0:0:
320,192,138188,1,0,0:0:0:0:
192,192,138541,1,0,0:0:0:0:
64,192,138894,1,0,0:0:0:0:
320,192,138894,128,0,140305:0:0:0:0:
448,192,139247,1,0,0:0:0:0:
192,192,139600,1,0,0:0:0:0:
64,192,139952,1,0,0:0:0:0:
192,192,140305,128,0,141717:0:0:0:0:
448,192,140305,1,0,0:0:0:0:
320,192,140658,1,0,0:0:0:0:
64,192,141011,1,0,0:0:0:0:
448,192,141364,1,0,0:0:0:0:
64,192,141717,128,0,143129:0:0:0:0:
320,192,141717,1,0,0:0:0:0:
448,192,142070,1,0,0:0:0:0:
192,192,142423,1,0,0:0:0:0:
320,192,142776,1,0,0:0:0:0:
192,192,142952,1,0,0:0:0:0:
320,192,143129,1,0,0:0:0:0:
448,192,143129,128,0,144541:0:0:0:0:
192,192,143482,1,0,0:0:0:0:
320,192,143835,1,0,0:0:0:0:
64,192,144011,1,0,0:0:0:0:
192,192,144188,1,0,0:0:0:0:
320,192,144364,1,0,0:0:0:0:
64,192,144541,128,0,145247:0:0:0:0:
192,192,144541,1,0,0:0:0:0:
320,192,144894,1,0,0:0:0:0:
192,192,145070,1,0,0:0:0:0:
448,192,145247,128,0,145776:0:0:0:0:
192,192,145600,1,0,0:0:0:0:
320,192,145776,1,0,0:0:0:0:
64,192,145952,128,0,148247:0:0:0:0:
192,192,145952,128,0,148247:0:0:0:0:
448,192,146305,1,0,0:0:0:0:
320,192,146658,1,0,0:0:0:0:
448,192,147011,1,0,0:0:0:0:
320,192,147364,1,0,0:0:0:0:
448,192,147717,1,0,0:0:0:0:
320,192,148070,1,0,0:0:0:0:
448,192,148247,128,0,148423:0:0:0:0:
320,192,148423,128,0,148600:0:0:0:0:
192,192,148600,128,0,148776:0:0:0:0:
64,192,148776,1,0,0:0:0:0:
448,192,148776,1,0,0:0:0:0:
192,192,149129,1,0,0:0:0:0:
320,192,149482,1,0,0:0:0:0:
64,192,149835,1,0,0:0:0:0:
448,192,150188,1,0,0:0:0:0:
192,192,150541,1,0,0:0:0:0:
64,192,150894,1,0,0:0:0:0:
320,192,151247,1,0,0:0:0:0:
64,192,151600,1,0,0:0:0:0:
448,192,151600,1,0,0:0:0:0:
192,192,151952,1,0,0:0:0:0:
320,192,152305,1,0,0:0:0:0:
64,192,152658,1,0,0:0:0:0:
448,192,153011,1,0,0:0:0:0:
192,192,153364,1,0,0:0:0:0:
64,192,153717,1,0,0:0:0:0:
320,192,154070,1,0,0:0:0:0:
64,192,154423,1,0,0:0:0:0:
192,192,154423,1,0,0:0:0:0:
320,192,154776,1,0,0:0:0:0:
448,192,155129,1,0,0:0:0:0:
64,192,155482,1,0,0:0:0:0:
192,192,155835,1,0,0:0:0:0:
448,192,156188,1,0,0:0:0:0:
320,192,156541,1,0,0:0:0:0:
448,192,156894,1,0,0:0:0:0:
192,192,157247,1,0,0:0:0:0:
64,192,157600,1,0,0:0:0:0:
448,192,157952,1,0,0:0:0:0:
320,192,158305,1,0,0:0:0:0:
64,192,158658,1,0,0:0:0:0:
192,192,158658,1,0,0:0:0:0:
64,192,159364,128,0,159717:0:0:0:0:
448,192,159364,128,0,159717:0:0:0:0:
192,192,159717,1,0,0:0:0:0:
64,192,160070,128,2,160423:0:0:0:70:kick_best.wav
320,192,160070,1,0,0:0:0:70:drum-hitfinish.wav
448,192,160070,1,0,0:0:0:0:
192,192,160423,128,2,160776:0:0:0:70:kick_best.wav
320,192,160423,1,0,0:0:0:0:
320,192,160776,1,0,0:0:0:70:snare04.wav
448,192,160776,128,0,160952:0:0:0:0:
192,192,160952,128,0,161129:0:0:0:0:
320,192,161129,1,2,0:0:0:70:kick_best.wav
448,192,161129,128,0,161305:0:0:0:0:
64,192,161305,128,2,161658:0:0:0:70:kick_best.wav
192,192,161305,1,0,0:0:0:0:
320,192,161658,1,2,0:0:0:70:kick_best.wav
448,192,161658,128,0,161835:0:0:0:0:
64,192,161835,1,2,0:0:0:70:kick_best.wav
192,192,161835,1,0,0:0:0:0:
192,192,162011,128,0,162188:0:0:0:70:kick_best.wav
320,192,162011,1,0,0:0:0:0:
64,192,162188,1,0,0:0:0:70:snare04.wav
448,192,162188,1,0,0:0:0:0:
192,192,162364,1,2,0:0:0:70:kick_best.wav
320,192,162364,1,0,0:0:0:0:
64,192,162541,1,0,0:0:0:70:kick_best.wav
192,192,162629,1,0,0:0:0:0:
320,192,162717,1,2,0:0:0:70:kick_best.wav
448,192,162717,1,0,0:0:0:0:
64,192,162894,1,2,0:0:0:70:kick_best.wav
448,192,162894,128,0,163070:0:0:0:0:
192,192,163070,1,2,0:0:0:70:kick_best.wav
320,192,163070,1,0,0:0:0:0:
64,192,163247,128,0,163600:0:0:0:70:kick_best.wav
448,192,163247,1,0,0:0:0:0:
320,192,163600,1,0,0:0:0:70:snare04.wav
448,192,163600,1,0,0:0:0:0:
192,192,163776,1,0,0:0:0:0:
64,192,163952,1,2,0:0:0:70:kick_best.wav
320,192,163952,1,0,0:0:0:0:
192,192,164129,128,2,164305:0:0:0:70:kick_best.wav
448,192,164129,1,0,0:0:0:0:
320,192,164305,1,0,0:0:0:0:
64,192,164482,1,2,0:0:0:70:kick_best.wav
448,192,164482,128,0,164658:0:0:0:0:
192,192,164658,1,2,0:0:0:70:kick_best.wav
320,192,164658,1,0,0:0:0:0:
64,192,164835,128,0,165011:0:0:0:70:kick_best.wav
192,192,164835,1,0,0:0:0:0:
320,192,165011,1,0,0:0:0:70:snare04.wav
448,192,165011,1,0,0:0:0:0:
320,192,165188,128,2,165364:0:0:0:70:kick_best.wav
448,192,165188,1,0,0:0:0:0:
64,192,165364,1,0,0:0:0:0:
192,192,165452,1,0,0:0:0:0:
448,192,165541,1,0,0:0:0:0:
320,192,165629,1,0,0:0:0:0:
64,192,165717,128,2,166070:0:0:0:70:kick_best.wav
192,192,165717,1,0,0:0:0:70:drum-hitfinish.wav
448,192,165717,128,0,166070:0:0:0:0:
192,192,166070,128,2,166423:0:0:0:70:kick_best.wav
320,192,166070,1,0,0:0:0:0:
320,192,166423,1,0,0:0:0:70:snare04.wav
448,192,166423,128,0,166600:0:0:0:0:
192,192,166600,128,0,166776:0:0:0:0:
320,192,166776,1,2,0:0:0:70:kick_best.wav
448,192,166776,128,0,166952:0:0:0:0:
64,192,166952,128,2,167305:0:0:0:70:kick_best.wav
192,192,166952,1,0,0:0:0:0:
320,192,167305,1,2,0:0:0:70:kick_best.wav
448,192,167305,128,0,167482:0:0:0:0:
64,192,167482,1,2,0:0:0:70:kick_best.wav
192,192,167482,1,0,0:0:0:0:
192,192,167658,128,2,167835:0:0:0:70:kick_best.wav
320,192,167658,1,0,0:0:0:0:
64,192,167835,1,0,0:0:0:70:snare04.wav
448,192,167835,1,0,0:0:0:0:
192,192,168011,1,2,0:0:0:70:kick_best.wav
320,192,168011,1,0,0:0:0:0:
64,192,168188,1,0,0:0:0:0:
192,192,168276,1,0,0:0:0:0:
320,192,168364,1,2,0:0:0:70:kick_best.wav
448,192,168364,1,0,0:0:0:0:
64,192,168541,1,2,0:0:0:70:kick_best.wav
192,192,168541,128,0,168894:0:0:0:0:
320,192,168894,1,2,0:0:0:70:kick_best.wav
448,192,168894,128,0,169247:0:0:0:0:
64,192,169247,1,0,0:0:0:70:snare04.wav
320,192,169247,1,0,0:0:0:0:
192,192,169423,1,0,0:0:0:0:
320,192,169600,1,2,0:0:0:70:kick_best.wav
448,192,169600,1,0,0:0:0:0:
64,192,169776,1,2,0:0:0:70:kick_best.wav
192,192,169776,1,0,0:0:0:0:
320,192,169952,1,2,0:0:0:70:kick_best.wav
448,192,169952,128,0,170129:0:0:0:0:
64,192,170129,1,0,0:0:0:70:kick_best.wav
192,192,170129,1,0,0:0:0:0:
320,192,170305,1,2,0:0:0:70:kick_best.wav
448,192,170305,1,0,0:0:0:0:
64,192,170482,1,2,0:0:0:70:kick_best.wav
192,192,170482,1,0,0:0:0:0:
320,192,170658,128,0,170835:0:0:0:70:snare04.wav
448,192,170658,1,0,0:0:0:0:
192,192,170835,128,0,171011:0:0:0:70:kick_best.wav
64,192,171011,1,2,0:0:0:70:kick_best.wav
320,192,171011,128,0,171188:0:0:0:0:
192,192,171188,1,0,0:0:0:70:kick_best.wav
448,192,171188,1,0,0:0:0:0:
64,192,171364,128,2,171717:0:0:0:70:kick_best.wav
320,192,171364,1,0,0:0:0:70:drum-hitfinish.wav
448,192,171364,128,0,171717:0:0:0:0:
192,192,171717,1,2,0:0:0:70:kick_best.wav
320,192,171717,1,0,0:0:0:0:
192,192,171894,128,0,172070:0:0:0:0:
320,192,172070,128,0,172247:0:0:0:70:snare04.wav
448,192,172070,1,0,0:0:0:0:
64,192,172247,1,0,0:0:0:0:
64,192,172423,128,2,172776:0:0:0:70:kick_best.wav
448,192,172423,1,0,0:0:0:0:
192,192,172600,1,2,0:0:0:70:kick_best.wav
320,192,172600,1,0,0:0:0:0:
448,192,172776,1,0,0:0:0:0:
192,192,172952,1,2,0:0:0:70:kick_best.wav
320,192,172952,1,0,0:0:0:0:
64,192,173129,1,2,0:0:0:70:kick_best.wav
192,192,173129,1,0,0:0:0:0:
448,192,173305,1,0,0:0:0:70:kick_best.wav
192,192,173482,1,0,0:0:0:70:snare04.wav
320,192,173482,1,0,0:0:0:0:
64,192,173658,1,2,0:0:0:70:kick_best.wav
448,192,173835,1,0,0:0:0:70:kick_best.wav
320,192,173923,1,0,0:0:0:0:
64,192,174011,1,2,0:0:0:70:kick_best.wav
192,192,174011,1,0,0:0:0:0:
64,192,174188,128,2,174364:0:0:0:70:kick_best.wav
448,192,174188,1,0,0:0:0:0:
192,192,174364,1,2,0:0:0:70:kick_best.wav
320,192,174364,1,0,0:0:0:0:
64,192,174541,1,2,0:0:0:70:kick_best.wav
448,192,174541,1,0,0:0:0:0:
320,192,174717,128,0,174894:0:0:0:0:
64,192,174894,1,0,0:0:0:70:snare04.wav
192,192,174894,128,0,175070:0:0:0:0:
192,192,175247,1,2,0:0:0:70:kick_best.wav
448,192,175247,128,0,175423:0:0:0:0:
64,192,175423,1,2,0:0:0:70:kick_best.wav
320,192,175423,128,0,175600:0:0:0:0:
192,192,175600,1,0,0:0:0:0:
320,192,175776,1,2,0:0:0:70:kick_best.wav
448,192,175776,1,0,0:0:0:0:
64,192,175952,1,2,0:0:0:70:kick_best.wav
192,192,175952,1,0,0:0:0:0:
320,192,176129,1,0,0:0:0:70:kick_best.wav
192,192,176305,1,0,0:0:0:70:snare04.wav
448,192,176305,1,0,0:0:0:0:
64,192,176482,1,2,0:0:0:70:kick_best.wav
320,192,176482,1,0,0:0:0:0:
448,192,176658,1,0,0:0:0:0:
320,192,176747,1,0,0:0:0:0:
192,192,176835,1,0,0:0:0:70:kick_best.wav
64,192,177011,1,2,0:0:0:70:kick_best.wav
320,192,177011,128,0,177364:0:0:0:70:drum-hitfinish.wav
448,192,177011,128,0,177364:0:0:0:0:
64,192,177364,1,2,0:0:0:70:kick_best.wav
192,192,177364,1,0,0:0:0:0:
192,192,177541,1,0,0:0:0:0:
448,192,177541,1,0,0:0:0:0:
64,192,177717,1,0,0:0:0:70:snare04.wav
320,192,177717,1,0,0:0:0:0:
192,192,177894,1,0,0:0:0:0:
448,192,177894,1,0,0:0:0:0:
64,192,178070,1,2,0:0:0:70:kick_best.wav
192,192,178070,1,0,0:0:0:0:
320,192,178247,1,2,0:0:0:70:kick_best.wav
448,192,178247,1,0,0:0:0:0:
64,192,178423,1,0,0:0:0:0:
192,192,178423,1,0,0:0:0:0:
320,192,178600,1,2,0:0:0:70:kick_best.wav
448,192,178600,1,0,0:0:0:0:
192,192,178776,1,2,0:0:0:70:kick_best.wav
320,192,178776,1,0,0:0:0:0:
64,192,178952,1,2,0:0:0:70:kick_best.wav
192,192,178952,1,0,0:0:0:0:
320,192,179129,1,0,0:0:0:70:snare04.wav
448,192,179129,1,0,0:0:0:0:
64,192,179305,1,2,0:0:0:70:kick_best.wav
192,192,179305,1,0,0:0:0:0:
448,192,179482,1,0,0:0:0:70:kick_best.wav
320,192,179570,1,0,0:0:0:0:
64,192,179658,1,2,0:0:0:70:kick_best.wav
192,192,179658,1,0,0:0:0:0:
64,192,179835,1,2,0:0:0:70:kick_best.wav
320,192,179835,128,0,180188:0:0:0:0:
448,192,179835,128,0,180188:0:0:0:0:
64,192,180188,1,2,0:0:0:70:kick_best.wav
192,192,180188,1,0,0:0:0:0:
320,192,180364,1,0,0:0:0:0:
64,192,180541,128,2,180894:0:0:0:70:kick_best.wav
192,192,180541,128,0,180894:0:0:0:0:
448,192,180541,1,0,0:0:0:0:
320,192,180894,1,2,0:0:0:70:kick_best.wav
448,192,180894,1,0,0:0:0:0:
192,192,181070,1,0,0:0:0:0:
64,192,181247,1,2,0:0:0:70:kick_best.wav
320,192,181247,128,0,181423:0:0:0:0:
448,192,181247,128,0,181600:0:0:0:0:
64,192,181600,1,2,0:0:0:70:kick_best.wav
192,192,181600,1,0,0:0:0:0:
320,192,181776,1,0,0:0:0:70:kick_best.wav
448,192,181776,1,0,0:0:0:0:
64,192,181952,128,0,182129:0:0:0:70:snare04.wav
320,192,181952,1,0,0:0:0:0:
192,192,182129,128,0,182305:0:0:0:70:snare04.wav
448,192,182129,1,0,0:0:0:0:
320,192,182305,128,0,182658:0:0:0:70:tom03.wav
64,192,182658,1,0,0:0:0:0:
448,192,183011,1,0,0:0:0:0:
64,192,183364,1,0,0:0:0:0:
192,192,183541,1,0,0:0:0:0:
320,192,183739,1,0,0:0:0:0:
448,192,183916,1,0,0:0:0:0:
320,192,184269,1,0,0:0:0:0:
192,192,184658,1,0,0:0:0:0:
64,192,185173,1,0,0:0:0:0:
192,192,185394,1,0,0:0:0:0:
320,192,185570,1,0,0:0:0:0:
448,192,186033,1,0,0:0:0:0:
320,192,186452,1,0,0:0:0:0:
192,192,186717,1,0,0:0:0:0:
64,192,187048,1,0,0:0:0:0:
192,192,187732,128,0,189717:0:0:0:0:
