osu file format v14

[General]
AudioFilename: audio.mp3
AudioLeadIn: 0
PreviewTime: 45717
Countdown: 0
SampleSet: Soft
StackLeniency: 0.7
Mode: 3
LetterboxInBreaks: 0
SpecialStyle: 0
WidescreenStoryboard: 1

[Editor]
DistanceSpacing: 2.1
BeatDivisor: 2
GridSize: 32
TimelineZoom: 1.499999

[Metadata]
Title:BEcause
TitleUnicode:BEcause
Artist:Dreamcatcher
ArtistUnicode:드림캐쳐
Creator:Gahyeonln
Version:Easy
Source:
Tags:Special Mini Album 2 summer holiday 《Summer Holiday》 드캐 deukae idol 아이돌 Girl group 걸그룹 유현 yoohyeon 가현 gahyeon 수아 sua 지우 jiu 다미 dami 한동 handong 시연 siyeon k-pop kpop pop korean leez Ollunderer title song
BeatmapID:3205124
BeatmapSetID:1539091

[Difficulty]
HPDrainRate:6.5
CircleSize:4
OverallDifficulty:6.5
ApproachRate:5
SliderMultiplier:2
SliderTickRate:1

[Events]
//Background and Video events
Video,15,"video.mp4"
0,0,"bg.jpg",0,0
//Break Periods
//Storyboard Layer 0 (Background)
//Storyboard Layer 1 (Fail)
//Storyboard Layer 2 (Pass)
//Storyboard Layer 3 (Foreground)
//Storyboard Layer 4 (Overlay)
//Storyboard Sound Samples
Sample,24541,0,"drum-hitfinish.wav",70
Sample,38658,0,"drum-hitfinish.wav",70
Sample,40247,0,"snare04.wav",70
Sample,41482,0,"drum-hitfinish.wav",70
Sample,95129,0,"drum-hitfinish.wav",70
Sample,96717,0,"snare04.wav",70
Sample,97952,0,"drum-hitfinish.wav",70

[TimingPoints]
1953,352.941176470588,4,2,1,62,1,0
47129,-100,4,2,1,62,0,1
69717,-100,4,2,1,62,0,0
103600,-100,4,2,1,62,0,1
126188,-100,4,2,1,62,0,0
160070,-100,4,2,1,62,0,1
182658,-100,4,2,1,62,0,0

[HitObjects]
448,192,1952,5,0,0:0:0:0:
192,192,2305,1,0,0:0:0:0:
448,192,2658,1,0,0:0:0:0:
320,192,2835,1,0,0:0:0:0:
192,192,3011,1,0,0:0:0:0:
64,192,3188,1,0,0:0:0:0:
320,192,3541,1,0,0:0:0:0:
192,192,3894,1,0,0:0:0:0:
448,192,4423,1,0,0:0:0:0:
320,192,4600,1,0,0:0:0:0:
192,192,4776,1,0,0:0:0:0:
448,192,5129,1,0,0:0:0:0:
64,192,5482,1,0,0:0:0:0:
192,192,5658,1,0,0:0:0:0:
320,192,5835,1,0,0:0:0:0:
448,192,6011,1,0,0:0:0:0:
64,192,7600,1,0,0:0:0:0:
320,192,7952,1,0,0:0:0:0:
64,192,8305,1,0,0:0:0:0:
192,192,8482,1,0,0:0:0:0:
320,192,8658,1,0,0:0:0:0:
448,192,8835,1,0,0:0:0:0:
192,192,9188,1,0,0:0:0:0:
320,192,9541,1,0,0:0:0:0:
64,192,10070,1,0,0:0:0:0:
192,192,10247,1,0,0:0:0:0:
320,192,10423,1,0,0:0:0:0:
64,192,10776,1,0,0:0:0:0:
448,192,11129,1,0,0:0:0:0:
320,192,11305,1,0,0:0:0:0:
192,192,11482,1,0,0:0:0:0:
64,192,11658,1,0,0:0:0:0:
320,192,12894,1,8,0:0:0:70:snare04.wav
192,192,13247,1,2,0:0:0:70:kick_best.wav
448,192,13247,1,4,0:0:0:70:drum-hitfinish.wav
64,192,13600,1,8,0:0:0:70:snare04.wav
192,192,13952,1,0,0:0:0:0:
320,192,14129,1,2,0:0:0:70:kick_best.wav
448,192,14305,1,8,0:0:0:70:snare04.wav
192,192,14658,1,0,0:0:0:0:
320,192,14835,1,2,0:0:0:70:kick_best.wav
64,192,15011,1,8,0:0:0:70:snare04.wav
448,192,15188,1,0,0:0:0:0:
320,192,15541,1,2,0:0:0:70:kick_best.wav
192,192,15717,1,8,0:0:0:70:snare04.wav
64,192,16070,1,2,0:0:0:70:kick_best.wav
448,192,16423,1,8,0:0:0:70:snare04.wav
64,192,16776,1,0,0:0:0:0:
448,192,16952,1,2,0:0:0:70:kick_best.wav
192,192,17129,1,8,0:0:0:70:snare04.wav
320,192,17305,128,2,17658:0:0:0:70:kick_best.wav
64,192,17658,1,2,0:0:0:70:kick_best.wav
448,192,17835,1,8,0:0:0:70:snare04.wav
192,192,18011,1,2,0:0:0:70:kick_best.wav
448,192,18364,1,2,0:0:0:70:kick_best.wav
320,192,18541,1,8,0:0:0:70:snare04.wav
192,192,18717,1,0,0:0:0:0:
448,192,18894,1,2,0:0:0:70:kick_best.wav
64,192,19247,1,8,0:0:0:70:snare04.wav
192,192,19600,1,0,0:0:0:0:
320,192,19776,1,2,0:0:0:70:kick_best.wav
448,192,19952,1,8,0:0:0:70:snare04.wav
192,192,20129,128,2,20482:0:0:0:70:kick_best.wav
320,192,20482,1,2,0:0:0:70:kick_best.wav
64,192,20658,1,8,0:0:0:70:snare04.wav
448,192,20835,1,0,0:0:0:0:
320,192,21188,1,2,0:0:0:70:kick_best.wav
192,192,21364,1,8,0:0:0:70:snare04.wav
64,192,21717,1,2,0:0:0:70:kick_best.wav
448,192,22070,1,8,0:0:0:70:snare04.wav
64,192,22423,1,0,0:0:0:0:
448,192,22600,1,2,0:0:0:70:kick_best.wav
192,192,22776,1,8,0:0:0:70:snare04.wav
320,192,22952,128,2,23305:0:0:0:70:kick_best.wav
64,192,23305,1,2,0:0:0:70:kick_best.wav
448,192,23482,1,8,0:0:0:70:snare04.wav
192,192,23835,1,0,0:0:0:70:snare05.wav
320,192,24011,1,2,0:0:0:70:kick_best.wav
64,192,24188,1,8,0:0:0:70:snare04.wav
448,192,24364,1,0,0:0:0:0:
192,192,24541,1,2,0:0:0:70:kick_best.wav
320,192,24894,1,8,0:0:0:70:snare04.wav
192,192,25070,1,0,0:0:0:0:
448,192,25247,1,0,0:0:0:0:
64,192,25600,1,8,0:0:0:70:snare04.wav
192,192,25776,1,2,0:0:0:70:kick_best.wav
320,192,26129,1,2,0:0:0:70:kick_best.wav
448,192,26305,1,8,0:0:0:70:snare04.wav
64,192,26658,1,0,0:0:0:0:
192,192,26835,1,2,0:0:0:70:kick_best.wav
320,192,27011,1,8,0:0:0:70:snare04.wav
448,192,27188,128,0,27541:0:0:0:0:
192,192,27541,1,0,0:0:0:0:
320,192,27717,1,8,0:0:0:70:snare04.wav
64,192,27894,128,0,28247:0:0:0:0:
320,192,28247,1,2,0:0:0:70:kick_best.wav
192,192,28423,1,8,0:0:0:70:snare04.wav
448,192,28600,128,2,28952:0:0:0:70:kick_best.wav
64,192,28952,128,2,29305:0:0:0:70:kick_best.wav
320,192,29305,1,2,0:0:0:70:kick_best.wav
192,192,29482,1,0,0:0:0:70:snare05.wav
448,192,29658,1,2,0:0:0:70:kick_best.wav
64,192,29835,1,8,0:0:0:70:snare04.wav
448,192,30188,1,2,0:0:0:70:kick_best.wav
192,192,30541,1,8,0:0:0:70:snare04.wav
320,192,30717,1,0,0:0:0:0:
64,192,30894,1,0,0:0:0:0:
448,192,31247,1,8,0:0:0:70:snare04.wav
320,192,31423,1,2,0:0:0:70:kick_best.wav
192,192,31776,1,2,0:0:0:70:kick_best.wav
64,192,31952,1,8,0:0:0:70:snare04.wav
320,192,32482,1,2,0:0:0:70:kick_best.wav
192,192,32658,1,8,0:0:0:70:snare04.wav
448,192,32835,1,0,0:0:0:0:
64,192,33011,1,2,0:0:0:70:kick_best.wav
320,192,33188,1,0,0:0:0:0:
192,192,33541,128,2,33894:0:0:0:70:kick_best.wav
448,192,33894,128,2,34247:0:0:0:70:kick_best.wav
64,192,34247,128,2,34600:0:0:0:70:kick_best.wav
320,192,34600,1,2,0:0:0:70:kick_best.wav
192,192,34776,1,8,0:0:0:70:snare04.wav
448,192,35129,1,8,0:0:0:70:snare04.wav
192,192,35482,1,8,0:0:0:70:snare04.wav
320,192,35835,1,2,0:0:0:70:kick_best.wav
448,192,35835,1,4,0:0:0:70:drum-hitfinish.wav
192,192,36188,1,0,0:0:0:0:
448,192,36364,1,2,0:0:0:70:kick_best.wav
64,192,36717,1,0,0:0:0:0:
192,192,36894,1,0,0:0:0:0:
320,192,37070,1,2,0:0:0:70:kick_best.wav
448,192,37247,128,0,37952:0:0:0:0:
320,192,37952,128,8,38305:0:0:0:70:snare04.wav
64,192,38305,128,0,38658:0:0:0:0:
448,192,38658,1,2,0:0:0:70:kick_best.wav
192,192,38835,1,0,0:0:0:0:
320,192,39188,1,2,0:0:0:70:kick_best.wav
64,192,39364,1,8,0:0:0:70:snare04.wav
448,192,39717,1,0,0:0:0:0:
192,192,39894,1,2,0:0:0:70:kick_best.wav
320,192,40247,1,2,0:0:0:70:kick_best.wav
64,192,40423,1,0,0:0:0:0:
448,192,40776,1,8,0:0:0:70:snare04.wav
192,192,40952,1,2,0:0:0:70:kick_best.wav
320,192,41129,1,8,0:0:0:70:snare04.wav
64,192,41305,1,8,0:0:0:70:snare04.wav
448,192,41482,128,2,41835:0:0:0:70:kick_best.wav
64,192,41835,128,2,42188:0:0:0:70:kick_best.wav
448,192,42188,1,2,0:0:0:70:kick_best.wav
192,192,42364,1,0,0:0:0:0:
320,192,42541,1,2,0:0:0:70:kick_best.wav
64,192,42717,128,0,43070:0:0:0:0:
448,192,43070,128,0,43423:0:0:0:0:
192,192,43423,128,0,43776:0:0:0:0:
448,192,43952,1,2,0:0:0:70:kick_best.wav
192,192,44129,1,0,0:0:0:0:
320,192,44305,128,2,44658:0:0:0:70:kick_best.wav
192,192,44658,128,2,45011:0:0:0:70:kick_best.wav
448,192,45011,1,2,0:0:0:70:kick_best.wav
64,192,45188,1,2,0:0:0:70:kick_best.wav
320,192,45364,1,2,0:0:0:70:kick_best.wav
64,192,45717,128,0,46776:0:0:0:0:
192,192,46776,1,0,0:0:0:0:
320,192,47129,1,2,0:0:0:70:kick_best.wav
448,192,47129,1,4,0:0:0:70:drum-hitfinish.wav
64,192,47482,1,0,0:0:0:0:
448,192,47835,1,8,0:0:0:70:snare04.wav
320,192,48011,1,0,0:0:0:0:
192,192,48188,1,0,0:0:0:0:
64,192,48364,1,2,0:0:0:70:kick_best.wav
448,192,48717,1,2,0:0:0:70:kick_best.wav
64,192,48894,1,2,0:0:0:70:kick_best.wav
320,192,49070,1,0,0:0:0:0:
192,192,49247,128,8,49600:0:0:0:70:snare04.wav
64,192,49600,128,0,49952:0:0:0:0:
448,192,49952,1,2,0:0:0:70:kick_best.wav
320,192,50129,1,2,0:0:0:70:kick_best.wav
192,192,50658,1,8,0:0:0:70:snare04.wav
64,192,51011,1,0,0:0:0:0:
320,192,51188,1,2,0:0:0:70:kick_best.wav
192,192,51541,1,2,0:0:0:70:kick_best.wav
448,192,51717,1,2,0:0:0:70:kick_best.wav
320,192,52070,1,8,0:0:0:70:snare04.wav
64,192,52247,1,2,0:0:0:70:kick_best.wav
448,192,52423,128,0,52776:0:0:0:0:
64,192,52776,1,2,0:0:0:70:kick_best.wav
192,192,52776,128,4,53129:0:0:0:70:drum-hitfinish.wav
448,192,53129,128,2,53482:0:0:0:70:kick_best.wav
320,192,53482,128,8,53835:0:0:0:70:snare04.wav
192,192,53835,128,0,54188:0:0:0:0:
64,192,54188,128,0,54541:0:0:0:0:
448,192,54541,1,2,0:0:0:70:kick_best.wav
192,192,54894,1,8,0:0:0:70:snare04.wav
320,192,55247,1,0,0:0:0:0:
64,192,55423,1,0,0:0:0:0:
320,192,55600,128,2,55952:0:0:0:70:kick_best.wav
192,192,56129,1,0,0:0:0:0:
448,192,56305,128,2,56658:0:0:0:70:kick_best.wav
192,192,56835,1,0,0:0:0:0:
320,192,57011,128,2,57364:0:0:0:70:kick_best.wav
64,192,57364,1,2,0:0:0:70:kick_best.wav
448,192,57717,1,8,0:0:0:70:snare04.wav
320,192,57894,1,8,0:0:0:70:snare04.wav
192,192,58070,1,2,0:0:0:70:kick_best.wav
64,192,58423,128,2,58776:0:0:0:70:kick_best.wav
320,192,58423,1,4,0:0:0:70:drum-hitfinish.wav
448,192,58776,1,0,0:0:0:70:kick_best.wav
320,192,59129,1,8,0:0:0:70:snare04.wav
192,192,59305,1,0,0:0:0:0:
64,192,59482,1,2,0:0:0:70:kick_best.wav
448,192,59658,1,2,0:0:0:70:kick_best.wav
192,192,60011,1,2,0:0:0:70:kick_best.wav
64,192,60364,1,2,0:0:0:70:kick_best.wav
320,192,60541,1,8,0:0:0:70:snare04.wav
448,192,60894,1,2,0:0:0:70:kick_best.wav
192,192,61070,1,2,0:0:0:70:kick_best.wav
64,192,61247,1,2,0:0:0:70:kick_best.wav
320,192,61600,1,2,0:0:0:70:kick_best.wav
64,192,61952,1,8,0:0:0:70:snare04.wav
192,192,62129,1,0,0:0:0:0:
320,192,62305,1,2,0:0:0:70:kick_best.wav
448,192,62482,128,2,63011:0:0:0:70:kick_best.wav
64,192,63011,128,2,63541:0:0:0:70:kick_best.wav
448,192,63364,1,8,0:0:0:70:snare04.wav
192,192,63541,1,2,0:0:0:70:kick_best.wav
320,192,63717,1,2,0:0:0:70:kick_best.wav
192,192,64070,1,2,0:0:0:70:kick_best.wav
448,192,64070,128,4,64423:0:0:0:70:drum-hitfinish.wav
64,192,64423,1,2,0:0:0:70:kick_best.wav
192,192,64776,1,8,0:0:0:70:snare04.wav
320,192,64952,1,0,0:0:0:0:
448,192,65129,1,2,0:0:0:70:kick_best.wav
64,192,65305,1,2,0:0:0:70:kick_best.wav
320,192,65658,1,2,0:0:0:70:kick_best.wav
192,192,66011,1,2,0:0:0:70:kick_best.wav
448,192,66188,1,8,0:0:0:70:snare04.wav
320,192,66541,1,2,0:0:0:70:kick_best.wav
192,192,66717,1,2,0:0:0:70:kick_best.wav
64,192,66894,1,2,0:0:0:70:kick_best.wav
448,192,67247,1,2,0:0:0:70:kick_best.wav
64,192,67600,1,8,0:0:0:70:snare04.wav
192,192,67776,1,0,0:0:0:0:
320,192,67952,1,2,0:0:0:70:kick_best.wav
448,192,68129,1,2,0:0:0:70:kick_best.wav
192,192,68482,1,2,0:0:0:70:kick_best.wav
320,192,68658,1,0,0:0:0:70:snare05.wav
64,192,68835,1,2,0:0:0:70:kick_best.wav
448,192,69011,128,8,69364:0:0:0:70:snare04.wav
192,192,69364,1,0,0:0:0:70:kick_best.wav
320,192,69541,1,2,0:0:0:70:kick_best.wav
64,192,69717,1,2,0:0:0:70:kick_best.wav
320,192,70070,1,0,0:0:0:70:snare04.wav
192,192,70247,1,2,0:0:0:70:kick_best.wav
320,192,70600,1,0,0:0:0:70:snare04.wav
192,192,70776,1,0,0:0:0:0:
448,192,71129,1,2,0:0:0:70:kick_best.wav
64,192,71305,1,0,0:0:0:0:
192,192,71658,1,0,0:0:0:70:kick_best.wav
320,192,71835,1,0,0:0:0:70:kick_best.wav
64,192,72188,1,0,0:0:0:0:
192,192,72364,1,0,0:0:0:0:
448,192,72541,128,0,72894:0:0:0:70:kick_best.wav
64,192,72894,128,0,73247:0:0:0:70:snare04.wav
320,192,73247,128,0,73600:0:0:0:0:
192,192,73600,128,0,73952:0:0:0:0:
448,192,73952,1,0,0:0:0:70:kick_best.wav
64,192,74129,1,0,0:0:0:0:
320,192,74482,1,0,0:0:0:70:kick_best.wav
192,192,74658,1,0,0:0:0:0:
448,192,75011,1,0,0:0:0:0:
192,192,75188,1,0,0:0:0:0:
320,192,75364,1,0,0:0:0:70:kick_best.wav
64,192,75717,1,0,0:0:0:70:snare04.wav
320,192,75894,1,0,0:0:0:70:kick_best.wav
192,192,76070,1,0,0:0:0:0:
448,192,76423,1,0,0:0:0:0:
192,192,76600,1,0,0:0:0:0:
320,192,76776,1,2,0:0:0:70:kick_best.wav
64,192,77129,1,0,0:0:0:70:snare04.wav
320,192,77305,1,2,0:0:0:70:kick_best.wav
192,192,77482,1,0,0:0:0:0:
192,192,77835,1,0,0:0:0:0:
64,192,78188,128,0,78541:0:0:0:70:snare04.wav
320,192,78541,1,0,0:0:0:0:
192,192,78717,1,0,0:0:0:70:snare04.wav
448,192,78894,128,0,79247:0:0:0:0:
192,192,79247,1,0,0:0:0:70:snare04.wav
320,192,79423,1,0,0:0:0:0:
64,192,79600,128,2,79952:0:0:0:70:kick_best.wav
320,192,79952,1,0,0:0:0:70:tom03.wav
192,192,80129,1,0,0:0:0:70:tom03.wav
320,192,80305,1,0,0:0:0:70:snare04.wav
64,192,81011,128,2,81364:0:0:0:70:kick_best.wav
448,192,81011,1,0,0:0:0:70:drum-hitfinish.wav
320,192,81364,1,2,0:0:0:70:kick_best.wav
192,192,81541,1,0,0:0:0:0:
448,192,81717,1,2,0:0:0:70:kick_best.wav
64,192,82070,1,2,0:0:0:70:kick_best.wav
192,192,82247,1,0,0:0:0:0:
320,192,82600,1,0,0:0:0:0:
448,192,82776,1,2,0:0:0:70:kick_best.wav
64,192,83129,1,2,0:0:0:70:kick_best.wav
192,192,83305,1,0,0:0:0:0:
320,192,83482,1,0,0:0:0:70:snare04.wav
448,192,83658,128,0,84011:0:0:0:0:
192,192,84011,1,0,0:0:0:0:
320,192,84188,1,0,0:0:0:70:snare04.wav
64,192,84364,128,0,84717:0:0:0:0:
320,192,84717,1,2,0:0:0:70:kick_best.wav
192,192,84894,1,0,0:0:0:70:snare04.wav
448,192,85070,128,2,85423:0:0:0:70:kick_best.wav
64,192,85423,128,2,85776:0:0:0:70:kick_best.wav
192,192,85776,1,2,0:0:0:70:kick_best.wav
320,192,85952,1,0,0:0:0:70:snare05.wav
64,192,86129,1,2,0:0:0:70:kick_best.wav
448,192,86305,1,0,0:0:0:70:snare04.wav
64,192,86658,128,2,87011:0:0:0:70:kick_best.wav
192,192,87011,1,0,0:0:0:70:snare04.wav
320,192,87188,1,0,0:0:0:0:
448,192,87364,1,0,0:0:0:0:
64,192,87717,1,0,0:0:0:70:snare04.wav
192,192,87894,1,2,0:0:0:70:kick_best.wav
320,192,88247,1,2,0:0:0:70:kick_best.wav
448,192,88423,1,0,0:0:0:70:snare04.wav
448,192,88952,1,2,0:0:0:70:kick_best.wav
64,192,89129,1,0,0:0:0:70:snare04.wav
320,192,89305,1,0,0:0:0:0:
192,192,89482,1,2,0:0:0:70:kick_best.wav
448,192,89658,128,0,90011:0:0:0:0:
64,192,90011,128,2,90364:0:0:0:70:kick_best.wav
320,192,90364,128,2,90717:0:0:0:70:kick_best.wav
192,192,90717,128,2,91070:0:0:0:70:kick_best.wav
448,192,91070,128,2,91423:0:0:0:70:kick_best.wav
64,192,91423,128,2,91776:0:0:0:70:kick_best.wav
320,192,91776,128,2,92129:0:0:0:70:kick_best.wav
192,192,92129,1,0,0:0:0:0:
64,192,92305,1,2,0:0:0:70:kick_best.wav
448,192,92305,1,4,0:0:0:70:drum-hitfinish.wav
192,192,92658,1,0,0:0:0:0:
448,192,92835,1,2,0:0:0:70:kick_best.wav
64,192,93188,1,0,0:0:0:0:
192,192,93364,1,0,0:0:0:0:
320,192,93541,1,2,0:0:0:70:kick_best.wav
448,192,93717,128,0,94423:0:0:0:0:
320,192,94423,128,8,94776:0:0:0:70:snare04.wav
64,192,94776,128,0,95129:0:0:0:0:
448,192,95129,1,2,0:0:0:70:kick_best.wav
192,192,95305,1,0,0:0:0:0:
320,192,95658,1,2,0:0:0:70:kick_best.wav
64,192,95835,1,8,0:0:0:70:snare04.wav
448,192,96188,1,0,0:0:0:0:
192,192,96364,1,2,0:0:0:70:kick_best.wav
320,192,96717,1,2,0:0:0:70:kick_best.wav
64,192,96894,1,0,0:0:0:0:
448,192,97247,1,0,0:0:0:70:snare04.wav
192,192,97423,1,2,0:0:0:70:kick_best.wav
320,192,97600,1,0,0:0:0:70:snare04.wav
64,192,97776,1,0,0:0:0:70:snare04.wav
448,192,97952,128,2,98305:0:0:0:70:kick_best.wav
64,192,98305,1,2,0:0:0:70:kick_best.wav
448,192,98658,1,2,0:0:0:70:kick_best.wav
192,192,98835,1,0,0:0:0:0:
320,192,99011,1,2,0:0:0:70:kick_best.wav
64,192,99188,1,0,0:0:0:0:
448,192,99364,128,2,99717:0:0:0:70:kick_best.wav
192,192,99717,1,2,0:0:0:70:kick_best.wav
320,192,100070,128,2,100423:0:0:0:70:kick_best.wav
64,192,100423,1,2,0:0:0:70:kick_best.wav
448,192,100776,128,2,101129:0:0:0:70:kick_best.wav
192,192,101129,128,2,101482:0:0:0:70:kick_best.wav
448,192,101482,1,2,0:0:0:70:kick_best.wav
64,192,101658,1,2,0:0:0:70:kick_best.wav
320,192,101835,1,2,0:0:0:70:kick_best.wav
192,192,102011,1,2,0:0:0:70:kick_best.wav
448,192,102188,128,0,103247:0:0:0:0:
320,192,103247,1,0,0:0:0:0:
64,192,103600,1,2,0:0:0:70:kick_best.wav
192,192,103600,1,4,0:0:0:70:drum-hitfinish.wav
448,192,103952,1,0,0:0:0:0:
64,192,104305,1,8,0:0:0:70:snare04.wav
192,192,104482,1,0,0:0:0:0:
320,192,104658,1,0,0:0:0:0:
448,192,104835,1,2,0:0:0:70:kick_best.wav
64,192,105188,1,2,0:0:0:70:kick_best.wav
448,192,105364,1,2,0:0:0:70:kick_best.wav
192,192,105541,1,0,0:0:0:0:
320,192,105717,128,8,106070:0:0:0:70:snare04.wav
448,192,106070,128,0,106423:0:0:0:0:
64,192,106423,1,2,0:0:0:70:kick_best.wav
192,192,106600,1,2,0:0:0:70:kick_best.wav
320,192,107129,1,8,0:0:0:70:snare04.wav
448,192,107482,1,0,0:0:0:0:
192,192,107658,1,2,0:0:0:70:kick_best.wav
320,192,108011,1,2,0:0:0:70:kick_best.wav
64,192,108188,1,2,0:0:0:70:kick_best.wav
192,192,108541,1,8,0:0:0:70:snare04.wav
448,192,108717,1,2,0:0:0:70:kick_best.wav
64,192,108894,128,0,109247:0:0:0:0:
320,192,109247,128,2,109600:0:0:0:70:kick_best.wav
448,192,109247,1,4,0:0:0:70:drum-hitfinish.wav
64,192,109600,128,2,109952:0:0:0:70:kick_best.wav
192,192,109952,128,8,110305:0:0:0:70:snare04.wav
320,192,110305,128,0,110658:0:0:0:0:
448,192,110658,128,0,111011:0:0:0:0:
64,192,111011,1,2,0:0:0:70:kick_best.wav
320,192,111364,1,8,0:0:0:70:snare04.wav
192,192,111717,1,0,0:0:0:0:
448,192,111894,1,0,0:0:0:0:
192,192,112070,128,2,112423:0:0:0:70:kick_best.wav
320,192,112600,1,0,0:0:0:0:
64,192,112776,128,2,113129:0:0:0:70:kick_best.wav
320,192,113305,1,0,0:0:0:0:
192,192,113482,128,2,113835:0:0:0:70:kick_best.wav
448,192,113835,1,2,0:0:0:70:kick_best.wav
64,192,114188,1,8,0:0:0:70:snare04.wav
192,192,114364,1,8,0:0:0:70:snare04.wav
320,192,114541,1,2,0:0:0:70:kick_best.wav
192,192,114894,1,2,0:0:0:70:kick_best.wav
448,192,114894,128,4,115247:0:0:0:70:drum-hitfinish.wav
64,192,115247,1,0,0:0:0:70:kick_best.wav
192,192,115600,1,8,0:0:0:70:snare04.wav
320,192,115776,1,0,0:0:0:0:
448,192,115952,1,2,0:0:0:70:kick_best.wav
64,192,116129,1,2,0:0:0:70:kick_best.wav
320,192,116482,1,2,0:0:0:70:kick_best.wav
448,192,116835,1,2,0:0:0:70:kick_best.wav
192,192,117011,1,8,0:0:0:70:snare04.wav
64,192,117364,1,0,0:0:0:70:kick_best.wav
320,192,117541,1,2,0:0:0:70:kick_best.wav
448,192,117717,1,2,0:0:0:70:kick_best.wav
192,192,118070,1,2,0:0:0:70:kick_best.wav
448,192,118423,1,8,0:0:0:70:snare04.wav
320,192,118600,1,0,0:0:0:0:
192,192,118776,1,2,0:0:0:70:kick_best.wav
64,192,118952,128,2,119482:0:0:0:70:kick_best.wav
448,192,119482,128,2,120011:0:0:0:70:kick_best.wav
64,192,119835,1,8,0:0:0:70:snare04.wav
320,192,120011,1,2,0:0:0:70:kick_best.wav
192,192,120188,1,2,0:0:0:70:kick_best.wav
64,192,120541,128,2,120894:0:0:0:70:kick_best.wav
320,192,120541,1,4,0:0:0:70:drum-hitfinish.wav
448,192,120894,1,2,0:0:0:70:kick_best.wav
320,192,121247,1,8,0:0:0:70:snare04.wav
192,192,121423,1,0,0:0:0:0:
64,192,121600,1,2,0:0:0:70:kick_best.wav
448,192,121776,1,2,0:0:0:70:kick_best.wav
192,192,122129,1,2,0:0:0:70:kick_best.wav
320,192,122482,1,2,0:0:0:70:kick_best.wav
64,192,122658,1,8,0:0:0:70:snare04.wav
192,192,123011,1,0,0:0:0:70:kick_best.wav
320,192,123188,1,2,0:0:0:70:kick_best.wav
448,192,123364,1,2,0:0:0:70:kick_best.wav
64,192,123717,1,2,0:0:0:70:kick_best.wav
448,192,124070,1,8,0:0:0:70:snare04.wav
320,192,124247,1,0,0:0:0:0:
192,192,124423,1,2,0:0:0:70:kick_best.wav
64,192,124600,1,2,0:0:0:70:kick_best.wav
448,192,124952,1,2,0:0:0:70:kick_best.wav
192,192,125129,1,0,0:0:0:70:kick_best.wav
320,192,125305,1,2,0:0:0:70:kick_best.wav
64,192,125482,1,0,0:0:0:70:snare04.wav
448,192,125658,1,0,0:0:0:70:snare04.wav
64,192,126188,1,2,0:0:0:70:kick_best.wav
192,192,126541,1,0,0:0:0:0:
320,192,126894,1,0,0:0:0:0:
448,192,127247,1,0,0:0:0:0:
64,192,127600,1,0,0:0:0:0:
448,192,128305,1,0,0:0:0:0:
320,192,128658,1,0,0:0:0:0:
192,192,129011,1,0,0:0:0:0:
64,192,129364,1,0,0:0:0:0:
448,192,129717,1,0,0:0:0:0:
320,192,130070,1,0,0:0:0:0:
192,192,130423,1,0,0:0:0:0:
448,192,131482,1,0,0:0:0:0:
64,192,131658,1,0,0:0:0:0:
320,192,131835,1,0,0:0:0:0:
64,192,132894,1,0,0:0:0:0:
192,192,133247,1,0,0:0:0:0:
320,192,133952,1,0,0:0:0:0:
448,192,134658,128,0,135364:0:0:0:0:
64,192,135364,128,0,136070:0:0:0:0:
320,192,136070,128,0,136776:0:0:0:0:
64,192,136776,1,0,0:0:0:0:
448,192,137129,1,0,0:0:0:0:
320,192,137482,1,0,0:0:0:0:
192,192,137835,1,0,0:0:0:0:
64,192,138188,1,0,0:0:0:0:
448,192,138541,1,0,0:0:0:0:
192,192,138894,1,0,0:0:0:0:
64,192,139600,1,0,0:0:0:0:
192,192,139952,1,0,0:0:0:0:
320,192,140305,1,0,0:0:0:0:
448,192,140658,1,0,0:0:0:0:
64,192,141011,1,0,0:0:0:0:
192,192,141364,1,0,0:0:0:0:
320,192,141717,1,0,0:0:0:0:
192,192,142776,128,0,143129:0:0:0:0:
448,192,143129,128,0,144011:0:0:0:0:
320,192,144011,128,0,144541:0:0:0:0:
64,192,144541,128,0,145070:0:0:0:0:
448,192,145070,1,0,0:0:0:0:
192,192,145247,128,0,145776:0:0:0:0:
320,192,145776,1,0,0:0:0:0:
448,192,145952,128,0,148070:0:0:0:0:
64,192,148070,128,0,148776:0:0:0:0:
448,192,148776,1,0,0:0:0:0:
192,192,149482,1,0,0:0:0:0:
320,192,150188,1,0,0:0:0:0:
64,192,150894,1,0,0:0:0:0:
448,192,151600,1,0,0:0:0:0:
192,192,152305,1,0,0:0:0:0:
320,192,153011,1,0,0:0:0:0:
64,192,153717,1,0,0:0:0:0:
448,192,154423,1,0,0:0:0:0:
64,192,155129,1,0,0:0:0:0:
320,192,155835,1,0,0:0:0:0:
192,192,156541,1,0,0:0:0:0:
448,192,157247,1,0,0:0:0:0:
320,192,157952,1,0,0:0:0:0:
192,192,158658,1,0,0:0:0:0:
448,192,159364,1,0,0:0:0:0:
64,192,160070,1,2,0:0:0:70:kick_best.wav
320,192,160070,1,0,0:0:0:70:drum-hitfinish.wav
448,192,160423,1,2,0:0:0:70:kick_best.wav
64,192,160776,1,0,0:0:0:70:snare04.wav
192,192,160952,1,0,0:0:0:0:
320,192,161129,1,2,0:0:0:70:kick_best.wav
448,192,161305,1,2,0:0:0:70:kick_best.wav
192,192,161658,1,2,0:0:0:70:kick_best.wav
64,192,162011,1,0,0:0:0:70:kick_best.wav
320,192,162188,1,0,0:0:0:70:snare04.wav
448,192,162541,1,0,0:0:0:70:kick_best.wav
192,192,162717,1,2,0:0:0:70:kick_best.wav
64,192,162894,1,2,0:0:0:70:kick_best.wav
320,192,163247,1,0,0:0:0:70:kick_best.wav
64,192,163600,1,0,0:0:0:70:snare04.wav
192,192,163776,1,0,0:0:0:0:
320,192,163952,1,2,0:0:0:70:kick_best.wav
448,192,164129,1,2,0:0:0:70:kick_best.wav
192,192,164482,1,2,0:0:0:70:kick_best.wav
320,192,164835,1,0,0:0:0:70:kick_best.wav
448,192,165011,1,0,0:0:0:70:snare04.wav
64,192,165188,1,2,0:0:0:70:kick_best.wav
192,192,165717,1,2,0:0:0:70:kick_best.wav
448,192,165717,1,0,0:0:0:70:drum-hitfinish.wav
64,192,166070,1,2,0:0:0:70:kick_best.wav
448,192,166423,1,0,0:0:0:70:snare04.wav
320,192,166600,1,0,0:0:0:0:
192,192,166776,1,2,0:0:0:70:kick_best.wav
64,192,166952,1,2,0:0:0:70:kick_best.wav
320,192,167305,1,2,0:0:0:70:kick_best.wav
192,192,167658,1,2,0:0:0:70:kick_best.wav
448,192,167835,1,0,0:0:0:70:snare04.wav
320,192,168188,1,0,0:0:0:0:
192,192,168364,1,2,0:0:0:70:kick_best.wav
64,192,168541,1,2,0:0:0:70:kick_best.wav
448,192,168894,1,2,0:0:0:70:kick_best.wav
64,192,169247,1,0,0:0:0:70:snare04.wav
192,192,169423,1,0,0:0:0:0:
320,192,169600,1,2,0:0:0:70:kick_best.wav
448,192,169776,1,2,0:0:0:70:kick_best.wav
64,192,169952,128,2,170305:0:0:0:70:kick_best.wav
320,192,170658,1,0,0:0:0:70:snare04.wav
192,192,170835,1,0,0:0:0:70:kick_best.wav
448,192,171011,1,2,0:0:0:70:kick_best.wav
64,192,171364,128,2,171717:0:0:0:70:kick_best.wav
320,192,171364,1,0,0:0:0:70:drum-hitfinish.wav
320,192,171894,1,0,0:0:0:0:
192,192,172070,1,0,0:0:0:70:snare04.wav
448,192,172423,128,2,172776:0:0:0:70:kick_best.wav
64,192,172952,1,2,0:0:0:70:kick_best.wav
192,192,173129,1,2,0:0:0:70:kick_best.wav
320,192,173305,1,0,0:0:0:70:kick_best.wav
448,192,173482,128,0,173835:0:0:0:70:snare04.wav
64,192,173835,128,0,174188:0:0:0:70:kick_best.wav
448,192,174188,1,2,0:0:0:70:kick_best.wav
320,192,174364,1,2,0:0:0:70:kick_best.wav
192,192,174541,1,2,0:0:0:70:kick_best.wav
448,192,174894,1,0,0:0:0:70:snare04.wav
64,192,175247,1,2,0:0:0:70:kick_best.wav
320,192,175423,1,2,0:0:0:70:kick_best.wav
192,192,175776,1,2,0:0:0:70:kick_best.wav
448,192,175952,1,2,0:0:0:70:kick_best.wav
320,192,176305,1,0,0:0:0:70:snare04.wav
64,192,176482,1,2,0:0:0:70:kick_best.wav
448,192,176658,1,0,0:0:0:0:
64,192,177011,128,2,177364:0:0:0:70:kick_best.wav
320,192,177011,1,0,0:0:0:70:drum-hitfinish.wav
448,192,177364,128,2,177717:0:0:0:70:kick_best.wav
320,192,177717,128,0,178070:0:0:0:70:snare04.wav
192,192,178070,128,2,178423:0:0:0:70:kick_best.wav
64,192,178423,128,0,178776:0:0:0:0:
448,192,178776,1,2,0:0:0:70:kick_best.wav
320,192,178952,1,2,0:0:0:70:kick_best.wav
192,192,179129,1,0,0:0:0:70:snare04.wav
448,192,179482,1,0,0:0:0:70:kick_best.wav
64,192,179658,1,2,0:0:0:70:kick_best.wav
320,192,179835,128,2,180188:0:0:0:70:kick_best.wav
192,192,180188,1,2,0:0:0:70:kick_best.wav
64,192,180541,128,2,180894:0:0:0:70:kick_best.wav
448,192,180894,1,2,0:0:0:70:kick_best.wav
320,192,181247,128,2,181600:0:0:0:70:kick_best.wav
64,192,181600,1,2,0:0:0:70:kick_best.wav
192,192,181776,1,0,0:0:0:70:kick_best.wav
448,192,181952,1,0,0:0:0:70:snare04.wav
320,192,182129,1,0,0:0:0:70:snare04.wav
192,192,182305,1,0,0:0:0:70:tom03.wav
64,192,182658,1,0,0:0:0:0:
320,192,183011,1,0,0:0:0:0:
64,192,183364,1,0,0:0:0:0:
192,192,183541,1,0,0:0:0:0:
320,192,183739,1,0,0:0:0:0:
448,192,183916,1,0,0:0:0:0:
192,192,184269,1,0,0:0:0:0:
320,192,184658,1,0,0:0:0:0:
64,192,185173,1,0,0:0:0:0:
192,192,185394,1,0,0:0:0:0:
320,192,185570,1,0,0:0:0:0:
448,192,186033,1,0,0:0:0:0:
64,192,186452,1,0,0:0:0:0:
192,192,186717,1,0,0:0:0:0:
320,192,187048,1,0,0:0:0:0:
448,192,187732,128,0,189717:0:0:0:0:
