osu file format v14

[General]
AudioFilename: Wait for Sleep.mp3
AudioLeadIn: 0
PreviewTime: 87847
Countdown: 0
SampleSet: Soft
StackLeniency: 0.7
Mode: 2
LetterboxInBreaks: 0
WidescreenStoryboard: 0

[Editor]
DistanceSpacing: 1.6
BeatDivisor: 6
GridSize: 4
TimelineZoom: 2.2

[Metadata]
Title:Wait for Sleep
TitleUnicode:Wait for Sleep
Artist:Dream Theater
ArtistUnicode:Dream Theater
Creator:JBHyperion
Version:Rain
Source:
Tags:Images and Words progressive piano Kevin Moore James LaBrie Atco Record
BeatmapID:833903
BeatmapSetID:381125

[Difficulty]
HPDrainRate:6
CircleSize:4
OverallDifficulty:8.5
ApproachRate:8.5
SliderMultiplier:2.1
SliderTickRate:1

[Events]
//Background and Video events
0,0,"lonely-bride.jpg",0,0
//Break Periods
2,46124,52695
//Storyboard Layer 0 (Background)
//Storyboard Layer 1 (Fail)
//Storyboard Layer 2 (Pass)
//Storyboard Layer 3 (Foreground)
//Storyboard Sound Samples

[TimingPoints]
642,555.555555555556,4,2,1,50,1,0
1567,555.555555555556,3,2,1,40,1,0
2492,555.555555555556,3,2,1,40,1,0
3417,545.454545454546,3,2,1,50,1,0
4145,537.634408602151,4,2,1,40,1,0
5220,540.540540540541,4,2,1,40,1,0
8108,545.454545454546,3,2,1,45,1,0
9017,540.540540540541,3,2,1,45,1,0
9917,555.555555555556,3,2,1,45,1,0
10842,555.555555555556,3,2,1,55,1,0
11582,540.540540540541,4,2,1,45,1,0
13744,-100,4,2,1,50,0,0
14825,576.923076923077,3,2,1,50,1,0
15576,555.555555555556,3,2,1,60,1,0
16501,555.555555555556,3,2,1,60,1,0
17426,545.454545454546,3,2,1,60,1,0
18335,545.454545454546,3,2,1,65,1,0
18698,-100,3,2,1,65,0,0
19062,550.45871559633,4,2,1,60,1,0
21263,-66.6666666666667,4,2,1,60,0,0
22364,-100,4,2,1,55,0,0
23098,540.540540540541,3,2,1,60,1,0
23998,555.555555555556,3,2,1,60,1,0
24923,560.747663551402,3,2,1,60,1,0
25857,540.540540540541,3,2,1,50,1,0
26577,550.45871559633,4,2,1,60,1,0
29879,576.923076923077,4,2,1,65,1,0
30455,560.747663551402,4,2,1,65,1,0
31015,545.454545454546,4,2,1,70,1,1
31015,-80,4,2,1,70,0,1
31560,545.454545454546,4,2,1,70,1,1
31560,-80,4,2,1,70,0,1
32650,458.015267175573,4,2,1,70,1,1
32650,-80,4,2,1,70,0,1
32955,609.137055837563,4,2,1,70,1,1
33158,526.315789473684,4,2,1,70,1,1
33158,-80,4,2,1,70,0,1
33684,-80,4,2,1,70,0,1
34035,600,4,2,1,70,1,1
34253,540.540540540541,4,2,1,70,1,1
34253,-80,4,2,1,70,0,1
34793,535.714285714286,4,2,1,70,1,1
35328,540.540540540541,4,2,1,70,1,1
35328,-80,4,2,1,70,0,1
35868,487.80487804878,4,2,1,70,1,1
36193,576.923076923077,4,2,1,70,1,1
36385,555.555555555556,4,2,1,70,1,1
36385,-66.6666666666667,4,2,1,70,0,1
37033,625,4,2,1,70,1,1
37230,652.173913043478,4,2,1,70,1,1
37447,555.555555555556,4,2,1,70,1,1
37447,-80,4,2,1,70,0,1
38002,538.116591928251,4,2,1,70,1,1
38540,530.973451327434,4,2,1,70,1,1
38540,-80,4,2,1,70,0,1
39070,540.540540540541,4,2,1,70,1,1
39610,530.973451327434,4,2,1,70,1,1
39610,-80,4,2,1,70,0,1
40140,540.540540540541,4,2,1,70,1,1
40140,-80,4,2,1,70,0,1
41221,526.315789473684,4,2,1,70,1,1
41221,-80,4,2,1,70,0,1
41747,505.263157894737,4,2,1,70,1,1
41747,-80,4,2,1,70,0,1
42589,645.161290322581,4,2,1,60,1,1
42804,535.714285714286,4,2,1,70,1,1
42804,-80,4,2,1,70,0,1
43339,508.474576271186,4,2,1,70,1,1
43677,591.133004926108,4,2,1,70,1,1
43874,522.648083623693,4,2,1,70,1,1
43874,-80,4,2,1,70,0,1
44396,500,4,2,1,70,1,1
44907,535.714285714286,4,2,1,70,1,1
44907,-80,4,2,1,70,0,1
45442,454.545454545455,4,2,1,70,1,1
45442,-80,4,2,1,70,0,1
45746,535.714285714286,4,2,1,50,1,1
45924,540.540540540541,3,2,1,60,1,0
46824,550.45871559633,3,2,1,60,1,0
47741,550.45871559633,3,2,1,60,1,0
48658,545.454545454546,3,2,1,65,1,0
49385,540.540540540541,4,2,1,60,1,0
52634,588.235294117647,3,2,1,50,1,0
53026,517.241379310345,3,2,1,40,1,0
53370,539.568345323741,4,2,1,50,1,0
54449,533.333333333333,4,2,1,50,1,0
56582,-100,4,2,1,60,0,0
57649,550.45871559633,4,2,1,50,1,0
59850,-100,4,2,1,55,0,0
60951,-100,4,2,1,60,0,0
61318,-100,4,2,1,65,0,0
62052,538.116591928251,4,2,1,50,1,0
65280,-100,4,2,1,55,0,0
66356,550.45871559633,4,2,1,50,1,0
68557,558.139534883721,4,2,1,45,1,0
68557,-66.6666666666667,4,2,1,45,0,0
69115,-100,4,2,1,45,0,0
69673,-100,4,2,1,55,0,0
70231,-100,4,2,1,60,0,0
70789,538.116591928251,4,2,1,70,1,1
70789,-66.6666666666667,4,2,1,70,0,1
71327,566.037735849057,4,2,1,70,1,1
71893,533.333333333333,4,2,1,70,1,1
72959,533.333333333333,4,2,1,70,1,1
73492,-100,4,2,1,75,0,1
75093,533.333333333333,4,2,1,75,1,1
77226,512.820512820513,4,2,1,75,1,1
77226,-66.6666666666667,4,2,1,75,0,1
79277,535.714285714286,4,2,1,80,1,1
80348,-100,4,2,1,70,0,1
81419,521.739130434783,4,2,1,70,1,1
81940,-100,4,2,1,80,0,1
82201,-66.6666666666667,4,2,1,80,0,1
82984,-100,4,2,1,80,0,1
83505,533.333333333333,4,2,1,70,1,1
84571,-100,4,2,1,60,0,1
85636,552.995391705069,4,2,1,30,1,0
86188,-100,4,2,1,35,0,0
86741,571.428571428571,4,2,1,40,1,0
87312,535.714285714286,3,2,1,45,1,0
87847,560.747663551402,4,2,1,50,1,0
88407,-100,4,2,1,55,0,0
88968,-100,4,2,1,60,0,0
89529,-100,4,2,1,65,0,0
90089,566.037735849057,3,2,1,75,1,0
91221,526.315789473684,4,2,1,80,1,0
92246,560.747663551402,4,2,1,60,1,1
92806,625,4,2,1,60,1,0
93431,517.241379310345,4,2,1,40,1,0
93948,545.454545454546,4,2,1,50,1,0
94493,533.333333333333,4,2,1,60,1,0
95915,-100,4,2,1,40,0,0
96626,530.973451327434,4,2,1,55,1,0
98749,550.45871559633,3,2,1,70,1,0
99849,491.803278688525,4,2,1,80,1,0
100832,545.454545454546,4,2,1,80,1,1
101377,-100,4,2,1,50,0,0
101922,-100,4,2,1,40,0,0
102286,-100,4,2,1,50,0,0
103013,558.139534883721,4,2,1,60,1,0
105245,-100,4,2,1,65,0,0
106361,-100,4,2,1,45,0,0
107478,566.037735849057,4,2,1,60,1,0
108987,-100,4,2,1,50,0,0
109364,-100,4,2,1,40,0,0
109742,555.555555555556,4,2,1,60,1,0
110297,-100,4,2,1,20,0,0
110853,-100,4,2,1,40,0,0
111964,576.923076923077,4,2,1,60,1,0
113117,555.555555555556,3,2,1,60,1,0
113857,535.714285714286,3,2,1,60,1,0
114214,555.555555555556,4,2,1,50,1,0
114769,-100,4,2,1,20,0,0
115325,-100,4,2,1,40,0,0
116436,652.173913043478,4,2,1,60,1,0
117088,582.52427184466,4,2,1,50,1,0
117379,553.50553505535,4,2,1,65,1,0
118670,566.037735849057,4,2,1,40,1,0
119802,582.52427184466,4,2,1,45,1,0
120967,571.428571428571,4,2,1,50,1,0
122109,576.923076923077,4,2,1,55,1,0
123262,555.555555555556,3,2,1,60,1,0
124187,576.923076923077,3,2,1,60,1,0
125148,566.037735849057,3,2,1,60,1,0
126092,576.923076923077,3,2,1,70,1,0
126861,550.45871559633,4,2,1,50,1,0
127961,-100,4,2,1,55,0,0
129062,555.555555555556,3,2,1,60,1,0
130173,576.923076923077,3,2,1,55,1,0
130942,555.555555555556,3,2,1,60,1,0
131867,571.428571428571,3,2,1,60,1,0
132439,545.454545454546,3,2,1,60,1,0
132802,576.923076923077,3,2,1,60,1,0
133763,576.923076923077,3,2,1,70,1,0
134147,555.555555555556,4,2,1,50,1,0
134517,550.45871559633,4,2,1,60,1,0
135617,576.923076923077,4,2,1,60,1,0
136193,582.52427184466,3,2,1,60,1,0
136581,666.666666666667,3,2,1,60,1,0
136803,625.000000000001,4,2,1,55,1,0
137219,677.966101694915,4,2,1,55,1,0
137444,697.674418604651,4,2,1,50,1,0
137909,750,4,2,1,50,1,0
138159,800,4,2,1,45,1,0
138425,833.333333333333,4,2,1,45,1,0
138702,980.392156862745,4,2,1,45,1,0
139028,1142.85714285714,4,2,1,40,1,0
139408,1666.66666666667,4,2,1,35,1,0
139963,2095.70380719525,4,2,1,30,1,0
139963,-50,4,2,1,30,0,0
145202,1666.66666666667,4,2,1,75,1,0
145479,-100,4,2,1,35,0,0
146868,-100,4,2,1,30,0,0
148535,-100,4,2,1,25,0,0
149368,-100,4,2,1,20,0,0
150202,-100,4,2,1,15,0,0
151035,-100,4,2,1,10,0,0
151868,-100,4,2,1,5,0,0

[Colours]
Combo1 : 255,160,200
Combo2 : 180,100,255
Combo3 : 80,80,255
Combo4 : 255,180,100

[HitObjects]
196,192,642,6,0,L|268:164,2,70,2|0|0,0:0|0:0|0:0,0:0:0:0:
68,192,1197,1,0,0:0:0:0:
348,192,1567,1,2,0:0:0:0:
440,156,1752,1,0,0:0:0:0:
448,60,1937,1,0,0:0:0:0:
356,92,2122,1,0,0:0:0:0:
76,192,2492,5,2,0:0:0:0:
8,132,2677,1,0,0:0:0:0:
96,88,2862,1,0,0:0:0:0:
264,88,3047,2,0,L|338:88,1,70,2|0,0:0|0:0,0:0:0:0:
76,88,3417,2,0,L|4:88,1,70,4|0,0:0|0:0,0:0:0:0:
180,160,3780,2,0,L|260:160,1,70
400,88,4145,6,0,L|472:88,1,70,2|0,0:0|0:0,0:0:0:0:
344,88,4503,1,0,0:0:0:0:
168,88,4682,2,0,L|96:88,2,70,2|0|0,0:0|0:0|0:0,0:0:0:0:
324,192,5220,2,0,L|400:192,1,70,2|0,0:0|0:0,0:0:0:0:
268,192,5580,1,0,0:0:0:0:
426,260,5760,2,0,L|494:236,2,70,2|0|0,0:0|0:0|0:0,0:0:0:0:
144,268,6301,5,2,0:0:0:0:
52,208,6481,1,0,0:0:0:0:
124,136,6661,1,0,0:0:0:0:
300,200,6841,1,2,0:0:0:0:
400,260,7021,1,0,0:0:0:0:
320,332,7201,1,0,0:0:0:0:
192,332,7382,6,0,L|116:332,1,70,4|0,0:0|0:0,0:0:0:0:
8,272,7742,2,0,L|84:272,1,70
332,192,8108,6,0,L|428:192,2,70,2|0|0,0:0|0:0|0:0,0:0:0:0:
212,192,8653,2,0,L|132:192,1,70
316,192,9017,2,0,L|376:144,2,70,2|0|0,0:0|0:0|0:0,0:0:0:0:
436,192,9557,2,0,L|508:192,1,70
316,192,9917,5,2,0:0:0:0:
232,228,10102,1,0,0:0:0:0:
300,296,10287,1,0,0:0:0:0:
440,296,10472,2,0,L|514:296,1,70
222,300,10842,2,0,L|144:300,1,70,4|0,0:0|0:0,0:0:0:0:
332,224,11212,2,0,L|402:224,1,70
184,192,11582,6,0,L|112:192,1,70,2|0,0:0|0:0,0:0:0:0:
224,192,11942,1,0,0:0:0:0:
336,192,12122,2,0,L|408:192,2,70,2|0|0,0:0|0:0|0:0,0:0:0:0:
160,100,12663,2,0,L|88:100,1,70,2|0,0:0|0:0,0:0:0:0:
200,100,13023,1,0,0:0:0:0:
88,32,13203,2,0,L|12:32,2,70,2|0|0,0:0|0:0|0:0,0:0:0:0:
336,128,13744,5,2,0:0:0:0:
252,188,13924,1,0,0:0:0:0:
324,260,14104,1,0,0:0:0:0:
148,128,14284,1,2,0:0:0:0:
232,188,14464,1,0,0:0:0:0:
160,260,14645,1,0,0:0:0:0:
328,192,14825,5,4,0:0:0:0:
124,192,15209,1,0,0:0:0:0:
448,192,15576,6,0,B|516:192|516:192|444:192,1,140,2|0,0:0|0:0,0:0:0:0:
280,264,16131,1,0,0:0:0:0:
92,192,16501,2,0,L|16:192,2,70,2|0|0,0:0|0:0|0:0,0:0:0:0:
296,192,17056,1,0,0:0:0:0:
468,124,17426,2,0,P|464:68|384:48,1,140,2|0,0:0|0:0,0:0:0:0:
252,44,17971,2,0,L|180:44,1,70
440,192,18335,5,4,0:0:0:0:
228,192,18698,2,0,L|304:192,1,70,2|0,0:0|0:0,0:0:0:0:
116,192,19062,6,0,P|48:224|36:288,1,140,2|0,0:0|0:0,0:0:0:0:
148,280,19612,2,0,L|224:280,1,70,2|0,0:0|0:0,0:0:0:0:
48,192,20162,2,0,P|28:148|92:100,1,140,2|0,0:0|0:0,0:0:0:0:
216,100,20713,2,0,L|288:100,2,70,2|0|0,0:0|0:0|0:0,0:0:0:0:
68,100,21263,2,0,P|0:136|68:216,1,210.000008010865,2|0,0:0|0:0,0:0:0:0:
236,216,21814,2,0,P|328:236|380:332,1,210.000008010865,2|0,0:0|0:0,0:0:0:0:
212,332,22364,5,4,0:0:0:0:
432,328,22731,1,0,0:0:0:0:
72,328,23098,6,0,P|20:292|72:258,1,140,2|0,0:0|0:0,0:0:0:0:
176,256,23638,1,0,0:0:0:0:
340,256,23998,2,0,L|408:280,2,70,2|0|0,0:0|0:0|0:0,0:0:0:0:
464,256,24553,1,0,0:0:0:0:
368,256,24738,1,0,0:0:0:0:
188,252,24923,2,0,P|140:236|156:160,1,140,2|0,0:0|0:0,0:0:0:0:
280,168,25483,1,0,0:0:0:0:
76,168,25857,6,0,L|0:168,1,70,4|0,0:0|0:0,0:0:0:0:
120,96,26217,2,0,L|44:96,1,70,2|0,0:0|0:0,0:0:0:0:
300,100,26577,6,0,P|372:116|376:172,1,140,2|0,0:0|0:0,0:0:0:0:
200,184,27127,1,0,0:0:0:0:
88,184,27310,1,0,0:0:0:0:
160,184,27494,1,0,0:0:0:0:
416,184,27677,2,0,P|488:200|492:256,1,140,2|0,0:0|0:0,0:0:0:0:
316,268,28228,1,0,0:0:0:0:
428,268,28411,1,0,0:0:0:0:
344,268,28595,1,0,0:0:0:0:
168,268,28778,6,0,L|32:232,1,140,2|0,0:0|0:0,0:0:0:0:
216,192,29329,2,0,L|352:152,1,140,2|0,0:0|0:0,0:0:0:0:
184,120,29879,1,4,0:0:0:0:
444,116,30455,1,0,0:0:0:0:
332,116,30828,1,0,0:0:0:0:
88,256,31015,6,0,B|32:256|32:256|48:200|128:200,1,175,8|0,0:0|0:0,0:0:0:0:
280,216,31560,2,0,P|368:176|344:112,1,175
192,120,32105,2,0,P|128:96|180:32,1,175,2|0,0:0|0:0,0:0:0:0:
336,32,32650,2,0,L|500:96,1,175
224,120,33158,6,0,P|152:172|188:240,1,175,2|0,0:0|0:0,0:0:0:0:
272,264,33684,1,2,0:0:0:0:
360,264,33859,1,0,0:0:0:0:
448,264,34035,1,0,0:0:0:0:
132,264,34253,2,0,P|92:176|212:104,1,262.5,4|0,0:0|0:0,0:0:0:0:
436,104,35150,1,0,0:0:0:0:
212,104,35328,6,0,L|144:104,1,65.625,2|0,0:0|0:0,0:0:0:0:
48,104,35643,1,0,0:0:0:0:
256,192,35868,1,0,0:0:0:0:
396,192,36193,1,0,0:0:0:0:
224,88,36385,2,0,B|88:92|88:192|88:192|164:164|208:228,1,315.000012016297,2|0,0:0|0:0,0:0:0:0:
130,270,37033,1,0,0:0:0:0:
28,268,37230,1,0,0:0:0:0:
400,268,37447,6,0,P|448:256|356:184,1,262.5,4|0,0:0|0:0,0:0:0:0:
120,192,38540,2,0,P|16:160|95:86,1,262.5,2|0,0:0|0:0,0:0:0:0:
420,192,39610,6,0,L|500:236,1,87.5,8|0,0:0|0:0,0:0:0:0:
168,232,40140,2,0,L|80:252,1,87.5
380,232,40680,2,0,P|432:196|356:164,1,175,2|0,0:0|0:0,0:0:0:0:
216,164,41221,2,0,P|204:116|304:56,1,175
488,192,41747,6,0,P|496:252|396:264,1,175,2|0,0:0|0:0,0:0:0:0:
216,272,42252,1,0,0:0:0:0:
300,272,42420,1,0,0:0:0:0:
176,272,42589,1,0,0:0:0:0:
456,192,42804,2,0,P|504:152|375:81,1,262.5,4|0,0:0|0:0,0:0:0:0:
496,192,43593,1,0,0:0:0:0:
156,192,43874,6,0,P|100:248|224:280,1,262.5,4|0,0:0|0:0,0:0:0:0:
416,288,44729,1,0,0:0:0:0:
240,288,44907,2,0,L|56:288,1,175,2|0,0:0|0:0,0:0:0:0:
240,288,45442,2,0,L|408:232,1,175
93,192,45924,1,8,0:0:0:0:
368,192,53370,5,2,0:0:0:0:
88,192,53729,2,0,L|16:148,1,70
192,192,54179,1,0,0:0:0:0:
412,192,54449,2,0,P|464:168|464:92,1,140,2|0,0:0|0:0,0:0:0:0:
352,92,54982,2,0,B|256:92|256:92|300:92,1,140
476,192,55515,6,0,P|472:252|402:268,1,140,2|0,0:0|0:0,0:0:0:0:
292,268,56049,2,0,L|440:268,1,140
148,268,56582,1,4,0:0:0:0:
404,268,57115,1,0,0:0:0:0:
180,268,57471,1,0,0:0:0:0:
428,192,57649,6,0,L|500:192,2,70,2|0|0,0:0|0:0|0:0,0:0:0:0:
324,192,58199,2,0,L|252:192,1,70
480,100,58749,2,0,L|340:100,1,140,2|0,0:0|0:0,0:0:0:0:
228,100,59300,2,0,L|160:56,2,70
404,100,59850,6,0,P|468:120|496:192,1,140,2|0,0:0|0:0,0:0:0:0:
340,184,60401,1,0,0:0:0:0:
216,184,60584,1,0,0:0:0:0:
328,184,60768,1,0,0:0:0:0:
72,188,60951,6,0,L|0:188,2,70
228,188,61502,1,2,0:0:0:0:
340,188,61685,1,0,0:0:0:0:
216,188,61869,1,0,0:0:0:0:
476,188,62052,6,0,P|512:136|440:100,1,140,4|0,0:0|0:0,0:0:0:0:
344,100,62590,2,0,L|272:100,1,70
384,100,62948,1,0,0:0:0:0:
228,100,63128,2,0,P|164:112|152:180,1,140,2|0,0:0|0:0,0:0:0:0:
264,192,63666,2,0,L|340:192,2,70
88,192,64204,6,0,P|28:160|40:92,1,140,4|0,0:0|0:0,0:0:0:0:
180,96,64742,2,0,B|212:96|212:96|140:96|140:96|180:96,1,140
428,96,65280,1,4,0:0:0:0:
260,100,65639,1,0,0:0:0:0:
416,100,65818,2,0,P|480:128|496:192,1,140
204,172,66356,6,0,L|64:172,1,140,2|0,0:0|0:0,0:0:0:0:
172,248,66906,2,0,L|240:280,2,70
328,248,67456,2,0,P|392:212|376:148,1,140,2|0,0:0|0:0,0:0:0:0:
268,156,68007,1,0,0:0:0:0:
428,156,68190,2,0,L|500:156,1,70
220,76,68557,6,0,L|8:76,1,210.000008010865,2|0,0:0|0:0,0:0:0:0:
108,144,69115,2,0,L|188:144,2,70
360,144,69673,1,4,0:0:0:0:
4,144,70231,1,0,0:0:0:0:
144,144,70603,1,0,0:0:0:0:
452,144,70789,6,0,P|480:228|384:252,1,210.000008010865,8|0,0:0|0:0,0:0:0:0:
228,296,71327,1,0,0:0:0:0:
432,192,71610,2,0,L|324:192,1,105,2|0,0:0|0:0,0:0:0:0:
160,236,72159,2,0,L|256:192,1,105
99,164,72759,1,0,0:0:0:0:
48,164,72859,1,2,0:0:0:0:
99,164,72959,6,0,L|208:164,1,105
440,164,73492,1,2,0:0:0:0:
92,164,74025,2,0,B|128:64|128:64|232:64,1,210,4|0,0:0|0:0,0:0:0:0:
472,108,74914,1,0,0:0:0:0:
216,108,75093,6,0,L|72:108,1,140,2|0,0:0|0:0,0:0:0:0:
244,180,75626,1,0,0:0:0:0:
436,180,75981,1,2,0:0:0:0:
260,180,76159,2,0,B|168:232,1,105
380,232,76693,2,0,B|476:232|476:232|424:232,1,140
132,232,77226,6,0,P|52:212|168:148,1,315.000012016297,2|0,0:0|0:0,0:0:0:0:
414,233,78251,2,0,P|492:216|378:149,1,315.000012016297,2|0,0:0|0:0,0:0:0:0:
124,144,79106,1,0,0:0:0:0:
368,144,79277,6,0,P|432:184|412:236,1,140,2|0,0:0|0:0,0:0:0:0:
288,232,79812,1,0,0:0:0:0:
456,236,80080,1,2,0:0:0:0:
192,316,80348,2,0,L|48:316,1,140
316,236,80884,2,0,L|456:236,1,140
168,236,81419,6,0,P|104:196|128:140,1,140,2|0,0:0|0:0,0:0:0:0:
232,144,81940,1,0,0:0:0:0:
24,144,82288,1,0,0:0:0:0:
408,144,82462,2,0,P|452:228|352:264,1,210.000008010865,2|0,0:0|0:0,0:0:0:0:
256,272,82984,1,0,0:0:0:0:
388,208,83158,1,0,0:0:0:0:
460,88,83332,1,0,0:0:0:0:
212,88,83505,6,0,L|64:88,1,140,2|0,0:0|0:0,0:0:0:0:
248,152,84038,2,0,L|392:152,1,140
232,224,84571,2,0,L|340:316,1,140,2|0,0:0|0:0,0:0:0:0:
160,224,85105,2,0,L|52:316,1,140,2|0,0:0|0:0,0:0:0:0:
256,192,85636,12,2,89529,0:0:0:0:
256,192,90089,5,2,0:0:0:0:
36,192,91221,5,4,0:0:0:0:
316,192,91582,1,0,0:0:0:0:
64,192,91944,1,0,0:0:0:0:
472,192,92246,6,0,P|500:144|444:96,1,140,8|0,0:0|0:0,0:0:0:0:
356,96,92806,2,0,L|208:96,1,140,2|0,0:0|0:0,0:0:0:0:
388,164,93431,1,0,0:0:0:0:
488,216,93603,1,0,0:0:0:0:
408,280,93775,1,0,0:0:0:0:
260,124,93948,1,2,0:0:0:0:
176,184,94130,1,0,0:0:0:0:
276,228,94311,1,0,0:0:0:0:
24,48,94493,6,0,B|96:48|96:48|20:48,1,140,2|0,0:0|0:0,0:0:0:0:
212,48,95026,2,0,L|344:96,1,140
172,96,95915,1,2,0:0:0:0:
452,96,96270,1,0,0:0:0:0:
24,96,96626,5,2,0:0:0:0:
444,96,97687,1,2,0:0:0:0:
76,96,98749,5,0,0:0:0:0:
476,192,99849,5,4,0:0:0:0:
196,192,100187,1,0,0:0:0:0:
448,192,100525,1,0,0:0:0:0:
52,192,100832,6,0,P|16:240|72:292,1,140,8|0,0:0|0:0,0:0:0:0:
168,292,101377,2,0,B|224:264|224:264|124:228|124:228|168:200,1,210
412,192,102286,2,0,L|340:192,1,70,2|0,0:0|0:0,0:0:0:0:
172,192,102741,1,0,0:0:0:0:
420,192,103013,6,0,P|496:144|420:88,1,210,2|0,0:0|0:0,0:0:0:0:
132,88,104129,2,0,B|60:88|60:88|24:152,2,140,2|0|0,0:0|0:0|0:0,0:0:0:0:
382,192,105245,2,0,B|460:192|460:192|328:192,1,210,2|0,0:0|0:0,0:0:0:0:
128,192,106361,2,0,P|48:152|124:108,1,210,2|0,0:0|0:0,0:0:0:0:
432,72,107478,6,0,B|344:128|344:128|393:153,1,157.5,2|0,0:0|0:0,0:0:0:0:
488,192,108114,2,0,L|373:265,1,131.25,2|0,0:0|0:0,0:0:0:0:
144,264,108987,1,2,0:0:0:0:
472,264,109364,1,0,0:0:0:0:
32,256,109742,6,0,B|0:232|0:196|40:152|148:152|208:211|208:248|263:279|328:280|364:240|364:180|308:136|236:136|204:112|204:60|248:32|336:32,1,630,2|0,0:0|0:0,0:0:0:0:
84,36,111964,6,0,P|32:80|128:100,1,210,2|0,0:0|0:0,0:0:0:0:
348,104,112925,1,0,0:0:0:0:
172,180,113117,2,0,B|292:260,2,140,2|0|0,0:0|0:0|0:0,0:0:0:0:
452,180,114214,6,0,B|508:156|508:156|368:104,1,210,2|0,0:0|0:0,0:0:0:0:
72,192,115325,2,0,B|16:216|16:216|156:268,1,210
24,268,116158,1,0,0:0:0:0:
104,268,116251,1,0,0:0:0:0:
404,264,116436,6,0,P|460:224|424:176,1,140,2|0,0:0|0:0,0:0:0:0:
324,176,117088,1,0,0:0:0:0:
72,176,117379,1,2,0:0:0:0:
360,172,117563,2,0,P|408:132|352:84,1,140
208,84,118209,1,0,0:0:0:0:
432,80,118486,1,0,0:0:0:0:
180,84,118670,6,0,P|88:88|36:192,1,210,4|0,0:0|0:0,0:0:0:0:
380,172,119802,2,0,B|508:172|508:172|424:216,1,210,4|0,0:0|0:0,0:0:0:0:
68,244,120967,2,0,B|8:244|8:244|152:192,1,210,4|0,0:0|0:0,0:0:0:0:
500,320,122109,2,0,L|288:320,1,210,4|0,0:0|0:0,0:0:0:0:
432,192,123262,6,0,L|504:164,2,70,2|0|0,0:0|0:0|0:0,0:0:0:0:
304,192,123817,2,0,L|228:192,1,70
388,192,124187,1,2,0:0:0:0:
480,156,124379,1,0,0:0:0:0:
344,100,124571,1,0,0:0:0:0:
252,68,124763,2,0,L|180:68,1,70
352,152,125148,5,2,0:0:0:0:
432,212,125336,1,0,0:0:0:0:
328,256,125525,1,0,0:0:0:0:
160,256,125714,2,0,L|84:256,1,70,2|0,0:0|0:0,0:0:0:0:
344,88,126092,2,0,L|416:88,1,70,4|0,0:0|0:0,0:0:0:0:
160,160,126476,2,0,L|80:160,1,70
360,192,126861,5,2,0:0:0:0:
456,248,127044,1,0,0:0:0:0:
332,280,127227,1,0,0:0:0:0:
164,280,127411,2,0,L|84:280,2,70,2|0|0,0:0|0:0|0:0,0:0:0:0:
416,192,127961,1,2,0:0:0:0:
332,136,128145,1,0,0:0:0:0:
436,104,128328,1,0,0:0:0:0:
268,64,128512,1,2,0:0:0:0:
172,64,128695,1,0,0:0:0:0:
72,64,128879,1,0,0:0:0:0:
432,116,129062,5,2,0:0:0:0:
508,188,129247,1,0,0:0:0:0:
420,248,129432,1,0,0:0:0:0:
264,288,129617,1,2,0:0:0:0:
208,220,129802,1,0,0:0:0:0:
320,192,129987,1,0,0:0:0:0:
76,136,130173,6,0,L|4:112,1,70,4|0,0:0|0:0,0:0:0:0:
292,52,130557,2,0,L|368:52,1,70
72,52,130942,6,0,L|0:52,2,70,2|0|0,0:0|0:0|0:0,0:0:0:0:
220,52,131497,2,0,L|150:52,1,70
408,192,131867,2,0,L|480:192,2,70,2|0|0,0:0|0:0|0:0,0:0:0:0:
252,192,132439,2,0,L|322:192,1,70
76,192,132802,5,2,0:0:0:0:
182,272,132994,1,0,0:0:0:0:
86,272,133186,1,0,0:0:0:0:
344,272,133378,2,0,L|420:272,1,70
156,272,133763,2,0,L|72:272,1,70,4|0,0:0|0:0,0:0:0:0:
352,192,134147,2,0,L|424:192,1,70,2|0,0:0|0:0,0:0:0:0:
164,192,134517,6,0,L|92:192,1,70,2|0,0:0|0:0,0:0:0:0:
220,192,134883,1,0,0:0:0:0:
96,116,135067,2,0,L|24:116,2,70
340,192,135617,2,0,L|412:192,1,70,2|0,0:0|0:0,0:0:0:0:
296,192,136001,1,0,0:0:0:0:
424,116,136193,2,0,L|488:88,2,70
268,120,136803,6,0,L|192:120,2,70,2|0|0,0:0|0:0|0:0,0:0:0:0:
156,192,137444,2,0,L|72:192,2,70
388,288,138159,1,2,0:0:0:0:
176,288,138425,1,0,0:0:0:0:
352,288,138702,1,0,0:0:0:0:
84,288,139028,5,2,0:0:0:0:
412,288,139408,1,0,0:0:0:0:
80,216,139963,6,0,B|-16:196|-16:92|68:48|200:48|284:88|284:168|284:168|240:208|164:208|116:264|116:316|164:356|244:356|310:331|308:280|308:280|256:236|196:236|148:184|148:128,1,1050,4|0,0:0|0:0,0:0:0:0:
256,192,145479,12,0,151868,0:0:0:0:
