osu file format v14

[General]
AudioFilename: audio.mp3
AudioLeadIn: 0
PreviewTime: 395530
Countdown: 1
SampleSet: Normal
StackLeniency: 0.7
Mode: 0
LetterboxInBreaks: 0
WidescreenStoryboard: 0

[Editor]
Bookmarks: 11047,61222,177893,179801,228810,244365,252876,275500,433082,442464
DistanceSpacing: 0.8
BeatDivisor: 4
GridSize: 4
TimelineZoom: 1.9

[Metadata]
Title:Pull Me Under
TitleUnicode:Pull Me Under
Artist:Dream Theater
ArtistUnicode:Dream Theater
Creator:Zing
Version:Vengeful
Source:Guitar Hero: World Tour
Tags:Pull Me Under Dream Theater Hamlet salihguler James LaBrie John Myung Petrucci Kevin Moore Mike Portnoy
BeatmapID:1036573
BeatmapSetID:486104

[Difficulty]
HPDrainRate:6
CircleSize:6
OverallDifficulty:8
ApproachRate:9.2
SliderMultiplier:2
SliderTickRate:2

[Events]
//Background and Video events
0,0,"pullmeunderHamletFullscreen.jpg",0,0
//Break Periods
2,244466,252326
2,329856,335398
2,339397,340681
2,341745,348013
2,433156,441926
//Storyboard Layer 0 (Background)
//Storyboard Layer 1 (Fail)
//Storyboard Layer 2 (Pass)
//Storyboard Layer 3 (Foreground)
//Storyboard Sound Samples

[TimingPoints]
1650,587.084148727984,4,2,0,40,1,0
1650,-133.333333333333,4,2,0,40,0,0
11035,-133.333333333333,4,3,0,35,0,0
56835,-133.333333333333,4,1,0,70,0,0
58010,-100,4,1,0,60,0,0
76796,-80,4,1,0,60,0,0
94409,-80,4,1,0,60,0,0
95583,-80,4,3,0,50,0,0
114370,-133.333333333333,4,1,0,60,0,0
121415,-100,4,1,0,60,0,0
140201,-100,4,3,0,50,0,0
158988,-66.6666666666667,4,1,0,45,0,0
177775,-66.6666666666667,4,1,0,60,0,0
180069,-66.6666666666667,4,1,0,55,0,0
196539,-66.6666666666667,4,1,0,55,0,1
214169,588.235294117647,4,1,0,55,1,0
214757,-100,4,1,0,60,0,0
215198,-100,4,1,0,55,0,0
215348,587.084148727984,4,1,0,55,1,0
217696,293.542074363992,7,1,0,55,1,0
219750,587.084148727984,4,1,0,55,1,0
222070,293.542074363992,7,1,0,55,1,0
222098,-161.290322580645,7,1,0,55,0,0
224124,293.542074363992,5,1,0,55,1,0
224124,-161.290322580645,5,1,0,55,0,0
224564,-161.290322580645,5,3,0,40,0,0
225591,587.084148727984,4,1,0,55,1,0
238495,587.084148727984,4,1,0,55,1,0
238788,-100,4,1,0,45,0,0
239669,587.084148727984,4,1,0,55,1,0
239669,-100,4,1,0,55,0,0
243778,587.084148727984,4,1,0,45,1,0
243778,-100,4,1,0,45,0,0
244365,-100,4,1,0,55,0,0
244474,570.342205323194,4,1,0,55,1,0
246755,581.395348837209,4,1,0,55,1,0
249080,587.084148727984,4,1,0,55,1,0
252897,-100,4,1,0,60,0,0
253776,-83.3333333333333,4,1,0,55,0,0
272563,-100,4,3,0,50,0,0
291351,587.084148727984,4,1,0,45,1,0
291351,-66.6666666666667,4,1,0,45,0,0
300595,293.542074363992,4,1,0,55,1,0
300595,-200,4,1,0,55,0,0
300741,293.542074363992,7,1,0,55,1,0
300741,-200,4,1,0,55,0,0
302795,293.542074363992,4,1,0,55,1,0
302795,-200,4,1,0,55,0,0
304262,-100,4,1,0,55,0,0
305143,293.542074363992,7,1,0,55,1,0
305143,-133.333333333333,4,1,0,55,0,0
307198,293.542074363992,4,1,0,55,1,0
307491,-133.333333333333,4,1,0,55,0,0
309546,293.542074363992,5,1,0,55,1,0
309546,-100,4,1,0,55,0,0
311017,587.084148727984,4,1,0,55,1,0
323932,581.395348837209,4,1,0,55,1,0
325107,587.084148727984,4,1,0,55,1,0
329803,-100,4,2,0,55,0,0
348583,587.084148727984,4,2,0,55,1,0
352673,587.084148727984,4,2,0,55,1,0
357974,583.657587548638,4,2,0,55,1,0
362643,-100,4,2,0,55,0,0
366145,-100,4,1,0,55,0,0
367350,587.084148727984,4,1,0,60,1,1
367350,-66.6666666666667,4,1,0,60,0,1
381440,-66.6666666666667,4,2,0,60,0,1
384962,-66.6666666666667,4,1,0,60,0,1
394316,-66.6666666666667,4,1,0,40,0,1
395530,-100,4,1,0,55,0,0
414316,-66.6666666666667,4,1,0,60,0,1
433103,-100,4,1,0,55,0,0
433194,570.342205323194,4,1,0,55,1,0
435475,581.395348837209,4,1,0,55,1,0
437800,587.084148727984,4,1,0,55,1,0
470676,-66.6666666666667,4,1,0,60,0,1
489463,-66.6666666666667,4,1,0,55,0,0

[Colours]
Combo1 : 223,223,223
Combo2 : 255,68,68
Combo3 : 213,0,53
Combo4 : 255,153,128
Combo5 : 0,0,255
Combo6 : 64,159,255
Combo7 : 106,2,210

[HitObjects]
64,80,1650,54,0,P|112:128|180:104,1,112.500004291535
188,96,2237,1,0,0:0:0:0:
308,128,2530,2,0,P|404:196|288:212,1,300,4|2,0:0|0:0,0:0:0:0:
88,248,3998,6,0,P|132:312|188:320,1,112.500004291535
204,284,4585,1,0,0:0:0:0:
312,328,4878,2,0,P|396:352|452:184,1,300.000011444092,4|2,0:0|0:0,0:0:0:0:
304,200,6346,6,0,P|256:160|240:108,1,112.500004291535
312,124,6933,1,0,0:0:0:0:
424,92,7227,2,0,P|308:36|164:116,1,300,4|2,0:0|0:0,0:0:0:0:
112,244,8695,70,0,P|144:272|232:260,1,112.500004291535
228,212,9282,1,0,0:0:0:0:
392,292,9575,2,0,P|316:288|284:232,1,112.500004291535,4|0,0:0|0:0,0:0:0:0:
200,228,10162,2,0,P|232:176|256:168,1,75.0000028610231
360,132,10749,1,2,0:0:0:0:
256,64,11043,5,4,3:0:0:0:
280,132,11483,1,4,3:0:0:0:
280,132,11630,1,4,3:0:0:0:
136,56,11923,1,2,0:0:0:0:
88,132,12217,1,8,3:0:0:0:
88,132,12364,1,8,3:0:0:0:
88,132,12511,1,8,3:0:0:0:
104,220,12804,1,12,0:0:0:0:
172,276,13098,1,12,0:0:0:0:
172,276,13244,1,12,0:0:0:0:
172,276,13391,5,4,0:0:0:0:
260,308,13831,1,4,0:0:0:0:
260,308,13978,1,4,0:0:0:0:
360,156,14272,1,2,0:0:0:0:
284,108,14565,1,8,0:0:0:0:
284,108,14712,1,8,0:0:0:0:
284,108,14859,1,8,0:0:0:0:
196,136,15152,1,12,0:0:0:0:
160,220,15446,1,12,0:0:0:0:
160,220,15593,1,12,0:0:0:0:
160,220,15740,69,4,0:0:0:0:
240,296,16180,1,4,0:0:0:0:
240,296,16327,1,4,0:0:0:0:
200,120,16620,1,2,0:0:0:0:
284,156,16914,1,8,0:0:0:0:
284,156,17060,1,8,0:0:0:0:
284,156,17207,1,8,0:0:0:0:
344,220,17501,1,12,0:0:0:0:
292,296,17794,1,12,0:0:0:0:
292,296,17941,1,12,0:0:0:0:
292,296,18088,5,4,0:0:0:0:
196,324,18528,1,4,0:0:0:0:
196,324,18675,1,4,0:0:0:0:
104,168,18968,1,2,0:0:0:0:
192,180,19262,1,8,0:0:0:0:
192,180,19409,1,8,0:0:0:0:
236,188,19556,2,4,L|272:224,1,37.5000014305115,4|0,0:0|2:2,0:0:0:0:
304,228,19849,2,4,L|336:208,1,37.5000014305115,4|0,0:0|2:2,0:0:0:0:
352,168,20143,1,4,0:0:0:0:
396,92,20436,6,4,P|432:172|424:236,1,150
284,284,21317,2,0,P|264:320|212:344,1,75.0000028610231,0|0,1:0|0:0,0:0:0:0:
228,340,21757,1,8,3:3:0:0:
220,340,21904,1,8,3:3:0:0:
148,256,22197,1,4,0:3:0:0:
116,152,22491,2,0,L|120:192,1,37.5000014305115
184,116,22785,70,4,P|185:190|216:258,1,150
368,272,23665,2,0,P|344:316|296:328,1,75.0000028610231,0|0,1:0|0:0,0:0:0:0:
316,328,24105,1,8,3:3:0:0:
308,328,24252,1,8,3:3:0:0:
200,316,24546,1,4,0:3:0:0:
112,248,24839,1,0,0:0:0:0:
132,252,24986,1,0,0:0:0:0:
204,252,25133,6,0,P|244:256|304:220,1,112.5,4|0,0:0|0:0,0:0:0:0:
292,148,25720,1,4,0:0:0:0:
380,104,26013,2,0,P|416:148|420:176,1,75,0|0,1:0|0:0,0:0:0:0:
432,260,26601,2,4,P|384:312|352:320,1,75.0000028610231
252,292,27188,1,4,3:3:0:0:
152,204,27481,86,0,L|140:144,1,56.2500021457673,4|0,0:0|2:2,0:0:0:0:
204,212,27775,2,0,L|192:152,1,56.2500021457673,4|0,0:0|2:2,0:0:0:0:
260,216,28068,2,0,L|252:180,1,37.5,4|0,0:0|2:2,0:0:0:0:
328,128,28362,2,0,B|328:108|352:120|376:148|352:192|324:212,1,112.500004291535,0|0,1:1|0:0,0:0:0:0:
284,308,28949,1,8,0:0:0:0:
200,344,29242,1,8,0:0:0:0:
112,320,29536,1,4,0:0:0:0:
112,320,29683,1,4,0:0:0:0:
104,228,29830,6,4,P|196:240|240:280,1,150
352,248,30710,2,0,P|332:288|292:320,1,75.0000028610231,0|0,1:1|0:0,0:0:0:0:
304,312,31150,1,0,0:0:0:0:
296,316,31297,1,0,0:0:0:0:
188,348,31591,1,0,0:0:0:0:
96,284,31884,1,0,0:0:0:0:
132,176,32178,6,4,P|224:188|268:228,1,150
396,152,33059,2,0,P|436:220|432:240,1,75.0000028610231,0|0,1:1|0:0,0:0:0:0:
436,220,33499,1,0,0:0:0:0:
436,228,33646,1,0,0:0:0:0:
368,320,33939,1,0,0:0:0:0:
300,228,34233,1,4,0:0:0:0:
228,292,34526,70,4,P|136:276|108:256,1,112.5
121,266,35113,1,4,0:0:0:0:
92,132,35407,2,0,L|244:112,2,150,0|0|0,1:1|1:1|1:1,1:1:0:0:
92,228,36875,5,4,0:0:0:0:
188,232,37168,2,0,L|216:196,5,37.5,4|0|4|0|4|0,0:0|0:0|0:0|0:0|0:0|0:0,0:0:0:0:
268,136,38049,2,0,P|344:104|392:144,1,150,4|0,1:1|0:0,0:0:0:0:
432,196,38929,2,0,L|408:228,1,37.5
328,264,39223,6,4,P|276:248|232:208,1,112.5
208,172,39810,1,4,0:0:0:0:
108,264,40104,1,4,1:1:0:0:
196,292,40397,1,4,0:0:0:0:
156,148,40691,2,4,P|228:124|292:152,1,150,4|4,1:1|1:1,1:1:0:0:
360,96,41571,70,0,P|388:148|376:180,1,75,4|0,0:0|0:0,0:0:0:0:
308,208,42158,1,4,0:0:0:0:
404,304,42452,1,4,1:1:0:0:
316,324,42745,1,4,0:0:0:0:
352,180,43039,2,4,P|296:152|212:192,1,150,4|4,1:1|1:1,1:1:0:0:
136,220,43920,6,0,L|172:288,1,75.0000028610231,4|0,0:0|0:0,0:0:0:0:
224,216,44507,1,4,0:0:0:0:
284,336,44800,1,4,1:1:0:0:
272,248,45094,1,4,0:0:0:0:
420,228,45387,2,4,P|360:164|300:176,1,150.000005722046,4|4,1:1|1:1,1:1:0:0:
236,232,46268,6,0,L|184:172,1,75.0000028610231,4|0,0:0|0:0,0:0:0:0:
96,184,46855,1,4,0:0:0:0:
68,52,47149,1,4,0:1:0:0:
156,76,47442,1,4,0:0:0:0:
220,212,47736,2,0,P|256:188|268:156,1,75.0000028610231,4|0,0:1|0:0,0:0:0:0:
220,84,48323,1,4,0:0:0:0:
116,124,48616,70,0,P|92:160|100:196,1,75.0000028610231,4|0,0:0|0:0,0:0:0:0:
96,189,49057,1,4,0:0:0:0:
96,189,49203,1,4,0:0:0:0:
196,280,49497,1,4,1:1:0:0:
276,236,49790,1,4,0:0:0:0:
276,236,49937,1,4,0:0:0:0:
364,248,50084,2,4,P|356:200|272:160,1,150.000005722046,4|4,1:1|1:1,1:1:0:0:
200,104,50965,6,0,P|236:92|288:96,1,75.0000028610231,4|0,0:0|0:0,0:0:0:0:
272,92,51405,1,4,0:0:0:0:
272,92,51552,1,4,0:0:0:0:
196,204,51845,1,4,1:1:0:0:
272,252,52139,1,4,0:0:0:0:
272,252,52286,1,4,0:0:0:0:
336,188,52432,2,4,P|344:148|284:56,1,150.000005722046,4|4,1:1|1:1,1:1:0:0:
244,136,53313,6,0,P|204:156|172:156,1,75.0000028610231,4|0,0:0|0:0,0:0:0:0:
174,156,53753,1,4,0:0:0:0:
174,156,53900,1,4,0:0:0:0:
284,232,54194,1,4,1:1:0:0:
248,316,54487,1,4,0:0:0:0:
248,316,54634,1,4,0:0:0:0:
336,304,54781,2,4,P|352:228|320:160,1,150.000005722046,4|4,1:1|1:1,1:1:0:0:
236,188,55661,70,0,P|200:204|160:200,1,75.0000028610231,4|0,0:0|0:0,0:0:0:0:
165,201,56102,1,4,0:0:0:0:
165,201,56248,1,4,0:0:0:0:
104,320,56542,1,4,1:0:0:0:
244,264,56835,37,0,0:0:0:0:
192,184,56982,1,0,0:0:0:0:
280,156,57129,1,0,0:0:0:0:
244,264,57422,1,0,0:0:0:0:
192,184,57569,1,0,0:0:0:0:
280,156,57716,1,0,0:0:0:0:
100,156,58010,70,0,L|96:104,2,50,0|0|0,0:0|2:0|0:0,0:0:0:0:
280,68,58597,1,0,0:0:0:0:
232,180,58890,2,0,P|268:232|356:208,1,150,0|0,3:3|2:3,3:3:0:0:
384,192,59477,1,0,3:3:0:0:
384,192,59624,1,0,3:3:0:0:
360,104,59771,1,0,0:3:0:0:
244,140,60064,2,0,L|244:196,1,50
220,244,60358,6,0,L|220:294,2,50,0|0|0,3:3|3:0|3:0,3:0:0:0:
156,56,60945,1,0,0:0:0:0:
224,156,61239,2,0,P|260:208|348:184,1,150,0|0,3:3|2:3,3:3:0:0:
380,152,61826,1,0,3:0:0:0:
380,152,61972,1,0,3:0:0:0:
304,104,62119,1,0,0:0:0:0:
192,148,62413,2,0,L|156:204,1,50
132,240,62706,70,0,L|96:296,2,50
232,64,63293,1,0,0:0:0:0:
216,184,63587,2,0,P|252:236|340:212,1,150,0|0,3:3|2:3,3:3:0:0:
360,172,64174,1,0,3:0:0:0:
360,172,64321,1,0,3:0:0:0:
292,112,64468,1,0,0:0:0:0:
188,172,64761,2,0,L|208:224,1,50
232,272,65055,6,0,L|276:304,2,50
124,104,65642,1,0,0:0:0:0:
236,204,65935,2,0,P|272:152|344:160,1,100,0|0,3:0|3:0,3:0:0:0:
456,144,66522,2,0,P|420:92|348:100,1,100
236,76,67109,1,0,0:0:0:0:
248,148,67256,1,0,0:0:0:0:
176,128,67403,6,0,L|160:80,2,50,0|0|0,3:0|3:0|3:0,3:0:0:0:
236,320,67990,1,0,0:0:0:0:
332,248,68284,2,0,P|317:202|271:191,1,100,0|0,3:3|3:3,3:3:0:0:
160,236,68871,1,0,3:3:0:0:
160,236,69017,1,0,3:3:0:0:
220,156,69164,1,0,0:0:0:0:
256,272,69458,1,0,0:0:0:0:
256,272,69604,1,0,0:0:0:0:
316,288,69751,70,0,L|329:344,2,50,0|0|0,0:3|0:3|0:3,0:3:0:0:
272,92,70338,1,0,0:0:0:0:
372,160,70632,2,0,P|361:207|319:231,1,100,0|0,3:3|3:3,3:3:0:0:
204,264,71219,1,0,3:3:0:0:
204,264,71366,1,0,3:3:0:0:
236,180,71513,1,0,0:0:0:0:
120,212,71806,1,0,0:0:0:0:
120,212,71953,1,0,0:0:0:0:
88,164,72100,6,0,L|72:112,2,50,0|0|0,3:3|3:3|3:3,3:3:0:0:
148,356,72687,1,0,0:0:0:0:
212,220,72980,2,0,P|238:179|286:167,1,100,0|0,3:3|3:3,3:3:0:0:
404,180,73567,1,0,3:3:0:0:
404,180,73714,1,0,3:3:0:0:
372,264,73861,1,0,0:0:0:0:
348,148,74154,1,0,0:0:0:0:
348,148,74301,1,0,0:0:0:0:
372,92,74448,6,0,L|404:44,2,50,0|0|0,3:3|3:3|3:3,3:3:0:0:
288,272,75035,1,4,0:0:0:0:
124,156,75329,2,0,P|112:108|135:62,1,100,4|4,3:3|3:3,3:3:0:0:
324,128,75916,2,0,P|336:176|313:222,1,100,4|4,1:3|1:3,1:3:0:0:
168,84,76503,1,0,0:0:0:0:
104,128,76649,1,0,0:0:0:0:
152,184,76796,70,0,L|212:204,1,62.5,0|0,3:3|3:3,3:3:0:0:
280,256,77090,1,0,3:3:0:0:
208,312,77237,1,0,0:0:0:0:
208,312,77310,1,0,0:0:0:0:
208,312,77383,2,0,L|136:264,1,62.5,4|0,2:2|2:2,2:2:0:0:
236,140,77677,2,0,L|288:174,1,62.5,4|0,2:2|2:2,2:2:0:0:
320,264,77970,5,0,0:0:0:0:
320,264,78264,1,0,0:0:0:0:
320,264,78558,2,0,L|372:216,1,62.5,0|0,0:0|2:0,0:0:0:0:
348,128,78851,1,0,0:0:0:0:
220,128,79145,6,0,L|160:148,1,62.5,0|0,3:3|3:3,3:3:0:0:
92,200,79438,1,0,3:3:0:0:
164,256,79585,1,0,0:0:0:0:
164,256,79658,1,0,0:0:0:0:
164,256,79732,2,0,L|236:208,1,62.5,4|0,2:2|2:2,2:2:0:0:
136,84,80025,2,0,L|84:118,1,62.5,4|0,2:2|2:2,2:2:0:0:
92,212,80319,69,0,0:0:0:0:
92,212,80612,1,0,0:0:0:0:
92,212,80906,2,0,L|152:188,1,62.5,0|0,0:0|2:0,0:0:0:0:
204,112,81199,1,0,0:0:0:0:
308,200,81493,6,0,L|368:180,1,62.5,0|0,3:3|3:3,3:3:0:0:
408,108,81786,1,0,3:3:0:0:
292,128,81933,1,0,0:0:0:0:
288,132,82007,1,0,0:0:0:0:
284,136,82080,2,0,L|232:170,1,62.5,4|0,2:2|2:2,2:2:0:0:
312,308,82374,2,0,L|365:273,1,62.5,4|0,2:2|2:2,2:2:0:0:
168,180,82667,5,0,0:0:0:0:
168,180,82961,1,0,0:0:0:0:
168,180,83254,2,0,L|224:132,1,62.5,0|0,0:0|2:0,0:0:0:0:
308,140,83548,1,0,0:0:0:0:
368,240,83841,70,0,L|308:260,1,62.5,0|0,3:3|3:3,3:3:0:0:
268,332,84135,1,0,3:3:0:0:
352,328,84282,1,0,0:0:0:0:
372,316,84355,1,0,0:0:0:0:
392,304,84428,2,0,L|444:270,1,62.5,0|0,0:0|2:0,0:0:0:0:
364,132,84722,2,0,L|311:167,1,62.5,0|0,0:0|2:0,0:0:0:0:
220,180,85015,1,0,0:0:0:0:
220,180,85162,1,0,0:0:0:0:
156,112,85309,2,0,P|80:216|156:284,1,250
152,196,86043,5,0,0:0:0:0:
232,244,86190,2,0,L|292:224,1,62.5,0|0,3:3|3:3,3:3:0:0:
236,148,86483,1,0,3:3:0:0:
344,120,86630,1,0,0:0:0:0:
348,128,86703,1,0,0:0:0:0:
352,136,86777,2,0,L|380:200,1,62.5,4|0,2:2|2:2,2:2:0:0:
248,284,87070,2,0,L|272:344,1,62.5,4|0,2:2|2:2,2:2:0:0:
271,342,87364,5,0,3:0:0:0:
96,272,87657,1,0,3:0:0:0:
276,328,87951,1,0,3:0:0:0:
224,108,88244,1,4,2:2:0:0:
116,176,88538,70,0,L|176:200,1,62.5,0|0,3:3|3:3,3:3:0:0:
176,292,88831,1,0,3:3:0:0:
368,296,89125,2,0,L|396:232,1,62.5,4|0,2:2|2:2,2:2:0:0:
264,148,89419,2,0,L|288:88,1,62.5,4|0,2:2|2:2,2:2:0:0:
287,89,89712,5,0,3:0:0:0:
104,128,90006,1,0,3:0:0:0:
292,116,90299,1,0,3:0:0:0:
172,308,90593,1,0,0:0:0:0:
396,176,90886,6,0,L|336:200,1,62.5,0|0,3:3|3:3,3:3:0:0:
248,164,91180,1,0,3:3:0:0:
156,72,91473,2,0,L|184:136,1,62.5,4|0,0:0|2:0,0:0:0:0:
52,220,91767,2,0,L|76:280,1,62.5,4|0,0:0|2:0,0:0:0:0:
116,304,92060,69,0,3:3:0:0:
312,224,92354,1,0,3:3:0:0:
116,304,92648,1,0,0:0:0:0:
120,96,92941,1,0,0:0:0:0:
160,188,93235,6,0,L|220:164,1,62.5,0|0,3:3|3:3,3:3:0:0:
220,260,93528,1,0,3:3:0:0:
308,316,93675,1,0,0:0:0:0:
316,308,93748,1,0,0:0:0:0:
324,300,93822,2,0,L|298:242,1,62.5,4|0,2:2|2:2,2:2:0:0:
428,152,94115,2,0,L|404:93,1,62.5,4|0,2:2|2:2,2:2:0:0:
296,72,94409,21,4,0:0:0:0:
108,64,94702,1,4,0:0:0:0:
208,168,94849,1,4,0:0:0:0:
136,60,94996,1,4,0:0:0:0:
324,52,95289,1,4,0:0:0:0:
224,156,95436,1,4,0:0:0:0:
328,224,95583,5,0,0:0:0:0:
296,244,95730,1,0,0:0:0:0:
260,256,95877,1,0,0:0:0:0:
224,252,96023,1,0,0:0:0:0:
132,228,96170,2,0,B|125:165,1,62.5,4|0,1:1|2:1,0:1:0:0:
168,84,96464,2,0,B|174:146,1,62.5,4|0,1:1|2:1,0:1:0:0:
256,196,96757,5,0,0:0:0:0:
292,208,96904,1,0,0:0:0:0:
392,208,97051,2,0,P|412:176|416:144,1,62.5,4|0,1:1|2:1,0:1:0:0:
292,208,97344,5,0,0:0:0:0:
256,196,97491,1,0,0:0:0:0:
160,168,97638,2,0,P|166:137|184:112,1,62.5,4|0,1:1|2:1,0:1:0:0:
264,164,97931,69,0,0:0:0:0:
300,180,98078,1,0,0:0:0:0:
336,184,98225,1,0,0:0:0:0:
368,168,98372,1,0,0:0:0:0:
456,136,98518,2,0,B|450:199,1,62.5,4|0,1:1|2:1,0:1:0:0:
388,268,98812,2,0,B|394:205,1,62.5,4|0,1:1|2:1,0:1:0:0:
304,176,99105,5,0,0:0:0:0:
316,212,99252,1,0,0:0:0:0:
316,312,99399,2,0,P|284:332|252:336,1,62.5,4|0,1:1|2:0,0:0:0:0:
316,212,99693,5,0,0:0:0:0:
304,176,99839,1,0,0:0:0:0:
276,80,99986,2,0,P|245:87|220:105,1,62.5,4|0,1:1|2:0,0:0:0:0:
164,180,100280,69,0,0:0:0:0:
196,200,100426,1,0,0:0:0:0:
232,212,100573,1,0,0:0:0:0:
268,208,100720,1,0,0:0:0:0:
352,168,100867,2,0,B|358:231,1,62.5,4|0,1:1|2:0,2:0:0:0:
420,300,101160,2,0,B|414:237,1,62.5,4|0,1:1|2:0,2:0:0:0:
352,168,101454,5,0,0:0:0:0:
316,156,101601,1,0,0:0:0:0:
216,156,101747,2,0,P|196:188|192:220,1,62.5,4|0,1:1|2:0,2:0:0:0:
316,156,102041,5,0,0:0:0:0:
352,168,102188,1,0,0:0:0:0:
448,196,102334,2,0,P|441:227|423:252,1,62.5,4|0,1:1|2:0,2:0:0:0:
328,252,102628,69,0,0:0:0:0:
292,268,102775,1,0,0:0:0:0:
256,272,102922,1,0,0:0:0:0:
224,256,103068,1,0,0:0:0:0:
136,220,103215,2,0,B|142:157,1,62.5,4|0,1:1|2:0,0:0:0:0:
236,172,103509,2,0,B|242:109,1,62.5,4|0,1:1|2:0,0:0:0:0:
332,132,103802,5,0,0:0:0:0:
332,132,103949,1,0,0:0:0:0:
404,192,104096,2,2,P|412:260|272:252,1,250,2|2,0:1|0:1,0:1:0:0:
248,112,104976,85,0,3:3:0:0:
240,148,105123,1,0,3:3:0:0:
212,176,105270,1,0,0:0:0:0:
176,184,105417,1,0,0:0:0:0:
84,200,105563,2,0,L|136:240,1,62.5,4|0,1:1|2:0,2:0:0:0:
228,220,105857,2,0,L|252:300,1,62.5,4|0,1:1|2:0,2:0:0:0:
348,220,106150,5,0,1:3:0:0:
336,256,106297,1,0,1:3:0:0:
288,156,106444,2,0,P|276:184|248:208,1,62.5,4|0,1:1|2:0,2:0:0:0:
336,256,106738,5,0,1:3:0:0:
348,220,106884,1,0,1:3:0:0:
388,324,107031,2,0,P|400:295|423:274,1,62.5,4|0,1:1|2:0,2:0:0:0:
448,164,107325,69,0,0:3:0:0:
416,184,107471,1,0,0:3:0:0:
380,184,107618,1,0,0:0:0:0:
348,168,107765,1,0,0:0:0:0:
292,244,107912,2,0,L|240:203,1,62.5,4|0,1:1|2:0,2:0:0:0:
160,248,108205,2,0,L|136:168,1,62.5,4|0,1:1|2:0,2:0:0:0:
192,108,108499,5,0,1:3:0:0:
224,132,108646,1,0,1:3:0:0:
336,132,108792,2,0,P|324:161|301:182,1,62.5,4|0,1:1|2:0,2:0:0:0:
224,132,109086,5,0,1:3:0:0:
192,108,109233,1,0,1:3:0:0:
80,108,109379,2,0,P|92:137|115:158,1,62.5,4|0,1:1|2:0,2:0:0:0:
96,252,109673,69,0,0:3:0:0:
128,272,109820,1,0,0:3:0:0:
164,276,109967,1,0,0:0:0:0:
200,260,110113,1,0,0:0:0:0:
248,180,110260,2,0,L|272:260,1,62.5,4|0,1:1|2:0,2:0:0:0:
340,180,110554,2,0,L|392:220,1,62.5,4|0,1:1|2:0,2:0:0:0:
416,128,110847,5,0,1:3:0:0:
432,160,110994,1,0,1:3:0:0:
464,268,111141,2,0,P|452:296|424:320,1,62.5,4|0,1:1|2:0,2:0:0:0:
432,160,111434,5,0,1:3:0:0:
416,128,111581,1,0,1:3:0:0:
312,88,111728,2,0,P|300:60|272:36,1,62.5,4|0,1:1|2:0,2:0:0:0:
200,96,112021,69,0,0:3:0:0:
176,124,112168,1,0,0:3:0:0:
164,160,112315,1,0,0:0:0:0:
164,196,112462,1,0,0:0:0:0:
232,260,112608,2,0,L|284:219,1,62.5,4|0,1:1|2:0,2:0:0:0:
368,256,112902,2,0,L|392:176,1,62.5,4|0,1:1|2:0,2:0:0:0:
368,104,113195,5,0,0:0:0:0:
368,104,113342,1,0,0:0:0:0:
272,164,113489,2,2,B|168:84|200:304|72:224,1,250,2|2,0:1|0:1,0:1:0:0:
88,132,114223,5,4,0:3:0:0:
228,60,114370,2,0,L|240:116,2,37.5000014305115,0|0|0,0:0|0:0|2:0,0:0:0:0:
384,68,114810,21,4,0:3:0:0:
312,208,114957,2,0,L|368:220,2,37.5000014305115,0|0|0,0:0|0:0|2:0,0:0:0:0:
180,120,115397,69,4,0:3:0:0:
40,192,115544,2,0,L|28:136,2,37.5000014305115,0|0|0,0:0|0:0|2:0,0:0:0:0:
164,292,115984,21,4,0:3:0:0:
236,152,116131,2,0,L|180:140,2,37.5000014305115,0|0|0,0:0|0:0|2:0,0:0:0:0:
184,300,116571,85,4,0:3:0:0:
324,228,116718,2,0,L|336:284,2,37.5000014305115,0|0|0,0:0|0:0|2:0,0:0:0:0:
332,72,117158,53,4,0:3:0:0:
192,144,117305,2,0,L|180:88,2,37.5000014305115,0|0|0,0:0|0:0|2:0,0:0:0:0:
120,284,117745,37,4,0:3:0:0:
48,144,117892,2,0,L|104:132,2,37.5000014305115,0|0|0,0:0|0:0|2:0,0:0:0:0:
204,132,118332,53,4,0:3:0:0:
276,272,118479,2,0,L|220:284,2,37.5000014305115,0|0|0,0:0|0:0|2:0,0:0:0:0:
136,200,118920,69,4,0:3:0:0:
252,94,119066,2,0,L|278:144,2,37.5000014305115,0|0|0,0:0|0:0|2:0,0:0:0:0:
400,40,119507,37,4,0:3:0:0:
506,156,119653,2,0,L|455:182,2,37.5000014305115,0|0|0,0:0|0:0|2:0,0:0:0:0:
352,132,120094,53,4,0:3:0:0:
236,238,120240,2,0,L|209:187,2,37.5000014305115,0|0|0,0:0|0:0|2:0,0:0:0:0:
132,356,120681,37,4,0:3:0:0:
26,240,120828,2,0,L|76:213,2,37.5000014305115,0|0|0,0:0|0:0|2:0,0:0:0:0:
116,112,121268,69,4,0:3:0:0:
280,36,121415,54,0,P|300:100|296:136,1,100,0|0,3:3|3:3,3:3:0:0:
296,131,121855,1,0,3:3:0:0:
264,248,122002,2,0,P|224:284|176:272,1,100,0|0,1:3|3:3,3:3:0:0:
181,276,122442,1,0,3:3:0:0:
108,200,122589,6,0,P|60:164|40:124,2,100
248,260,123469,2,0,B|296:224|320:172|300:80|300:80|348:68|348:68|368:84|368:84|388:68|388:68|412:76|420:136|420:136|436:160,1,400,0|0,0:0|3:3,2:0:0:0:
412,240,124937,5,0,0:0:0:0:
324,324,125084,1,0,0:0:0:0:
324,324,125377,1,0,3:3:0:0:
256,224,125524,1,0,0:0:0:0:
372,192,125671,1,0,0:0:0:0:
372,192,125965,1,0,3:3:0:0:
360,116,126111,70,0,P|304:108|252:176,1,150
180,204,126698,2,0,P|120:180|92:148,2,100,0|0|0,0:0|3:3|0:0,0:0:0:0:
272,72,127579,2,0,P|324:48|380:60,1,100,0|0,3:3|0:0,0:0:0:0:
340,200,128166,2,0,P|386:212|407:257,2,100,0|0|0,3:3|0:0|0:0,0:0:0:0:
168,228,129047,5,0,0:0:0:0:
124,116,129194,1,0,0:0:0:0:
124,116,129487,1,0,3:3:0:0:
228,60,129634,1,0,0:0:0:0:
212,180,129781,1,0,0:0:0:0:
212,180,130074,1,0,3:3:0:0:
124,260,130221,1,0,0:0:0:0:
116,140,130368,1,0,0:0:0:0:
116,140,130661,1,0,3:3:0:0:
204,56,130808,6,0,P|260:36|300:48,1,100,0|0,3:3|3:3,3:3:0:0:
297,46,131248,1,0,3:3:0:0:
368,116,131395,2,0,P|416:164|416:208,1,100,0|0,1:3|3:3,3:3:0:0:
418,193,131835,1,0,3:3:0:0:
325,216,131982,70,0,P|277:248|237:240,2,100,0|0|0,0:0|3:0|3:0,0:0:0:0:
296,96,132863,2,0,B|204:24|116:104|116:104|204:152|204:152|112:208,1,400
118,204,134184,1,0,3:3:0:0:
200,292,134331,5,0,0:0:0:0:
256,188,134477,1,0,0:0:0:0:
256,188,134771,1,0,3:3:0:0:
340,272,134918,1,0,0:0:0:0:
236,332,135064,1,0,0:0:0:0:
236,332,135358,1,0,3:3:0:0:
256,260,135505,6,8,P|312:296|380:256,1,150,0|0,0:3|3:3,0:3:0:0:
412,192,136092,1,0,1:3:0:0:
280,120,136385,2,0,P|216:144|188:184,1,100
136,272,136972,1,0,3:3:0:0:
136,272,137266,1,0,0:0:0:0:
160,152,137559,2,0,P|148:92|100:56,2,100,0|0|0,3:3|3:0|3:0,3:0:0:0:
336,300,138440,69,0,0:0:0:0:
224,344,138587,1,0,0:0:0:0:
224,344,138880,1,0,3:3:0:0:
172,236,139027,1,0,0:0:0:0:
288,256,139174,1,0,0:0:0:0:
288,256,139468,1,0,3:3:0:0:
272,136,139614,1,0,0:0:0:0:
176,208,139761,1,0,0:0:0:0:
320,168,139908,1,4,0:1:0:0:
224,284,140055,1,4,0:1:0:0:
116,276,140201,6,0,B|80:208|80:144|80:144|104:160|148:156,1,200,0|0,1:0|1:0,1:0:0:0:
292,164,141082,2,8,P|360:156|384:128,2,100,0|2|0,1:0|0:0|1:0,0:0:0:0:
332,72,141963,1,0,0:0:0:0:
304,64,142109,1,0,0:0:0:0:
276,56,142256,1,0,0:0:0:0:
244,56,142403,1,0,0:0:0:0:
216,120,142550,6,0,L|176:160,1,50,0|0,1:0|0:0,0:0:0:0:
232,212,142843,2,0,L|192:252,1,50,0|0,1:0|0:0,0:0:0:0:
212,339,143137,2,0,L|248:304,1,50,0|0,1:0|0:0,0:0:0:0:
328,228,143430,2,0,P|364:180|328:40,2,200
351,347,144898,70,0,B|387:279|387:215|387:215|363:231|319:227,1,200,0|0,1:0|1:0,1:0:0:0:
220,164,145779,2,8,P|152:156|128:128,2,100,0|0|0,0:0|1:0|0:0,0:0:0:0:
212,48,146659,2,0,L|240:84,3,33.3333333333333,0|0|0|0,0:0|2:0|2:0|0:0,0:0:0:0:
292,120,147100,1,0,0:0:0:0:
208,184,147246,6,0,L|260:212,1,50,0|0,1:0|0:0,0:0:0:0:
320,296,147540,2,0,L|275:272,1,50,0|0,1:0|0:0,0:0:0:0:
204,300,147833,2,0,L|159:276,1,50,0|0,1:0|0:0,0:0:0:0:
80,200,148127,2,0,P|108:144|236:104,1,200
360,236,149008,1,0,1:0:0:0:
244,208,149301,1,0,0:0:0:0:
236,72,149595,6,0,L|276:104,1,50,0|0,1:0|1:0,1:0:0:0:
324,156,149888,1,8,0:0:0:0:
340,224,150035,1,8,0:0:0:0:
304,284,150182,1,0,0:0:0:0:
244,320,150329,1,0,0:0:0:0:
148,328,150475,2,0,P|108:220|136:136,2,200,2|2|2,0:0|0:0|0:0,0:0:0:0:
236,312,151943,70,0,L|276:280,1,50,0|0,1:0|1:0,1:0:0:0:
324,232,152237,1,8,0:0:0:0:
360,172,152383,1,0,0:0:0:0:
368,104,152530,1,0,0:0:0:0:
352,36,152677,1,0,0:0:0:0:
440,84,152824,2,0,P|480:192|452:276,2,200,2|2|2,0:0|0:0|0:0,0:0:0:0:
300,56,154291,5,4,1:1:0:0:
260,100,154438,1,0,0:0:0:0:
232,152,154585,1,0,0:0:0:0:
228,212,154732,1,0,0:0:0:0:
280,296,154878,5,4,1:1:0:0:
320,252,155025,1,0,0:0:0:0:
348,200,155172,1,0,0:0:0:0:
352,140,155319,1,0,0:0:0:0:
260,104,155466,69,4,1:1:0:0:
220,148,155612,1,0,0:0:0:0:
192,200,155759,1,0,0:0:0:0:
188,260,155906,1,0,0:0:0:0:
252,336,156053,5,4,1:1:0:0:
292,292,156199,1,0,0:0:0:0:
320,240,156346,1,0,0:0:0:0:
324,180,156493,1,0,0:0:0:0:
252,112,156640,6,0,P|232:56|192:40,1,100
164,176,157227,2,0,P|184:232|224:248,1,100
332,168,157814,2,0,P|312:112|272:96,1,100
144,144,158401,1,0,1:0:0:0:
144,144,158695,1,0,1:0:0:0:
360,120,158988,21,0,0:0:0:0:
364,196,159135,1,0,0:0:0:0:
224,248,159282,2,0,P|216:200|248:168,1,75.0000028610231,4|0,0:0|2:0,0:0:0:0:
364,196,159575,1,0,0:0:0:0:
360,120,159722,1,0,0:0:0:0:
300,168,159869,5,0,0:0:0:0:
284,240,160015,1,0,0:0:0:0:
156,160,160162,2,0,P|141:193|152:229,1,75.0000028610231,4|0,0:0|2:0,2:0:0:0:
300,204,160456,2,0,P|315:237|304:272,1,75.0000028610231,4|0,0:0|2:0,2:0:0:0:
220,148,160749,5,0,0:0:0:0:
228,72,160896,1,0,0:0:0:0:
116,172,161043,2,0,P|100:205|111:240,1,75.0000028610231,4|0,0:0|2:0,2:0:0:0:
260,224,161336,69,0,0:0:0:0:
308,280,161483,1,0,0:0:0:0:
396,160,161630,2,0,P|376:120|348:104,1,75.0000028610231,4|0,0:0|2:0,2:0:0:0:
308,280,161923,1,0,0:0:0:0:
260,224,162070,1,0,0:0:0:0:
228,292,162217,5,0,0:0:0:0:
284,340,162364,1,0,0:0:0:0:
340,200,162511,2,0,P|320:160|292:144,1,75.0000028610231,4|0,0:0|2:0,2:0:0:0:
248,288,162804,2,0,P|217:266|202:232,1,75.0000028610231,4|0,0:0|2:0,2:0:0:0:
324,144,163098,5,0,0:0:0:0:
280,84,163244,1,0,0:0:0:0:
424,40,163391,2,0,P|454:61|469:95,1,75.0000028610231,4|0,0:0|2:0,2:0:0:0:
404,188,163685,70,0,L|356:252,2,75.0000028610231
428,40,164125,2,0,P|376:44|352:68,1,75.0000028610231,4|0,0:0|2:0,2:0:0:0:
316,120,164419,1,0,0:0:0:0:
256,76,164565,1,0,0:0:0:0:
228,144,164712,1,0,0:0:0:0:
372,108,164859,6,0,P|400:144|400:176,1,75.0000028610231,8|0,0:0|2:0,2:0:0:0:
340,312,165152,2,0,P|312:276|312:244,1,75.0000028610231,8|0,0:0|2:0,2:0:0:0:
448,184,165446,2,0,P|443:147|419:119,1,75.0000028610231,8|0,0:0|2:0,2:0:0:0:
268,132,165740,2,0,P|271:168|295:196,1,75.0000028610231,8|0,0:0|2:0,2:0:0:0:
428,268,166033,5,0,0:0:0:0:
368,312,166180,1,0,0:0:0:0:
412,168,166327,2,0,P|368:196|356:224,1,75.0000028610231,4|0,0:0|2:0,2:0:0:0:
256,328,166620,70,0,P|300:300|312:272,1,75.0000028610231,4|0,0:0|2:0,2:0:0:0:
216,164,166914,1,0,0:0:0:0:
176,228,167060,1,0,0:0:0:0:
80,112,167207,2,0,L|80:36,2,75.0000028610231,4|0|0,0:0|0:0|0:0,0:0:0:0:
124,256,167648,2,0,P|92:216|84:180,1,75.0000028610231,4|0,0:0|2:0,2:0:0:0:
200,216,167941,1,0,0:0:0:0:
256,268,168088,1,0,0:0:0:0:
196,312,168235,1,0,0:0:0:0:
152,252,168381,5,0,0:0:0:0:
148,176,168528,1,0,0:0:0:0:
288,124,168675,2,0,P|296:172|264:204,1,75.0000028610231,4|0,0:0|2:0,0:0:0:0:
148,176,168968,1,0,0:0:0:0:
152,252,169115,1,0,0:0:0:0:
212,204,169262,5,0,0:0:0:0:
228,132,169409,1,0,0:0:0:0:
356,212,169556,2,0,P|371:179|360:143,1,75.0000028610231,4|0,0:0|2:0,2:0:0:0:
212,168,169849,2,0,P|197:135|208:100,1,75.0000028610231,4|0,0:0|2:0,2:0:0:0:
292,224,170143,69,0,0:0:0:0:
284,300,170289,1,0,0:0:0:0:
396,200,170436,2,0,P|412:167|401:132,1,75.0000028610231,4|0,0:0|2:0,2:0:0:0:
252,148,170730,5,0,0:0:0:0:
204,92,170877,1,0,0:0:0:0:
116,212,171023,2,0,P|136:252|164:268,1,75.0000028610231,4|0,0:0|2:0,2:0:0:0:
204,92,171317,1,0,0:0:0:0:
252,148,171464,1,0,0:0:0:0:
284,80,171610,5,0,0:0:0:0:
228,32,171757,1,0,0:0:0:0:
172,172,171904,2,0,P|192:212|220:228,1,75.0000028610231,4|0,0:0|2:0,2:0:0:0:
264,84,172197,2,0,P|295:106|310:140,1,75.0000028610231,4|0,0:0|2:0,2:0:0:0:
261,286,172491,69,0,0:0:0:0:
217,226,172638,1,0,0:0:0:0:
88,332,172785,2,0,P|58:311|43:277,1,75.0000028610231,4|0,0:0|2:0,2:0:0:0:
108,184,173078,6,0,L|156:120,2,75.0000028610231
84,332,173518,2,0,P|136:328|160:304,1,75.0000028610231,4|0,0:0|2:0,2:0:0:0:
196,252,173812,1,0,0:0:0:0:
256,296,173959,1,0,0:0:0:0:
284,228,174105,1,0,0:0:0:0:
140,264,174252,6,0,P|112:228|112:196,1,75.0000028610231,8|0,0:0|2:0,2:0:0:0:
172,60,174546,2,0,P|200:96|200:128,1,75.0000028610231,8|0,0:0|2:0,2:0:0:0:
64,188,174839,2,0,P|69:225|93:253,1,75.0000028610231,8|0,0:0|2:0,2:0:0:0:
244,240,175133,2,0,P|240:203|216:175,1,75.0000028610231,8|0,0:0|2:0,2:0:0:0:
108,68,175426,70,0,P|76:100|72:140,1,75.0000028610231,4|0,0:0|2:0,0:0:0:0:
88,200,175720,1,0,0:0:0:0:
128,264,175867,1,0,0:0:0:0:
264,328,176013,2,0,P|296:296|300:256,1,75.0000028610231,4|0,0:0|2:0,0:0:0:0:
236,132,176307,2,0,P|204:164|200:204,1,75.0000028610231,4|0,0:0|2:0,0:0:0:0:
240,256,176601,5,0,0:0:0:0:
184,308,176747,1,0,0:0:0:0:
88,196,176894,2,0,P|104:160|144:136,1,75.0000028610231,0|0,0:0|2:0,0:0:0:0:
188,192,177188,1,0,0:0:0:0:
232,132,177334,1,0,0:0:0:0:
256,280,177481,1,0,0:0:0:0:
320,240,177628,1,0,0:0:0:0:
440,340,177775,5,4,0:0:0:0:
440,340,177922,1,4,0:0:0:0:
256,192,179830,21,4,0:0:0:0:
116,256,180069,86,0,L|104:176,1,75.0000028610231,0|0,1:3|2:3,0:3:0:0:
216,204,180363,2,0,L|204:124,1,75.0000028610231,0|0,1:3|2:3,0:3:0:0:
316,156,180657,2,0,L|304:76,2,75.0000028610231,0|0|0,1:3|2:3|0:3,0:3:0:0:
408,224,181098,2,8,P|368:296|304:304,1,150.000005722046,0|0,1:3|0:3,0:3:0:0:
256,228,181539,1,0,1:3:0:0:
76,212,181833,2,8,P|116:284|180:292,1,150.000005722046,0|0,1:3|0:3,0:3:0:0:
168,204,182274,1,0,1:3:0:0:
324,292,182569,1,0,1:3:0:0:
352,192,182716,6,0,P|336:108|260:72,2,150.000005722046,0|0|0,1:3|3:3|3:3,3:3:0:0:
432,236,183451,2,0,P|365:267|297:240,1,150.000005722046,0|0,1:3|1:3,1:3:0:0:
232,304,183892,1,0,0:3:0:0:
144,148,184186,85,0,3:3:0:0:
92,320,184480,1,0,1:3:0:0:
272,328,184774,1,0,0:3:0:0:
228,248,184921,2,0,P|284:220|300:220,1,75.0000028610231,0|0,0:3|2:3,0:3:0:0:
292,128,185216,1,0,0:3:0:0:
364,180,185363,2,0,L|424:132,1,75.0000028610231,4|0,0:1|2:1,0:1:0:0:
408,224,185657,2,0,L|468:272,1,75.0000028610231,4|0,0:1|2:1,0:1:0:0:
376,288,185951,2,0,L|317:334,1,75.0000028610231,4|0,0:1|2:1,0:1:0:0:
324,244,186245,2,0,L|265:197,1,75.0000028610231,4|0,0:1|2:1,0:1:0:0:
192,76,186539,5,4,0:1:0:0:
328,124,186686,1,4,0:1:0:0:
196,180,186833,1,4,0:1:0:0:
292,284,186980,1,4,0:1:0:0:
376,168,187127,6,0,P|408:140|416:108,2,75.0000028610231,0|0|0,0:0|2:0|0:0,0:0:0:0:
340,276,187569,2,0,P|276:240|255:170,1,150.000005722046
212,280,188010,1,0,3:3:0:0:
168,170,188157,2,0,P|147:240|83:275,1,150.000005722046
96,164,188598,70,0,L|128:84,1,75.0000028610231,0|0,3:3|2:0,2:0:0:0:
192,152,188892,2,0,L|219:221,1,75.0000028610231,0|0,3:3|2:0,2:0:0:0:
264,300,189186,2,0,L|291:230,1,75.0000028610231,0|0,3:3|2:0,2:0:0:0:
324,124,189480,2,0,P|352:152|380:264,2,150.000005722046
216,96,190216,2,0,L|240:168,1,75.0000028610231,0|0,3:3|3:3,3:3:0:0:
108,192,190510,2,0,P|148:252|220:244,1,150.000005722046,0|0,1:0|0:0,0:0:0:0:
260,168,190951,5,0,0:0:0:0:
296,252,191098,1,0,0:0:0:0:
348,180,191245,2,0,P|388:144|400:116,2,75.0000028610231,0|2|0,0:0|2:2|0:0,0:0:0:0:
284,272,191686,1,0,0:0:0:0:
176,236,191833,2,0,P|136:144|168:80,1,150.000005722046
256,136,192274,5,0,0:0:0:0:
360,96,192421,1,0,3:3:0:0:
400,204,192569,1,0,3:3:0:0:
296,240,192716,1,0,0:0:0:0:
340,344,192863,2,0,P|265:341|201:304,1,150.000005722046
304,256,193304,2,0,L|236:216,1,75.0000028610231,4|0,2:1|2:0,2:0:0:0:
296,120,193598,2,0,L|232:172,1,75.0000028610231,4|0,2:1|2:0,2:0:0:0:
128,188,193892,2,0,L|216:188,1,75.0000028610231,4|0,2:1|2:0,2:0:0:0:
328,244,194186,70,0,P|352:216|356:176,1,75.0000028610231
268,108,194480,1,0,0:0:0:0:
203,188,194627,1,0,0:0:0:0:
168,80,194774,5,0,0:0:0:0:
56,80,194921,1,0,0:0:0:0:
56,192,195069,1,0,0:0:0:0:
168,192,195216,1,0,0:0:0:0:
236,104,195363,5,0,0:0:0:0:
236,104,195436,1,0,0:0:0:0:
236,104,195510,1,0,0:0:0:0:
220,216,195657,1,0,3:0:0:0:
304,144,195804,1,0,3:0:0:0:
396,212,195951,5,0,0:0:0:0:
288,232,196098,1,0,3:0:0:0:
288,232,196171,1,0,3:0:0:0:
288,232,196245,1,0,0:0:0:0:
216,320,196392,1,0,0:0:0:0:
144,236,196539,21,0,0:0:0:0:
144,236,196686,1,0,3:0:0:0:
64,108,196833,1,0,3:0:0:0:
64,108,196980,1,0,3:0:0:0:
212,116,197127,2,0,L|244:84,4,37.5000014305115,0|0|0|0|0,0:0|3:0|3:0|3:0|0:0,3:0:0:0:
212,116,197569,1,0,0:0:0:0:
128,240,197716,21,0,0:0:0:0:
128,240,197863,1,0,3:0:0:0:
248,332,198010,1,0,0:0:0:0:
248,332,198157,1,0,3:0:0:0:
360,236,198304,5,0,0:0:0:0:
360,236,198451,1,0,3:0:0:0:
248,136,198598,1,0,0:0:0:0:
248,136,198745,1,0,3:0:0:0:
312,272,198892,53,0,0:0:0:0:
312,272,199039,1,0,3:0:0:0:
172,216,199186,1,0,0:0:0:0:
172,216,199333,1,0,3:0:0:0:
288,120,199480,2,0,L|316:84,4,37.5000014305115
288,120,199921,1,0,0:0:0:0:
244,264,200069,21,0,0:0:0:0:
244,264,200216,1,0,3:0:0:0:
140,156,200363,1,0,0:0:0:0:
140,156,200510,1,0,3:0:0:0:
260,68,200657,5,0,0:0:0:0:
260,68,200804,1,0,3:0:0:0:
372,168,200951,1,0,0:0:0:0:
372,168,201098,1,0,3:0:0:0:
232,220,201245,53,0,0:0:0:0:
268,152,201392,1,0,3:0:0:0:
352,276,201539,1,0,0:0:0:0:
328,204,201686,1,0,3:0:0:0:
196,272,201833,2,0,L|152:300,4,37.5000014305115
232,208,202274,1,0,3:0:0:0:
284,68,202421,21,0,0:0:0:0:
348,108,202569,1,0,3:0:0:0:
200,140,202716,1,0,0:0:0:0:
136,180,202863,1,0,3:0:0:0:
284,192,203010,21,0,0:0:0:0:
348,232,203157,1,0,3:0:0:0:
200,264,203304,1,0,0:0:0:0:
136,304,203451,1,0,3:0:0:0:
284,296,203598,37,0,0:0:0:0:
352,264,203745,1,0,3:0:0:0:
396,120,203892,1,0,3:0:0:0:
328,88,204039,1,0,0:0:0:0:
192,148,204186,2,0,L|184:184,4,37.5000014305115
224,240,204627,1,0,0:3:0:0:
92,312,204774,5,0,3:0:0:0:
160,344,204921,1,0,0:0:0:0:
100,176,205069,1,0,3:0:0:0:
168,144,205216,1,0,0:0:0:0:
320,236,205363,2,0,L|328:272,4,37.5000014305115
236,176,205804,1,0,0:3:0:0:
184,288,205951,5,0,0:0:0:0:
132,228,206098,1,0,3:0:0:0:
268,292,206245,1,0,0:0:0:0:
320,236,206392,1,0,3:0:0:0:
324,84,206539,2,0,L|352:112,4,37.5000014305115
288,152,206980,1,0,3:0:0:0:
352,288,207127,53,0,0:0:0:0:
240,288,207274,1,0,3:0:0:0:
240,288,207348,1,0,3:0:0:0:
240,288,207421,1,0,0:0:0:0:
168,200,207569,1,0,3:0:0:0:
168,200,207642,1,0,3:0:0:0:
168,200,207716,5,0,0:0:0:0:
256,128,207863,1,0,3:0:0:0:
256,128,207936,1,0,3:0:0:0:
256,128,208010,1,0,0:0:0:0:
336,208,208157,1,0,3:0:0:0:
336,208,208230,1,0,3:0:0:0:
336,208,208304,37,0,0:0:0:0:
376,144,208451,1,0,0:3:0:0:
344,292,208598,1,0,0:0:0:0:
304,356,208745,1,0,0:3:0:0:
232,224,208892,2,0,L|225:187,4,37.5000014305115
244,296,209333,1,0,3:3:0:0:
336,180,209480,37,0,0:0:0:0:
256,100,209627,2,0,L|216:92,1,37.5000014305115,0|0,3:0|3:0,3:0:0:0:
172,64,209774,1,0,0:0:0:0:
224,176,209921,2,0,L|264:184,1,37.5000014305115,0|0,3:0|3:0,3:0:0:0:
312,156,210069,1,0,0:0:0:0:
252,252,210216,2,0,L|212:244,1,37.5000014305115,0|0,3:0|3:0,3:0:0:0:
172,208,210363,1,0,0:0:0:0:
220,328,210510,2,0,L|260:336,1,37.5000014305115,0|0,3:0|3:0,3:0:0:0:
308,316,210657,37,0,0:0:0:0:
348,252,210804,1,0,3:0:0:0:
332,128,210951,1,0,0:0:0:0:
300,196,211098,1,0,3:0:0:0:
164,132,211245,2,0,L|132:96,4,37.5000014305115
208,196,211686,1,0,3:0:0:0:
272,60,211833,53,0,0:0:0:0:
352,140,211980,1,0,3:0:0:0:
352,140,212054,1,0,3:0:0:0:
352,140,212127,1,0,0:0:0:0:
276,224,212274,2,0,L|248:256,1,37.5000014305115,0|0,3:0|3:0,3:0:0:0:
184,284,212421,5,0,0:0:0:0:
112,196,212569,1,0,3:0:0:0:
112,196,212642,1,0,3:0:0:0:
112,196,212716,1,0,0:0:0:0:
220,156,212863,2,0,L|248:124,1,37.5000014305115,0|0,3:0|3:0,3:0:0:0:
312,96,213010,37,0,0:0:0:0:
356,156,213157,1,0,3:0:0:0:
248,264,213304,1,0,0:0:0:0:
292,324,213451,1,0,3:0:0:0:
404,228,213598,2,0,L|428:188,4,37.5000014305115
356,288,214039,1,0,0:0:0:0:
232,276,214169,53,0,0:0:0:0:
308,172,214316,1,0,0:0:0:0:
184,164,214463,1,0,0:0:0:0:
252,60,214610,1,0,0:0:0:0:
116,124,214757,69,4,0:0:0:0:
192,252,214904,1,4,0:0:0:0:
324,184,215051,1,4,0:0:0:0:
232,280,215198,54,0,P|296:104|344:88,1,250,0|4,0:0|2:0,0:0:0:0:
416,124,216228,6,0,L|408:72,1,50,0|0,3:0|3:0,3:0:0:0:
328,40,216522,2,0,P|244:72|200:124,1,150,0|0,0:0|3:0,0:0:0:0:
120,96,217109,2,0,L|140:148,1,50
160,192,217402,6,0,P|232:228|196:332,1,200,0|0,0:0|2:0,0:0:0:0:
172,328,218062,1,0,3:0:0:0:
144,312,218136,1,0,3:0:0:0:
144,280,218209,1,0,3:0:0:0:
164,256,218283,2,0,L|144:192,2,50,0|0|0,1:0|2:0|2:0,0:0:0:0:
184,272,218576,21,0,1:0:0:0:
204,280,218650,1,0,3:0:0:0:
224,280,218723,1,0,3:0:0:0:
244,272,218796,1,0,3:0:0:0:
260,260,218870,5,0,1:0:0:0:
268,240,218943,1,0,3:0:0:0:
268,220,219016,1,0,3:0:0:0:
260,200,219090,1,0,3:0:0:0:
252,180,219163,5,0,1:0:0:0:
244,160,219237,1,0,3:0:0:0:
240,140,219310,1,0,3:0:0:0:
248,124,219383,1,0,3:0:0:0:
260,108,219457,53,0,1:0:0:0:
280,104,219530,1,0,3:0:0:0:
300,96,219604,1,0,3:0:0:0:
316,84,219677,1,0,3:0:0:0:
324,76,219750,54,0,P|360:144|352:228,1,150,0|0,1:0|3:0,3:0:0:0:
344,236,220263,1,0,3:0:0:0:
332,252,220337,2,0,P|252:260|188:304,1,150,0|0,0:0|3:0,0:0:0:0:
164,356,220924,6,0,P|84:324|60:264,1,150,0|0,1:0|3:0,3:0:0:0:
60,248,221437,1,0,3:0:0:0:
60,228,221511,2,0,P|76:164|160:148,1,150,0|0,0:0|3:0,0:0:0:0:
220,180,222098,6,0,L|272:148,1,61.9999975402833
352,56,222363,1,0,0:0:0:0:
352,56,222510,1,0,0:0:0:0:
424,152,222657,2,0,P|440:232|364:296,1,185.99999262085
200,272,223244,1,0,0:0:0:0:
220,110,223537,85,0,0:0:0:0:
134,228,223684,1,0,0:0:0:0:
272,183,223831,1,0,0:0:0:0:
134,138,223978,1,0,0:0:0:0:
220,256,224124,2,0,P|272:248|320:196,1,123.999995080567
368,32,224564,21,8,0:0:0:0:
336,40,224637,1,8,0:0:0:0:
308,56,224711,1,8,0:0:0:0:
224,108,224857,1,8,0:0:0:0:
168,172,225004,1,12,0:0:0:0:
140,240,225151,1,12,0:0:0:0:
120,296,225298,1,4,0:0:0:0:
112,344,225444,1,4,0:0:0:0:
200,220,225591,54,0,P|244:184|332:208,1,150,0|0,0:0|3:0,0:0:0:0:
388,160,226178,1,0,0:0:0:0:
176,140,226471,2,0,P|140:192|136:284,1,150
204,308,227058,1,0,3:3:0:0:
204,308,227205,1,0,3:3:0:0:
336,284,227352,1,0,0:0:0:0:
252,348,227645,1,0,3:0:0:0:
252,348,227792,1,0,3:0:0:0:
272,232,227939,6,0,P|228:196|140:220,1,150,0|0,0:0|3:0,0:0:0:0:
72,192,228526,1,0,0:0:0:0:
304,160,228819,2,0,P|340:212|344:304,1,150
280,332,229407,1,0,3:0:0:0:
280,332,229553,1,0,3:0:0:0:
200,224,229700,1,0,0:0:0:0:
196,332,229994,1,0,3:0:0:0:
196,332,230140,1,0,3:0:0:0:
280,228,230287,6,0,P|236:192|148:216,1,150,0|0,0:0|3:0,0:0:0:0:
104,272,230874,1,0,0:0:0:0:
168,136,231168,2,0,P|272:140|336:208,1,200,0|0,0:0|3:0,0:0:0:0:
180,336,232048,1,0,0:0:0:0:
212,140,232342,2,0,L|316:112,2,100,0|0|0,0:0|3:0|0:0,0:0:0:0:
68,280,233223,69,4,0:0:0:0:
284,320,233516,1,4,0:0:0:0:
104,200,233810,1,4,0:0:0:0:
244,44,234103,2,0,L|304:56,1,50,0|0,0:0|2:0,0:0:0:0:
252,148,234397,2,0,P|308:168|324:208,1,100,4|0,0:0|3:0,0:0:0:0:
296,272,234837,1,0,3:0:0:0:
188,225,234984,6,0,L|251:148,1,100,0|0,0:0|3:0,0:0:0:0:
308,84,235424,1,0,3:0:0:0:
208,88,235571,2,0,L|104:112,1,100,0|0,0:0|3:0,0:0:0:0:
60,320,236158,1,0,0:0:0:0:
120,104,236452,1,0,3:0:0:0:
252,252,236745,1,0,0:0:0:0:
76,160,237039,1,0,3:0:0:0:
252,252,237332,6,0,L|352:276,1,100,0|0,0:0|3:0,0:0:0:0:
440,320,237772,1,0,3:0:0:0:
400,228,237919,2,0,L|376:124,1,100
372,120,238311,1,0,0:0:0:0:
367,110,238409,1,0,0:0:0:0:
363,100,238495,69,8,0:3:0:0:
292,128,238641,1,8,0:3:0:0:
228,160,238788,1,12,0:3:0:0:
176,204,238935,1,12,0:3:0:0:
144,252,239082,1,4,0:3:0:0:
124,292,239375,1,4,0:3:0:0:
124,292,239522,1,4,0:3:0:0:
152,176,239669,6,0,L|116:80,1,100,0|0,3:0|3:0,3:0:0:0:
36,24,240109,1,0,3:0:0:0:
136,32,240256,2,0,L|236:56,1,100
428,212,240843,1,0,0:0:0:0:
212,336,241136,1,0,3:0:0:0:
320,112,241430,1,0,0:0:0:0:
364,356,241723,5,0,0:0:0:0:
168,204,242017,1,0,3:0:0:0:
412,160,242310,1,0,3:0:0:0:
412,160,242457,1,0,3:0:0:0:
332,256,242604,1,0,0:0:0:0:
88,316,242897,1,0,0:0:0:0:
88,316,243044,1,0,0:0:0:0:
180,228,243191,70,0,L|216:188,1,50,0|0,3:0|3:0,3:0:0:0:
144,144,243485,2,8,P|184:112|224:108,1,75,0|0,0:3|2:2,0:3:0:0:
244,68,243778,2,8,P|208:60|180:64,2,33.3333333333333
276,92,244071,2,4,L|292:132,2,33.3333333333333
176,128,252896,37,4,0:0:0:0:
124,240,253042,1,4,0:0:0:0:
244,204,253189,1,4,0:0:0:0:
196,320,253336,1,4,0:0:0:0:
80,188,253483,1,4,0:0:0:0:
272,152,253629,1,4,0:0:0:0:
340,284,253776,54,0,B|392:196|328:104,1,179.999994506836,0|0,0:0|2:0,0:0:0:0:
292,228,254363,2,0,B|296:125|196:74,1,179.999994506836,0|0,0:0|2:0,0:0:0:0:
112,80,254950,6,0,L|168:44,1,59.9999981689454,0|0,3:0|3:0,3:0:0:0:
276,28,255244,1,0,0:0:0:0:
356,216,255537,1,0,3:0:0:0:
280,244,255684,1,0,3:0:0:0:
180,224,255831,6,0,B|108:164|132:60|252:80|252:80|276:112|276:112|312:92|312:92|344:124,1,359.999989013672
368,248,257005,1,0,0:0:0:0:
320,284,257152,1,0,0:0:0:0:
272,248,257298,69,0,3:0:0:0:
220,220,257445,1,0,3:0:0:0:
176,260,257592,2,0,L|120:224,1,59.9999981689454,0|0,0:0|3:0,0:0:0:0:
64,152,257885,2,0,L|72:112,4,29.9999990844727,0|0|0|0|0,0:0|2:0|0:0|2:0|0:0,0:0:0:0:
180,116,258473,6,0,P|244:136|248:244,1,179.999994506836,0|0,0:0|2:0,0:0:0:0:
284,288,259060,2,0,P|344:320|408:300,2,119.999996337891,0|0|0,0:0|3:0|0:0,0:0:0:0:
360,196,259940,2,0,P|344:128|284:92,1,119.999996337891
248,280,260527,2,0,P|284:220|267:152,2,119.999996337891,0|0|0,0:0|3:0|3:0,0:0:0:0:
184,284,261261,1,0,3:0:0:0:
136,324,261408,2,0,P|80:288|60:232,1,119.999996337891
132,96,261995,69,4,0:0:0:0:
64,144,262142,1,4,0:0:0:0:
228,68,262289,2,0,P|280:64|304:76,1,59.9999981689454,0|0,0:0|2:0,0:0:0:0:
382,94,262582,21,4,0:0:0:0:
450,142,262729,1,4,0:0:0:0:
286,66,262876,2,0,P|234:62|210:74,1,59.9999981689454,0|0,0:0|2:0,0:0:0:0:
228,332,263169,6,0,B|280:244|216:152,1,179.999994506836,0|0,0:0|2:0,0:0:0:0:
180,276,263756,2,0,B|184:173|84:122,1,179.999994506836,0|0,0:0|2:0,0:0:0:0:
4,124,264343,70,0,L|52:84,1,59.9999981689454,0|0,3:0|3:0,3:0:0:0:
172,48,264637,1,0,0:0:0:0:
152,168,264930,2,0,L|208:212,1,59.9999981689454
228,284,265224,6,0,B|292:260|316:200|248:76|248:76|224:128|224:128|164:104,1,359.999989013672
84,192,266398,1,0,3:0:0:0:
124,236,266545,1,0,3:0:0:0:
176,128,266692,22,4,L|168:88,10,39.9999987792969,4|0|0|4|0|0|4|0|0|4|0,2:0|2:0|2:0|2:0|2:0|2:0|2:0|2:0|2:0|2:0|2:0,2:0:0:0:
124,284,267866,86,0,P|224:292|264:232,1,179.999994506836,0|0,0:0|2:0,0:0:0:0:
152,232,268453,1,0,0:0:0:0:
240,116,268746,2,0,P|295:83|351:115,1,119.999996337891
428,244,269334,1,0,3:0:0:0:
224,176,269627,1,0,3:0:0:0:
277,58,269921,70,0,P|334:68|360:120,2,119.999996337891,0|0|0,0:0|0:0|3:0,0:0:0:0:
244,92,270655,1,0,3:0:0:0:
196,168,270801,2,0,P|176:232|212:276,1,119.999996337891
291,275,271388,37,0,0:0:0:0:
367,215,271535,1,0,0:0:0:0:
287,123,271682,1,4,0:0:0:0:
291,275,271975,1,0,0:0:0:0:
367,215,272122,1,0,0:0:0:0:
287,123,272269,1,4,0:0:0:0:
168,100,272563,54,0,B|236:64|300:64|300:64|284:88|288:132,1,200,0|0,1:0|1:0,0:0:0:0:
288,256,273443,2,0,P|276:304|236:340,2,100,0|0|0,0:0|1:0|0:0,0:0:0:0:
156,224,274324,1,0,0:0:0:0:
132,212,274471,1,0,0:0:0:0:
112,200,274617,1,0,0:0:0:0:
92,188,274764,1,0,0:0:0:0:
120,108,274911,6,0,L|176:72,1,50,4|0,2:0|2:0,2:0:0:0:
224,140,275204,2,0,L|260:196,1,50,4|0,2:0|2:0,2:0:0:0:
264,80,275498,2,0,L|320:44,1,50,4|0,2:0|2:0,2:0:0:0:
384,120,275791,2,0,P|424:208|392:312,2,200
264,268,277259,6,0,B|332:304|396:304|396:304|380:280|384:236,1,200,0|0,1:0|0:0,0:0:0:0:
416,140,278140,2,0,L|400:88,1,50,0|0,0:0|2:0,0:0:0:0:
316,112,278433,2,0,L|304:64,1,50,0|0,1:0|2:0,0:0:0:0:
220,120,278727,2,0,L|232:180,1,50,0|0,0:0|2:0,0:0:0:0:
240,288,279020,2,0,L|240:332,3,33.3333333333333,0|0|0|0,1:0|2:0|2:0|0:0,0:0:0:0:
240,252,279461,1,0,0:0:0:0:
164,136,279608,70,0,L|208:160,1,50,4|0,2:0|2:0,2:0:0:0:
292,232,279901,2,0,L|248:208,1,50,4|0,2:0|2:0,2:0:0:0:
148,192,280195,2,0,L|192:216,1,50,4|0,2:0|2:0,2:0:0:0:
276,292,280488,2,0,P|188:280|88:220,1,200,4|0,2:0|2:0,2:0:0:0:
156,88,281369,1,8,0:0:0:0:
288,156,281662,1,0,0:0:0:0:
288,308,281956,6,0,L|248:272,1,50
204,224,282249,1,8,0:0:0:0:
152,172,282396,1,8,0:0:0:0:
148,96,282543,1,8,0:0:0:0:
200,44,282690,1,8,0:0:0:0:
276,36,282837,6,0,P|366:64|406:171,1,200,2|2,0:0|0:0,0:0:0:0:
296,132,283717,2,0,L|212:192,1,100
60,160,284304,70,0,L|112:188,1,50
172,216,284598,1,8,0:0:0:0:
248,228,284745,1,8,0:0:0:0:
320,216,284891,1,8,0:0:0:0:
364,156,285038,1,8,0:0:0:0:
436,172,285185,6,0,P|396:260|304:290,1,200,2|2,0:0|0:0,0:0:0:0:
332,192,286065,2,0,L|248:132,1,100
268,284,286653,5,4,1:1:0:0:
232,316,286799,1,0,0:0:0:0:
184,336,286946,1,0,0:0:0:0:
136,328,287093,1,0,0:0:0:0:
144,228,287240,69,4,1:1:0:0:
180,196,287386,1,0,0:0:0:0:
228,176,287533,1,0,0:0:0:0:
276,184,287680,1,0,0:0:0:0:
364,136,287827,5,4,1:1:0:0:
328,104,287973,1,0,0:0:0:0:
280,84,288120,1,0,0:0:0:0:
232,92,288267,1,0,0:0:0:0:
260,188,288414,5,4,1:1:0:0:
224,220,288561,1,0,0:0:0:0:
176,240,288707,1,0,0:0:0:0:
128,232,288854,1,0,0:0:0:0:
136,87,289001,70,0,P|87:86|52:120,1,100,8|0,0:0|0:0,0:0:0:0:
177,141,289588,2,0,P|202:99|192:52,1,100,8|0,0:0|0:0,0:0:0:0:
112,151,290175,2,8,P|137:193|184:208,1,100
244,104,290762,37,0,0:0:0:0:
251,114,290836,1,0,0:0:0:0:
259,124,290909,1,0,0:0:0:0:
267,134,290982,1,0,0:0:0:0:
275,144,291056,1,0,1:0:0:0:
292,168,291202,1,0,1:0:0:0:
128,248,291351,5,0,0:0:0:0:
204,296,291497,1,0,0:0:0:0:
172,120,291644,2,0,P|160:148|188:196,1,75.0000028610231,4|0,0:0|2:0,2:0:0:0:
320,292,291938,1,0,0:0:0:0:
288,208,292084,1,0,0:0:0:0:
360,156,292231,1,0,0:0:0:0:
400,236,292378,1,0,0:0:0:0:
224,188,292525,6,0,P|212:160|240:112,1,75.0000028610231,4|0,0:0|2:0,2:0:0:0:
400,60,292818,1,0,0:0:0:0:
336,124,292965,1,0,0:0:0:0:
412,168,293112,1,0,0:0:0:0:
348,232,293259,1,0,0:0:0:0:
212,124,293405,2,0,P|200:152|228:200,1,75.0000028610231,4|0,0:0|2:0,2:0:0:0:
376,276,293699,6,0,P|332:284|304:268,1,75.0000028610231,4|0,0:0|2:0,2:0:0:0:
212,124,293992,2,0,P|245:109|281:118,1,75.0000028610231,4|0,0:0|2:0,2:0:0:0:
320,296,294286,1,0,0:0:0:0:
272,220,294433,1,0,0:0:0:0:
184,204,294579,1,0,0:0:0:0:
232,280,294726,1,0,0:0:0:0:
340,136,294873,70,0,P|348:180|332:208,1,75.0000028610231,4|0,0:0|2:0,2:0:0:0:
176,120,295167,1,0,0:0:0:0:
192,208,295313,1,0,0:0:0:0:
340,136,295460,2,0,P|348:180|332:208,1,75.0000028610231,4|0,0:0|2:0,2:0:0:0:
176,120,295754,1,0,0:0:0:0:
192,208,295900,1,0,0:0:0:0:
80,68,296047,5,0,0:0:0:0:
92,156,296194,2,0,L|124:236,1,75.0000028610231,0|0,0:0|2:0,2:0:0:0:
272,328,296487,2,0,P|296:292|304:252,2,75.0000028610231,0|0|0,0:0|3:0|3:0,0:0:0:0:
184,336,296928,1,0,2:0:0:0:
116,276,297075,1,0,2:0:0:0:
200,112,297221,6,0,L|256:48,1,75.0000028610231,4|0,0:0|2:0,2:0:0:0:
308,224,297515,2,0,L|258:280,1,75.0000028610231,4|0,1:0|2:0,2:0:0:0:
100,192,297808,1,0,0:0:0:0:
164,128,297955,1,0,0:0:0:0:
360,168,298102,2,0,L|310:224,1,75.0000028610231,4|0,0:0|2:0,2:0:0:0:
268,48,298396,70,0,P|232:28|184:36,1,75.0000028610231,4|0,0:0|2:0,2:0:0:0:
52,128,298689,1,0,0:0:0:0:
136,160,298836,1,0,0:0:0:0:
120,248,298983,1,0,0:0:0:0:
208,232,299129,1,0,0:0:0:0:
199,29,299276,2,0,P|236:28|268:48,1,75.0000028610231,0|0,0:0|2:0,2:0:0:0:
328,168,299570,85,0,0:0:0:0:
208,232,299716,1,0,0:0:0:0:
252,104,299863,1,0,0:0:0:0:
136,168,300010,1,0,0:0:0:0:
250,285,300157,2,0,P|270:252|270:204,1,75.0000028610231
284,92,300450,1,0,0:0:0:0:
202,69,300597,54,0,B|182:130|242:174|242:174|302:222|251:285,1,250,4|0,0:0|2:0,0:0:0:0:
188,280,301622,6,0,L|144:244,1,50,0|0,3:0|3:0,3:0:0:0:
116,180,301916,2,0,P|188:144|200:152,1,100,0|0,1:0|3:0,0:0:0:0:
252,196,302356,1,0,3:0:0:0:
316,156,302503,2,0,L|355:187,1,50,0|0,3:0|2:0,0:0:0:0:
416,144,302796,2,0,P|372:96|248:112,1,200,0|0,1:0|3:0,0:0:0:0:
288,168,303529,1,0,3:0:0:0:
268,328,303675,5,0,0:0:0:0:
296,345,303748,1,0,0:0:0:0:
329,351,303821,1,0,0:0:0:0:
362,342,303895,1,0,0:0:0:0:
388,322,303968,1,0,0:0:0:0:
405,292,304041,1,0,0:0:0:0:
408,258,304115,1,0,0:0:0:0:
397,226,304188,1,0,0:0:0:0:
376,208,304263,5,0,1:0:0:0:
348,192,304337,1,0,3:0:0:0:
320,180,304410,2,0,L|272:156,1,50,0|0,3:0|2:0,3:0:0:0:
252,232,304557,1,0,1:0:0:0:
220,208,304630,1,0,3:0:0:0:
188,184,304704,2,0,L|152:148,1,50,0|0,3:0|2:0,3:0:0:0:
96,184,304850,1,0,1:0:0:0:
84,136,304924,1,0,3:0:0:0:
84,88,304997,2,0,L|104:36,1,50,0|0,3:0|2:0,3:0:0:0:
184,32,305144,54,0,B|320:48|340:188,1,225.000008583069,0|0,0:0|3:0,0:0:0:0:
208,144,305731,1,0,0:0:0:0:
288,312,306024,1,0,0:0:0:0:
208,144,306318,6,0,B|72:160|52:300,1,225.000008583069,0|0,0:0|3:0,0:0:0:0:
54,284,306831,1,0,3:0:0:0:
54,284,306905,1,0,0:0:0:0:
192,220,307198,1,0,3:0:0:0:
260,312,307344,1,0,3:0:0:0:
256,124,307491,6,0,B|390:139|407:264,1,225.000008583069,0|0,3:0|3:0,3:0:0:0:
407,263,308005,1,0,3:0:0:0:
407,263,308078,1,0,0:0:0:0:
96,188,308518,1,0,3:0:0:0:
100,196,308592,1,0,3:0:0:0:
104,204,308665,1,0,0:0:0:0:
232,204,308959,69,0,0:0:0:0:
382,155,309106,1,0,0:0:0:0:
234,111,309252,1,0,0:0:0:0:
324,234,309399,1,0,0:0:0:0:
309,58,309546,2,0,B|285:50|261:66|261:66|235:51|207:66|207:66|189:54|161:74,1,150,0|0,0:0|2:0,0:0:0:0:
88,64,309839,37,0,1:0:0:0:
88,132,309986,1,0,0:0:0:0:
93,143,310059,1,0,0:0:0:0:
99,154,310132,1,0,0:0:0:0:
105,165,310206,1,0,0:0:0:0:
111,176,310279,1,0,0:0:0:0:
168,216,310426,1,0,0:0:0:0:
173,227,310499,1,0,0:0:0:0:
179,238,310572,1,0,0:0:0:0:
185,249,310646,1,0,0:0:0:0:
191,260,310719,1,0,0:0:0:0:
332,216,310866,1,0,0:0:0:0:
252,156,311017,54,0,P|191:116|123:140,1,150,0|0,0:0|3:0,0:0:0:0:
68,92,311604,1,0,1:0:0:0:
272,80,311897,2,0,P|311:142|313:216,1,150,0|0,0:0|2:0,0:0:0:0:
256,264,312484,1,0,3:0:0:0:
256,264,312631,1,0,3:0:0:0:
192,168,312778,1,0,0:0:0:0:
227,331,313072,1,0,3:0:0:0:
227,331,313218,1,0,3:0:0:0:
128,232,313365,6,0,P|188:192|256:216,1,150,0|0,0:0|3:0,0:0:0:0:
320,180,313952,1,0,0:0:0:0:
108,148,314246,2,0,P|68:210|66:284,1,150,0|0,0:0|2:0,0:0:0:0:
152,324,314833,1,0,3:0:0:0:
152,324,314980,1,0,3:0:0:0:
208,188,315126,1,0,0:0:0:0:
283,315,315420,1,0,3:0:0:0:
283,315,315567,1,0,3:0:0:0:
400,220,315713,6,0,P|331:195|271:235,1,150,0|0,0:0|3:0,0:0:0:0:
204,232,316300,1,0,0:0:0:0:
296,136,316594,2,0,P|393:137|463:205,1,200,0|0,0:0|2:0,0:0:0:0:
336,276,317475,1,0,1:0:0:0:
296,136,317768,2,0,L|199:110,2,100,0|0|0,0:0|3:0|3:0,0:0:0:0:
444,280,318649,69,4,0:0:0:0:
228,320,318942,1,4,0:0:0:0:
408,200,319236,1,4,0:0:0:0:
268,44,319529,2,0,L|208:56,1,50,0|0,0:0|2:0,0:0:0:0:
260,148,319823,2,0,P|204:168|188:208,1,100,4|0,0:0|3:0,0:0:0:0:
216,272,320263,1,0,3:0:0:0:
323,225,320410,6,0,L|260:148,1,100,0|0,0:0|1:0,3:0:0:0:
92,104,320997,2,0,L|140:160,1,50,0|0,1:0|3:0,3:0:0:0:
184,76,321291,2,0,P|236:56|280:76,1,100
368,224,321878,5,0,1:0:0:0:
196,172,322171,1,0,0:0:0:0:
372,132,322465,1,0,3:0:0:0:
256,268,322758,2,0,L|200:268,1,50,0|0,0:0|2:0,0:0:0:0:
116,316,323052,2,0,L|116:256,1,50,0|0,0:0|2:0,0:0:0:0:
56,188,323345,2,0,L|112:188,1,50,0|0,0:0|2:0,0:0:0:0:
168,108,323639,1,0,3:0:0:0:
172,96,323737,1,0,3:0:0:0:
177,86,323835,1,0,3:0:0:0:
181,76,323932,69,8,0:3:0:0:
258,92,324077,1,8,0:3:0:0:
322,124,324222,1,12,0:3:0:0:
374,168,324368,1,12,0:3:0:0:
406,216,324513,1,4,0:3:0:0:
426,256,324804,1,4,0:3:0:0:
426,256,324949,1,4,0:3:0:0:
312,196,325107,6,0,L|347:102,2,100,0|0|0,0:0|3:0|3:0,3:0:0:0:
172,340,325987,2,0,P|112:284|128:216,1,150,0|0,0:0|3:0,0:0:0:0:
212,272,326574,1,0,0:0:0:0:
104,48,326868,1,0,0:0:0:0:
60,292,327162,5,0,3:0:0:0:
256,140,327455,1,0,3:0:0:0:
12,96,327749,1,0,3:0:0:0:
12,96,327895,1,0,3:0:0:0:
76,172,328042,1,0,0:0:0:0:
188,212,328336,1,0,3:0:0:0:
188,212,328482,1,0,3:0:0:0:
273,201,328629,70,0,L|239:163,1,50
335,127,328923,2,0,P|298:93|250:86,1,100,4|0,0:0|3:0,0:0:0:0:
240,164,329363,2,0,P|203:130|155:123,1,100,4|0,0:0|3:0,0:0:0:0:
256,192,335968,12,0,339197,0:0:0:0:
188,124,341251,69,4,0:0:0:0:
252,224,341545,21,0,0:0:0:0:
128,96,348583,101,4,0:0:0:0:
72,204,348876,2,0,L|120:232,1,50
164,264,349170,5,0,0:0:0:0:
160,204,349316,1,0,0:0:0:0:
212,236,349463,2,0,L|264:260,1,50,4|0,0:0|0:0,0:0:0:0:
316,256,349757,5,0,0:0:0:0:
279,207,349903,1,0,0:0:0:0:
341,206,350050,2,0,L|397:197,1,50,4|0,0:0|0:0,0:0:0:0:
444,168,350344,69,0,0:0:0:0:
432,140,350417,1,0,0:0:0:0:
416,112,350491,1,0,0:0:0:0:
396,92,350564,1,0,0:0:0:0:
372,76,350637,1,0,0:0:0:0:
300,40,350784,1,0,0:0:0:0:
272,124,350931,6,0,L|248:168,1,50,4|0,0:0|0:0,0:0:0:0:
192,192,351224,1,0,0:0:0:0:
112,188,351371,1,0,0:0:0:0:
108,248,351518,5,0,0:0:0:0:
108,248,351665,1,0,0:0:0:0:
160,220,351811,2,0,L|192:268,1,50,4|0,0:0|0:0,0:0:0:0:
244,244,352105,69,0,0:0:0:0:
272,192,352252,1,0,0:0:0:0:
316,236,352399,1,0,0:0:0:0:
316,236,352545,1,0,0:0:0:0:
344,184,352673,6,0,L|376:132,1,50,4|0,0:0|0:0,0:0:0:0:
420,108,352966,1,0,0:0:0:0:
364,88,353113,1,0,0:0:0:0:
248,68,353260,6,0,L|224:112,1,50,2|0,0:0|0:0,0:0:0:0:
168,128,353553,1,0,0:0:0:0:
216,164,353700,1,0,0:0:0:0:
176,208,353847,69,0,0:0:0:0:
176,208,353993,1,0,0:0:0:0:
108,284,354140,2,0,L|152:312,1,50,2|0,0:0|0:0,0:0:0:0:
212,308,354434,5,0,0:0:0:0:
212,308,354581,1,0,0:0:0:0:
216,228,354727,2,0,L|272:244,1,50,2|0,0:0|0:0,0:0:0:0:
320,260,355021,2,0,L|380:212,1,50,4|0,0:0|0:0,0:0:0:0:
360,168,355314,1,0,0:0:0:0:
256,192,355461,12,0,357369,0:0:0:0:
172,216,357663,5,0,0:0:0:0:
220,180,357809,1,0,0:0:0:0:
168,52,357974,5,0,1:0:0:0:
96,144,358265,1,0,0:0:0:0:
96,144,358363,1,0,0:0:0:0:
96,144,358460,1,0,0:0:0:0:
96,144,358557,1,0,0:0:0:0:
328,72,358849,53,0,1:0:0:0:
296,312,359141,2,0,L|256:276,1,50,0|0,3:0|0:0,0:0:0:0:
228,160,359433,1,0,3:0:0:0:
168,312,359724,2,0,L|208:276,1,50,0|0,3:0|0:0,0:0:0:0:
228,160,360016,1,0,3:0:0:0:
372,80,360308,37,0,1:0:0:0:
416,192,360600,1,0,0:0:0:0:
416,192,360697,1,0,0:0:0:0:
416,192,360795,1,0,0:0:0:0:
416,192,360892,1,0,0:0:0:0:
104,288,361184,85,0,1:0:0:0:
308,240,361475,2,0,L|264:208,1,50,0|0,3:0|0:0,0:0:0:0:
256,96,361767,1,0,3:0:0:0:
204,240,362059,2,0,L|248:208,1,50,0|0,3:0|0:0,0:0:0:0:
256,96,362351,1,0,3:0:0:0:
404,64,362643,5,0,1:0:0:0:
284,56,362935,1,0,0:0:0:0:
284,56,363032,1,0,0:0:0:0:
284,56,363129,1,0,0:0:0:0:
284,56,363226,1,0,0:0:0:0:
340,284,363518,69,0,1:0:0:0:
200,172,363810,2,0,L|156:140,1,50,0|0,3:0|0:0,0:0:0:0:
224,56,364102,1,0,3:0:0:0:
200,212,364394,2,0,L|156:244,1,50,0|0,3:0|0:0,0:0:0:0:
224,328,364686,1,0,3:0:0:0:
56,240,364977,21,0,1:0:0:0:
176,252,365269,1,0,0:0:0:0:
176,252,365366,1,0,0:0:0:0:
176,252,365464,1,0,0:0:0:0:
176,252,365561,1,0,0:0:0:0:
144,64,365853,53,0,1:0:0:0:
292,160,366145,37,4,0:0:0:0:
424,132,366291,1,4,0:0:0:0:
324,44,366437,1,4,0:0:0:0:
292,160,366728,1,4,0:0:0:0:
424,132,366874,1,4,0:0:0:0:
324,44,367020,1,4,0:0:0:0:
84,264,367350,6,0,B|174:228|198:192|198:192|168:156|168:156|216:107,1,225.000008583069,0|0,0:0|3:0,0:0:0:0:
256,168,367937,2,0,L|320:216,1,75.0000028610231
408,220,368230,2,0,B|356:288|296:304|296:304|224:256,1,225.000008583069,0|0,0:0|2:0,0:0:0:0:
132,280,368817,2,0,B|104:252|140:232|140:232|172:212|144:192|144:192|112:172|148:148|148:148|184:136|148:108|148:108|112:88|176:60,1,300.000011444092,0|0,0:0|3:0,0:0:0:0:
248,132,369551,1,0,3:0:0:0:
248,288,369698,6,0,P|408:184|320:72,1,375.000014305115,0|0,0:0|3:0,0:0:0:0:
280,128,370578,2,0,B|228:60|168:44|168:44|96:92,1,225.000008583069,0|0,0:0|3:0,0:0:0:0:
36,108,371166,2,0,B|8:136|44:156|44:156|76:176|48:196|48:196|16:216|52:240|52:240|88:252|52:280|52:280|16:300|80:328,1,300.000011444092,0|0,1:0|3:0,3:0:0:0:
156,260,371899,1,0,3:0:0:0:
236,188,372046,6,0,P|324:312|448:176,1,375.000014305115,0|0,0:0|3:0,0:0:0:0:
404,84,372927,2,0,P|332:68|116:144,1,300.000011444092
120,148,373661,1,0,0:0:0:0:
176,284,373807,1,0,0:0:0:0:
104,80,374101,1,0,3:0:0:0:
104,80,374248,1,0,3:0:0:0:
240,84,374395,70,0,P|316:52|360:76,1,100.000003814697,0|0,0:0|2:0,0:0:0:0:
368,76,374688,1,0,0:0:0:0:
397,107,374785,1,0,0:0:0:0:
415,147,374883,1,0,0:0:0:0:
418,191,374981,5,0,0:0:0:0:
407,233,375079,1,0,0:0:0:0:
383,269,375177,1,0,0:0:0:0:
348,295,375275,1,0,0:0:0:0:
307,308,375372,1,0,0:0:0:0:
263,307,375470,1,0,0:0:0:0:
220,300,375569,6,0,P|152:248|236:160,1,225.000008583069,0|0,0:0|3:0,0:0:0:0:
236,160,376082,1,0,3:0:0:0:
252,160,376156,1,0,0:0:0:0:
144,64,376449,1,0,0:0:0:0:
309,126,376596,1,0,0:0:0:0:
196,264,376743,70,0,B|286:228|310:192|310:192|280:156|280:156|328:107,1,225.000008583069
372,164,377330,2,8,L|432:216,1,75.0000028610231,8|8,0:3|0:3,0:3:0:0:
468,276,377623,2,0,B|416:344|356:360|356:360|284:312,1,225.000008583069,0|0,0:0|3:0,0:0:0:0:
192,336,378211,2,0,B|164:308|200:288|200:288|232:268|204:248|204:248|172:228|208:204|208:204|244:192|208:164|208:164|172:144|236:116,1,300.000011444092,0|0,0:0|3:0,0:0:0:0:
340,228,378944,1,0,3:0:0:0:
292,336,379091,5,2,3:0:0:0:
420,212,379238,1,2,3:0:0:0:
392,344,379385,2,0,P|356:296|344:260,1,75.0000028610231,0|0,0:0|3:0,0:0:0:0:
400,140,379678,1,2,3:0:0:0:
252,244,379825,1,2,3:0:0:0:
316,136,379972,6,0,B|264:68|204:52|204:52|132:100,1,225.000008583069,0|0,0:0|2:0,0:0:0:0:
52,112,380559,2,0,B|24:140|60:160|60:160|92:180|64:200|64:200|32:220|68:244|68:244|104:256|68:284|68:284|32:304|96:332,1,300.000011444092
184,196,381440,70,0,L|208:232,1,37.5000014305115,0|0,1:0|0:0,0:0:0:0:
252,172,381586,2,0,L|272:216,1,37.5000014305115,0|0,1:0|0:0,0:0:0:0:
304,280,381733,2,0,L|304:340,2,50.0000019073487,0|0|0,1:0|0:0|0:0,0:0:0:0:
464,228,382027,6,0,L|440:264,1,37.5000014305115,0|0,1:0|0:0,0:0:0:0:
396,204,382173,2,0,L|376:248,1,37.5000014305115,0|0,1:0|0:0,0:0:0:0:
320,272,382320,2,0,L|320:332,2,50.0000019073487,0|0|0,1:0|0:0|0:0,0:0:0:0:
364,108,382614,6,0,L|379:142,1,37.5000014305115,0|0,1:0|0:0,0:0:0:0:
296,132,382760,2,0,L|316:163,1,37.5000014305115,0|0,1:0|0:0,0:0:0:0:
280,252,382907,2,0,L|280:312,2,50.0000019073487,0|0|0,1:0|0:0|0:0,0:0:0:0:
144,132,383201,70,0,L|128:166,1,37.5000014305115,0|0,1:0|0:0,0:0:0:0:
212,156,383348,2,0,L|191:187,1,37.5000014305115,0|0,1:0|0:0,0:0:0:0:
228,276,383494,2,0,L|228:336,2,50.0000019073487,0|0|0,1:0|0:0|0:0,0:0:0:0:
112,104,383788,6,0,L|148:128,3,37.5000014305115,0|0|0|0,1:0|0:0|0:0|0:0,0:0:0:0:
160,136,384081,1,0,3:0:0:0:
180,148,384179,1,0,3:0:0:0:
200,160,384277,1,0,3:0:0:0:
252,184,384375,6,0,L|277:218,3,37.5000014305115,0|0|0|0,1:0|0:0|0:0|0:0,0:0:0:0:
286,230,384668,1,0,3:0:0:0:
300,248,384766,1,0,3:0:0:0:
315,266,384864,1,0,3:0:0:0:
336,320,384962,53,0,0:0:0:0:
176,276,385109,1,0,0:0:0:0:
176,276,385182,1,0,0:0:0:0:
176,276,385256,1,0,0:0:0:0:
256,168,385402,1,0,0:0:0:0:
124,88,385549,1,0,0:0:0:0:
184,208,385696,1,0,0:0:0:0:
204,52,385843,1,0,0:0:0:0:
184,208,385989,1,0,0:0:0:0:
360,116,386136,6,0,B|364:200|320:216|320:216|364:232|364:232|312:272|232:280,1,300.000011444092
112,128,387017,1,0,0:0:0:0:
344,236,387310,1,0,3:0:0:0:
312,48,387604,2,0,P|320:128|276:192,1,150.000005722046
92,316,388191,6,0,P|116:228|248:192,1,225.000008583069
296,260,388778,1,0,3:0:0:0:
296,260,388925,1,0,3:0:0:0:
352,108,389072,2,0,P|264:124|200:96,1,150.000005722046
136,176,389512,1,0,0:0:0:0:
48,84,389659,5,0,3:0:0:0:
48,84,389805,1,0,3:0:0:0:
88,248,389952,2,0,L|160:292,1,75.0000028610231,4|0,0:0|2:0,0:0:0:0:
212,208,390246,2,4,L|272:140,2,75.0000028610231
86,192,390833,69,0,0:0:0:0:
256,22,391126,1,0,0:0:0:0:
425,192,391420,1,0,0:0:0:0:
255,361,391713,1,0,0:0:0:0:
121,56,392007,5,0,0:0:0:0:
391,57,392301,1,0,0:0:0:0:
390,327,392594,1,0,0:0:0:0:
120,326,392888,1,0,0:0:0:0:
168,120,393181,1,0,3:0:0:0:
212,108,393255,1,0,3:0:0:0:
248,132,393328,2,0,L|284:156,1,37.5000014305115,0|0,3:0|3:0,3:0:0:0:
328,220,393475,5,0,0:0:0:0:
312,264,393548,1,0,0:0:0:0:
276,288,393622,1,0,0:0:0:0:
232,292,393695,1,0,0:0:0:0:
188,280,393768,2,0,L|144:244,1,37.5000014305115,0|0,0:0|2:0,0:0:0:0:
96,188,393915,69,0,3:0:0:0:
80,144,393988,1,0,3:0:0:0:
100,104,394062,1,0,3:0:0:0:
136,76,394135,1,0,3:0:0:0:
180,60,394209,2,0,L|228:56,1,37.5000014305115,0|0,0:0|2:0,0:0:0:0:
328,92,394355,5,8,0:3:0:0:
354,129,394429,1,8,0:3:0:0:
369,170,394502,1,8,0:3:0:0:
378,214,394576,1,8,0:3:0:0:
378,251,394649,5,12,2:3:0:0:
364,285,394722,1,12,2:3:0:0:
342,315,394796,1,12,2:3:0:0:
311,337,394869,1,12,2:3:0:0:
282,346,394942,69,4,2:3:0:0:
252,351,395016,1,4,2:3:0:0:
222,351,395089,1,4,2:3:0:0:
191,347,395163,1,4,2:3:0:0:
170,337,395236,5,4,2:3:0:0:
150,325,395309,1,4,2:3:0:0:
131,311,395383,1,4,2:3:0:0:
115,295,395456,1,4,2:3:0:0:
105,282,395530,22,0,P|117:214|173:158,1,150
224,88,396117,1,0,3:0:0:0:
212,344,396410,2,0,P|161:266|222:197,1,200,0|0,0:0|3:0,0:0:0:0:
232,272,397144,1,0,3:0:0:0:
316,160,397291,1,0,0:0:0:0:
392,284,397584,1,0,3:0:0:0:
392,284,397731,1,0,3:0:0:0:
352,204,397878,6,0,P|340:136|284:80,1,150
192,80,398465,1,0,3:0:0:0:
246,263,398759,2,0,P|297:185|236:116,1,200,0|0,1:0|3:0,3:0:0:0:
224,192,399492,1,0,3:0:0:0:
104,124,399639,1,0,0:0:0:0:
160,336,399933,1,0,3:0:0:0:
160,336,400079,1,0,3:0:0:0:
244,288,400226,6,0,P|312:276|368:220,1,150
412,144,400813,1,0,3:0:0:0:
184,182,401107,2,0,P|262:233|332:172,1,200,0|0,0:0|3:0,0:0:0:0:
260,164,401987,2,0,P|220:116|172:108,2,100,0|0|0,0:0|0:0|3:0,0:0:0:0:
268,336,402868,1,0,3:0:0:0:
116,268,403162,69,0,0:0:0:0:
68,76,403455,1,0,0:0:0:0:
112,212,403749,1,0,0:0:0:0:
308,164,404042,1,0,0:0:0:0:
172,100,404336,2,0,P|232:80|280:104,1,100,0|8,0:0|0:3,0:0:0:0:
332,164,404776,1,8,0:3:0:0:
216,288,404923,6,0,P|144:256|116:208,1,100,0|0,0:0|3:0,0:0:0:0:
128,232,405363,1,0,3:0:0:0:
148,96,405510,2,0,P|200:56|252:60,1,100,0|0,0:0|3:0,0:0:0:0:
280,228,406097,1,0,0:0:0:0:
440,148,406391,1,0,3:0:0:0:
264,124,406684,1,0,0:0:0:0:
396,248,406978,1,0,3:0:0:0:
216,96,407271,6,0,P|144:128|116:176,1,100,0|0,0:0|3:0,3:0:0:0:
124,156,407712,1,0,3:0:0:0:
148,288,407858,2,0,P|200:328|252:324,1,100
256,312,408250,1,0,0:0:0:0:
280,292,408348,1,0,0:0:0:0:
292,264,408445,69,8,0:3:0:0:
304,204,408592,1,8,0:3:0:0:
300,144,408739,1,12,0:3:0:0:
268,92,408886,1,12,0:3:0:0:
220,60,409032,1,4,0:3:0:0:
108,76,409326,1,4,0:3:0:0:
108,76,409473,1,4,0:3:0:0:
96,208,409620,6,0,P|128:280|176:308,1,100,0|0,0:0|3:0,0:0:0:0:
148,300,410060,1,0,3:0:0:0:
288,276,410207,2,0,P|328:224|324:172,1,100,0|0,0:0|3:0,0:0:0:0:
120,224,410794,1,0,0:0:0:0:
288,100,411087,1,0,3:0:0:0:
80,80,411381,1,0,0:0:0:0:
260,188,411674,1,0,0:0:0:0:
104,328,411968,5,0,3:0:0:0:
168,128,412261,1,0,3:0:0:0:
168,128,412408,1,0,3:0:0:0:
296,56,412555,1,0,0:0:0:0:
376,248,412849,1,0,0:0:0:0:
376,248,412995,1,0,0:0:0:0:
256,308,413142,6,0,L|220:260,1,50
224,112,413436,1,4,0:0:0:0:
116,300,413729,2,0,L|152:252,1,50
144,108,414023,1,4,0:0:0:0:
396,256,414316,5,0,0:0:0:0:
340,280,414463,1,0,0:0:0:0:
280,288,414610,1,0,0:0:0:0:
224,268,414757,1,0,0:0:0:0:
300,96,414903,2,0,L|240:144,1,75.0000028610231,4|0,0:0|3:0,0:0:0:0:
182,189,415197,2,0,L|240:142,1,75.0000028610231,4|0,0:0|3:0,0:0:0:0:
316,216,415490,5,0,0:0:0:0:
264,248,415637,1,0,0:0:0:0:
132,312,415784,2,0,L|212:292,1,75.0000028610231,4|0,0:0|3:0,0:0:0:0:
168,212,416077,5,0,0:0:0:0:
220,180,416224,1,0,0:0:0:0:
352,116,416371,2,0,L|272:136,1,75.0000028610231,4|0,0:0|3:0,0:0:0:0:
107,158,416665,69,0,0:0:0:0:
159,130,416811,1,0,0:0:0:0:
219,118,416958,1,0,0:0:0:0:
279,134,417105,1,0,0:0:0:0:
304,300,417252,2,0,L|244:252,1,75.0000028610231,4|0,0:0|3:0,0:0:0:0:
186,206,417545,2,0,L|244:252,1,75.0000028610231,4|0,0:0|3:0,0:0:0:0:
300,152,417839,5,0,0:0:0:0:
340,196,417986,1,0,0:0:0:0:
272,64,418132,2,0,P|236:36|196:36,1,75.0000028610231,4|0,0:0|3:0,0:0:0:0:
132,84,418426,5,0,0:0:0:0:
92,40,418573,1,0,0:0:0:0:
160,172,418719,2,0,P|196:200|236:200,1,75.0000028610231,4|0,0:0|3:0,0:0:0:0:
396,226,419013,69,0,0:0:0:0:
344,198,419160,1,0,0:0:0:0:
284,186,419306,1,0,0:0:0:0:
224,202,419453,1,0,0:0:0:0:
112,208,419600,2,0,L|172:160,1,75.0000028610231,4|0,0:0|3:0,0:0:0:0:
229,114,419894,2,0,L|170:160,1,75.0000028610231,4|0,0:0|3:0,0:0:0:0:
228,244,420187,5,0,0:0:0:0:
184,284,420334,1,0,0:0:0:0:
72,196,420481,2,0,P|88:236|120:256,1,75.0000028610231,4|0,0:0|3:0,0:0:0:0:
196,216,420774,5,0,0:0:0:0:
240,176,420921,1,0,0:0:0:0:
352,264,421068,2,0,P|336:224|304:204,1,75.0000028610231,4|0,0:0|3:0,0:0:0:0:
138,182,421361,69,0,0:0:0:0:
190,210,421508,1,0,0:0:0:0:
250,222,421655,1,0,0:0:0:0:
310,206,421802,1,0,0:0:0:0:
314,86,421948,6,0,P|270:114|254:150,1,75.0000028610231,4|0,2:1|2:1,2:1:0:0:
310,206,422242,2,0,P|354:178|370:142,1,75.0000028610231,4|0,2:1|2:1,2:1:0:0:
264,48,422535,6,0,P|220:76|204:112,1,75.0000028610231,4|0,2:1|2:1,2:1:0:0:
356,248,422829,2,0,P|400:220|416:184,1,75.0000028610231,4|0,2:1|2:1,2:1:0:0:
212,12,423122,70,0,P|168:40|152:76,1,75.0000028610231,4|0,2:1|2:1,2:1:0:0:
184,224,423416,1,8,0:3:0:0:
128,304,423563,1,8,0:3:0:0:
312,300,423710,6,0,P|364:208|372:124,3,150.000005722046
340,88,424737,1,0,0:0:0:0:
204,112,424884,5,0,0:0:0:0:
204,112,425031,1,0,3:0:0:0:
80,204,425177,1,0,0:0:0:0:
80,204,425324,1,0,3:0:0:0:
224,184,425471,1,0,0:0:0:0:
224,184,425618,1,0,3:0:0:0:
328,284,425764,70,0,P|372:204|384:128,3,150.000005722046
316,148,426792,5,0,3:0:0:0:
264,192,426939,1,0,3:0:0:0:
240,252,427085,1,0,3:0:0:0:
304,328,427232,5,0,0:0:0:0:
364,296,427379,1,0,3:0:0:0:
416,252,427526,1,0,3:0:0:0:
440,192,427672,1,0,3:0:0:0:
396,80,427819,69,0,0:0:0:0:
336,112,427966,1,0,3:0:0:0:
284,156,428113,1,0,3:0:0:0:
260,216,428259,1,0,3:0:0:0:
388,188,428406,2,0,P|380:112|332:52,3,150.000005722046
296,108,429434,1,0,0:0:0:0:
180,56,429580,5,0,3:0:0:0:
120,88,429727,1,0,3:0:0:0:
140,208,429874,2,0,L|172:132,1,75.0000028610231,0|0,0:0|2:0,0:0:0:0:
216,216,430168,1,0,3:0:0:0:
216,216,430314,1,0,3:0:0:0:
372,140,430461,2,0,P|336:64|256:24,3,150.000005722046
216,44,431488,5,0,3:0:0:0:
160,80,431635,1,0,3:0:0:0:
120,132,431782,1,0,3:0:0:0:
84,248,431929,53,8,0:3:0:0:
104,340,432076,1,8,0:3:0:0:
204,216,432222,2,0,P|272:172|352:192,1,150.000005722046,4|0,0:0|2:0,0:0:0:0:
252,288,432663,2,0,P|320:244|400:264,1,150.000005722046,4|0,0:0|2:0,0:0:0:0:
312,164,442496,54,0,L|352:108,2,50,0|0|0,0:0|3:0|3:0,0:0:0:0:
268,264,443083,1,0,0:0:0:0:
268,264,443230,1,0,0:0:0:0:
164,196,443377,1,0,3:0:0:0:
164,196,443524,1,0,3:0:0:0:
296,232,443670,5,0,0:0:0:0:
296,232,443817,1,0,0:0:0:0:
192,164,443964,1,0,3:0:0:0:
192,164,444111,1,0,3:0:0:0:
324,200,444258,1,0,0:0:0:0:
324,200,444404,1,0,0:0:0:0:
220,132,444551,1,0,3:0:0:0:
220,132,444698,1,0,3:0:0:0:
140,216,444845,6,0,L|116:160,1,50,0|0,0:0|3:0,0:0:0:0:
228,232,445138,1,0,3:0:0:0:
360,140,445432,2,0,L|304:108,1,50,0|0,0:0|2:0,0:0:0:0:
204,88,445725,2,0,L|172:144,1,50,0|0,3:0|2:0,0:0:0:0:
152,244,446019,70,0,L|208:276,1,50,0|0,0:0|2:0,0:0:0:0:
308,296,446312,2,0,L|340:240,1,50,0|0,3:0|2:0,0:0:0:0:
264,180,446606,2,0,L|239:223,1,50,0|0,0:0|2:0,0:0:0:0:
160,180,446899,2,0,L|184:136,1,50,0|0,3:0|2:0,0:0:0:0:
360,184,447193,6,0,L|408:144,2,50,0|0|0,0:0|3:0|3:0,0:0:0:0:
132,288,447780,1,0,0:0:0:0:
92,168,447927,1,0,0:0:0:0:
200,272,448074,1,0,3:0:0:0:
160,152,448220,1,0,3:0:0:0:
260,228,448367,6,0,L|288:168,1,50,0|0,0:0|2:0,0:0:0:0:
408,268,448661,1,0,3:0:0:0:
300,332,448807,1,0,3:0:0:0:
260,228,448954,2,0,L|288:168,1,50,0|0,0:0|2:0,0:0:0:0:
408,268,449248,1,0,3:0:0:0:
300,332,449395,1,0,3:0:0:0:
148,228,449541,70,0,L|120:180,1,50,0|0,0:0|3:0,0:0:0:0:
248,180,449835,1,0,3:0:0:0:
364,84,450128,2,0,L|336:160,1,50,0|0,0:0|2:0,0:0:0:0:
264,268,450422,2,0,L|240:208,1,50,0|0,3:0|2:0,0:0:0:0:
176,84,450715,6,0,P|116:124|104:176,1,100,0|0,0:0|3:0,0:0:0:0:
108,172,451107,1,0,3:0:0:0:
108,196,451205,1,0,3:0:0:0:
108,220,451303,6,0,P|132:268|200:284,1,100
176,216,451743,1,0,0:0:0:0:
340,272,451890,22,0,L|340:216,1,50
392,304,452183,1,0,0:0:0:0:
244,152,452477,2,0,P|208:116|152:104,1,100,4|0,2:0|3:0,0:0:0:0:
76,296,453064,2,0,P|124:328|196:268,1,150,4|0,2:0|3:0,0:0:0:0:
288,142,453651,2,0,P|218:152|196:220,1,150,4|0,2:0|3:0,0:0:0:0:
364,200,454238,6,0,L|364:144,1,50
416,264,454531,1,0,3:0:0:0:
396,284,454629,1,0,3:0:0:0:
368,296,454727,1,0,3:0:0:0:
340,292,454825,5,0,0:0:0:0:
144,156,455119,1,0,0:0:0:0:
368,76,455412,2,0,P|288:76|244:160,1,150,4|0,2:0|3:0,0:0:0:0:
185,284,455999,2,0,P|251:254|268:184,1,150,4|0,2:0|3:0,0:0:0:0:
140,204,456586,70,0,L|140:148,1,50
84,292,456880,1,0,3:0:0:0:
108,312,456978,1,0,3:0:0:0:
136,320,457076,1,0,3:0:0:0:
164,308,457173,5,0,0:0:0:0:
352,120,457467,1,0,0:0:0:0:
352,308,457760,2,0,P|256:256|252:208,1,150,4|0,2:0|3:0,0:0:0:0:
189,82,458348,2,0,P|255:112|268:184,1,150,4|0,2:0|3:0,0:0:0:0:
88,140,458935,6,0,L|88:84,1,50
60,264,459228,1,4,0:3:0:0:
128,188,459375,1,4,0:3:0:0:
184,272,459522,1,4,0:3:0:0:
224,180,459668,1,4,0:3:0:0:
272,268,459815,1,4,0:3:0:0:
320,180,459962,1,4,0:3:0:0:
296,84,460109,70,0,P|192:52|164:96,1,150,0|0,0:0|3:0,0:0:0:0:
301,158,460696,2,0,P|236:188|180:144,1,150,0|0,0:0|3:0,0:0:0:0:
340,272,461283,6,0,L|340:216,1,50
392,304,461577,1,0,0:0:0:0:
340,222,461723,1,0,3:0:0:0:
344,208,461797,1,0,3:0:0:0:
344,196,461870,2,0,P|308:160|252:148,1,100
76,296,462457,2,0,P|124:328|196:268,1,150,4|0,2:0|3:0,0:0:0:0:
288,142,463044,2,0,P|218:152|196:220,1,150,4|0,2:0|3:0,0:0:0:0:
364,200,463631,6,0,L|364:144,1,50
416,264,463925,1,0,0:0:0:0:
176,204,464218,1,0,3:0:0:0:
160,192,464316,1,0,3:0:0:0:
148,176,464414,1,0,3:0:0:0:
144,156,464512,1,0,3:0:0:0:
368,76,464805,2,0,P|288:76|244:160,1,150,4|0,2:0|3:0,0:0:0:0:
185,284,465393,2,0,P|251:254|268:184,1,150,4|0,2:0|3:0,0:0:0:0:
140,204,465980,70,0,L|140:148,1,50
84,292,466273,1,0,3:0:0:0:
108,312,466371,1,0,3:0:0:0:
136,320,466469,1,0,3:0:0:0:
164,308,466567,5,0,0:0:0:0:
352,120,466860,1,0,0:0:0:0:
352,308,467154,2,0,P|256:256|252:208,1,150,4|0,2:0|3:0,0:0:0:0:
189,82,467741,2,0,P|255:112|268:184,1,150,4|0,2:0|3:0,0:0:0:0:
88,140,468328,6,0,L|88:84,1,50
60,264,468622,1,4,0:3:0:0:
128,188,468768,1,4,0:3:0:0:
184,272,468915,1,4,0:3:0:0:
224,180,469062,1,4,0:3:0:0:
272,268,469209,1,4,0:3:0:0:
320,180,469355,1,4,0:3:0:0:
296,84,469502,70,0,P|192:52|164:96,1,150,0|0,0:0|3:0,0:0:0:0:
301,158,470089,2,0,P|236:188|180:144,1,150,0|0,0:0|3:0,0:0:0:0:
352,304,470676,38,0,L|392:228,1,75.0000028610231
272,296,470970,1,0,3:0:0:0:
80,84,471263,1,0,3:0:0:0:
388,232,471557,1,0,3:0:0:0:
96,272,471850,54,0,P|192:232|204:188,1,150.000005722046,0|0,0:0|3:0,0:0:0:0:
216,164,472242,1,0,3:0:0:0:
232,132,472340,1,0,3:0:0:0:
260,112,472438,2,0,P|316:84|376:144,1,150.000005722046
304,208,473025,54,0,L|336:268,2,50.0000019073487
260,112,473318,1,4,0:0:0:0:
104,296,473612,1,0,0:0:0:0:
384,88,473905,1,0,0:0:0:0:
168,208,474199,54,0,L|144:128,3,75.0000028610231,0|0|0|0,3:0|3:0|3:0|3:0,3:0:0:0:
188,72,474786,2,0,P|264:52|360:160,1,225.000008583069,0|0,0:0|3:0,0:0:0:0:
253,175,475373,54,0,L|293:243,2,50.0000019073487
188,72,475667,1,4,0:0:0:0:
408,212,475960,1,0,0:0:0:0:
172,328,476254,1,0,0:0:0:0:
284,204,476547,2,0,L|284:128,3,75.0000028610231,0|0|0|0,3:0|3:0|3:0|3:0,3:0:0:0:
228,80,477134,2,0,P|156:120|204:256,1,225.000008583069,0|0,0:0|3:0,0:0:0:0:
336,276,477721,54,0,L|328:332,2,50.0000019073487
358,141,478015,2,4,P|344:92|296:60,1,75.0000028610231,4|0,0:0|0:0,0:0:0:0:
268,144,478308,2,0,P|192:104|120:200,1,225.000008583069,4|0,0:0|3:0,0:0:0:0:
244,288,478895,6,0,L|308:240,1,75.0000028610231,0|0,3:0|3:0,3:0:0:0:
244,200,479189,1,0,0:0:0:0:
292,144,479336,1,0,0:0:0:0:
180,156,479483,1,0,3:0:0:0:
228,100,479629,1,0,0:0:0:0:
120,116,479775,2,0,L|88:188,1,75.0000028610231,0|0,0:0|3:0,0:0:0:0:
160,304,480069,54,0,L|120:228,1,75.0000028610231
240,296,480362,1,0,3:0:0:0:
432,84,480657,1,0,3:0:0:0:
124,232,480951,1,0,3:0:0:0:
416,272,481244,54,0,P|320:232|308:188,1,150.000005722046,0|0,0:0|3:0,0:0:0:0:
296,164,481635,1,0,3:0:0:0:
280,132,481733,1,0,3:0:0:0:
252,112,481831,2,0,P|196:84|136:144,1,150.000005722046
204,252,482418,54,0,L|184:300,2,50.0000019073487
252,156,482712,1,4,0:0:0:0:
408,296,483005,1,0,0:0:0:0:
128,88,483299,1,0,0:0:0:0:
344,208,483592,54,0,L|368:128,3,75.0000028610231,0|0|0|0,3:0|3:0|3:0|3:0,3:0:0:0:
324,72,484179,2,0,P|248:52|152:160,1,225.000008583069,0|0,0:0|3:0,0:0:0:0:
276,184,484766,54,0,L|252:236,2,50.0000019073487
324,72,485060,1,4,0:0:0:0:
104,212,485354,1,0,0:0:0:0:
340,328,485647,1,0,0:0:0:0:
228,204,485941,2,0,L|228:128,3,75.0000028610231,0|0|0|0,3:0|3:0|3:0|3:0,3:0:0:0:
284,80,486528,2,0,P|356:120|308:256,1,225.000008583069,0|0,0:0|2:0,0:0:0:0:
156,276,487115,6,0,L|156:336,2,50.0000019073487
154,141,487408,2,0,P|168:92|216:60,1,75.0000028610231,4|0,0:0|0:0,0:0:0:0:
244,144,487702,2,0,P|320:104|392:200,1,225.000008583069,4|0,0:0|0:0,0:0:0:0:
268,288,488289,70,0,L|204:240,1,75.0000028610231,0|0,3:0|3:0,3:0:0:0:
268,200,488583,1,0,0:0:0:0:
220,144,488729,1,0,0:0:0:0:
332,156,488876,1,0,3:0:0:0:
284,100,489023,1,0,0:0:0:0:
392,116,489170,2,0,L|424:188,1,75.0000028610231,0|0,0:0|3:0,0:0:0:0:
368,312,489463,1,0,0:0:0:0:
