osu file format v14

[General]
AudioFilename: audio.mp3
AudioLeadIn: 0
PreviewTime: 94740
Countdown: 0
SampleSet: Normal
StackLeniency: 0.7
Mode: 1
LetterboxInBreaks: 0
WidescreenStoryboard: 0

[Editor]
DistanceSpacing: 4.5
BeatDivisor: 4
GridSize: 8
TimelineZoom: 2.399999

[Metadata]
Title:Moment of Betrayal
TitleUnicode:Moment of Betrayal
Artist:Dream Theater
ArtistUnicode:Dream Theater
Creator:mangomizer
Version:Astonishing
Source:
Tags:The Astonishing Progressive Rock Metal Marathon
BeatmapID:1127173
BeatmapSetID:531916

[Difficulty]
HPDrainRate:4
CircleSize:2
OverallDifficulty:7
ApproachRate:5
SliderMultiplier:1.4
SliderTickRate:1

[Events]
//Background and Video events
0,0,"Untitled.png",0,0
//Break Periods
//Storyboard Layer 0 (Background)
//Storyboard Layer 1 (Fail)
//Storyboard Layer 2 (Pass)
//Storyboard Layer 3 (Foreground)
//Storyboard Sound Samples

[TimingPoints]
140,368.098159509202,4,1,0,45,1,0
140,-133.333333333333,4,1,0,45,0,0
2716,368.098159509202,4,1,0,45,1,0
2716,-133.333333333333,4,1,0,45,0,0
10446,-133.333333333333,4,1,0,22,0,0
11550,-114.942528735632,4,1,0,50,0,0
14126,368.098159509202,4,1,0,50,1,0
14126,-114.942528735632,4,1,0,50,0,0
22960,-100,4,1,0,75,0,0
25538,368.098159509202,4,1,0,75,1,0
36949,368.098159509202,4,1,0,75,1,0
47991,368.098159509202,4,1,0,75,1,0
49465,368.098159509202,4,1,0,70,1,0
54986,368.098159509202,4,1,0,70,1,0
60508,368.098159509202,4,1,0,70,1,0
66029,368.098159509202,4,1,0,70,1,0
71551,368.098159509202,4,1,0,70,1,0
77072,368.098159509202,4,1,0,70,1,0
82961,-100,4,1,0,75,0,0
94740,-100,4,1,0,80,0,1
97317,368.098159509202,4,1,0,80,1,1
108728,368.098159509202,4,1,0,80,1,1
120507,-100,4,1,0,70,0,0
154372,368.098159509202,5,1,0,70,1,0
156213,368.098159509202,4,1,0,80,1,1
158790,368.098159509202,4,1,0,80,1,1
170201,368.098159509202,4,1,0,80,1,1
179035,-100,4,1,0,65,0,0
202593,368.098159509202,6,1,0,75,1,0
202593,-100,6,1,0,75,0,0
204618,368.098159509202,4,1,0,75,1,0
207563,368.098159509202,6,1,0,75,1,0
209587,368.098159509202,6,1,0,75,1,0
211612,368.098159509202,4,1,0,75,1,0
213084,368.098159509202,6,1,0,55,1,0
215109,368.098159509202,4,1,0,55,1,0
218054,368.098159509202,6,1,0,65,1,0
220078,368.098159509202,6,1,0,65,1,0
222103,368.098159509202,4,1,0,75,1,0
235354,-100,4,1,0,80,0,0
247870,368.098159509202,4,1,0,85,1,1
271428,-100,4,1,0,80,0,0
297931,-90.9090909090909,4,1,0,90,0,1
300508,368.098159509202,4,1,0,90,1,1
300508,-90.9090909090909,4,1,0,90,0,1
309342,-90.9090909090909,4,1,0,100,0,1
311919,368.098159509202,4,1,0,100,1,1
311919,-90.9090909090909,4,1,0,100,0,1
320753,368.098159509202,3,1,0,100,1,1
320753,-90.9090909090909,3,1,0,100,0,1
324066,368.098159509202,4,1,0,100,1,1
324066,-90.9090909090909,4,1,0,100,0,1
324250,-91.743119266055,4,1,0,97,0,1
324434,-92.5925925925926,4,1,0,94,0,1
324618,-94.3396226415094,4,1,0,91,0,1
324802,-95.2380952380952,4,1,0,88,0,1
324986,-96.1538461538461,4,1,0,85,0,1
325170,-98.0392156862745,4,1,0,82,0,1
325354,-99.009900990099,4,1,0,79,0,1
325538,368.098159509202,4,1,0,75,1,0
331060,368.098159509202,4,1,0,75,1,0
336581,368.098159509202,4,1,0,75,1,0
342103,368.098159509202,4,1,0,75,1,0
347992,368.098159509202,3,1,0,80,1,0
352593,-100,3,1,0,40,0,0
353514,-100,3,1,0,30,0,0
354618,-100,3,1,0,20,0,0
355722,-100,3,1,0,10,0,0
356827,-100,3,1,0,5,0,0

[HitObjects]
256,192,140,5,8,0:0:0:0:
248,188,508,1,0,0:0:0:0:
248,188,692,1,8,0:0:0:0:
256,192,1060,1,0,0:0:0:0:
264,192,1244,1,8,0:0:0:0:
256,192,1612,1,0,0:0:0:0:
256,192,1796,1,8,0:0:0:0:
256,192,1980,1,0,0:0:0:0:
256,192,2164,1,0,0:0:0:0:
256,192,2348,1,8,0:0:0:0:
248,188,2532,1,0,0:0:0:0:
256,192,2716,1,8,0:0:0:0:
256,196,3084,1,0,0:0:0:0:
248,192,3268,1,8,0:0:0:0:
248,196,3636,1,0,0:0:0:0:
248,192,3820,1,8,0:0:0:0:
248,192,4188,1,8,0:0:0:0:
248,192,4372,1,0,0:0:0:0:
252,192,4556,1,8,0:0:0:0:
248,192,4740,1,8,0:0:0:0:
256,192,4924,1,0,0:0:0:0:
256,188,5660,1,8,0:0:0:0:
256,188,5844,1,0,0:0:0:0:
256,188,6028,1,0,0:0:0:0:
256,188,6212,1,8,0:0:0:0:
256,172,6765,1,8,0:0:0:0:
256,172,7869,1,0,0:0:0:0:
256,172,8237,1,8,0:0:0:0:
256,172,8421,1,0,0:0:0:0:
256,184,8605,1,8,0:0:0:0:
256,184,8973,1,0,0:0:0:0:
256,184,9157,1,8,0:0:0:0:
256,184,9709,1,0,0:0:0:0:
252,188,10446,1,0,0:0:0:0:
252,188,10814,1,8,0:0:0:0:
256,184,11550,1,8,0:0:0:0:
252,188,11734,1,0,0:0:0:0:
248,188,11918,1,0,0:0:0:0:
248,188,12102,1,8,0:0:0:0:
248,188,12286,1,0,0:0:0:0:
248,188,12470,1,0,0:0:0:0:
252,188,12654,1,8,0:0:0:0:
248,188,12838,1,0,0:0:0:0:
248,188,13022,1,0,0:0:0:0:
252,188,13206,1,8,0:0:0:0:
248,188,13574,1,0,0:0:0:0:
252,188,13758,1,8,0:0:0:0:
248,188,13942,1,0,0:0:0:0:
252,188,14126,1,8,0:0:0:0:
248,188,14310,1,0,0:0:0:0:
248,188,14494,1,0,0:0:0:0:
252,188,14678,1,8,0:0:0:0:
248,188,14862,1,0,0:0:0:0:
248,188,15046,1,0,0:0:0:0:
252,188,15230,1,8,0:0:0:0:
248,188,15414,1,0,0:0:0:0:
248,188,15598,1,0,0:0:0:0:
252,188,15782,1,8,0:0:0:0:
252,188,17070,1,8,0:0:0:0:
248,188,17254,1,0,0:0:0:0:
248,188,17438,1,8,0:0:0:0:
252,188,17622,1,8,0:0:0:0:
256,188,18221,1,8,0:0:0:0:
256,192,19279,1,0,0:0:0:0:
260,204,20015,1,8,0:0:0:0:
260,200,20567,1,0,0:0:0:0:
256,192,20935,1,8,0:0:0:0:
256,192,21119,1,0,0:0:0:0:
256,192,22960,1,4,0:0:0:0:
256,192,25538,1,4,0:0:0:0:
256,192,28482,5,12,0:0:0:0:
256,196,31427,1,4,0:0:0:0:
256,192,33360,1,0,0:0:0:0:
256,192,33429,1,0,0:0:0:0:
256,192,33498,1,0,0:0:0:0:
256,192,33567,1,0,0:0:0:0:
256,192,33636,1,8,0:0:0:0:
256,192,34373,1,4,0:0:0:0:
256,192,36581,1,8,0:0:0:0:
256,192,36765,1,8,0:0:0:0:
256,192,36949,1,4,0:0:0:0:
256,192,38053,1,8,0:0:0:0:
256,192,38237,1,0,0:0:0:0:
256,192,38421,1,0,0:0:0:0:
256,192,38605,1,8,0:0:0:0:
248,192,38789,1,0,0:0:0:0:
248,192,38973,1,0,0:0:0:0:
248,192,39157,1,12,0:0:0:0:
256,196,39893,1,4,0:0:0:0:
256,192,42102,5,8,0:0:0:0:
256,192,42194,1,0,0:0:0:0:
256,192,42286,1,0,0:0:0:0:
256,192,42378,1,0,0:0:0:0:
256,192,42470,1,8,0:0:0:0:
256,192,42593,1,0,0:0:0:0:
256,192,42715,1,0,0:0:0:0:
256,192,42838,1,12,0:0:0:0:
256,192,43206,1,0,0:0:0:0:
256,192,43390,1,12,0:0:0:0:
256,192,43758,1,8,0:0:0:0:
256,192,43942,1,12,0:0:0:0:
256,192,44126,1,0,0:0:0:0:
256,192,44218,1,0,0:0:0:0:
256,192,44310,1,8,0:0:0:0:
256,192,44402,1,8,0:0:0:0:
256,192,44495,1,8,0:0:0:0:
256,192,44587,1,0,0:0:0:0:
256,192,44679,1,8,0:0:0:0:
256,192,44771,1,8,0:0:0:0:
256,192,44863,1,8,0:0:0:0:
256,192,44955,1,0,0:0:0:0:
256,192,45047,1,8,0:0:0:0:
256,192,45139,1,8,0:0:0:0:
256,192,45231,1,0,0:0:0:0:
256,192,45323,1,0,0:0:0:0:
256,192,45415,1,0,0:0:0:0:
256,192,45507,1,0,0:0:0:0:
256,192,45599,1,0,0:0:0:0:
256,192,45691,1,0,0:0:0:0:
256,192,45783,1,12,0:0:0:0:
256,192,46335,1,12,0:0:0:0:
256,192,46887,1,4,0:0:0:0:
256,192,47439,1,12,0:0:0:0:
256,192,47991,1,4,0:0:0:0:
256,196,49465,1,4,0:0:0:0:
256,196,49649,1,0,0:0:0:0:
256,196,49741,1,0,0:0:0:0:
256,196,49833,1,0,0:0:0:0:
256,196,50017,1,0,0:0:0:0:
256,196,50201,1,8,0:0:0:0:
256,196,50385,1,0,0:0:0:0:
256,196,50569,1,0,0:0:0:0:
256,196,50661,1,0,0:0:0:0:
256,196,50753,1,0,0:0:0:0:
256,196,50845,1,0,0:0:0:0:
256,196,50937,1,0,0:0:0:0:
256,196,51121,1,0,0:0:0:0:
256,196,51305,1,8,0:0:0:0:
256,196,51489,1,0,0:0:0:0:
256,196,51673,1,8,0:0:0:0:
256,196,51765,1,0,0:0:0:0:
256,196,51857,1,0,0:0:0:0:
256,196,51949,1,0,0:0:0:0:
256,196,52041,1,0,0:0:0:0:
256,196,52133,1,0,0:0:0:0:
256,196,52225,1,0,0:0:0:0:
256,196,52317,1,0,0:0:0:0:
256,196,52409,1,0,0:0:0:0:
256,196,52593,1,0,0:0:0:0:
256,196,52685,1,0,0:0:0:0:
256,196,52777,1,0,0:0:0:0:
256,196,52961,1,0,0:0:0:0:
256,196,53145,1,8,0:0:0:0:
256,196,53330,1,0,0:0:0:0:
256,196,53514,1,0,0:0:0:0:
256,196,53606,1,0,0:0:0:0:
256,196,53698,1,0,0:0:0:0:
256,196,53790,1,0,0:0:0:0:
256,196,53882,1,8,0:0:0:0:
256,196,54066,1,0,0:0:0:0:
256,196,54250,1,0,0:0:0:0:
256,196,54434,1,8,0:0:0:0:
256,196,54618,1,8,0:0:0:0:
256,196,54710,1,0,0:0:0:0:
256,196,54802,1,8,0:0:0:0:
256,196,54894,1,8,0:0:0:0:
256,196,54986,1,4,0:0:0:0:
256,196,55170,1,0,0:0:0:0:
256,196,55262,1,0,0:0:0:0:
256,196,55354,1,0,0:0:0:0:
256,196,55538,1,0,0:0:0:0:
256,196,55722,1,8,0:0:0:0:
256,196,55906,1,0,0:0:0:0:
256,192,56090,1,0,0:0:0:0:
256,192,56182,1,0,0:0:0:0:
256,192,56274,1,0,0:0:0:0:
256,192,56366,1,0,0:0:0:0:
256,192,56458,1,0,0:0:0:0:
256,184,56642,1,0,0:0:0:0:
256,184,56826,1,8,0:0:0:0:
256,184,57010,1,0,0:0:0:0:
256,192,57194,1,8,0:0:0:0:
256,192,57286,1,0,0:0:0:0:
256,184,57378,1,0,0:0:0:0:
256,192,57470,1,0,0:0:0:0:
256,184,57562,1,0,0:0:0:0:
256,184,57654,1,0,0:0:0:0:
256,184,57746,1,0,0:0:0:0:
256,184,57838,1,0,0:0:0:0:
256,184,57930,1,0,0:0:0:0:
256,184,58114,1,0,0:0:0:0:
256,184,58206,1,0,0:0:0:0:
256,184,58298,1,0,0:0:0:0:
256,184,58482,1,0,0:0:0:0:
256,184,58666,1,8,0:0:0:0:
256,184,58851,1,0,0:0:0:0:
256,184,59035,1,0,0:0:0:0:
256,184,59127,1,0,0:0:0:0:
256,184,59219,1,0,0:0:0:0:
256,184,59311,1,0,0:0:0:0:
256,184,59403,1,8,0:0:0:0:
256,168,59587,1,0,0:0:0:0:
256,168,59771,1,0,0:0:0:0:
256,168,59955,1,0,0:0:0:0:
256,184,60139,1,8,0:0:0:0:
256,184,60231,1,8,0:0:0:0:
256,184,60323,1,8,0:0:0:0:
256,184,60415,1,8,0:0:0:0:
256,184,60508,1,4,0:0:0:0:
256,184,60692,1,0,0:0:0:0:
256,184,60876,1,8,0:0:0:0:
256,184,61060,1,0,0:0:0:0:
256,184,61244,1,0,0:0:0:0:
256,184,61428,1,0,0:0:0:0:
256,184,61612,1,8,0:0:0:0:
256,184,61796,1,0,0:0:0:0:
256,184,61980,1,0,0:0:0:0:
256,184,62164,1,0,0:0:0:0:
256,184,62256,1,0,0:0:0:0:
256,184,62348,1,8,0:0:0:0:
256,184,62532,1,0,0:0:0:0:
256,196,62716,1,0,0:0:0:0:
256,196,62808,1,0,0:0:0:0:
256,196,62900,1,0,0:0:0:0:
256,196,62992,1,0,0:0:0:0:
256,196,63084,1,8,0:0:0:0:
256,196,63176,1,0,0:0:0:0:
256,196,63268,1,0,0:0:0:0:
256,196,63360,1,0,0:0:0:0:
256,196,63452,1,0,0:0:0:0:
256,196,63636,1,0,0:0:0:0:
256,196,63820,1,8,0:0:0:0:
256,196,64004,1,0,0:0:0:0:
256,196,64188,1,0,0:0:0:0:
256,196,64373,1,0,0:0:0:0:
256,196,64557,1,8,0:0:0:0:
256,196,64741,1,0,0:0:0:0:
256,196,64925,1,0,0:0:0:0:
256,196,65109,1,0,0:0:0:0:
256,196,65201,1,0,0:0:0:0:
256,196,65293,1,8,0:0:0:0:
256,196,65477,1,0,0:0:0:0:
264,192,65661,1,0,0:0:0:0:
264,192,65753,1,0,0:0:0:0:
264,192,65845,1,0,0:0:0:0:
264,192,65937,1,8,0:0:0:0:
264,200,66029,1,4,0:0:0:0:
256,196,66213,1,0,0:0:0:0:
256,196,66397,1,8,0:0:0:0:
264,192,66581,1,0,0:0:0:0:
264,192,66765,1,0,0:0:0:0:
264,192,66949,1,0,0:0:0:0:
256,184,67133,1,8,0:0:0:0:
264,192,67317,1,0,0:0:0:0:
264,192,67501,1,0,0:0:0:0:
264,192,67685,1,0,0:0:0:0:
264,192,67777,1,0,0:0:0:0:
248,192,67869,1,8,0:0:0:0:
264,192,68053,1,0,0:0:0:0:
256,192,68237,1,0,0:0:0:0:
256,192,68329,1,0,0:0:0:0:
256,192,68421,1,0,0:0:0:0:
256,192,68513,1,0,0:0:0:0:
256,192,68605,1,8,0:0:0:0:
256,192,68697,1,0,0:0:0:0:
256,192,68789,1,0,0:0:0:0:
256,192,68881,1,0,0:0:0:0:
256,192,68973,1,0,0:0:0:0:
272,192,69157,1,0,0:0:0:0:
256,192,69341,1,8,0:0:0:0:
272,192,69525,1,0,0:0:0:0:
272,192,69709,1,0,0:0:0:0:
256,200,69894,1,0,0:0:0:0:
256,192,70078,1,8,0:0:0:0:
256,200,70262,1,0,0:0:0:0:
256,200,70446,1,0,0:0:0:0:
256,200,70630,1,0,0:0:0:0:
256,200,70722,1,0,0:0:0:0:
256,192,70814,1,8,0:0:0:0:
256,192,70998,1,0,0:0:0:0:
256,192,71182,1,0,0:0:0:0:
256,192,71274,1,0,0:0:0:0:
256,192,71366,1,0,0:0:0:0:
256,192,71458,1,0,0:0:0:0:
256,192,71551,1,12,0:0:0:0:
248,192,71735,1,0,0:0:0:0:
248,200,71827,1,0,0:0:0:0:
248,200,71919,1,8,0:0:0:0:
280,192,72103,1,0,0:0:0:0:
280,192,72287,1,0,0:0:0:0:
280,192,72471,1,0,0:0:0:0:
272,192,72655,1,8,0:0:0:0:
280,192,72839,1,0,0:0:0:0:
280,192,72931,1,0,0:0:0:0:
280,192,73023,1,0,0:0:0:0:
280,192,73207,1,0,0:0:0:0:
272,192,73391,1,8,0:0:0:0:
280,192,73575,1,0,0:0:0:0:
256,192,73759,1,0,0:0:0:0:
256,192,73851,1,0,0:0:0:0:
256,192,73943,1,0,0:0:0:0:
256,192,74035,1,0,0:0:0:0:
256,192,74127,1,8,0:0:0:0:
256,192,74219,1,0,0:0:0:0:
256,192,74311,1,8,0:0:0:0:
256,192,74403,1,8,0:0:0:0:
256,192,74495,1,0,0:0:0:0:
256,192,74679,1,0,0:0:0:0:
256,192,74771,1,0,0:0:0:0:
256,192,74863,1,8,0:0:0:0:
248,192,75047,1,0,0:0:0:0:
248,192,75231,1,0,0:0:0:0:
248,192,75416,1,0,0:0:0:0:
256,184,75600,1,8,0:0:0:0:
256,184,75784,1,0,0:0:0:0:
256,184,75876,1,8,0:0:0:0:
256,184,75968,1,0,0:0:0:0:
256,192,76152,1,0,0:0:0:0:
256,192,76336,1,8,0:0:0:0:
248,192,76520,1,0,0:0:0:0:
248,192,76704,1,0,0:0:0:0:
248,192,76796,1,0,0:0:0:0:
248,192,76888,1,0,0:0:0:0:
248,192,76980,1,0,0:0:0:0:
248,192,77072,1,12,0:0:0:0:
248,192,77256,1,0,0:0:0:0:
248,192,77348,1,8,0:0:0:0:
248,192,77440,1,8,0:0:0:0:
248,192,77624,1,0,0:0:0:0:
248,192,77808,1,0,0:0:0:0:
248,192,77992,1,0,0:0:0:0:
248,192,78176,1,8,0:0:0:0:
248,192,78360,1,0,0:0:0:0:
248,192,78452,1,0,0:0:0:0:
248,192,78544,1,0,0:0:0:0:
248,192,78728,1,0,0:0:0:0:
248,192,78912,1,8,0:0:0:0:
248,192,79096,1,0,0:0:0:0:
248,192,79280,1,0,0:0:0:0:
248,192,79372,1,0,0:0:0:0:
248,192,79464,1,0,0:0:0:0:
248,192,79556,1,0,0:0:0:0:
248,192,79648,1,8,0:0:0:0:
248,192,79740,1,0,0:0:0:0:
248,192,79832,1,0,0:0:0:0:
248,192,79924,1,8,0:0:0:0:
248,192,80016,1,0,0:0:0:0:
256,200,80200,1,0,0:0:0:0:
256,200,80292,1,0,0:0:0:0:
256,192,80384,1,8,0:0:0:0:
256,192,80568,1,0,0:0:0:0:
256,192,80752,1,8,0:0:0:0:
256,192,80937,1,8,0:0:0:0:
256,192,81121,1,8,0:0:0:0:
256,192,81213,1,8,0:0:0:0:
256,192,81305,1,8,0:0:0:0:
256,192,81397,1,0,0:0:0:0:
256,192,81489,1,12,0:0:0:0:
256,192,82225,1,4,0:0:0:0:
253,193,82961,1,8,0:0:0:0:
253,193,83053,1,8,0:0:0:0:
253,193,83145,1,0,0:0:0:0:
253,193,83237,1,8,0:0:0:0:
253,193,83329,1,0,0:0:0:0:
253,193,83421,1,0,0:0:0:0:
253,193,83513,1,8,0:0:0:0:
253,193,83605,1,8,0:0:0:0:
253,193,83697,1,8,0:0:0:0:
253,193,83789,1,0,0:0:0:0:
253,193,83881,1,0,0:0:0:0:
253,193,83973,1,0,0:0:0:0:
253,193,84065,1,8,0:0:0:0:
253,193,84157,1,8,0:0:0:0:
253,193,84249,1,0,0:0:0:0:
253,193,84341,1,8,0:0:0:0:
253,193,84433,1,0,0:0:0:0:
253,193,84525,1,0,0:0:0:0:
253,193,84618,1,8,0:0:0:0:
253,193,84710,1,8,0:0:0:0:
253,193,84802,1,8,0:0:0:0:
253,193,84894,1,0,0:0:0:0:
253,193,84986,1,0,0:0:0:0:
253,193,85078,1,0,0:0:0:0:
254,191,85170,1,8,0:0:0:0:
254,191,85262,1,8,0:0:0:0:
254,191,85354,1,0,0:0:0:0:
254,191,85446,1,0,0:0:0:0:
254,191,85538,1,8,0:0:0:0:
254,191,85630,1,0,0:0:0:0:
255,185,85722,1,8,0:0:0:0:
255,185,85814,1,8,0:0:0:0:
255,185,85906,1,4,0:0:0:0:
256,184,86182,1,4,0:0:0:0:
256,184,86458,1,12,0:0:0:0:
255,185,86734,1,12,0:0:0:0:
256,184,87010,1,4,0:0:0:0:
256,184,87194,1,8,0:0:0:0:
248,184,87286,1,8,0:0:0:0:
248,184,87378,1,8,0:0:0:0:
248,184,87470,1,8,0:0:0:0:
255,185,87562,1,0,0:0:0:0:
255,185,87654,1,0,0:0:0:0:
255,185,87746,1,8,0:0:0:0:
256,184,87838,1,0,0:0:0:0:
248,176,87930,1,8,0:0:0:0:
248,176,88022,1,0,0:0:0:0:
232,176,88114,1,8,0:0:0:0:
248,184,88206,1,8,0:0:0:0:
232,176,88298,1,0,0:0:0:0:
248,184,88391,1,8,0:0:0:0:
232,176,88483,1,0,0:0:0:0:
248,184,88575,1,0,0:0:0:0:
240,176,88667,1,8,0:0:0:0:
240,176,88759,1,8,0:0:0:0:
248,184,88851,1,4,0:0:0:0:
248,184,89127,1,8,0:0:0:0:
248,184,89219,1,8,0:0:0:0:
240,184,89403,1,4,0:0:0:0:
248,184,89587,1,8,0:0:0:0:
248,184,89679,1,8,0:0:0:0:
248,192,89771,1,8,0:0:0:0:
253,193,89955,1,4,0:0:0:0:
256,192,90139,1,0,0:0:0:0:
256,192,90231,1,8,0:0:0:0:
256,192,90323,1,8,0:0:0:0:
256,192,90415,1,0,0:0:0:0:
256,192,90507,1,8,0:0:0:0:
256,192,90599,1,8,0:0:0:0:
256,192,90691,1,8,0:0:0:0:
256,192,90783,1,0,0:0:0:0:
253,193,90875,1,0,0:0:0:0:
253,193,90967,1,0,0:0:0:0:
254,191,91059,1,8,0:0:0:0:
254,191,91151,1,8,0:0:0:0:
254,191,91243,1,0,0:0:0:0:
254,191,91335,1,0,0:0:0:0:
254,191,91427,1,8,0:0:0:0:
254,191,91519,1,0,0:0:0:0:
255,185,91611,1,8,0:0:0:0:
255,185,91703,1,8,0:0:0:0:
255,185,91795,1,4,0:0:0:0:
256,184,91979,1,8,0:0:0:0:
256,184,92071,1,8,0:0:0:0:
256,184,92164,1,8,0:0:0:0:
256,184,92348,1,4,0:0:0:0:
248,176,92624,1,8,0:0:0:0:
248,176,92716,1,8,0:0:0:0:
256,184,92900,1,4,0:0:0:0:
256,184,93084,1,0,0:0:0:0:
256,184,93176,1,0,0:0:0:0:
256,184,93268,1,0,0:0:0:0:
256,184,93360,1,0,0:0:0:0:
256,192,93452,1,8,0:0:0:0:
256,192,93544,1,0,0:0:0:0:
256,192,93636,1,8,0:0:0:0:
256,192,93728,1,0,0:0:0:0:
256,192,93820,1,8,0:0:0:0:
256,192,93912,1,8,0:0:0:0:
256,192,94004,1,0,0:0:0:0:
256,192,94096,1,0,0:0:0:0:
256,192,94188,1,8,0:0:0:0:
256,192,94280,1,0,0:0:0:0:
256,192,94372,1,0,0:0:0:0:
256,192,94464,1,0,0:0:0:0:
256,192,94556,1,8,0:0:0:0:
256,192,94648,1,8,0:0:0:0:
256,192,94740,1,4,0:0:0:0:
256,192,94924,1,0,0:0:0:0:
256,192,95108,1,0,0:0:0:0:
256,192,95292,1,8,0:0:0:0:
256,192,95476,1,0,0:0:0:0:
256,192,95660,1,0,0:0:0:0:
256,192,95845,1,8,0:0:0:0:
256,192,96029,1,0,0:0:0:0:
256,192,96213,1,0,0:0:0:0:
256,192,96397,1,8,0:0:0:0:
256,192,96581,1,0,0:0:0:0:
256,192,96765,1,0,0:0:0:0:
256,192,96949,1,8,0:0:0:0:
256,192,97133,1,0,0:0:0:0:
256,192,97317,1,12,0:0:0:0:
256,192,97501,1,0,0:0:0:0:
256,192,97593,1,0,0:0:0:0:
256,192,97685,1,0,0:0:0:0:
256,192,97869,1,8,0:0:0:0:
256,192,98053,1,0,0:0:0:0:
256,192,98145,1,0,0:0:0:0:
256,192,98237,1,0,0:0:0:0:
256,192,98421,1,8,0:0:0:0:
256,192,98605,1,0,0:0:0:0:
256,192,98697,1,8,0:0:0:0:
256,192,98789,1,0,0:0:0:0:
256,192,98973,1,8,0:0:0:0:
256,192,99157,1,0,0:0:0:0:
256,192,99249,1,0,0:0:0:0:
256,192,99341,1,0,0:0:0:0:
256,192,99525,1,12,0:0:0:0:
256,192,99709,1,0,0:0:0:0:
256,192,99893,1,8,0:0:0:0:
256,192,100077,1,8,0:0:0:0:
256,192,100261,1,4,0:0:0:0:
256,192,100445,1,0,0:0:0:0:
256,192,100629,1,0,0:0:0:0:
256,192,100813,1,8,0:0:0:0:
256,192,100997,1,0,0:0:0:0:
256,192,101182,1,0,0:0:0:0:
256,192,101366,1,8,0:0:0:0:
256,192,101550,1,0,0:0:0:0:
256,192,101734,1,0,0:0:0:0:
256,192,101918,1,8,0:0:0:0:
256,192,102102,1,0,0:0:0:0:
256,192,102286,1,0,0:0:0:0:
256,192,102470,1,12,0:0:0:0:
256,192,102654,1,0,0:0:0:0:
256,192,102838,1,8,0:0:0:0:
256,192,102930,1,8,0:0:0:0:
256,192,103022,1,0,0:0:0:0:
256,192,103114,1,0,0:0:0:0:
256,192,103206,1,12,0:0:0:0:
256,192,103390,1,0,0:0:0:0:
256,192,103574,1,0,0:0:0:0:
256,192,103758,1,12,0:0:0:0:
256,192,103942,1,0,0:0:0:0:
256,192,104126,1,0,0:0:0:0:
256,192,104310,1,12,0:0:0:0:
256,192,104494,1,0,0:0:0:0:
256,192,104678,1,0,0:0:0:0:
256,192,104863,1,8,0:0:0:0:
256,192,105047,1,0,0:0:0:0:
256,192,105231,1,0,0:0:0:0:
256,192,105415,1,8,0:0:0:0:
256,192,105507,1,0,0:0:0:0:
256,192,105599,1,0,0:0:0:0:
256,192,105691,1,0,0:0:0:0:
256,192,105783,1,8,0:0:0:0:
256,192,105875,1,0,0:0:0:0:
256,192,105967,1,8,0:0:0:0:
256,192,106059,1,8,0:0:0:0:
256,192,106151,1,4,0:0:0:0:
256,192,106335,1,0,0:0:0:0:
256,192,106519,1,0,0:0:0:0:
256,192,106703,1,8,0:0:0:0:
256,192,106887,1,0,0:0:0:0:
256,192,107071,1,0,0:0:0:0:
256,192,107255,1,8,0:0:0:0:
256,192,107439,1,0,0:0:0:0:
256,192,107623,1,0,0:0:0:0:
256,192,107807,1,8,0:0:0:0:
256,192,107991,1,0,0:0:0:0:
256,192,108175,1,0,0:0:0:0:
256,192,108359,1,12,0:0:0:0:
256,192,108543,1,0,0:0:0:0:
256,192,108728,1,12,0:0:0:0:
256,192,108912,1,0,0:0:0:0:
256,192,109004,1,0,0:0:0:0:
256,192,109096,1,0,0:0:0:0:
256,192,109280,1,8,0:0:0:0:
256,192,109464,1,0,0:0:0:0:
256,192,109556,1,0,0:0:0:0:
256,192,109648,1,0,0:0:0:0:
256,192,109832,1,8,0:0:0:0:
256,192,110016,1,0,0:0:0:0:
256,192,110108,1,8,0:0:0:0:
256,192,110200,1,0,0:0:0:0:
256,192,110384,1,8,0:0:0:0:
256,192,110568,1,0,0:0:0:0:
256,192,110660,1,0,0:0:0:0:
256,192,110752,1,0,0:0:0:0:
256,192,110936,1,12,0:0:0:0:
256,192,111120,1,0,0:0:0:0:
256,192,111212,1,0,0:0:0:0:
256,192,111304,1,8,0:0:0:0:
256,192,111396,1,0,0:0:0:0:
256,192,111488,1,0,0:0:0:0:
256,192,111580,1,0,0:0:0:0:
256,192,111672,1,12,0:0:0:0:
256,192,111856,1,0,0:0:0:0:
256,192,112040,1,0,0:0:0:0:
256,192,112224,1,8,0:0:0:0:
256,192,112408,1,0,0:0:0:0:
256,192,112593,1,0,0:0:0:0:
256,192,112777,1,8,0:0:0:0:
256,192,112961,1,0,0:0:0:0:
256,192,113145,1,0,0:0:0:0:
256,192,113329,1,8,0:0:0:0:
256,192,113513,1,0,0:0:0:0:
256,192,113697,1,0,0:0:0:0:
256,192,113881,1,8,0:0:0:0:
256,192,114065,1,0,0:0:0:0:
256,192,114249,1,8,0:0:0:0:
256,192,114433,1,8,0:0:0:0:
256,192,114617,1,4,0:0:0:0:
256,192,114801,1,0,0:0:0:0:
256,192,114985,1,0,0:0:0:0:
256,192,115169,1,8,0:0:0:0:
256,192,115353,1,0,0:0:0:0:
256,192,115537,1,0,0:0:0:0:
256,192,115721,1,12,0:0:0:0:
256,192,116089,1,0,0:0:0:0:
256,192,116181,1,0,0:0:0:0:
256,192,116274,1,8,0:0:0:0:
256,192,116458,1,0,0:0:0:0:
256,192,116550,1,8,0:0:0:0:
256,192,116642,1,0,0:0:0:0:
256,192,116734,1,0,0:0:0:0:
256,192,116826,1,8,0:0:0:0:
256,192,116918,1,8,0:0:0:0:
256,192,117010,1,0,0:0:0:0:
256,192,117102,1,0,0:0:0:0:
256,192,117194,1,8,0:0:0:0:
256,192,117286,1,0,0:0:0:0:
256,192,117378,1,8,0:0:0:0:
256,192,117470,1,8,0:0:0:0:
256,192,117562,1,4,0:0:0:0:
256,192,117930,1,8,0:0:0:0:
256,192,118114,1,4,0:0:0:0:
256,192,118482,1,0,0:0:0:0:
256,192,118666,1,4,0:0:0:0:
256,192,119034,1,8,0:0:0:0:
256,192,119218,1,4,0:0:0:0:
256,192,119586,1,0,0:0:0:0:
256,192,119770,1,12,0:0:0:0:
256,192,120507,1,0,0:0:0:0:
256,192,120783,1,0,0:0:0:0:
256,200,120875,1,8,0:0:0:0:
256,200,121059,1,0,0:0:0:0:
248,200,121335,1,0,0:0:0:0:
248,208,121427,1,0,0:0:0:0:
248,208,121611,1,8,0:0:0:0:
256,208,121887,1,0,0:0:0:0:
248,208,121979,1,0,0:0:0:0:
240,184,122163,1,0,0:0:0:0:
248,208,122347,1,8,0:0:0:0:
248,208,122439,1,0,0:0:0:0:
248,192,122715,1,0,0:0:0:0:
248,192,122807,1,8,0:0:0:0:
248,192,122899,1,0,0:0:0:0:
248,192,122991,1,0,0:0:0:0:
256,192,123083,1,8,0:0:0:0:
256,192,123175,1,0,0:0:0:0:
256,192,123267,1,8,0:0:0:0:
256,192,123359,1,8,0:0:0:0:
256,192,123451,1,0,0:0:0:0:
256,192,123727,1,0,0:0:0:0:
256,192,123820,1,8,0:0:0:0:
256,192,124004,1,0,0:0:0:0:
256,160,124280,1,8,0:0:0:0:
256,160,124372,1,0,0:0:0:0:
256,192,124556,1,12,0:0:0:0:
256,192,125108,1,0,0:0:0:0:
256,192,125292,1,8,0:0:0:0:
256,192,125476,1,0,0:0:0:0:
256,192,125660,1,0,0:0:0:0:
256,192,125752,1,0,0:0:0:0:
256,192,125844,1,8,0:0:0:0:
256,192,125936,1,0,0:0:0:0:
256,192,126028,1,8,0:0:0:0:
256,192,126120,1,8,0:0:0:0:
256,192,126212,1,8,0:0:0:0:
256,192,126304,1,8,0:0:0:0:
256,192,126396,1,0,0:0:0:0:
256,192,126672,1,0,0:0:0:0:
256,192,126948,1,8,0:0:0:0:
256,192,127224,1,8,0:0:0:0:
256,192,127501,1,0,0:0:0:0:
256,192,127777,1,0,0:0:0:0:
256,160,128053,1,8,0:0:0:0:
256,192,128329,1,0,0:0:0:0:
256,192,128605,1,0,0:0:0:0:
256,192,128697,1,0,0:0:0:0:
256,192,128789,1,0,0:0:0:0:
256,192,128881,1,0,0:0:0:0:
256,192,128973,1,8,0:0:0:0:
256,192,129065,1,0,0:0:0:0:
256,192,129157,1,0,0:0:0:0:
256,192,129249,1,8,0:0:0:0:
256,192,129341,1,0,0:0:0:0:
256,192,129709,1,0,0:0:0:0:
256,192,129893,1,12,0:0:0:0:
256,160,130261,1,8,0:0:0:0:
256,160,130445,1,4,0:0:0:0:
256,192,130813,1,0,0:0:0:0:
256,192,130997,1,8,0:0:0:0:
256,192,131181,1,0,0:0:0:0:
256,192,131274,1,0,0:0:0:0:
256,192,131366,1,0,0:0:0:0:
256,192,131458,1,0,0:0:0:0:
256,192,131550,1,8,0:0:0:0:
256,192,131918,1,8,0:0:0:0:
256,192,132010,1,8,0:0:0:0:
256,192,132102,1,8,0:0:0:0:
256,192,132194,1,8,0:0:0:0:
256,192,132286,1,0,0:0:0:0:
256,192,132562,1,0,0:0:0:0:
256,192,132654,1,8,0:0:0:0:
256,192,132838,1,0,0:0:0:0:
256,192,133114,1,0,0:0:0:0:
256,160,133390,1,8,0:0:0:0:
256,160,133666,1,8,0:0:0:0:
256,192,133942,1,0,0:0:0:0:
256,192,134126,1,8,0:0:0:0:
256,192,134218,1,0,0:0:0:0:
256,192,134494,1,0,0:0:0:0:
256,192,134586,1,8,0:0:0:0:
256,192,134678,1,8,0:0:0:0:
256,192,134770,1,0,0:0:0:0:
256,192,134862,1,8,0:0:0:0:
256,192,134954,1,8,0:0:0:0:
256,192,135047,1,8,0:0:0:0:
256,192,135139,1,8,0:0:0:0:
256,192,135231,1,0,0:0:0:0:
256,192,135507,1,0,0:0:0:0:
256,192,135783,1,8,0:0:0:0:
256,192,136059,1,8,0:0:0:0:
256,192,136335,1,4,0:0:0:0:
256,192,136611,1,0,0:0:0:0:
256,192,136887,1,8,0:0:0:0:
256,192,137163,1,0,0:0:0:0:
256,192,137439,1,0,0:0:0:0:
256,192,137531,1,8,0:0:0:0:
256,192,137623,1,0,0:0:0:0:
256,192,137715,1,0,0:0:0:0:
256,192,137807,1,8,0:0:0:0:
256,192,137899,1,0,0:0:0:0:
256,192,137991,1,8,0:0:0:0:
256,192,138083,1,8,0:0:0:0:
256,192,138175,1,0,0:0:0:0:
256,192,138451,1,0,0:0:0:0:
256,192,138543,1,8,0:0:0:0:
256,192,138727,1,0,0:0:0:0:
256,192,138912,1,8,0:0:0:0:
256,192,139004,1,0,0:0:0:0:
256,192,139280,1,8,0:0:0:0:
256,192,139556,1,0,0:0:0:0:
256,192,139648,1,8,0:0:0:0:
256,192,139832,1,0,0:0:0:0:
256,192,140016,1,8,0:0:0:0:
256,192,140108,1,0,0:0:0:0:
256,192,140384,1,8,0:0:0:0:
256,192,140476,1,8,0:0:0:0:
256,192,140568,1,8,0:0:0:0:
224,192,140660,1,0,0:0:0:0:
224,192,140752,1,8,0:0:0:0:
224,192,140844,1,8,0:0:0:0:
224,192,140936,1,0,0:0:0:0:
256,192,141028,1,0,0:0:0:0:
256,192,141120,1,12,0:0:0:0:
256,192,141304,1,0,0:0:0:0:
256,192,141488,1,0,0:0:0:0:
256,192,141672,1,12,0:0:0:0:
256,192,141856,1,0,0:0:0:0:
256,192,142040,1,0,0:0:0:0:
256,192,142224,1,12,0:0:0:0:
256,192,142408,1,0,0:0:0:0:
256,192,142593,1,0,0:0:0:0:
256,192,142777,1,12,0:0:0:0:
256,192,142961,1,0,0:0:0:0:
256,192,143053,1,0,0:0:0:0:
256,192,143145,1,0,0:0:0:0:
256,192,143237,1,0,0:0:0:0:
256,192,143329,1,8,0:0:0:0:
256,192,143513,1,0,0:0:0:0:
256,192,143697,1,8,0:0:0:0:
256,192,143789,1,0,0:0:0:0:
256,192,143881,1,8,0:0:0:0:
256,192,143973,1,8,0:0:0:0:
256,192,144065,1,0,0:0:0:0:
256,192,144157,1,0,0:0:0:0:
256,192,144249,1,0,0:0:0:0:
256,192,144341,1,0,0:0:0:0:
256,192,144433,1,8,0:0:0:0:
256,192,144617,1,0,0:0:0:0:
256,192,144801,1,0,0:0:0:0:
256,192,144985,1,0,0:0:0:0:
256,192,145169,1,8,0:0:0:0:
256,192,145353,1,0,0:0:0:0:
256,192,145537,1,0,0:0:0:0:
256,192,145629,1,0,0:0:0:0:
256,192,145721,1,0,0:0:0:0:
256,192,145813,1,8,0:0:0:0:
256,192,145905,1,8,0:0:0:0:
256,192,146089,1,0,0:0:0:0:
224,192,146274,1,0,0:0:0:0:
256,192,146458,1,8,0:0:0:0:
256,192,146642,1,8,0:0:0:0:
256,192,146734,1,0,0:0:0:0:
256,192,146826,1,0,0:0:0:0:
256,192,147010,1,0,0:0:0:0:
256,192,147102,1,0,0:0:0:0:
256,192,147194,1,0,0:0:0:0:
256,192,147286,1,0,0:0:0:0:
256,192,147378,1,8,0:0:0:0:
224,160,147562,1,0,0:0:0:0:
256,192,147746,1,0,0:0:0:0:
256,224,147930,1,0,0:0:0:0:
256,192,148114,1,8,0:0:0:0:
256,192,148298,1,0,0:0:0:0:
256,192,148482,1,8,0:0:0:0:
256,192,148574,1,8,0:0:0:0:
256,192,148666,1,8,0:0:0:0:
256,192,148758,1,0,0:0:0:0:
256,192,148942,1,8,0:0:0:0:
256,192,149034,1,8,0:0:0:0:
256,192,149126,1,8,0:0:0:0:
256,192,149218,1,8,0:0:0:0:
256,192,149310,1,0,0:0:0:0:
256,192,149494,1,8,0:0:0:0:
256,192,149586,1,8,0:0:0:0:
256,192,149678,1,8,0:0:0:0:
256,192,149770,1,8,0:0:0:0:
256,192,149954,1,0,0:0:0:0:
256,192,150047,1,0,0:0:0:0:
256,192,150139,1,0,0:0:0:0:
256,192,150231,1,0,0:0:0:0:
256,192,150323,1,8,0:0:0:0:
256,192,150507,1,0,0:0:0:0:
256,192,150599,1,0,0:0:0:0:
256,192,150691,1,8,0:0:0:0:
256,192,150783,1,0,0:0:0:0:
256,192,150875,1,0,0:0:0:0:
256,192,151059,1,8,0:0:0:0:
256,192,151151,1,8,0:0:0:0:
256,192,151243,1,0,0:0:0:0:
256,192,151427,1,8,0:0:0:0:
256,192,151519,1,0,0:0:0:0:
256,192,151611,1,0,0:0:0:0:
256,192,151703,1,8,0:0:0:0:
256,192,151795,1,8,0:0:0:0:
256,192,151979,1,0,0:0:0:0:
256,192,152071,1,0,0:0:0:0:
256,192,152163,1,8,0:0:0:0:
256,192,152255,1,0,0:0:0:0:
256,192,152347,1,0,0:0:0:0:
256,192,152531,1,8,0:0:0:0:
256,192,152623,1,0,0:0:0:0:
256,192,152715,1,0,0:0:0:0:
256,192,152899,1,8,0:0:0:0:
256,192,152991,1,8,0:0:0:0:
256,192,153083,1,0,0:0:0:0:
256,192,153175,1,0,0:0:0:0:
256,192,153267,1,8,0:0:0:0:
256,192,153451,1,0,0:0:0:0:
256,192,153543,1,8,0:0:0:0:
256,192,153635,1,8,0:0:0:0:
256,192,153727,1,0,0:0:0:0:
256,192,153820,1,0,0:0:0:0:
256,192,154004,1,8,0:0:0:0:
256,192,154096,1,8,0:0:0:0:
256,192,154188,1,0,0:0:0:0:
256,192,154372,1,8,0:0:0:0:
256,192,154464,1,8,0:0:0:0:
256,192,154556,1,8,0:0:0:0:
256,192,154648,1,0,0:0:0:0:
256,192,154832,1,8,0:0:0:0:
256,192,154924,1,8,0:0:0:0:
256,192,155016,1,8,0:0:0:0:
256,192,155108,1,8,0:0:0:0:
256,192,155200,1,0,0:0:0:0:
256,192,155384,1,8,0:0:0:0:
256,192,155476,1,8,0:0:0:0:
256,192,155568,1,8,0:0:0:0:
256,192,155660,1,8,0:0:0:0:
256,192,155752,1,8,0:0:0:0:
256,192,155844,1,0,0:0:0:0:
256,192,155936,1,0,0:0:0:0:
256,192,156028,1,8,0:0:0:0:
256,192,156213,1,4,0:0:0:0:
256,192,156397,1,0,0:0:0:0:
256,192,156581,1,8,0:0:0:0:
256,192,156765,1,0,0:0:0:0:
256,192,156949,1,0,0:0:0:0:
256,192,157133,1,0,0:0:0:0:
256,192,157317,1,8,0:0:0:0:
256,192,157501,1,0,0:0:0:0:
256,192,157685,1,0,0:0:0:0:
256,192,157869,1,8,0:0:0:0:
256,192,158053,1,8,0:0:0:0:
256,192,158237,1,0,0:0:0:0:
256,192,158421,1,12,0:0:0:0:
256,192,158605,1,0,0:0:0:0:
256,192,158790,1,12,0:0:0:0:
256,192,158974,1,0,0:0:0:0:
256,192,159066,1,0,0:0:0:0:
256,192,159158,1,0,0:0:0:0:
256,192,159342,1,8,0:0:0:0:
256,192,159526,1,0,0:0:0:0:
256,192,159618,1,0,0:0:0:0:
256,192,159710,1,0,0:0:0:0:
256,192,159894,1,8,0:0:0:0:
256,192,160078,1,0,0:0:0:0:
256,192,160170,1,8,0:0:0:0:
256,192,160262,1,0,0:0:0:0:
256,192,160446,1,8,0:0:0:0:
256,192,160630,1,0,0:0:0:0:
256,192,160722,1,0,0:0:0:0:
256,192,160814,1,0,0:0:0:0:
256,192,160998,1,12,0:0:0:0:
256,192,161182,1,0,0:0:0:0:
256,192,161366,1,8,0:0:0:0:
256,192,161550,1,8,0:0:0:0:
256,192,161734,1,4,0:0:0:0:
256,192,161918,1,0,0:0:0:0:
256,192,162102,1,8,0:0:0:0:
256,192,162286,1,0,0:0:0:0:
256,192,162470,1,0,0:0:0:0:
256,192,162655,1,0,0:0:0:0:
256,192,162839,1,8,0:0:0:0:
256,192,163023,1,0,0:0:0:0:
256,192,163207,1,0,0:0:0:0:
256,192,163391,1,8,0:0:0:0:
256,192,163575,1,0,0:0:0:0:
256,192,163759,1,0,0:0:0:0:
256,192,163943,1,8,0:0:0:0:
256,192,164035,1,8,0:0:0:0:
256,192,164127,1,0,0:0:0:0:
256,192,164219,1,0,0:0:0:0:
256,192,164311,1,8,0:0:0:0:
256,192,164495,1,0,0:0:0:0:
256,192,164679,1,12,0:0:0:0:
256,192,164863,1,0,0:0:0:0:
256,192,165047,1,0,0:0:0:0:
256,192,165231,1,8,0:0:0:0:
256,192,165415,1,0,0:0:0:0:
256,192,165599,1,0,0:0:0:0:
256,192,165783,1,12,0:0:0:0:
256,192,165967,1,0,0:0:0:0:
256,192,166151,1,0,0:0:0:0:
256,192,166336,1,8,0:0:0:0:
256,192,166520,1,8,0:0:0:0:
256,192,166704,1,0,0:0:0:0:
256,192,166796,1,0,0:0:0:0:
256,192,166888,1,8,0:0:0:0:
256,192,167072,1,0,0:0:0:0:
256,192,167164,1,0,0:0:0:0:
256,192,167256,1,8,0:0:0:0:
256,192,167440,1,0,0:0:0:0:
256,184,167532,1,8,0:0:0:0:
256,192,167624,1,4,0:0:0:0:
256,192,167808,1,0,0:0:0:0:
256,192,167992,1,8,0:0:0:0:
256,192,168176,1,0,0:0:0:0:
256,192,168360,1,0,0:0:0:0:
256,192,168544,1,0,0:0:0:0:
256,192,168728,1,8,0:0:0:0:
224,160,168912,1,0,0:0:0:0:
224,160,169096,1,0,0:0:0:0:
224,160,169280,1,8,0:0:0:0:
224,160,169464,1,8,0:0:0:0:
224,160,169648,1,0,0:0:0:0:
224,160,169832,1,12,0:0:0:0:
224,160,170016,1,0,0:0:0:0:
224,160,170201,1,12,0:0:0:0:
224,160,170385,1,0,0:0:0:0:
224,160,170477,1,0,0:0:0:0:
224,160,170569,1,0,0:0:0:0:
224,160,170753,1,8,0:0:0:0:
224,160,170937,1,0,0:0:0:0:
224,160,171029,1,0,0:0:0:0:
224,160,171121,1,0,0:0:0:0:
224,160,171305,1,8,0:0:0:0:
256,192,171489,1,0,0:0:0:0:
256,192,171581,1,8,0:0:0:0:
256,192,171673,1,0,0:0:0:0:
256,192,171857,1,8,0:0:0:0:
256,192,172041,1,8,0:0:0:0:
256,160,172225,1,0,0:0:0:0:
256,192,172409,1,8,0:0:0:0:
256,192,172501,1,0,0:0:0:0:
256,192,172593,1,0,0:0:0:0:
256,192,172685,1,0,0:0:0:0:
256,192,172777,1,8,0:0:0:0:
256,192,172961,1,0,0:0:0:0:
256,192,173145,1,12,0:0:0:0:
256,192,173513,1,0,0:0:0:0:
256,192,173697,1,12,0:0:0:0:
256,192,174066,1,0,0:0:0:0:
256,192,174250,1,12,0:0:0:0:
256,192,174802,1,0,0:0:0:0:
256,192,174986,1,8,0:0:0:0:
256,192,175354,1,0,0:0:0:0:
256,192,175538,1,0,0:0:0:0:
256,192,175722,1,8,0:0:0:0:
256,192,175906,1,0,0:0:0:0:
256,192,176090,1,12,0:0:0:0:
256,192,176458,1,0,0:0:0:0:
256,192,176642,1,8,0:0:0:0:
256,192,176826,1,0,0:0:0:0:
256,192,176918,1,0,0:0:0:0:
256,192,177010,1,0,0:0:0:0:
256,192,177194,1,12,0:0:0:0:
256,192,177562,1,0,0:0:0:0:
256,192,177747,1,8,0:0:0:0:
256,192,177839,1,8,0:0:0:0:
256,192,177931,1,0,0:0:0:0:
256,192,178115,1,0,0:0:0:0:
256,192,178299,1,8,0:0:0:0:
256,192,178391,1,0,0:0:0:0:
256,192,178483,1,0,0:0:0:0:
256,192,178667,1,0,0:0:0:0:
224,192,178851,1,8,0:0:0:0:
256,192,179035,1,4,0:0:0:0:
256,192,179587,1,0,0:0:0:0:
256,192,179955,1,0,0:0:0:0:
256,192,180047,1,0,0:0:0:0:
256,192,180139,1,12,0:0:0:0:
256,192,180507,1,8,0:0:0:0:
256,192,180875,1,0,0:0:0:0:
256,192,180967,1,0,0:0:0:0:
256,192,181059,1,0,0:0:0:0:
256,192,181151,1,0,0:0:0:0:
256,192,181243,1,8,0:0:0:0:
256,192,181427,1,0,0:0:0:0:
256,192,181520,1,0,0:0:0:0:
256,192,181612,1,8,0:0:0:0:
256,192,181796,1,0,0:0:0:0:
256,192,181888,1,8,0:0:0:0:
256,192,181980,1,0,0:0:0:0:
256,192,182532,1,8,0:0:0:0:
256,192,182900,1,8,0:0:0:0:
256,192,182992,1,8,0:0:0:0:
256,192,183084,1,4,0:0:0:0:
256,192,183452,1,8,0:0:0:0:
256,192,183820,1,0,0:0:0:0:
256,192,183912,1,0,0:0:0:0:
256,192,184004,1,0,0:0:0:0:
256,192,184096,1,0,0:0:0:0:
256,192,184188,1,8,0:0:0:0:
256,192,184372,1,0,0:0:0:0:
256,192,184464,1,0,0:0:0:0:
256,192,184556,1,8,0:0:0:0:
256,192,184648,1,0,0:0:0:0:
256,192,184740,1,0,0:0:0:0:
256,192,184832,1,0,0:0:0:0:
256,192,184924,1,8,0:0:0:0:
256,192,185477,1,0,0:0:0:0:
256,192,185845,1,0,0:0:0:0:
256,192,185937,1,0,0:0:0:0:
256,192,186029,1,12,0:0:0:0:
256,192,186397,1,8,0:0:0:0:
256,192,186765,1,0,0:0:0:0:
256,192,186857,1,0,0:0:0:0:
256,192,186949,1,0,0:0:0:0:
256,192,187041,1,0,0:0:0:0:
256,192,187133,1,8,0:0:0:0:
256,192,187317,1,0,0:0:0:0:
256,192,187409,1,0,0:0:0:0:
256,192,187501,1,8,0:0:0:0:
256,192,187685,1,8,0:0:0:0:
256,192,187777,1,8,0:0:0:0:
256,192,187869,1,0,0:0:0:0:
256,192,188421,1,8,0:0:0:0:
256,192,188789,1,0,0:0:0:0:
256,192,188881,1,8,0:0:0:0:
256,192,188974,1,4,0:0:0:0:
256,192,189342,1,0,0:0:0:0:
256,192,189434,1,0,0:0:0:0:
256,192,189526,1,0,0:0:0:0:
256,192,189618,1,0,0:0:0:0:
256,192,189710,1,8,0:0:0:0:
256,192,189802,1,0,0:0:0:0:
256,192,189894,1,0,0:0:0:0:
256,192,189986,1,0,0:0:0:0:
256,192,190078,1,8,0:0:0:0:
256,192,190170,1,8,0:0:0:0:
256,192,190262,1,0,0:0:0:0:
256,192,190354,1,0,0:0:0:0:
256,192,190446,1,8,0:0:0:0:
256,192,190538,1,0,0:0:0:0:
256,192,190630,1,0,0:0:0:0:
256,192,190722,1,8,0:0:0:0:
256,160,190814,1,0,0:0:0:0:
256,160,191366,1,8,0:0:0:0:
256,160,191734,1,0,0:0:0:0:
256,160,191826,1,0,0:0:0:0:
256,160,191918,1,12,0:0:0:0:
256,160,192286,1,8,0:0:0:0:
256,160,192654,1,8,0:0:0:0:
256,160,192747,1,0,0:0:0:0:
256,160,192839,1,0,0:0:0:0:
256,160,192931,1,0,0:0:0:0:
256,160,193023,1,8,0:0:0:0:
256,160,193207,1,0,0:0:0:0:
256,160,193299,1,0,0:0:0:0:
256,160,193391,1,8,0:0:0:0:
256,160,193575,1,0,0:0:0:0:
256,160,193667,1,0,0:0:0:0:
256,160,193759,1,0,0:0:0:0:
256,160,194311,1,8,0:0:0:0:
256,160,194679,1,8,0:0:0:0:
256,160,194771,1,0,0:0:0:0:
256,160,194863,1,12,0:0:0:0:
256,192,195231,1,0,0:0:0:0:
256,192,195415,1,8,0:0:0:0:
256,192,195507,1,0,0:0:0:0:
256,192,195599,1,8,0:0:0:0:
256,192,195691,1,8,0:0:0:0:
256,192,195783,1,0,0:0:0:0:
256,192,195875,1,0,0:0:0:0:
256,192,195967,1,8,0:0:0:0:
288,192,196151,1,0,0:0:0:0:
288,192,196243,1,0,0:0:0:0:
288,192,196335,1,8,0:0:0:0:
288,192,196427,1,0,0:0:0:0:
288,192,196520,1,0,0:0:0:0:
288,192,196612,1,0,0:0:0:0:
288,192,196704,1,8,0:0:0:0:
256,192,197256,1,8,0:0:0:0:
256,192,197624,1,0,0:0:0:0:
256,192,197716,1,0,0:0:0:0:
256,192,197808,1,12,0:0:0:0:
256,192,198176,1,8,0:0:0:0:
256,192,198544,1,0,0:0:0:0:
256,192,198636,1,0,0:0:0:0:
256,192,198728,1,0,0:0:0:0:
256,192,198820,1,0,0:0:0:0:
256,192,198912,1,8,0:0:0:0:
256,192,199096,1,0,0:0:0:0:
256,192,199188,1,0,0:0:0:0:
256,192,199280,1,8,0:0:0:0:
256,192,199464,1,0,0:0:0:0:
256,192,199556,1,8,0:0:0:0:
256,192,199648,1,8,0:0:0:0:
256,192,199832,1,0,0:0:0:0:
256,192,200016,1,0,0:0:0:0:
256,192,200200,1,8,0:0:0:0:
256,192,200385,1,0,0:0:0:0:
256,192,200569,1,8,0:0:0:0:
256,192,200753,1,12,0:0:0:0:
256,192,201121,1,8,0:0:0:0:
256,192,201213,1,8,0:0:0:0:
256,192,201305,1,0,0:0:0:0:
256,192,201397,1,8,0:0:0:0:
256,192,201489,1,0,0:0:0:0:
256,192,201581,1,8,0:0:0:0:
256,192,201673,1,8,0:0:0:0:
256,192,201765,1,0,0:0:0:0:
256,192,201857,1,8,0:0:0:0:
256,192,202225,1,8,0:0:0:0:
256,192,202317,1,0,0:0:0:0:
256,192,202409,1,8,0:0:0:0:
256,192,202501,1,8,0:0:0:0:
256,192,202593,1,0,0:0:0:0:
256,192,202685,1,0,0:0:0:0:
256,192,202777,1,0,0:0:0:0:
256,192,202869,1,0,0:0:0:0:
256,192,203145,1,8,0:0:0:0:
256,192,203237,1,8,0:0:0:0:
256,192,203329,1,8,0:0:0:0:
256,192,203421,1,0,0:0:0:0:
256,192,203697,1,8,0:0:0:0:
256,192,203789,1,8,0:0:0:0:
256,192,203881,1,0,0:0:0:0:
256,192,203973,1,0,0:0:0:0:
256,192,204065,1,8,0:0:0:0:
256,192,204157,1,8,0:0:0:0:
256,192,204249,1,8,0:0:0:0:
256,192,204341,1,0,0:0:0:0:
256,192,204618,1,0,0:0:0:0:
256,192,204710,1,0,0:0:0:0:
256,192,204802,1,0,0:0:0:0:
256,192,204894,1,0,0:0:0:0:
256,192,205170,1,8,0:0:0:0:
256,192,205262,1,8,0:0:0:0:
256,192,205354,1,8,0:0:0:0:
256,192,205446,1,0,0:0:0:0:
256,192,205722,1,0,0:0:0:0:
256,192,205814,1,0,0:0:0:0:
256,192,205906,1,8,0:0:0:0:
256,192,205998,1,0,0:0:0:0:
256,192,206090,1,12,0:0:0:0:
256,192,206458,1,0,0:0:0:0:
256,192,206642,1,0,0:0:0:0:
256,192,206826,1,8,0:0:0:0:
256,192,206918,1,8,0:0:0:0:
256,192,207010,1,0,0:0:0:0:
256,192,207102,1,0,0:0:0:0:
256,192,207194,1,8,0:0:0:0:
256,192,207286,1,0,0:0:0:0:
256,192,207378,1,8,0:0:0:0:
256,192,207470,1,8,0:0:0:0:
256,192,207563,1,0,0:0:0:0:
256,192,207655,1,0,0:0:0:0:
256,192,207747,1,0,0:0:0:0:
256,192,207839,1,0,0:0:0:0:
256,192,208115,1,8,0:0:0:0:
256,192,208207,1,8,0:0:0:0:
256,192,208299,1,8,0:0:0:0:
256,192,208391,1,0,0:0:0:0:
256,192,208667,1,8,0:0:0:0:
256,192,208759,1,8,0:0:0:0:
256,192,208851,1,0,0:0:0:0:
256,192,208943,1,0,0:0:0:0:
256,192,209035,1,8,0:0:0:0:
256,192,209127,1,8,0:0:0:0:
256,192,209219,1,8,0:0:0:0:
256,192,209311,1,0,0:0:0:0:
256,192,209587,1,0,0:0:0:0:
256,192,209679,1,0,0:0:0:0:
256,192,209771,1,0,0:0:0:0:
256,192,209863,1,0,0:0:0:0:
256,192,210139,1,8,0:0:0:0:
256,192,210231,1,8,0:0:0:0:
256,192,210323,1,8,0:0:0:0:
256,192,210415,1,0,0:0:0:0:
256,192,210691,1,0,0:0:0:0:
256,192,210783,1,0,0:0:0:0:
256,192,210875,1,0,0:0:0:0:
256,192,210967,1,8,0:0:0:0:
256,192,211243,1,8,0:0:0:0:
256,192,211335,1,8,0:0:0:0:
256,192,211427,1,0,0:0:0:0:
256,192,211519,1,0,0:0:0:0:
256,192,211612,1,12,0:0:0:0:
256,192,211980,1,8,0:0:0:0:
256,192,212164,1,0,0:0:0:0:
256,192,212348,1,8,0:0:0:0:
256,192,212440,1,0,0:0:0:0:
256,192,212532,1,0,0:0:0:0:
256,192,212624,1,0,0:0:0:0:
256,192,212716,1,8,0:0:0:0:
256,192,212808,1,0,0:0:0:0:
256,192,212900,1,8,0:0:0:0:
256,192,212992,1,8,0:0:0:0:
254,197,213084,1,0,0:0:0:0:
256,192,213360,1,0,0:0:0:0:
256,192,213452,1,0,0:0:0:0:
256,192,213636,1,8,0:0:0:0:
256,192,213820,1,0,0:0:0:0:
256,192,213912,1,0,0:0:0:0:
256,192,214188,1,8,0:0:0:0:
256,192,214372,1,0,0:0:0:0:
256,192,214556,1,8,0:0:0:0:
256,192,214832,1,0,0:0:0:0:
256,192,214924,1,0,0:0:0:0:
256,192,215109,1,0,0:0:0:0:
256,192,215293,1,8,0:0:0:0:
256,192,215385,1,0,0:0:0:0:
256,192,215661,1,8,0:0:0:0:
256,192,215937,1,0,0:0:0:0:
256,192,216029,1,0,0:0:0:0:
256,192,216213,1,8,0:0:0:0:
256,192,216397,1,0,0:0:0:0:
256,192,216581,1,12,0:0:0:0:
256,192,216949,1,8,0:0:0:0:
256,192,217010,1,8,0:0:0:0:
256,192,217072,1,8,0:0:0:0:
256,192,217133,1,0,0:0:0:0:
252,188,217225,1,0,0:0:0:0:
256,192,217317,1,0,0:0:0:0:
256,192,217409,1,0,0:0:0:0:
256,192,217501,1,8,0:0:0:0:
256,192,217593,1,0,0:0:0:0:
256,192,217685,1,8,0:0:0:0:
256,192,217777,1,8,0:0:0:0:
256,192,217869,1,0,0:0:0:0:
256,192,217961,1,8,0:0:0:0:
256,192,218054,1,0,0:0:0:0:
256,192,218330,1,0,0:0:0:0:
256,192,218422,1,0,0:0:0:0:
256,192,218606,1,8,0:0:0:0:
256,192,218790,1,8,0:0:0:0:
256,192,218882,1,8,0:0:0:0:
256,192,219158,1,8,0:0:0:0:
256,192,219250,1,8,0:0:0:0:
256,192,219342,1,0,0:0:0:0:
256,192,219434,1,0,0:0:0:0:
256,192,219526,1,8,0:0:0:0:
256,192,219802,1,8,0:0:0:0:
256,192,219894,1,0,0:0:0:0:
256,192,220078,1,0,0:0:0:0:
256,192,220262,1,8,0:0:0:0:
256,192,220354,1,8,0:0:0:0:
256,192,220630,1,0,0:0:0:0:
256,192,220906,1,0,0:0:0:0:
256,192,220998,1,0,0:0:0:0:
256,192,221182,1,8,0:0:0:0:
256,192,221366,1,0,0:0:0:0:
256,192,221458,1,8,0:0:0:0:
256,192,221734,1,8,0:0:0:0:
256,192,221918,1,4,0:0:0:0:
256,192,222103,1,12,0:0:0:0:
256,192,222471,1,8,0:0:0:0:
256,192,222655,1,0,0:0:0:0:
256,192,222839,1,8,0:0:0:0:
256,192,222931,1,0,0:0:0:0:
248,192,223023,1,8,0:0:0:0:
248,192,223115,1,8,0:0:0:0:
248,192,223207,1,8,0:0:0:0:
248,192,223299,1,0,0:0:0:0:
248,192,223391,1,8,0:0:0:0:
248,192,223483,1,8,0:0:0:0:
248,192,223575,1,0,0:0:0:0:
248,192,223667,1,0,0:0:0:0:
256,192,223759,1,0,0:0:0:0:
256,192,223851,1,0,0:0:0:0:
248,192,223943,1,8,0:0:0:0:
248,192,224035,1,0,0:0:0:0:
248,192,224127,1,0,0:0:0:0:
248,192,224219,1,0,0:0:0:0:
248,192,224311,1,8,0:0:0:0:
248,192,224403,1,8,0:0:0:0:
248,192,224495,1,0,0:0:0:0:
248,192,224587,1,0,0:0:0:0:
248,192,224679,1,8,0:0:0:0:
248,192,224863,1,0,0:0:0:0:
248,192,225047,1,8,0:0:0:0:
248,192,225139,1,0,0:0:0:0:
256,192,225231,1,0,0:0:0:0:
256,192,225323,1,0,0:0:0:0:
248,192,225415,1,8,0:0:0:0:
248,192,225507,1,0,0:0:0:0:
248,192,225599,1,0,0:0:0:0:
248,192,225691,1,0,0:0:0:0:
248,192,225783,1,8,0:0:0:0:
248,192,225876,1,8,0:0:0:0:
248,192,225968,1,8,0:0:0:0:
248,192,226060,1,0,0:0:0:0:
248,192,226152,1,8,0:0:0:0:
256,192,226244,1,0,0:0:0:0:
256,192,226336,1,0,0:0:0:0:
248,192,226428,1,8,0:0:0:0:
248,192,226520,1,8,0:0:0:0:
248,192,226612,1,0,0:0:0:0:
256,192,226704,1,0,0:0:0:0:
256,192,226796,1,0,0:0:0:0:
248,192,226888,1,8,0:0:0:0:
248,192,226980,1,0,0:0:0:0:
248,192,227072,1,0,0:0:0:0:
248,192,227164,1,0,0:0:0:0:
256,192,227256,1,8,0:0:0:0:
256,192,227348,1,8,0:0:0:0:
256,192,227440,1,0,0:0:0:0:
256,192,227624,1,8,0:0:0:0:
256,192,227716,1,8,0:0:0:0:
256,192,227808,1,8,0:0:0:0:
256,192,227900,1,8,0:0:0:0:
256,192,227992,1,0,0:0:0:0:
256,192,228268,1,8,0:0:0:0:
256,192,228360,1,0,0:0:0:0:
256,192,228544,1,8,0:0:0:0:
256,200,228728,1,0,0:0:0:0:
256,192,228820,1,0,0:0:0:0:
256,192,229096,1,8,0:0:0:0:
256,192,229280,1,0,0:0:0:0:
256,192,229464,1,8,0:0:0:0:
256,192,229556,1,0,0:0:0:0:
256,192,229649,1,0,0:0:0:0:
256,192,229741,1,8,0:0:0:0:
256,192,229833,1,8,0:0:0:0:
256,192,229925,1,0,0:0:0:0:
256,192,230017,1,0,0:0:0:0:
256,192,230109,1,8,0:0:0:0:
256,192,230201,1,8,0:0:0:0:
256,192,230293,1,0,0:0:0:0:
256,192,230385,1,0,0:0:0:0:
256,192,230477,1,0,0:0:0:0:
256,192,230569,1,8,0:0:0:0:
256,192,230753,1,0,0:0:0:0:
256,192,230937,1,8,0:0:0:0:
256,192,231029,1,0,0:0:0:0:
256,192,231121,1,0,0:0:0:0:
256,192,231213,1,8,0:0:0:0:
256,192,231305,1,8,0:0:0:0:
256,192,231397,1,0,0:0:0:0:
256,192,231489,1,0,0:0:0:0:
256,192,231581,1,8,0:0:0:0:
256,192,231673,1,8,0:0:0:0:
256,192,231765,1,8,0:0:0:0:
256,192,231857,1,0,0:0:0:0:
256,192,231949,1,8,0:0:0:0:
256,192,232041,1,0,0:0:0:0:
256,192,232133,1,0,0:0:0:0:
256,192,232225,1,0,0:0:0:0:
256,192,232317,1,0,0:0:0:0:
256,192,232409,1,8,0:0:0:0:
256,192,232501,1,0,0:0:0:0:
256,192,232593,1,0,0:0:0:0:
256,192,232685,1,8,0:0:0:0:
256,192,232777,1,8,0:0:0:0:
256,192,232869,1,0,0:0:0:0:
256,192,232961,1,0,0:0:0:0:
256,192,233053,1,8,0:0:0:0:
256,192,233145,1,8,0:0:0:0:
256,192,233237,1,0,0:0:0:0:
256,192,233329,1,0,0:0:0:0:
256,192,233422,1,0,0:0:0:0:
256,192,233514,1,8,0:0:0:0:
256,192,233606,1,8,0:0:0:0:
256,192,233698,1,8,0:0:0:0:
256,192,233790,1,8,0:0:0:0:
256,200,233882,1,4,0:0:0:0:
256,200,234158,1,0,0:0:0:0:
256,200,234434,1,12,0:0:0:0:
256,200,234710,1,0,0:0:0:0:
248,200,234986,1,12,0:0:0:0:
248,200,235170,1,4,0:0:0:0:
248,192,235354,1,0,0:0:0:0:
248,192,235446,1,0,0:0:0:0:
248,192,235538,1,8,0:0:0:0:
248,192,235630,1,0,0:0:0:0:
248,192,235722,1,8,0:0:0:0:
248,192,235814,1,8,0:0:0:0:
236,184,235998,1,0,0:0:0:0:
248,192,236090,1,8,0:0:0:0:
248,192,236182,1,8,0:0:0:0:
248,192,236274,1,0,0:0:0:0:
248,192,236366,1,8,0:0:0:0:
248,192,236550,1,0,0:0:0:0:
248,192,236642,1,8,0:0:0:0:
248,192,236734,1,0,0:0:0:0:
248,192,236826,1,0,0:0:0:0:
248,192,236918,1,8,0:0:0:0:
248,192,237010,1,8,0:0:0:0:
248,192,237194,1,8,0:0:0:0:
248,192,237286,1,8,0:0:0:0:
248,192,237378,1,8,0:0:0:0:
248,192,237470,1,0,0:0:0:0:
248,192,237562,1,8,0:0:0:0:
248,192,237654,1,8,0:0:0:0:
248,192,237746,1,0,0:0:0:0:
248,192,237838,1,0,0:0:0:0:
248,192,237930,1,8,0:0:0:0:
248,192,238022,1,0,0:0:0:0:
248,192,238114,1,8,0:0:0:0:
248,192,238206,1,0,0:0:0:0:
248,192,238298,1,0,0:0:0:0:
248,192,238390,1,0,0:0:0:0:
248,192,238482,1,8,0:0:0:0:
248,192,238574,1,0,0:0:0:0:
248,192,238666,1,8,0:0:0:0:
248,192,238758,1,8,0:0:0:0:
236,184,238942,1,0,0:0:0:0:
248,192,239034,1,8,0:0:0:0:
248,192,239127,1,8,0:0:0:0:
248,192,239219,1,0,0:0:0:0:
248,192,239311,1,8,0:0:0:0:
248,192,239495,1,0,0:0:0:0:
248,192,239587,1,8,0:0:0:0:
248,192,239679,1,0,0:0:0:0:
248,192,239771,1,0,0:0:0:0:
248,192,239863,1,8,0:0:0:0:
248,192,239955,1,8,0:0:0:0:
248,192,240139,1,0,0:0:0:0:
248,192,240231,1,0,0:0:0:0:
248,192,240323,1,8,0:0:0:0:
248,192,240415,1,0,0:0:0:0:
248,192,240507,1,8,0:0:0:0:
248,192,240568,1,8,0:0:0:0:
248,192,240630,1,8,0:0:0:0:
248,192,240691,1,0,0:0:0:0:
248,192,240783,1,0,0:0:0:0:
248,192,240875,1,8,0:0:0:0:
248,192,240967,1,0,0:0:0:0:
248,192,241059,1,8,0:0:0:0:
248,192,241151,1,8,0:0:0:0:
248,192,241243,1,0,0:0:0:0:
248,192,241335,1,0,0:0:0:0:
248,192,241427,1,8,0:0:0:0:
248,192,241519,1,0,0:0:0:0:
248,192,241611,1,8,0:0:0:0:
248,192,241795,1,12,0:0:0:0:
248,192,241979,1,8,0:0:0:0:
248,192,242071,1,8,0:0:0:0:
248,192,242163,1,0,0:0:0:0:
248,192,242347,1,4,0:0:0:0:
248,192,242531,1,8,0:0:0:0:
248,192,242623,1,0,0:0:0:0:
248,192,242715,1,0,0:0:0:0:
248,192,242900,1,12,0:0:0:0:
248,192,243084,1,8,0:0:0:0:
248,192,243176,1,0,0:0:0:0:
248,192,243268,1,0,0:0:0:0:
248,192,243452,1,0,0:0:0:0:
248,192,243544,1,8,0:0:0:0:
248,192,243636,1,8,0:0:0:0:
248,192,243728,1,0,0:0:0:0:
248,192,243820,1,8,0:0:0:0:
248,192,243912,1,8,0:0:0:0:
248,192,244004,1,8,0:0:0:0:
248,192,244096,1,8,0:0:0:0:
248,192,244188,1,0,0:0:0:0:
248,192,244280,1,0,0:0:0:0:
248,192,244372,1,8,0:0:0:0:
248,192,244464,1,0,0:0:0:0:
248,192,244556,1,8,0:0:0:0:
248,192,244648,1,8,0:0:0:0:
248,192,244740,1,0,0:0:0:0:
248,192,244832,1,8,0:0:0:0:
248,192,244924,1,0,0:0:0:0:
248,192,245016,1,0,0:0:0:0:
248,192,245108,1,8,0:0:0:0:
248,192,245200,1,8,0:0:0:0:
248,192,245292,1,0,0:0:0:0:
248,192,245384,1,8,0:0:0:0:
248,192,245476,1,0,0:0:0:0:
248,192,245568,1,0,0:0:0:0:
248,192,245660,1,8,0:0:0:0:
248,192,245752,1,8,0:0:0:0:
248,192,245844,1,0,0:0:0:0:
248,192,245936,1,8,0:0:0:0:
248,192,246028,1,0,0:0:0:0:
248,192,246120,1,0,0:0:0:0:
248,192,246212,1,8,0:0:0:0:
248,192,246304,1,0,0:0:0:0:
248,192,246396,1,8,0:0:0:0:
248,192,246458,1,8,0:0:0:0:
248,192,246519,1,8,0:0:0:0:
248,192,246580,1,0,0:0:0:0:
248,192,246673,1,0,0:0:0:0:
248,192,246765,1,8,0:0:0:0:
248,192,246857,1,0,0:0:0:0:
248,192,246949,1,8,0:0:0:0:
248,192,247041,1,8,0:0:0:0:
248,192,247133,1,0,0:0:0:0:
248,192,247225,1,0,0:0:0:0:
248,192,247317,1,8,0:0:0:0:
248,192,247409,1,0,0:0:0:0:
256,192,247501,1,8,0:0:0:0:
252,192,247593,1,8,0:0:0:0:
252,192,247685,1,8,0:0:0:0:
252,192,247777,1,8,0:0:0:0:
252,192,247870,1,0,0:0:0:0:
248,192,248238,1,0,0:0:0:0:
248,192,248360,1,8,0:0:0:0:
248,192,248483,1,8,0:0:0:0:
252,192,248606,1,0,0:0:0:0:
252,192,248728,1,0,0:0:0:0:
252,192,248851,1,8,0:0:0:0:
248,192,248974,1,0,0:0:0:0:
256,192,249710,1,8,0:0:0:0:
256,192,249802,1,8,0:0:0:0:
256,192,249894,1,0,0:0:0:0:
256,192,249986,1,0,0:0:0:0:
256,192,250078,1,8,0:0:0:0:
256,192,250814,1,4,0:0:0:0:
256,192,250998,1,0,0:0:0:0:
256,192,251182,1,8,0:0:0:0:
256,192,251366,1,0,0:0:0:0:
256,192,251550,1,8,0:0:0:0:
256,192,251735,1,8,0:0:0:0:
256,192,251919,1,8,0:0:0:0:
256,192,252103,1,0,0:0:0:0:
256,192,252287,1,8,0:0:0:0:
256,192,252471,1,8,0:0:0:0:
256,192,252655,1,0,0:0:0:0:
256,192,252839,1,0,0:0:0:0:
256,192,253023,1,8,0:0:0:0:
256,192,253391,1,8,0:0:0:0:
256,192,253575,1,8,0:0:0:0:
256,192,253759,1,4,0:0:0:0:
256,192,253943,1,8,0:0:0:0:
256,192,254004,1,0,0:0:0:0:
256,192,254066,1,0,0:0:0:0:
256,192,254127,1,8,0:0:0:0:
256,192,254311,1,4,0:0:0:0:
256,192,254495,1,8,0:0:0:0:
256,192,254557,1,8,0:0:0:0:
256,192,254618,1,0,0:0:0:0:
256,192,254679,1,8,0:0:0:0:
256,192,254863,1,12,0:0:0:0:
256,192,255047,1,0,0:0:0:0:
256,192,255109,1,8,0:0:0:0:
256,192,255170,1,0,0:0:0:0:
256,192,255231,1,0,0:0:0:0:
256,192,255416,1,12,0:0:0:0:
252,188,255600,1,8,0:0:0:0:
252,188,255661,1,0,0:0:0:0:
252,188,255722,1,8,0:0:0:0:
256,192,255784,1,8,0:0:0:0:
256,192,255968,1,4,0:0:0:0:
252,188,256152,1,0,0:0:0:0:
252,188,256213,1,0,0:0:0:0:
252,188,256274,1,8,0:0:0:0:
252,188,256336,1,8,0:0:0:0:
252,188,256520,1,0,0:0:0:0:
256,192,256704,1,8,0:0:0:0:
256,192,256796,1,8,0:0:0:0:
256,192,256888,1,0,0:0:0:0:
256,192,256980,1,0,0:0:0:0:
256,184,257072,1,8,0:0:0:0:
256,184,257164,1,0,0:0:0:0:
256,184,257256,1,0,0:0:0:0:
256,184,257348,1,8,0:0:0:0:
260,188,257440,1,8,0:0:0:0:
260,188,257532,1,0,0:0:0:0:
260,188,257624,1,8,0:0:0:0:
260,188,257716,1,8,0:0:0:0:
256,192,257808,1,8,0:0:0:0:
252,180,257900,1,0,0:0:0:0:
252,180,257992,1,8,0:0:0:0:
256,184,258084,1,0,0:0:0:0:
260,184,258176,1,8,0:0:0:0:
260,188,258268,1,8,0:0:0:0:
260,188,258360,1,8,0:0:0:0:
260,188,258452,1,8,0:0:0:0:
260,188,258544,1,0,0:0:0:0:
256,192,258636,1,0,0:0:0:0:
256,192,258728,1,8,0:0:0:0:
260,192,258820,1,8,0:0:0:0:
256,192,258912,1,0,0:0:0:0:
256,192,259004,1,0,0:0:0:0:
256,192,259096,1,0,0:0:0:0:
256,192,259189,1,8,0:0:0:0:
256,188,259281,1,0,0:0:0:0:
256,188,259373,1,8,0:0:0:0:
256,188,259465,1,8,0:0:0:0:
256,188,259557,1,0,0:0:0:0:
264,188,259649,1,8,0:0:0:0:
264,188,259771,1,0,0:0:0:0:
264,188,259894,1,8,0:0:0:0:
264,188,260017,1,8,0:0:0:0:
264,188,260139,1,0,0:0:0:0:
264,188,260262,1,0,0:0:0:0:
264,188,260385,1,8,0:0:0:0:
264,188,260508,1,8,0:0:0:0:
264,188,260630,1,8,0:0:0:0:
264,188,260753,1,0,0:0:0:0:
264,188,260876,1,8,0:0:0:0:
264,188,260998,1,8,0:0:0:0:
264,188,261121,1,0,0:0:0:0:
264,188,261182,1,0,0:0:0:0:
264,188,261244,1,0,0:0:0:0:
264,188,261305,1,8,0:0:0:0:
264,188,261489,1,0,0:0:0:0:
264,188,261612,1,8,0:0:0:0:
264,188,261735,1,8,0:0:0:0:
264,188,261857,1,0,0:0:0:0:
256,191,262593,1,12,0:0:0:0:
256,192,262962,1,8,0:0:0:0:
256,192,263054,1,0,0:0:0:0:
256,192,263146,1,0,0:0:0:0:
256,192,263238,1,0,0:0:0:0:
256,192,263330,1,8,0:0:0:0:
256,192,263422,1,0,0:0:0:0:
256,192,263514,1,0,0:0:0:0:
256,192,263606,1,8,0:0:0:0:
256,192,263698,1,8,0:0:0:0:
256,192,263790,1,0,0:0:0:0:
256,192,263882,1,8,0:0:0:0:
250,157,263974,1,0,0:0:0:0:
256,192,264066,1,8,0:0:0:0:
259,196,264158,1,8,0:0:0:0:
259,196,264250,1,0,0:0:0:0:
259,196,264342,1,0,0:0:0:0:
256,192,264434,1,8,0:0:0:0:
256,192,264526,1,0,0:0:0:0:
256,192,264618,1,0,0:0:0:0:
256,192,264710,1,8,0:0:0:0:
256,192,264802,1,8,0:0:0:0:
259,196,265170,1,0,0:0:0:0:
257,191,265293,1,0,0:0:0:0:
256,192,265416,1,0,0:0:0:0:
256,192,265538,1,12,0:0:0:0:
256,192,266090,1,0,0:0:0:0:
257,191,266274,1,8,0:0:0:0:
264,192,266643,1,4,0:0:0:0:
264,192,267195,1,8,0:0:0:0:
264,192,267379,1,0,0:0:0:0:
272,192,267563,1,0,0:0:0:0:
256,192,267747,1,8,0:0:0:0:
256,192,267839,1,8,0:0:0:0:
256,192,267931,1,0,0:0:0:0:
256,192,268023,1,0,0:0:0:0:
256,192,268115,1,8,0:0:0:0:
256,192,268207,1,0,0:0:0:0:
256,192,268299,1,8,0:0:0:0:
256,192,268391,1,8,0:0:0:0:
256,192,268483,1,0,0:0:0:0:
256,192,268544,1,0,0:0:0:0:
256,192,268606,1,0,0:0:0:0:
256,192,268667,1,8,0:0:0:0:
248,184,268759,1,0,0:0:0:0:
248,192,268851,1,8,0:0:0:0:
248,192,268943,1,8,0:0:0:0:
256,192,269035,1,0,0:0:0:0:
240,192,269127,1,0,0:0:0:0:
256,184,269219,1,8,0:0:0:0:
256,184,269281,1,8,0:0:0:0:
248,184,269342,1,0,0:0:0:0:
256,184,269403,1,0,0:0:0:0:
256,192,269495,1,0,0:0:0:0:
256,184,269587,1,8,0:0:0:0:
248,192,269679,1,0,0:0:0:0:
256,192,269863,1,0,0:0:0:0:
256,192,269955,1,8,0:0:0:0:
256,192,270047,1,8,0:0:0:0:
256,192,270139,1,0,0:0:0:0:
264,192,270231,1,0,0:0:0:0:
264,192,270323,1,8,0:0:0:0:
264,192,270416,1,0,0:0:0:0:
248,192,270508,1,0,0:0:0:0:
248,192,270600,1,0,0:0:0:0:
256,192,270692,1,8,0:0:0:0:
248,192,270784,1,8,0:0:0:0:
248,192,270876,1,8,0:0:0:0:
248,192,270968,1,8,0:0:0:0:
240,192,271060,1,0,0:0:0:0:
240,192,271152,1,8,0:0:0:0:
240,192,271244,1,0,0:0:0:0:
240,192,271336,1,0,0:0:0:0:
240,192,271428,1,12,0:0:0:0:
240,192,271796,1,0,0:0:0:0:
240,192,271980,1,0,0:0:0:0:
240,192,272164,1,8,0:0:0:0:
240,192,272532,1,0,0:0:0:0:
240,192,272900,1,0,0:0:0:0:
240,192,273084,1,8,0:0:0:0:
240,192,273268,1,0,0:0:0:0:
240,192,273452,1,0,0:0:0:0:
240,192,273636,1,8,0:0:0:0:
240,192,274004,1,8,0:0:0:0:
240,192,274189,1,0,0:0:0:0:
240,192,274373,1,4,0:0:0:0:
240,192,274741,1,0,0:0:0:0:
240,192,274925,1,0,0:0:0:0:
240,192,275109,1,8,0:0:0:0:
240,192,275477,1,0,0:0:0:0:
248,192,275845,1,0,0:0:0:0:
248,192,276029,1,8,0:0:0:0:
248,192,276213,1,0,0:0:0:0:
248,192,276397,1,0,0:0:0:0:
248,192,276581,1,12,0:0:0:0:
248,192,276949,1,8,0:0:0:0:
248,192,277133,1,0,0:0:0:0:
248,192,277317,1,4,0:0:0:0:
256,192,277685,1,0,0:0:0:0:
248,192,277869,1,8,0:0:0:0:
248,192,278054,1,8,0:0:0:0:
256,192,278422,1,0,0:0:0:0:
256,192,278606,1,0,0:0:0:0:
256,192,278974,1,8,0:0:0:0:
256,192,279158,1,0,0:0:0:0:
256,192,279342,1,0,0:0:0:0:
256,192,279526,1,8,0:0:0:0:
256,192,279894,1,0,0:0:0:0:
256,192,280078,1,8,0:0:0:0:
256,192,280262,1,4,0:0:0:0:
256,192,280630,1,0,0:0:0:0:
256,192,280814,1,0,0:0:0:0:
256,192,280998,1,8,0:0:0:0:
256,192,281366,1,8,0:0:0:0:
256,192,281735,1,0,0:0:0:0:
256,192,281919,1,8,0:0:0:0:
256,192,282103,1,0,0:0:0:0:
256,192,282287,1,0,0:0:0:0:
256,192,282471,1,8,0:0:0:0:
256,192,282655,1,0,0:0:0:0:
256,192,282747,1,8,0:0:0:0:
256,192,282839,1,8,0:0:0:0:
256,192,282931,1,0,0:0:0:0:
256,192,283023,1,0,0:0:0:0:
256,192,283115,1,0,0:0:0:0:
256,192,283207,1,8,0:0:0:0:
256,192,283391,1,0,0:0:0:0:
256,192,283759,1,0,0:0:0:0:
256,192,283943,1,8,0:0:0:0:
256,192,284127,1,0,0:0:0:0:
256,192,284311,1,0,0:0:0:0:
256,192,284679,1,0,0:0:0:0:
256,192,284863,1,8,0:0:0:0:
256,192,285047,1,0,0:0:0:0:
256,192,285231,1,0,0:0:0:0:
256,192,285416,1,8,0:0:0:0:
256,192,285784,1,0,0:0:0:0:
256,192,285968,1,8,0:0:0:0:
256,192,286152,1,4,0:0:0:0:
256,192,286336,1,0,0:0:0:0:
256,192,286704,1,0,0:0:0:0:
256,192,286888,1,8,0:0:0:0:
256,192,287072,1,8,0:0:0:0:
256,192,287256,1,0,0:0:0:0:
256,192,287624,1,0,0:0:0:0:
256,192,287808,1,8,0:0:0:0:
256,192,287992,1,0,0:0:0:0:
256,192,288176,1,0,0:0:0:0:
256,192,288360,1,12,0:0:0:0:
256,192,288544,1,0,0:0:0:0:
256,192,288728,1,0,0:0:0:0:
256,192,288912,1,8,0:0:0:0:
256,192,289096,1,4,0:0:0:0:
256,192,289465,1,0,0:0:0:0:
256,192,289649,1,0,0:0:0:0:
256,192,289833,1,8,0:0:0:0:
256,192,290201,1,8,0:0:0:0:
256,192,290569,1,0,0:0:0:0:
256,192,290753,1,8,0:0:0:0:
256,192,290937,1,0,0:0:0:0:
256,192,291121,1,0,0:0:0:0:
256,192,291305,1,8,0:0:0:0:
256,192,291489,1,0,0:0:0:0:
256,192,291673,1,0,0:0:0:0:
256,192,291857,1,0,0:0:0:0:
256,192,292041,1,12,0:0:0:0:
256,192,292409,1,0,0:0:0:0:
256,192,292593,1,0,0:0:0:0:
256,192,292777,1,12,0:0:0:0:
256,192,292962,1,0,0:0:0:0:
256,192,293146,1,4,0:0:0:0:
256,192,293514,1,0,0:0:0:0:
256,192,293698,1,8,0:0:0:0:
256,192,293882,1,0,0:0:0:0:
256,192,294066,1,0,0:0:0:0:
256,192,294250,1,12,0:0:0:0:
256,192,294434,1,0,0:0:0:0:
256,192,294618,1,8,0:0:0:0:
256,192,294802,1,8,0:0:0:0:
256,192,294986,1,4,0:0:0:0:
256,192,295354,1,0,0:0:0:0:
256,192,295538,1,0,0:0:0:0:
256,192,295722,1,8,0:0:0:0:
256,192,296090,1,12,0:0:0:0:
256,192,296458,1,4,0:0:0:0:
256,192,296643,1,0,0:0:0:0:
256,192,296827,1,0,0:0:0:0:
256,192,297011,1,0,0:0:0:0:
256,192,297195,1,8,0:0:0:0:
256,192,297379,1,8,0:0:0:0:
256,192,297563,1,8,0:0:0:0:
256,192,297747,1,0,0:0:0:0:
256,192,297931,1,12,0:0:0:0:
256,192,298115,1,0,0:0:0:0:
256,192,298207,1,0,0:0:0:0:
256,192,298299,1,0,0:0:0:0:
256,192,298483,1,8,0:0:0:0:
256,192,298667,1,0,0:0:0:0:
256,192,298759,1,0,0:0:0:0:
256,192,298851,1,0,0:0:0:0:
256,192,299035,1,8,0:0:0:0:
256,192,299219,1,0,0:0:0:0:
256,192,299311,1,8,0:0:0:0:
256,192,299403,1,0,0:0:0:0:
256,192,299587,1,8,0:0:0:0:
256,192,299771,1,0,0:0:0:0:
256,192,299863,1,0,0:0:0:0:
256,192,299955,1,0,0:0:0:0:
256,192,300139,1,8,0:0:0:0:
256,192,300231,1,8,0:0:0:0:
256,192,300323,1,0,0:0:0:0:
256,192,300416,1,0,0:0:0:0:
256,192,300508,1,8,0:0:0:0:
256,192,300692,1,0,0:0:0:0:
256,192,300784,1,0,0:0:0:0:
256,192,300876,1,8,0:0:0:0:
256,192,301060,1,0,0:0:0:0:
256,192,301244,1,8,0:0:0:0:
256,192,301336,1,8,0:0:0:0:
256,192,301428,1,0,0:0:0:0:
256,192,301612,1,8,0:0:0:0:
256,192,301796,1,0,0:0:0:0:
256,192,301888,1,8,0:0:0:0:
256,192,301980,1,0,0:0:0:0:
256,192,302164,1,8,0:0:0:0:
256,192,302348,1,0,0:0:0:0:
256,192,302440,1,0,0:0:0:0:
256,192,302532,1,0,0:0:0:0:
256,192,302716,1,8,0:0:0:0:
256,192,302808,1,8,0:0:0:0:
256,192,302900,1,0,0:0:0:0:
256,192,302992,1,0,0:0:0:0:
256,192,303084,1,8,0:0:0:0:
256,192,303176,1,8,0:0:0:0:
256,192,303268,1,8,0:0:0:0:
256,192,303360,1,0,0:0:0:0:
256,192,303452,1,8,0:0:0:0:
256,192,303636,1,0,0:0:0:0:
256,192,303728,1,0,0:0:0:0:
256,192,303820,1,0,0:0:0:0:
256,192,304004,1,8,0:0:0:0:
256,192,304096,1,0,0:0:0:0:
256,192,304188,1,0,0:0:0:0:
256,192,304281,1,8,0:0:0:0:
256,192,304373,1,0,0:0:0:0:
256,192,304557,1,8,0:0:0:0:
256,192,304741,1,0,0:0:0:0:
256,192,304833,1,8,0:0:0:0:
256,192,304925,1,8,0:0:0:0:
256,192,305109,1,0,0:0:0:0:
256,192,305293,1,8,0:0:0:0:
256,160,305385,1,8,0:0:0:0:
256,192,305477,1,0,0:0:0:0:
256,192,305661,1,8,0:0:0:0:
256,192,305753,1,0,0:0:0:0:
256,192,305845,1,0,0:0:0:0:
256,192,305937,1,0,0:0:0:0:
256,192,306029,1,8,0:0:0:0:
256,192,306121,1,0,0:0:0:0:
256,192,306213,1,0,0:0:0:0:
256,192,306305,1,8,0:0:0:0:
256,192,306397,1,8,0:0:0:0:
256,192,306581,1,0,0:0:0:0:
256,192,306673,1,0,0:0:0:0:
256,192,306765,1,0,0:0:0:0:
256,192,306949,1,8,0:0:0:0:
256,192,307133,1,0,0:0:0:0:
256,192,307225,1,8,0:0:0:0:
256,192,307317,1,8,0:0:0:0:
256,192,307409,1,0,0:0:0:0:
256,192,307501,1,8,0:0:0:0:
256,192,307685,1,0,0:0:0:0:
256,192,307777,1,0,0:0:0:0:
256,192,307869,1,0,0:0:0:0:
256,192,308054,1,8,0:0:0:0:
256,192,308238,1,0,0:0:0:0:
256,192,308330,1,8,0:0:0:0:
256,192,308422,1,0,0:0:0:0:
256,192,308514,1,0,0:0:0:0:
256,192,308606,1,8,0:0:0:0:
256,192,308790,1,0,0:0:0:0:
256,192,308974,1,8,0:0:0:0:
256,192,309158,1,0,0:0:0:0:
256,192,309342,1,8,0:0:0:0:
256,192,309434,1,0,0:0:0:0:
256,192,309526,1,0,0:0:0:0:
256,192,309618,1,0,0:0:0:0:
256,192,309710,1,0,0:0:0:0:
256,192,309802,1,0,0:0:0:0:
256,192,309894,1,8,0:0:0:0:
256,192,309986,1,0,0:0:0:0:
256,192,310078,1,8,0:0:0:0:
256,192,310170,1,8,0:0:0:0:
256,192,310262,1,0,0:0:0:0:
256,192,310354,1,0,0:0:0:0:
256,192,310446,1,8,0:0:0:0:
224,192,310538,1,0,0:0:0:0:
256,192,310630,1,0,0:0:0:0:
224,192,310722,1,0,0:0:0:0:
256,192,310814,1,0,0:0:0:0:
256,192,310906,1,0,0:0:0:0:
256,192,310998,1,8,0:0:0:0:
256,192,311090,1,0,0:0:0:0:
256,192,311182,1,0,0:0:0:0:
256,192,311274,1,0,0:0:0:0:
256,192,311366,1,8,0:0:0:0:
256,192,311458,1,0,0:0:0:0:
256,192,311550,1,8,0:0:0:0:
256,192,311642,1,8,0:0:0:0:
256,192,311734,1,0,0:0:0:0:
256,192,311827,1,0,0:0:0:0:
256,192,311919,1,8,0:0:0:0:
256,192,312011,1,0,0:0:0:0:
256,192,312103,1,0,0:0:0:0:
256,192,312195,1,0,0:0:0:0:
256,192,312287,1,8,0:0:0:0:
256,192,312379,1,0,0:0:0:0:
256,192,312471,1,8,0:0:0:0:
256,192,312563,1,0,0:0:0:0:
256,192,312655,1,8,0:0:0:0:
256,192,312747,1,8,0:0:0:0:
256,192,312839,1,0,0:0:0:0:
224,192,312931,1,0,0:0:0:0:
256,192,313023,1,8,0:0:0:0:
256,192,313115,1,0,0:0:0:0:
256,192,313207,1,0,0:0:0:0:
256,192,313299,1,0,0:0:0:0:
256,192,313391,1,0,0:0:0:0:
256,192,313483,1,0,0:0:0:0:
256,192,313575,1,8,0:0:0:0:
256,192,313667,1,0,0:0:0:0:
256,192,313759,1,8,0:0:0:0:
256,192,313851,1,8,0:0:0:0:
256,192,313943,1,0,0:0:0:0:
256,192,314035,1,0,0:0:0:0:
256,192,314127,1,8,0:0:0:0:
256,192,314219,1,8,0:0:0:0:
256,192,314311,1,8,0:0:0:0:
256,192,314403,1,0,0:0:0:0:
256,192,314495,1,8,0:0:0:0:
256,192,314587,1,8,0:0:0:0:
256,192,314679,1,0,0:0:0:0:
256,192,314771,1,0,0:0:0:0:
256,192,314863,1,8,0:0:0:0:
256,192,314955,1,0,0:0:0:0:
256,192,315047,1,0,0:0:0:0:
256,192,315139,1,0,0:0:0:0:
256,192,315231,1,8,0:0:0:0:
256,192,315323,1,0,0:0:0:0:
256,192,315415,1,0,0:0:0:0:
256,192,315507,1,0,0:0:0:0:
256,192,315599,1,8,0:0:0:0:
256,192,315692,1,8,0:0:0:0:
256,192,315784,1,0,0:0:0:0:
256,192,315876,1,0,0:0:0:0:
256,192,315968,1,8,0:0:0:0:
256,192,316060,1,8,0:0:0:0:
256,192,316152,1,8,0:0:0:0:
256,192,316244,1,0,0:0:0:0:
256,192,316336,1,8,0:0:0:0:
256,192,316428,1,0,0:0:0:0:
256,192,316520,1,0,0:0:0:0:
256,192,316612,1,0,0:0:0:0:
256,192,316704,1,8,0:0:0:0:
256,192,316796,1,8,0:0:0:0:
256,192,316888,1,0,0:0:0:0:
256,192,316980,1,0,0:0:0:0:
256,192,317072,1,8,0:0:0:0:
256,192,317256,1,0,0:0:0:0:
256,192,317440,1,8,0:0:0:0:
256,192,317532,1,8,0:0:0:0:
256,192,317624,1,0,0:0:0:0:
256,192,317808,1,12,0:0:0:0:
256,192,317992,1,0,0:0:0:0:
256,192,318176,1,0,0:0:0:0:
256,192,318360,1,12,0:0:0:0:
256,192,318544,1,0,0:0:0:0:
256,192,318728,1,0,0:0:0:0:
256,192,318912,1,12,0:0:0:0:
256,192,319096,1,0,0:0:0:0:
256,192,319280,1,0,0:0:0:0:
256,192,319465,1,12,0:0:0:0:
256,192,319649,1,0,0:0:0:0:
256,192,319833,1,0,0:0:0:0:
256,192,320017,1,8,0:0:0:0:
256,192,320109,1,0,0:0:0:0:
256,192,320201,1,8,0:0:0:0:
256,192,320293,1,0,0:0:0:0:
256,192,320385,1,8,0:0:0:0:
256,192,320477,1,0,0:0:0:0:
256,192,320569,1,8,0:0:0:0:
256,192,320661,1,8,0:0:0:0:
256,192,320753,1,4,0:0:0:0:
256,192,321029,1,8,0:0:0:0:
256,192,321121,1,8,0:0:0:0:
264,192,321305,1,4,0:0:0:0:
264,192,321489,1,8,0:0:0:0:
264,192,321581,1,8,0:0:0:0:
264,184,321673,1,8,0:0:0:0:
264,192,321857,1,0,0:0:0:0:
256,192,321949,1,0,0:0:0:0:
264,192,322041,1,8,0:0:0:0:
264,192,322133,1,0,0:0:0:0:
264,192,322225,1,8,0:0:0:0:
264,192,322317,1,8,0:0:0:0:
264,192,322409,1,0,0:0:0:0:
264,192,322501,1,8,0:0:0:0:
264,192,322593,1,0,0:0:0:0:
264,192,322685,1,0,0:0:0:0:
264,192,322777,1,8,0:0:0:0:
264,192,322869,1,0,0:0:0:0:
256,192,322961,1,8,0:0:0:0:
256,192,323023,1,0,0:0:0:0:
256,192,323084,1,0,0:0:0:0:
256,192,323145,1,8,0:0:0:0:
256,192,323238,1,0,0:0:0:0:
256,192,323330,1,8,0:0:0:0:
264,192,323391,1,8,0:0:0:0:
256,192,323452,1,0,0:0:0:0:
256,192,323514,1,0,0:0:0:0:
256,192,323606,1,0,0:0:0:0:
256,192,323698,1,8,0:0:0:0:
256,192,323759,1,8,0:0:0:0:
264,192,323820,1,0,0:0:0:0:
256,192,323882,1,8,0:0:0:0:
256,192,323943,1,0,0:0:0:0:
256,192,324004,1,0,0:0:0:0:
256,192,324066,1,8,0:0:0:0:
264,192,324250,1,8,0:0:0:0:
264,192,324434,1,8,0:0:0:0:
264,192,324618,1,0,0:0:0:0:
248,184,324802,1,0,0:0:0:0:
248,184,324986,1,0,0:0:0:0:
248,184,325170,1,8,0:0:0:0:
248,184,325354,1,0,0:0:0:0:
256,184,325538,1,4,0:0:0:0:
256,184,325722,1,0,0:0:0:0:
248,184,325814,1,0,0:0:0:0:
248,184,325906,1,0,0:0:0:0:
256,192,326090,1,0,0:0:0:0:
256,192,326274,1,8,0:0:0:0:
256,192,326458,1,0,0:0:0:0:
256,192,326642,1,8,0:0:0:0:
256,192,326734,1,8,0:0:0:0:
256,192,326826,1,8,0:0:0:0:
256,192,326918,1,0,0:0:0:0:
256,192,327010,1,0,0:0:0:0:
256,192,327194,1,0,0:0:0:0:
256,192,327378,1,0,0:0:0:0:
256,192,327562,1,0,0:0:0:0:
256,192,327746,1,8,0:0:0:0:
256,192,327838,1,0,0:0:0:0:
256,192,327930,1,0,0:0:0:0:
256,192,328022,1,0,0:0:0:0:
256,192,328114,1,0,0:0:0:0:
256,192,328206,1,8,0:0:0:0:
256,192,328298,1,8,0:0:0:0:
256,192,328390,1,0,0:0:0:0:
256,192,328482,1,8,0:0:0:0:
256,192,328666,1,8,0:0:0:0:
256,192,328758,1,8,0:0:0:0:
256,192,328850,1,8,0:0:0:0:
256,192,329034,1,8,0:0:0:0:
256,192,329218,1,4,0:0:0:0:
256,192,329403,1,8,0:0:0:0:
256,192,329587,1,0,0:0:0:0:
256,192,329679,1,0,0:0:0:0:
256,192,329771,1,8,0:0:0:0:
256,192,329863,1,0,0:0:0:0:
256,192,329955,1,8,0:0:0:0:
256,192,330139,1,0,0:0:0:0:
256,192,330323,1,0,0:0:0:0:
256,192,330507,1,8,0:0:0:0:
256,192,330691,1,0,0:0:0:0:
256,192,330783,1,0,0:0:0:0:
256,192,330875,1,0,0:0:0:0:
256,192,330967,1,0,0:0:0:0:
256,192,331060,1,8,0:0:0:0:
256,192,331244,1,0,0:0:0:0:
256,192,331336,1,0,0:0:0:0:
256,192,331428,1,8,0:0:0:0:
256,192,331612,1,0,0:0:0:0:
256,192,331796,1,0,0:0:0:0:
256,192,331980,1,0,0:0:0:0:
256,192,332164,1,0,0:0:0:0:
256,192,332256,1,0,0:0:0:0:
256,192,332348,1,0,0:0:0:0:
256,192,332440,1,0,0:0:0:0:
256,192,332532,1,0,0:0:0:0:
256,192,332716,1,0,0:0:0:0:
256,192,332900,1,8,0:0:0:0:
256,192,333084,1,0,0:0:0:0:
256,192,333268,1,0,0:0:0:0:
256,192,333360,1,0,0:0:0:0:
256,192,333452,1,0,0:0:0:0:
256,192,333544,1,0,0:0:0:0:
256,192,333636,1,8,0:0:0:0:
256,192,333728,1,0,0:0:0:0:
256,192,333820,1,0,0:0:0:0:
256,192,333912,1,0,0:0:0:0:
256,192,334004,1,8,0:0:0:0:
256,192,334188,1,8,0:0:0:0:
256,192,334280,1,8,0:0:0:0:
256,192,334372,1,8,0:0:0:0:
256,192,334556,1,8,0:0:0:0:
256,192,334740,1,8,0:0:0:0:
256,192,334925,1,0,0:0:0:0:
256,192,335109,1,12,0:0:0:0:
256,160,335293,1,0,0:0:0:0:
256,160,335385,1,0,0:0:0:0:
256,160,335477,1,0,0:0:0:0:
256,160,335661,1,0,0:0:0:0:
256,160,335845,1,8,0:0:0:0:
256,160,336029,1,0,0:0:0:0:
256,160,336213,1,8,0:0:0:0:
256,160,336305,1,8,0:0:0:0:
256,160,336397,1,8,0:0:0:0:
256,160,336489,1,8,0:0:0:0:
256,160,336581,1,0,0:0:0:0:
256,160,336765,1,0,0:0:0:0:
256,160,336857,1,0,0:0:0:0:
256,160,336949,1,0,0:0:0:0:
256,160,337133,1,0,0:0:0:0:
256,160,337317,1,8,0:0:0:0:
256,160,337501,1,0,0:0:0:0:
256,160,337685,1,0,0:0:0:0:
256,160,337777,1,0,0:0:0:0:
256,160,337869,1,0,0:0:0:0:
256,160,337961,1,0,0:0:0:0:
256,160,338053,1,0,0:0:0:0:
256,160,338237,1,0,0:0:0:0:
256,160,338421,1,0,0:0:0:0:
256,160,338605,1,0,0:0:0:0:
256,192,338789,1,8,0:0:0:0:
256,192,338881,1,0,0:0:0:0:
256,192,338973,1,0,0:0:0:0:
256,192,339065,1,0,0:0:0:0:
256,192,339157,1,0,0:0:0:0:
256,192,339249,1,8,0:0:0:0:
256,192,339341,1,0,0:0:0:0:
256,192,339433,1,0,0:0:0:0:
264,192,339525,1,8,0:0:0:0:
264,192,339709,1,8,0:0:0:0:
264,192,339801,1,8,0:0:0:0:
264,192,339893,1,8,0:0:0:0:
264,192,340077,1,8,0:0:0:0:
256,160,340261,1,4,0:0:0:0:
256,160,340446,1,0,0:0:0:0:
256,160,340630,1,8,0:0:0:0:
256,160,340814,1,0,0:0:0:0:
256,192,340906,1,0,0:0:0:0:
256,192,340998,1,8,0:0:0:0:
256,192,341182,1,0,0:0:0:0:
256,192,341366,1,0,0:0:0:0:
256,192,341550,1,0,0:0:0:0:
256,192,341734,1,0,0:0:0:0:
256,192,341826,1,0,0:0:0:0:
256,192,341918,1,0,0:0:0:0:
256,192,342010,1,0,0:0:0:0:
256,192,342103,1,8,0:0:0:0:
256,160,342287,1,0,0:0:0:0:
256,192,342379,1,8,0:0:0:0:
256,160,342471,1,8,0:0:0:0:
256,160,342655,1,8,0:0:0:0:
256,160,342839,1,0,0:0:0:0:
256,160,343023,1,0,0:0:0:0:
256,160,343207,1,8,0:0:0:0:
256,160,343299,1,8,0:0:0:0:
256,160,343391,1,0,0:0:0:0:
256,160,343483,1,0,0:0:0:0:
256,160,343575,1,0,0:0:0:0:
256,160,343759,1,0,0:0:0:0:
256,160,343943,1,8,0:0:0:0:
256,160,344127,1,0,0:0:0:0:
256,192,344311,1,8,0:0:0:0:
256,192,344403,1,8,0:0:0:0:
256,192,344495,1,8,0:0:0:0:
256,192,344587,1,8,0:0:0:0:
256,192,344679,1,8,0:0:0:0:
256,192,344771,1,8,0:0:0:0:
256,192,344863,1,8,0:0:0:0:
256,192,344955,1,8,0:0:0:0:
256,192,345047,1,0,0:0:0:0:
256,192,345231,1,8,0:0:0:0:
256,200,345323,1,8,0:0:0:0:
256,200,345415,1,8,0:0:0:0:
248,192,345599,1,8,0:0:0:0:
248,200,345783,1,4,0:0:0:0:
248,200,345968,1,0,0:0:0:0:
248,200,346152,1,8,0:0:0:0:
256,200,346336,1,0,0:0:0:0:
256,200,346428,1,0,0:0:0:0:
256,200,346520,1,0,0:0:0:0:
256,200,346704,1,0,0:0:0:0:
256,200,346888,1,8,0:0:0:0:
256,200,347072,1,0,0:0:0:0:
256,192,347256,1,0,0:0:0:0:
256,192,347348,1,0,0:0:0:0:
256,192,347440,1,8,0:0:0:0:
256,192,347532,1,8,0:0:0:0:
256,192,347624,1,0,0:0:0:0:
256,192,347716,1,0,0:0:0:0:
256,192,347808,1,8,0:0:0:0:
256,192,347900,1,8,0:0:0:0:
256,192,347992,1,4,0:0:0:0:
256,192,348544,1,12,0:0:0:0:
256,192,349096,1,8,0:0:0:0:
256,192,349280,1,8,0:0:0:0:
256,192,349464,1,8,0:0:0:0:
256,192,349648,1,4,0:0:0:0:
256,192,350200,1,0,0:0:0:0:
256,192,350323,1,0,0:0:0:0:
256,192,350445,1,0,0:0:0:0:
256,192,350568,1,0,0:0:0:0:
256,192,350752,1,12,0:0:0:0:
256,192,351304,1,8,0:0:0:0:
256,192,351427,1,0,0:0:0:0:
256,192,351550,1,0,0:0:0:0:
256,192,351672,1,0,0:0:0:0:
256,192,351857,1,12,0:0:0:0:
256,192,352041,1,8,0:0:0:0:
256,192,352225,1,8,0:0:0:0:
256,192,352409,1,4,0:0:0:0:
256,192,352593,8,4,368421,0:0:0:0:
