osu file format v14

[General]
AudioFilename: audio.mp3
AudioLeadIn: 0
PreviewTime: -1
Countdown: 0
SampleSet: Normal
StackLeniency: 0.7
Mode: 1
LetterboxInBreaks: 0
WidescreenStoryboard: 0

[Editor]
DistanceSpacing: 2.5
BeatDivisor: 2
GridSize: 32
TimelineZoom: 2.78

[Metadata]
Title:Bridges in the sky
TitleUnicode:Bridges in the sky
Artist:Dream Theater
ArtistUnicode:Dream Theater
Creator:frukoyurdakul
Version:Inner Oni
Source:
Tags:
BeatmapID:1301222
BeatmapSetID:617072

[Difficulty]
HPDrainRate:4
CircleSize:2
OverallDifficulty:6
ApproachRate:10
SliderMultiplier:2.1
SliderTickRate:1

[Events]
//Background and Video events
//Break Periods
//Storyboard Layer 0 (Background)
//Storyboard Layer 1 (Fail)
//Storyboard Layer 2 (Pass)
//Storyboard Layer 3 (Foreground)
//Storyboard Sound Samples

[TimingPoints]
95909,413.793103448276,3,1,0,80,1,0
97288,-100,3,1,0,50,0,0
98391,413.793103448276,4,1,0,50,1,0
100046,413.793103448276,3,1,0,50,1,0
101287,413.793103448276,5,1,0,50,1,0
103355,413.793103448276,3,1,0,80,1,0
104596,413.793103448276,4,1,0,80,1,0
106251,413.793103448276,3,1,0,80,1,0
107492,413.793103448276,4,1,0,80,1,0
109147,413.793103448276,3,1,0,80,1,0
110388,413.793103448276,4,1,0,80,1,0
112043,413.793103448276,3,1,0,80,1,0
113284,413.793103448276,5,1,0,80,1,0
115352,413.793103448276,3,1,0,80,1,0
116593,413.793103448276,4,1,0,80,1,0
118248,413.793103448276,3,1,0,80,1,0
119483,413.793103448276,4,1,0,80,1,0
136034,413.793103448276,6,1,0,80,1,8
136044,413.793103448276,6,1,0,80,1,0
138526,413.793103448276,4,1,0,80,1,0
143491,413.793103448276,6,1,0,80,1,0
145973,413.793103448276,4,1,0,80,1,0
149282,413.793103448276,4,1,0,80,1,0
162523,413.793103448276,4,1,0,80,1,8
162535,413.793103448276,4,1,0,80,1,0
175766,413.793103448276,4,1,0,80,1,0
182386,413.793103448276,4,1,0,80,1,0
206386,413.793103448276,4,1,0,80,1,0
232868,275.862068965517,6,1,0,80,1,0
232868,-149.253731343284,6,1,0,80,0,0
272592,413.793103448276,3,1,0,80,1,0
273831,413.793103448276,4,1,0,80,1,0
275486,413.793103448276,3,1,0,80,1,0
276727,413.793103448276,5,1,0,80,1,0
278795,413.793103448276,3,1,0,80,1,0
280036,413.793103448276,4,1,0,80,1,0
281691,413.793103448276,3,1,0,80,1,0
282932,413.793103448276,3,1,0,80,1,8
282938,413.793103448276,4,1,0,80,1,0
297834,275.862068965517,6,1,0,80,1,8
297840,275.862068965517,6,1,0,80,1,0
297840,-149.253731343284,6,1,0,80,0,0
301150,275.862068965517,6,1,0,80,1,8
301156,275.862068965517,6,1,0,80,1,0
301156,-149.253731343284,6,1,0,80,0,0
304454,275.862068965517,6,1,0,80,1,0
304454,-149.253731343284,6,1,0,80,0,0
314385,413.793103448276,4,1,0,80,1,0
317695,275.862068965517,6,1,0,80,1,8
317705,275.862068965517,6,1,0,80,1,0
317705,-149.253731343284,6,1,0,80,0,0
327636,413.793103448276,4,1,0,80,1,0
330940,413.793103448276,4,1,0,80,1,0
332595,413.793103448276,5,1,0,80,1,0
334665,413.793103448276,4,1,0,80,1,0
337969,413.793103448276,4,1,0,80,1,8
338796,413.793103448276,4,1,0,80,1,0
363623,413.793103448276,4,1,0,80,1,0
365272,275.862068965517,6,1,0,80,1,0
365272,-149.253731343284,6,1,0,80,0,0
378513,275.862068965517,6,1,0,80,1,0
378520,275.862068965517,6,1,0,80,1,0
378520,-149.253731343284,6,1,0,80,0,0
384311,275.862068965517,6,1,0,80,1,0
385138,275.862068965517,6,1,0,80,1,0
434793,275.862068965517,5,1,0,80,1,0
437551,275.862068965517,6,1,0,80,1,0
440585,275.862068965517,5,1,0,80,1,0
443343,275.862068965517,6,1,0,80,1,0
446377,275.862068965517,5,1,0,80,1,0
447756,275.862068965517,6,1,0,80,1,0
452721,275.862068965517,5,1,0,80,1,0
455479,275.862068965517,6,1,0,80,1,0
458789,275.862068965517,5,1,0,80,1,0
460166,275.862068965517,6,1,0,80,1,0
461683,275.862068965517,5,1,0,80,1,0
465822,275.862068965517,6,1,0,80,1,0
467340,275.862068965517,5,1,0,80,1,0
471477,275.862068965517,6,1,0,80,1,0
472995,275.862068965517,5,1,0,80,1,0
478512,275.862068965517,6,1,0,80,1,0
480167,275.862068965517,5,1,0,80,1,0
484304,275.862068965517,6,1,0,80,1,0
485959,275.862068965517,5,1,0,80,1,0
490096,275.862068965517,6,1,0,80,1,0
491751,275.862068965517,5,1,0,80,1,0
495888,275.862068965517,6,1,0,80,1,0
497543,275.862068965517,5,1,0,80,1,0
501680,275.862068965517,6,1,0,80,1,0
503335,275.862068965517,5,1,0,80,1,0
507472,275.862068965517,6,1,0,80,1,0
509127,275.862068965517,5,1,0,80,1,0
513264,275.862068965517,6,1,0,80,1,0
514919,275.862068965517,5,1,0,80,1,0
519056,275.862068965517,6,1,0,80,1,0
520711,275.862068965517,5,1,0,80,1,0
523468,275.862068965517,6,1,0,80,1,0
524986,275.862068965517,5,1,0,80,1,0
529123,275.862068965517,6,1,0,80,1,0
530641,275.862068965517,5,1,0,80,1,0
536158,275.862068965517,6,1,0,80,1,0
607336,413.793103448276,4,1,0,80,1,0

[HitObjects]
256,192,96874,5,0,0:0:0:0:
256,192,96943,1,0,0:0:0:0:
256,192,97012,1,0,0:0:0:0:
256,192,97150,1,12,0:0:0:0:
256,192,97426,1,0,0:0:0:0:
256,192,97564,1,0,0:0:0:0:
256,192,97977,1,8,0:0:0:0:
256,192,98253,1,8,0:0:0:0:
256,192,98391,1,0,0:0:0:0:
256,192,98666,1,0,0:0:0:0:
256,192,98804,1,0,0:0:0:0:
256,192,99218,1,8,0:0:0:0:
256,192,99494,1,0,0:0:0:0:
256,192,99632,1,0,0:0:0:0:
256,192,99908,1,8,0:0:0:0:
256,192,100046,1,0,0:0:0:0:
256,192,100321,1,0,0:0:0:0:
256,192,100459,1,0,0:0:0:0:
256,192,100873,1,8,0:0:0:0:
256,192,101149,1,8,0:0:0:0:
256,192,101287,1,0,0:0:0:0:
256,192,101562,1,0,0:0:0:0:
256,192,101700,1,0,0:0:0:0:
256,192,102114,1,8,0:0:0:0:
256,192,102390,1,8,0:0:0:0:
256,192,102528,1,0,0:0:0:0:
256,192,102804,1,8,0:0:0:0:
256,192,102942,1,0,0:0:0:0:
256,192,103080,1,0,0:0:0:0:
256,192,103218,1,8,0:0:0:0:
256,192,103355,1,4,0:0:0:0:
256,192,103492,1,4,0:0:0:0:
256,192,103768,1,4,0:0:0:0:
256,192,103906,1,4,0:0:0:0:
256,192,104320,1,4,0:0:0:0:
256,192,104458,1,4,0:0:0:0:
256,192,104596,1,4,0:0:0:0:
256,192,104733,1,4,0:0:0:0:
256,192,104871,1,4,0:0:0:0:
256,192,105009,1,4,0:0:0:0:
256,192,105975,1,0,0:0:0:0:
256,192,106044,1,0,0:0:0:0:
256,192,106113,1,0,0:0:0:0:
256,192,106251,1,12,0:0:0:0:
256,192,107492,1,8,0:0:0:0:
256,192,107629,1,8,0:0:0:0:
256,192,107767,1,0,0:0:0:0:
256,192,107905,1,8,0:0:0:0:
256,192,108043,1,0,0:0:0:0:
256,192,108181,1,0,0:0:0:0:
256,192,108319,1,8,0:0:0:0:
256,192,108457,1,8,0:0:0:0:
256,192,108595,1,0,0:0:0:0:
256,192,108733,1,0,0:0:0:0:
256,192,108871,1,0,0:0:0:0:
256,192,109009,1,0,0:0:0:0:
256,192,109147,1,4,0:0:0:0:
256,192,109284,1,0,0:0:0:0:
256,192,109422,1,0,0:0:0:0:
256,192,109560,1,8,0:0:0:0:
256,192,109974,1,8,0:0:0:0:
256,192,110112,1,0,0:0:0:0:
256,192,110250,1,8,0:0:0:0:
256,192,110388,1,0,0:0:0:0:
256,192,110525,1,0,0:0:0:0:
256,192,110663,1,0,0:0:0:0:
256,192,110801,1,8,0:0:0:0:
256,192,111215,1,8,0:0:0:0:
256,192,111353,1,0,0:0:0:0:
256,192,111491,1,0,0:0:0:0:
256,192,111629,1,8,0:0:0:0:
256,192,111767,1,0,0:0:0:0:
256,192,111905,1,8,0:0:0:0:
256,192,112043,1,0,0:0:0:0:
256,192,112180,1,0,0:0:0:0:
256,192,112318,1,0,0:0:0:0:
256,192,112456,1,8,0:0:0:0:
256,192,112870,1,0,0:0:0:0:
256,192,113008,1,0,0:0:0:0:
256,192,113146,1,8,0:0:0:0:
256,192,113284,1,0,0:0:0:0:
256,192,113421,1,0,0:0:0:0:
256,192,113559,1,0,0:0:0:0:
256,192,113697,1,8,0:0:0:0:
256,192,113835,1,0,0:0:0:0:
256,192,113904,1,0,0:0:0:0:
256,192,113973,1,0,0:0:0:0:
256,192,114111,1,8,0:0:0:0:
256,192,114249,1,0,0:0:0:0:
256,192,114387,1,0,0:0:0:0:
256,192,114525,1,8,0:0:0:0:
256,192,114663,1,0,0:0:0:0:
256,192,114801,1,8,0:0:0:0:
256,192,114939,1,0,0:0:0:0:
256,192,115077,1,0,0:0:0:0:
256,192,115215,1,8,0:0:0:0:
256,192,115352,1,0,0:0:0:0:
256,192,115489,1,0,0:0:0:0:
256,192,115627,1,0,0:0:0:0:
256,192,115765,1,8,0:0:0:0:
256,192,116179,1,8,0:0:0:0:
256,192,116317,1,0,0:0:0:0:
256,192,116455,1,8,0:0:0:0:
256,192,116593,1,0,0:0:0:0:
256,192,116730,1,0,0:0:0:0:
256,192,116868,1,0,0:0:0:0:
256,192,117006,1,8,0:0:0:0:
256,192,117282,1,0,0:0:0:0:
256,192,117420,1,8,0:0:0:0:
256,192,117558,1,0,0:0:0:0:
256,192,117696,1,8,0:0:0:0:
256,192,117834,1,8,0:0:0:0:
256,192,117972,1,0,0:0:0:0:
256,192,118110,1,8,0:0:0:0:
256,192,118248,1,0,0:0:0:0:
256,192,118385,1,0,0:0:0:0:
256,192,118523,1,0,0:0:0:0:
256,192,118661,1,8,0:0:0:0:
256,192,119075,1,8,0:0:0:0:
256,192,119213,1,0,0:0:0:0:
256,192,119351,1,0,0:0:0:0:
256,192,119483,1,8,0:0:0:0:
256,192,119551,1,8,0:0:0:0:
256,192,119620,1,8,0:0:0:0:
256,192,119758,1,0,0:0:0:0:
256,192,119896,1,8,0:0:0:0:
256,192,120034,1,8,0:0:0:0:
256,192,120172,1,0,0:0:0:0:
256,192,120310,1,8,0:0:0:0:
256,192,120379,1,8,0:0:0:0:
256,192,120448,1,8,0:0:0:0:
256,192,120586,1,0,0:0:0:0:
256,192,120724,1,8,0:0:0:0:
256,192,120862,1,0,0:0:0:0:
256,192,121000,1,0,0:0:0:0:
256,192,121138,1,4,0:0:0:0:
256,192,121276,1,0,0:0:0:0:
256,192,121414,1,0,0:0:0:0:
256,192,121551,1,8,0:0:0:0:
256,192,121689,1,0,0:0:0:0:
256,192,121827,1,0,0:0:0:0:
256,192,121965,1,8,0:0:0:0:
256,192,122103,1,0,0:0:0:0:
256,192,122241,1,0,0:0:0:0:
256,192,122379,1,8,0:0:0:0:
256,192,122517,1,0,0:0:0:0:
256,192,122655,1,8,0:0:0:0:
256,192,122793,1,0,0:0:0:0:
256,192,122862,1,0,0:0:0:0:
256,192,122931,1,0,0:0:0:0:
256,192,123069,1,0,0:0:0:0:
256,192,123207,1,8,0:0:0:0:
256,192,123345,1,0,0:0:0:0:
256,192,123483,1,0,0:0:0:0:
256,192,123620,1,8,0:0:0:0:
256,192,123758,1,8,0:0:0:0:
256,192,123896,1,8,0:0:0:0:
256,192,124034,1,8,0:0:0:0:
256,192,124172,1,0,0:0:0:0:
256,192,124310,1,8,0:0:0:0:
256,192,124448,1,0,0:0:0:0:
256,192,124517,1,0,0:0:0:0:
256,192,124586,1,0,0:0:0:0:
256,192,124724,1,0,0:0:0:0:
256,192,124862,1,8,0:0:0:0:
256,192,125000,1,8,0:0:0:0:
256,192,125138,1,0,0:0:0:0:
256,192,125276,1,8,0:0:0:0:
256,192,125414,1,0,0:0:0:0:
256,192,125551,1,0,0:0:0:0:
256,192,125689,1,8,0:0:0:0:
256,192,125827,1,0,0:0:0:0:
256,192,125965,1,8,0:0:0:0:
256,192,126103,1,0,0:0:0:0:
256,192,126172,1,0,0:0:0:0:
256,192,126241,1,0,0:0:0:0:
256,192,126379,1,0,0:0:0:0:
256,192,126517,1,8,0:0:0:0:
256,192,126655,1,0,0:0:0:0:
256,192,126793,1,0,0:0:0:0:
256,192,126931,1,8,0:0:0:0:
256,192,127069,1,8,0:0:0:0:
256,192,127207,1,0,0:0:0:0:
256,192,127345,1,12,0:0:0:0:
256,192,127483,1,12,0:0:0:0:
256,192,127758,1,0,0:0:0:0:
256,192,127827,1,0,0:0:0:0:
256,192,127896,1,0,0:0:0:0:
256,192,128034,1,0,0:0:0:0:
256,192,128172,1,8,0:0:0:0:
256,192,128310,1,0,0:0:0:0:
256,192,128448,1,0,0:0:0:0:
256,192,128586,1,8,0:0:0:0:
256,192,128724,1,8,0:0:0:0:
256,192,128862,1,0,0:0:0:0:
256,192,129000,1,8,0:0:0:0:
256,192,129138,1,0,0:0:0:0:
256,192,129276,1,8,0:0:0:0:
256,192,129414,1,0,0:0:0:0:
256,192,129483,1,0,0:0:0:0:
256,192,129551,1,0,0:0:0:0:
256,192,129689,1,0,0:0:0:0:
256,192,129827,1,8,0:0:0:0:
256,192,129965,1,0,0:0:0:0:
256,192,130103,1,0,0:0:0:0:
256,192,130241,1,8,0:0:0:0:
256,192,130379,1,8,0:0:0:0:
256,192,130517,1,8,0:0:0:0:
256,192,130655,1,0,0:0:0:0:
256,192,130793,1,0,0:0:0:0:
256,192,130931,1,8,0:0:0:0:
256,192,131069,1,0,0:0:0:0:
256,192,131138,1,0,0:0:0:0:
256,192,131207,1,0,0:0:0:0:
256,192,131345,1,0,0:0:0:0:
256,192,131483,1,8,0:0:0:0:
256,192,131620,1,8,0:0:0:0:
256,192,131758,1,0,0:0:0:0:
256,192,131896,1,8,0:0:0:0:
256,192,132034,1,8,0:0:0:0:
256,192,132172,1,0,0:0:0:0:
256,192,132310,1,8,0:0:0:0:
256,192,132448,1,0,0:0:0:0:
256,192,132586,1,8,0:0:0:0:
256,192,132724,1,0,0:0:0:0:
256,192,132793,1,0,0:0:0:0:
256,192,132862,1,0,0:0:0:0:
256,192,133000,1,0,0:0:0:0:
256,192,133138,1,8,0:0:0:0:
256,192,133276,1,8,0:0:0:0:
256,192,133414,1,0,0:0:0:0:
256,192,133551,1,8,0:0:0:0:
256,192,133689,1,0,0:0:0:0:
256,192,133827,1,0,0:0:0:0:
256,192,133965,1,8,0:0:0:0:
256,192,134103,1,0,0:0:0:0:
256,192,134241,1,0,0:0:0:0:
256,192,134379,1,12,0:0:0:0:
256,192,134517,1,0,0:0:0:0:
256,192,134655,1,8,0:0:0:0:
256,192,134931,1,8,0:0:0:0:
256,192,135069,1,0,0:0:0:0:
256,192,135207,1,8,0:0:0:0:
256,192,135345,1,8,0:0:0:0:
256,192,135483,1,0,0:0:0:0:
256,192,135620,1,8,0:0:0:0:
256,192,135758,1,0,0:0:0:0:
256,192,135896,1,0,0:0:0:0:
256,192,136044,1,8,0:0:0:0:
256,192,136181,1,0,0:0:0:0:
256,192,136319,1,8,0:0:0:0:
256,192,136595,1,8,0:0:0:0:
256,192,136733,1,0,0:0:0:0:
256,192,136871,1,0,0:0:0:0:
256,192,137009,1,8,0:0:0:0:
256,192,137147,1,8,0:0:0:0:
256,192,137285,1,8,0:0:0:0:
256,192,137423,1,0,0:0:0:0:
256,192,137561,1,8,0:0:0:0:
256,192,137699,1,0,0:0:0:0:
256,192,137837,1,8,0:0:0:0:
256,192,137975,1,0,0:0:0:0:
256,192,138112,1,8,0:0:0:0:
256,192,138250,1,0,0:0:0:0:
256,192,138388,1,8,0:0:0:0:
256,192,138526,1,8,0:0:0:0:
256,192,138663,1,0,0:0:0:0:
256,192,138801,1,8,0:0:0:0:
256,192,139077,1,8,0:0:0:0:
256,192,139215,1,0,0:0:0:0:
256,192,139353,1,8,0:0:0:0:
256,192,139491,1,0,0:0:0:0:
256,192,139629,1,0,0:0:0:0:
256,192,139767,1,8,0:0:0:0:
256,192,139905,1,0,0:0:0:0:
256,192,140043,1,0,0:0:0:0:
256,192,140181,1,8,0:0:0:0:
256,192,140319,1,8,0:0:0:0:
256,192,140388,1,8,0:0:0:0:
256,192,140457,1,0,0:0:0:0:
256,192,140594,1,8,0:0:0:0:
256,192,140732,1,0,0:0:0:0:
256,192,140870,1,8,0:0:0:0:
224,192,141008,1,0,0:0:0:0:
256,192,141146,1,8,0:0:0:0:
256,192,141284,1,0,0:0:0:0:
256,192,141422,1,8,0:0:0:0:
256,192,141560,1,8,0:0:0:0:
256,192,141698,1,0,0:0:0:0:
256,192,141836,1,12,0:0:0:0:
256,192,141974,1,0,0:0:0:0:
256,192,142112,1,8,0:0:0:0:
256,192,142388,1,8,0:0:0:0:
256,192,142526,1,0,0:0:0:0:
256,192,142663,1,8,0:0:0:0:
256,192,142801,1,0,0:0:0:0:
256,192,142939,1,0,0:0:0:0:
256,192,143077,1,8,0:0:0:0:
256,192,143215,1,8,0:0:0:0:
256,192,143353,1,0,0:0:0:0:
256,192,143491,1,8,0:0:0:0:
256,192,143628,1,0,0:0:0:0:
256,192,143766,1,8,0:0:0:0:
256,192,144042,1,8,0:0:0:0:
256,192,144180,1,0,0:0:0:0:
256,192,144318,1,8,0:0:0:0:
256,192,144456,1,0,0:0:0:0:
256,192,144594,1,8,0:0:0:0:
256,192,144732,1,8,0:0:0:0:
256,192,144870,1,0,0:0:0:0:
256,192,145008,1,8,0:0:0:0:
256,192,145146,1,0,0:0:0:0:
256,192,145284,1,8,0:0:0:0:
256,192,145422,1,0,0:0:0:0:
256,192,145559,1,8,0:0:0:0:
256,192,145697,1,0,0:0:0:0:
256,192,145835,1,8,0:0:0:0:
256,192,145973,1,8,0:0:0:0:
256,192,146110,1,0,0:0:0:0:
256,192,146248,1,8,0:0:0:0:
256,192,146524,1,8,0:0:0:0:
256,192,146662,1,0,0:0:0:0:
256,192,146800,1,8,0:0:0:0:
256,192,146938,1,8,0:0:0:0:
256,192,147076,1,0,0:0:0:0:
256,192,147214,1,8,0:0:0:0:
256,192,147352,1,8,0:0:0:0:
256,192,147490,1,0,0:0:0:0:
256,192,147628,1,8,0:0:0:0:
256,192,147766,1,0,0:0:0:0:
256,192,147835,1,0,0:0:0:0:
256,192,147904,1,0,0:0:0:0:
256,192,148041,1,8,0:0:0:0:
256,192,148179,1,0,0:0:0:0:
256,192,148317,1,8,0:0:0:0:
256,192,148455,1,0,0:0:0:0:
256,192,148593,1,8,0:0:0:0:
256,192,148731,1,0,0:0:0:0:
256,192,148869,1,12,0:0:0:0:
256,192,149282,1,4,0:0:0:0:
256,192,149420,1,0,0:0:0:0:
256,192,149488,1,0,0:0:0:0:
256,192,149558,1,0,0:0:0:0:
256,192,149695,1,8,0:0:0:0:
256,192,149833,1,0,0:0:0:0:
256,192,149971,1,0,0:0:0:0:
256,192,150109,1,8,0:0:0:0:
256,192,150247,1,0,0:0:0:0:
256,192,150385,1,0,0:0:0:0:
256,192,150523,1,8,0:0:0:0:
256,192,150661,1,0,0:0:0:0:
256,192,150799,1,8,0:0:0:0:
256,192,150937,1,0,0:0:0:0:
256,192,151075,1,0,0:0:0:0:
256,192,151144,1,0,0:0:0:0:
256,192,151213,1,0,0:0:0:0:
256,192,151351,1,8,0:0:0:0:
256,192,151489,1,0,0:0:0:0:
256,192,151627,1,0,0:0:0:0:
256,192,151764,1,8,0:0:0:0:
256,192,151902,1,8,0:0:0:0:
256,192,152040,1,8,0:0:0:0:
256,192,152178,1,8,0:0:0:0:
256,192,152316,1,0,0:0:0:0:
256,192,152454,1,8,0:0:0:0:
256,192,152592,1,0,0:0:0:0:
256,192,152730,1,0,0:0:0:0:
256,192,152799,1,0,0:0:0:0:
256,192,152868,1,0,0:0:0:0:
256,192,153006,1,8,0:0:0:0:
256,192,153144,1,8,0:0:0:0:
256,192,153282,1,0,0:0:0:0:
256,192,153420,1,8,0:0:0:0:
256,192,153558,1,0,0:0:0:0:
256,192,153695,1,0,0:0:0:0:
256,192,153833,1,8,0:0:0:0:
256,192,153971,1,0,0:0:0:0:
256,192,154109,1,8,0:0:0:0:
256,192,154247,1,0,0:0:0:0:
256,192,154385,1,0,0:0:0:0:
256,192,154454,1,0,0:0:0:0:
256,192,154523,1,0,0:0:0:0:
256,192,154661,1,8,0:0:0:0:
256,192,154799,1,0,0:0:0:0:
256,192,154937,1,0,0:0:0:0:
256,192,155075,1,8,0:0:0:0:
256,192,155213,1,8,0:0:0:0:
256,192,155351,1,0,0:0:0:0:
256,192,155489,1,8,0:0:0:0:
256,192,155627,1,8,0:0:0:0:
256,192,155764,1,8,0:0:0:0:
256,192,155902,1,4,0:0:0:0:
256,192,156040,1,0,0:0:0:0:
256,192,156109,1,0,0:0:0:0:
256,192,156178,1,0,0:0:0:0:
256,192,156316,1,8,0:0:0:0:
256,192,156454,1,0,0:0:0:0:
256,192,156592,1,0,0:0:0:0:
256,192,156730,1,8,0:0:0:0:
256,192,156868,1,8,0:0:0:0:
256,192,157006,1,0,0:0:0:0:
256,192,157144,1,8,0:0:0:0:
256,192,157282,1,0,0:0:0:0:
256,192,157420,1,8,0:0:0:0:
256,192,157558,1,0,0:0:0:0:
256,192,157695,1,0,0:0:0:0:
256,192,157764,1,0,0:0:0:0:
256,192,157833,1,0,0:0:0:0:
256,192,157971,1,8,0:0:0:0:
256,192,158109,1,0,0:0:0:0:
256,192,158247,1,0,0:0:0:0:
256,192,158385,1,8,0:0:0:0:
256,192,158523,1,8,0:0:0:0:
256,192,158661,1,8,0:0:0:0:
256,192,158799,1,0,0:0:0:0:
256,192,158937,1,0,0:0:0:0:
256,192,159075,1,8,0:0:0:0:
256,192,159213,1,0,0:0:0:0:
256,192,159351,1,0,0:0:0:0:
256,192,159419,1,0,0:0:0:0:
256,192,159489,1,0,0:0:0:0:
256,192,159627,1,8,0:0:0:0:
256,192,159764,1,8,0:0:0:0:
256,192,159902,1,0,0:0:0:0:
256,192,160040,1,8,0:0:0:0:
256,192,160178,1,8,0:0:0:0:
256,192,160316,1,0,0:0:0:0:
256,192,160454,1,8,0:0:0:0:
256,192,160592,1,0,0:0:0:0:
256,192,160730,1,8,0:0:0:0:
256,192,160868,1,0,0:0:0:0:
256,192,161006,1,0,0:0:0:0:
256,192,161075,1,0,0:0:0:0:
256,192,161144,1,0,0:0:0:0:
256,192,161282,1,8,0:0:0:0:
256,192,161420,1,8,0:0:0:0:
256,192,161558,1,0,0:0:0:0:
256,192,161695,1,8,0:0:0:0:
256,192,161833,1,0,0:0:0:0:
256,192,161971,1,0,0:0:0:0:
256,192,162109,1,8,0:0:0:0:
256,192,162247,1,0,0:0:0:0:
256,192,162385,1,0,0:0:0:0:
256,192,162535,1,4,0:0:0:0:
256,192,162672,1,0,0:0:0:0:
256,192,162811,1,0,0:0:0:0:
256,192,163087,1,0,0:0:0:0:
256,192,163225,1,0,0:0:0:0:
256,192,163362,1,8,0:0:0:0:
256,192,163500,1,0,0:0:0:0:
256,192,163638,1,0,0:0:0:0:
256,192,163776,1,0,0:0:0:0:
256,192,163914,1,0,0:0:0:0:
256,192,164052,1,8,0:0:0:0:
256,192,164191,1,0,0:0:0:0:
256,192,164328,1,0,0:0:0:0:
256,192,164466,1,0,0:0:0:0:
256,192,164742,1,0,0:0:0:0:
256,192,164880,1,0,0:0:0:0:
256,192,165018,1,8,0:0:0:0:
256,192,165156,1,8,0:0:0:0:
256,192,165294,1,8,0:0:0:0:
256,192,165431,1,8,0:0:0:0:
256,192,165569,1,0,0:0:0:0:
256,192,165707,1,0,0:0:0:0:
256,192,165845,1,0,0:0:0:0:
256,192,165983,1,0,0:0:0:0:
256,192,166121,1,0,0:0:0:0:
256,192,166397,1,0,0:0:0:0:
256,192,166535,1,0,0:0:0:0:
256,192,166673,1,8,0:0:0:0:
256,192,166811,1,0,0:0:0:0:
256,192,166949,1,0,0:0:0:0:
256,192,167087,1,0,0:0:0:0:
256,192,167225,1,0,0:0:0:0:
256,192,167362,1,8,0:0:0:0:
256,192,167500,1,0,0:0:0:0:
256,192,167638,1,0,0:0:0:0:
256,192,167776,1,0,0:0:0:0:
256,192,167914,1,0,0:0:0:0:
256,192,168190,1,0,0:0:0:0:
256,192,168328,1,8,0:0:0:0:
256,192,168466,1,0,0:0:0:0:
256,192,168604,1,0,0:0:0:0:
256,192,168742,1,8,0:0:0:0:
256,192,168880,1,0,0:0:0:0:
256,192,169018,1,0,0:0:0:0:
256,192,169156,1,4,0:0:0:0:
256,192,169294,1,0,0:0:0:0:
256,192,169431,1,0,0:0:0:0:
256,192,169707,1,0,0:0:0:0:
256,192,169845,1,0,0:0:0:0:
256,192,169983,1,8,0:0:0:0:
256,192,170121,1,0,0:0:0:0:
256,192,170259,1,8,0:0:0:0:
256,192,170397,1,0,0:0:0:0:
256,192,170535,1,0,0:0:0:0:
256,192,170673,1,8,0:0:0:0:
256,192,170811,1,0,0:0:0:0:
256,192,170949,1,0,0:0:0:0:
256,192,171087,1,0,0:0:0:0:
256,192,171362,1,0,0:0:0:0:
256,192,171500,1,0,0:0:0:0:
256,192,171638,1,8,0:0:0:0:
256,192,171776,1,8,0:0:0:0:
256,192,171914,1,0,0:0:0:0:
256,192,172052,1,8,0:0:0:0:
256,192,172190,1,8,0:0:0:0:
256,192,172328,1,0,0:0:0:0:
256,192,172466,1,0,0:0:0:0:
256,192,172604,1,0,0:0:0:0:
256,192,172742,1,0,0:0:0:0:
256,192,173018,1,0,0:0:0:0:
256,192,173156,1,0,0:0:0:0:
256,192,173294,1,8,0:0:0:0:
256,192,173431,1,0,0:0:0:0:
256,192,173569,1,0,0:0:0:0:
256,192,173707,1,0,0:0:0:0:
256,192,173845,1,0,0:0:0:0:
256,192,173983,1,8,0:0:0:0:
256,192,174121,1,0,0:0:0:0:
256,192,174259,1,8,0:0:0:0:
256,192,174397,1,0,0:0:0:0:
256,192,174535,1,0,0:0:0:0:
256,192,174811,1,0,0:0:0:0:
256,192,174949,1,8,0:0:0:0:
256,192,175087,1,8,0:0:0:0:
256,192,175225,1,0,0:0:0:0:
256,192,175362,1,8,0:0:0:0:
256,192,175500,1,0,0:0:0:0:
256,192,175638,1,0,0:0:0:0:
256,192,175766,1,4,0:0:0:0:
256,192,175903,1,0,0:0:0:0:
256,192,176041,1,0,0:0:0:0:
256,192,176317,1,0,0:0:0:0:
256,192,176455,1,0,0:0:0:0:
256,192,176593,1,8,0:0:0:0:
256,192,176869,1,0,0:0:0:0:
256,192,177145,1,0,0:0:0:0:
256,192,177283,1,0,0:0:0:0:
256,192,177420,1,0,0:0:0:0:
256,192,177558,1,0,0:0:0:0:
256,192,177696,1,0,0:0:0:0:
256,192,177834,1,8,0:0:0:0:
256,192,177972,1,8,0:0:0:0:
256,192,178110,1,0,0:0:0:0:
256,192,178248,1,0,0:0:0:0:
256,192,178386,1,0,0:0:0:0:
256,192,178524,1,8,0:0:0:0:
256,192,178662,1,0,0:0:0:0:
256,192,178800,1,0,0:0:0:0:
256,192,178938,1,8,0:0:0:0:
224,192,179076,1,0,0:0:0:0:
256,192,179214,1,0,0:0:0:0:
256,192,179351,1,0,0:0:0:0:
256,192,179627,1,0,0:0:0:0:
256,192,179765,1,0,0:0:0:0:
256,192,179903,1,8,0:0:0:0:
256,192,180179,1,0,0:0:0:0:
256,192,180455,1,0,0:0:0:0:
256,192,180593,1,8,0:0:0:0:
256,192,180731,1,0,0:0:0:0:
256,192,180869,1,0,0:0:0:0:
256,192,181007,1,0,0:0:0:0:
256,192,181145,1,8,0:0:0:0:
256,192,181283,1,8,0:0:0:0:
256,192,181420,1,0,0:0:0:0:
256,192,181558,1,0,0:0:0:0:
256,192,181696,1,0,0:0:0:0:
256,192,181834,1,8,0:0:0:0:
256,192,181972,1,0,0:0:0:0:
256,192,182110,1,0,0:0:0:0:
256,192,182248,1,8,0:0:0:0:
256,192,182386,1,0,0:0:0:0:
256,192,182523,1,0,0:0:0:0:
256,192,182661,1,0,0:0:0:0:
256,192,182937,1,0,0:0:0:0:
256,192,183075,1,0,0:0:0:0:
256,192,183213,1,8,0:0:0:0:
256,192,183489,1,0,0:0:0:0:
256,192,183765,1,8,0:0:0:0:
256,192,183903,1,8,0:0:0:0:
256,192,184041,1,0,0:0:0:0:
256,192,184179,1,0,0:0:0:0:
256,192,184317,1,0,0:0:0:0:
256,192,184454,1,8,0:0:0:0:
256,192,184592,1,8,0:0:0:0:
256,192,184730,1,0,0:0:0:0:
256,192,184868,1,0,0:0:0:0:
256,192,185006,1,0,0:0:0:0:
256,192,185144,1,8,0:0:0:0:
256,192,185282,1,0,0:0:0:0:
256,192,185420,1,0,0:0:0:0:
256,192,185558,1,8,0:0:0:0:
256,192,185696,1,0,0:0:0:0:
256,192,185834,1,0,0:0:0:0:
256,192,185972,1,0,0:0:0:0:
256,192,186248,1,0,0:0:0:0:
256,192,186386,1,0,0:0:0:0:
256,192,186523,1,8,0:0:0:0:
256,192,186799,1,0,0:0:0:0:
256,192,187075,1,8,0:0:0:0:
256,192,187213,1,0,0:0:0:0:
256,192,187351,1,12,0:0:0:0:
256,192,187489,1,0,0:0:0:0:
256,192,187627,1,8,0:0:0:0:
256,192,187765,1,0,0:0:0:0:
256,192,187903,1,0,0:0:0:0:
256,192,187972,1,0,0:0:0:0:
256,192,188041,1,8,0:0:0:0:
256,192,188179,1,8,0:0:0:0:
256,192,188317,1,8,0:0:0:0:
256,192,188454,1,0,0:0:0:0:
256,192,188592,1,8,0:0:0:0:
256,192,188730,1,0,0:0:0:0:
256,192,188868,1,0,0:0:0:0:
256,192,189006,1,4,0:0:0:0:
256,192,189144,1,0,0:0:0:0:
256,192,189282,1,0,0:0:0:0:
256,192,189420,1,8,0:0:0:0:
256,192,189558,1,0,0:0:0:0:
256,192,189696,1,0,0:0:0:0:
256,192,189834,1,8,0:0:0:0:
256,192,190110,1,0,0:0:0:0:
256,192,190248,1,8,0:0:0:0:
256,192,190386,1,0,0:0:0:0:
256,192,190523,1,0,0:0:0:0:
256,192,190661,1,8,0:0:0:0:
256,192,190799,1,0,0:0:0:0:
256,192,190937,1,0,0:0:0:0:
256,192,191075,1,8,0:0:0:0:
256,192,191213,1,8,0:0:0:0:
256,192,191351,1,0,0:0:0:0:
256,192,191489,1,8,0:0:0:0:
256,192,191627,1,0,0:0:0:0:
256,192,191765,1,8,0:0:0:0:
256,192,191903,1,0,0:0:0:0:
256,192,192041,1,0,0:0:0:0:
256,192,192179,1,8,0:0:0:0:
256,192,192317,1,0,0:0:0:0:
256,192,192454,1,0,0:0:0:0:
256,192,192592,1,0,0:0:0:0:
256,192,192730,1,8,0:0:0:0:
256,192,192868,1,0,0:0:0:0:
256,192,193006,1,0,0:0:0:0:
256,192,193144,1,8,0:0:0:0:
256,192,193420,1,0,0:0:0:0:
256,192,193558,1,8,0:0:0:0:
256,192,193696,1,0,0:0:0:0:
256,192,193834,1,0,0:0:0:0:
256,192,193972,1,8,0:0:0:0:
256,192,194110,1,0,0:0:0:0:
256,192,194248,1,0,0:0:0:0:
256,192,194386,1,8,0:0:0:0:
256,192,194523,1,8,0:0:0:0:
256,192,194661,1,0,0:0:0:0:
256,192,194799,1,8,0:0:0:0:
256,192,194937,1,0,0:0:0:0:
256,192,195075,1,8,0:0:0:0:
256,192,195213,1,0,0:0:0:0:
256,192,195351,1,0,0:0:0:0:
256,192,195489,1,8,0:0:0:0:
256,192,195627,1,0,0:0:0:0:
256,192,195765,1,0,0:0:0:0:
256,192,195903,1,0,0:0:0:0:
256,192,196041,1,8,0:0:0:0:
256,192,196179,1,0,0:0:0:0:
256,192,196317,1,0,0:0:0:0:
256,192,196454,1,8,0:0:0:0:
256,192,196730,1,0,0:0:0:0:
256,192,196868,1,8,0:0:0:0:
256,192,197006,1,0,0:0:0:0:
256,192,197144,1,0,0:0:0:0:
256,192,197282,1,8,0:0:0:0:
256,192,197420,1,0,0:0:0:0:
256,192,197558,1,0,0:0:0:0:
256,192,197696,1,8,0:0:0:0:
288,192,197834,1,8,0:0:0:0:
256,192,197972,1,0,0:0:0:0:
256,192,198110,1,8,0:0:0:0:
256,192,198248,1,0,0:0:0:0:
256,192,198386,1,8,0:0:0:0:
256,192,198523,1,8,0:0:0:0:
256,192,198661,1,0,0:0:0:0:
256,192,198799,1,8,0:0:0:0:
256,192,198937,1,8,0:0:0:0:
256,192,199075,1,0,0:0:0:0:
256,192,199213,1,0,0:0:0:0:
256,192,199282,1,0,0:0:0:0:
256,192,199351,1,8,0:0:0:0:
256,192,199489,1,0,0:0:0:0:
256,192,199627,1,0,0:0:0:0:
256,192,199765,1,8,0:0:0:0:
256,192,199903,1,0,0:0:0:0:
256,192,200041,1,0,0:0:0:0:
256,192,200179,1,8,0:0:0:0:
256,192,200317,1,0,0:0:0:0:
256,192,200454,1,8,0:0:0:0:
256,192,200592,1,8,0:0:0:0:
256,192,200730,1,0,0:0:0:0:
256,192,200868,1,0,0:0:0:0:
256,192,200937,1,0,0:0:0:0:
256,192,201006,1,8,0:0:0:0:
256,192,201144,1,0,0:0:0:0:
256,192,201282,1,0,0:0:0:0:
256,192,201420,1,8,0:0:0:0:
256,192,201558,1,8,0:0:0:0:
256,192,201696,1,8,0:0:0:0:
256,192,201834,1,8,0:0:0:0:
256,192,201972,1,0,0:0:0:0:
256,192,202110,1,8,0:0:0:0:
256,192,202248,1,8,0:0:0:0:
256,192,202386,1,0,0:0:0:0:
256,192,202523,1,0,0:0:0:0:
256,192,202592,1,0,0:0:0:0:
256,192,202661,1,8,0:0:0:0:
256,192,202799,1,0,0:0:0:0:
256,192,202937,1,0,0:0:0:0:
256,192,203075,1,8,0:0:0:0:
256,192,203213,1,0,0:0:0:0:
256,192,203351,1,0,0:0:0:0:
256,192,203489,1,8,0:0:0:0:
256,192,203627,1,0,0:0:0:0:
256,192,203765,1,8,0:0:0:0:
256,192,203903,1,8,0:0:0:0:
256,192,204041,1,0,0:0:0:0:
256,192,204179,1,0,0:0:0:0:
256,192,204248,1,0,0:0:0:0:
256,192,204317,1,8,0:0:0:0:
256,192,204454,1,0,0:0:0:0:
256,192,204592,1,0,0:0:0:0:
256,192,204730,1,8,0:0:0:0:
256,192,204799,1,8,0:0:0:0:
256,192,204868,1,8,0:0:0:0:
256,192,205006,1,8,0:0:0:0:
256,192,205144,1,8,0:0:0:0:
256,192,205282,1,8,0:0:0:0:
256,192,205420,1,8,0:0:0:0:
256,192,205558,1,8,0:0:0:0:
256,192,205627,1,8,0:0:0:0:
256,192,205696,1,8,0:0:0:0:
256,192,205834,1,8,0:0:0:0:
256,192,205972,1,0,0:0:0:0:
256,192,206110,1,0,0:0:0:0:
256,192,206248,1,0,0:0:0:0:
256,192,206386,1,4,0:0:0:0:
256,192,206661,1,0,0:0:0:0:
256,192,206799,1,8,0:0:0:0:
256,192,206937,1,0,0:0:0:0:
256,192,207006,1,0,0:0:0:0:
256,192,207075,1,0,0:0:0:0:
256,192,207213,1,8,0:0:0:0:
256,192,207351,1,0,0:0:0:0:
256,192,207489,1,0,0:0:0:0:
256,192,207627,1,8,0:0:0:0:
256,192,207696,1,8,0:0:0:0:
256,192,207765,1,8,0:0:0:0:
256,192,207903,1,0,0:0:0:0:
256,192,208041,1,8,0:0:0:0:
256,192,208179,1,0,0:0:0:0:
256,192,208317,1,0,0:0:0:0:
256,192,208386,1,0,0:0:0:0:
256,192,208454,1,8,0:0:0:0:
256,192,208592,1,0,0:0:0:0:
256,192,208730,1,0,0:0:0:0:
256,192,208868,1,8,0:0:0:0:
256,192,209006,1,0,0:0:0:0:
256,192,209144,1,8,0:0:0:0:
256,192,209282,1,0,0:0:0:0:
256,192,209420,1,0,0:0:0:0:
256,192,209558,1,8,0:0:0:0:
256,192,209696,1,8,0:0:0:0:
256,192,209972,1,0,0:0:0:0:
256,192,210041,1,0,0:0:0:0:
256,192,210110,1,8,0:0:0:0:
256,192,210248,1,0,0:0:0:0:
256,192,210386,1,0,0:0:0:0:
256,192,210523,1,8,0:0:0:0:
256,192,210592,1,8,0:0:0:0:
256,192,210661,1,8,0:0:0:0:
256,192,210799,1,0,0:0:0:0:
256,192,210937,1,8,0:0:0:0:
256,192,211075,1,8,0:0:0:0:
256,192,211213,1,0,0:0:0:0:
256,192,211351,1,8,0:0:0:0:
256,192,211489,1,0,0:0:0:0:
256,192,211558,1,0,0:0:0:0:
256,192,211627,1,0,0:0:0:0:
256,192,211765,1,8,0:0:0:0:
256,192,211903,1,0,0:0:0:0:
256,192,212041,1,8,0:0:0:0:
256,192,212179,1,0,0:0:0:0:
256,192,212317,1,8,0:0:0:0:
256,192,212454,1,0,0:0:0:0:
256,192,212592,1,12,0:0:0:0:
256,192,212730,1,0,0:0:0:0:
256,192,212868,1,8,0:0:0:0:
256,192,213006,1,4,0:0:0:0:
256,192,213282,1,0,0:0:0:0:
256,192,213351,1,0,0:0:0:0:
256,192,213420,1,8,0:0:0:0:
256,192,213558,1,8,0:0:0:0:
256,192,213696,1,0,0:0:0:0:
256,192,213834,1,8,0:0:0:0:
256,192,213903,1,8,0:0:0:0:
256,192,213972,1,0,0:0:0:0:
256,192,214110,1,0,0:0:0:0:
256,192,214248,1,8,0:0:0:0:
256,192,214386,1,0,0:0:0:0:
256,192,214523,1,0,0:0:0:0:
256,192,214661,1,8,0:0:0:0:
256,192,214799,1,8,0:0:0:0:
256,192,214937,1,8,0:0:0:0:
256,192,215075,1,0,0:0:0:0:
256,192,215213,1,0,0:0:0:0:
256,192,215351,1,8,0:0:0:0:
256,192,215489,1,8,0:0:0:0:
256,192,215627,1,8,0:0:0:0:
256,192,215765,1,0,0:0:0:0:
256,192,215903,1,8,0:0:0:0:
256,192,216041,1,0,0:0:0:0:
256,192,216179,1,0,0:0:0:0:
256,192,216317,1,4,0:0:0:0:
256,192,216454,1,0,0:0:0:0:
256,192,216592,1,0,0:0:0:0:
256,192,216661,1,0,0:0:0:0:
256,192,216730,1,8,0:0:0:0:
256,192,216868,1,0,0:0:0:0:
256,192,217006,1,8,0:0:0:0:
256,192,217144,1,8,0:0:0:0:
256,192,217213,1,0,0:0:0:0:
256,192,217282,1,0,0:0:0:0:
256,192,217420,1,0,0:0:0:0:
256,192,217558,1,8,0:0:0:0:
256,192,217696,1,0,0:0:0:0:
256,192,217834,1,8,0:0:0:0:
256,192,217972,1,0,0:0:0:0:
256,192,218041,1,0,0:0:0:0:
256,192,218110,1,0,0:0:0:0:
256,192,218248,1,0,0:0:0:0:
256,192,218386,1,12,0:0:0:0:
256,192,218799,1,0,0:0:0:0:
256,192,218937,1,0,0:0:0:0:
256,192,219006,1,0,0:0:0:0:
256,192,219075,1,0,0:0:0:0:
256,192,219213,1,12,0:0:0:0:
256,192,219627,1,4,0:0:0:0:
256,192,219903,1,0,0:0:0:0:
256,192,219972,1,0,0:0:0:0:
256,192,220041,1,8,0:0:0:0:
256,192,220179,1,0,0:0:0:0:
256,192,220317,1,0,0:0:0:0:
256,192,220454,1,8,0:0:0:0:
256,192,220523,1,8,0:0:0:0:
256,192,220592,1,8,0:0:0:0:
256,192,220730,1,0,0:0:0:0:
256,192,220868,1,8,0:0:0:0:
256,192,221006,1,0,0:0:0:0:
256,192,221144,1,0,0:0:0:0:
256,192,221282,1,8,0:0:0:0:
256,192,221420,1,0,0:0:0:0:
256,192,221489,1,0,0:0:0:0:
256,192,221558,1,0,0:0:0:0:
256,192,221696,1,8,0:0:0:0:
256,192,221834,1,0,0:0:0:0:
256,192,221972,1,8,0:0:0:0:
256,192,222110,1,8,0:0:0:0:
256,192,222248,1,0,0:0:0:0:
256,192,222317,1,0,0:0:0:0:
256,192,222386,1,8,0:0:0:0:
256,192,222523,1,8,0:0:0:0:
256,192,222661,1,0,0:0:0:0:
256,192,222799,1,8,0:0:0:0:
256,192,222937,1,0,0:0:0:0:
256,192,223213,1,0,0:0:0:0:
256,192,223282,1,0,0:0:0:0:
256,192,223351,1,8,0:0:0:0:
256,192,223489,1,0,0:0:0:0:
256,192,223627,1,0,0:0:0:0:
256,192,223765,1,8,0:0:0:0:
256,192,223834,1,8,0:0:0:0:
256,192,223903,1,8,0:0:0:0:
256,192,224041,1,0,0:0:0:0:
256,192,224179,1,8,0:0:0:0:
256,192,224317,1,8,0:0:0:0:
256,192,224386,1,8,0:0:0:0:
256,192,224454,1,0,0:0:0:0:
256,192,224592,1,8,0:0:0:0:
256,192,224730,1,0,0:0:0:0:
256,192,224799,1,0,0:0:0:0:
256,192,224868,1,0,0:0:0:0:
256,192,225006,1,8,0:0:0:0:
256,192,225144,1,8,0:0:0:0:
256,192,225282,1,0,0:0:0:0:
256,192,225420,1,8,0:0:0:0:
256,192,225489,1,0,0:0:0:0:
256,192,225558,1,0,0:0:0:0:
256,192,225627,1,0,0:0:0:0:
256,192,225696,1,0,0:0:0:0:
256,192,225765,1,0,0:0:0:0:
256,192,225834,1,8,0:0:0:0:
256,192,225903,1,8,0:0:0:0:
256,192,225972,1,0,0:0:0:0:
256,192,226041,1,0,0:0:0:0:
256,192,226110,1,0,0:0:0:0:
256,192,226179,1,0,0:0:0:0:
256,192,226248,1,8,0:0:0:0:
256,192,226386,1,0,0:0:0:0:
256,192,226454,1,0,0:0:0:0:
256,192,226523,1,0,0:0:0:0:
256,192,226661,1,8,0:0:0:0:
256,192,226799,1,0,0:0:0:0:
256,192,226937,1,8,0:0:0:0:
256,192,227006,1,0,0:0:0:0:
256,192,227075,1,8,0:0:0:0:
256,192,227213,1,0,0:0:0:0:
256,192,227351,1,0,0:0:0:0:
256,192,227489,1,8,0:0:0:0:
256,192,227558,1,8,0:0:0:0:
256,192,227627,1,0,0:0:0:0:
256,192,227765,1,0,0:0:0:0:
256,192,227903,1,8,0:0:0:0:
256,192,227972,1,8,0:0:0:0:
256,192,228041,1,8,0:0:0:0:
256,192,228179,1,0,0:0:0:0:
256,192,228317,1,8,0:0:0:0:
256,192,228454,1,0,0:0:0:0:
256,192,228523,1,0,0:0:0:0:
256,192,228592,1,0,0:0:0:0:
256,192,228730,1,8,0:0:0:0:
256,192,228868,1,0,0:0:0:0:
256,192,229006,1,0,0:0:0:0:
256,192,229075,1,0,0:0:0:0:
256,192,229144,1,8,0:0:0:0:
256,192,229282,1,0,0:0:0:0:
256,192,229420,1,8,0:0:0:0:
256,192,229558,1,8,0:0:0:0:
256,192,229696,1,0,0:0:0:0:
256,192,229834,1,8,0:0:0:0:
256,192,229972,1,0,0:0:0:0:
256,192,230110,1,8,0:0:0:0:
256,192,230248,1,0,0:0:0:0:
256,192,230386,1,8,0:0:0:0:
256,192,230523,1,0,0:0:0:0:
256,192,230661,1,8,0:0:0:0:
256,192,230799,1,0,0:0:0:0:
256,192,230937,1,8,0:0:0:0:
256,192,231075,1,0,0:0:0:0:
256,192,231213,1,12,0:0:0:0:
256,192,231488,1,12,0:0:0:0:
256,192,231764,1,4,0:0:0:0:
256,192,232040,1,8,0:0:0:0:
256,192,232178,1,8,0:0:0:0:
256,192,232316,1,0,0:0:0:0:
256,192,232454,1,0,0:0:0:0:
256,192,232592,1,0,0:0:0:0:
256,192,232730,1,0,0:0:0:0:
256,192,232868,5,12,0:0:0:0:
256,192,233143,1,0,0:0:0:0:
256,192,233281,1,0,0:0:0:0:
256,192,233557,1,0,0:0:0:0:
256,192,233626,1,0,0:0:0:0:
256,192,233695,1,8,0:0:0:0:
256,192,233971,1,0,0:0:0:0:
256,192,234247,1,0,0:0:0:0:
256,192,234523,1,8,0:0:0:0:
256,192,234799,1,8,0:0:0:0:
256,192,234936,1,0,0:0:0:0:
256,192,235212,1,0,0:0:0:0:
256,192,235281,1,0,0:0:0:0:
256,192,235350,1,8,0:0:0:0:
256,192,235626,1,0,0:0:0:0:
256,224,235902,1,8,0:0:0:0:
224,192,236178,1,0,0:0:0:0:
256,192,236592,1,0,0:0:0:0:
224,192,236868,1,0,0:0:0:0:
224,192,236936,1,0,0:0:0:0:
256,192,237005,1,8,0:0:0:0:
256,192,237281,1,8,0:0:0:0:
256,192,237557,1,0,0:0:0:0:
256,192,237833,1,0,0:0:0:0:
256,192,237971,1,0,0:0:0:0:
256,192,238247,1,0,0:0:0:0:
256,192,238523,1,0,0:0:0:0:
256,192,238592,1,0,0:0:0:0:
256,192,238661,1,8,0:0:0:0:
288,192,238936,1,0,0:0:0:0:
256,192,239212,1,0,0:0:0:0:
256,192,239350,1,8,0:0:0:0:
256,192,239488,1,4,0:0:0:0:
256,192,239764,1,0,0:0:0:0:
256,192,239902,1,0,0:0:0:0:
256,192,240178,1,0,0:0:0:0:
256,192,240247,1,0,0:0:0:0:
256,192,240316,1,8,0:0:0:0:
256,192,240592,1,0,0:0:0:0:
256,192,240868,1,8,0:0:0:0:
256,192,241143,1,0,0:0:0:0:
256,192,241281,1,0,0:0:0:0:
256,192,241557,1,0,0:0:0:0:
256,192,241833,1,0,0:0:0:0:
256,192,241902,1,0,0:0:0:0:
256,192,241971,1,8,0:0:0:0:
256,192,242247,1,8,0:0:0:0:
256,192,242523,1,8,0:0:0:0:
256,192,242661,1,0,0:0:0:0:
256,192,242730,1,0,0:0:0:0:
256,192,242799,1,8,0:0:0:0:
256,192,243212,1,0,0:0:0:0:
256,192,243488,1,0,0:0:0:0:
256,192,243557,1,0,0:0:0:0:
256,192,243626,1,8,0:0:0:0:
256,192,243902,1,8,0:0:0:0:
256,192,244178,1,0,0:0:0:0:
256,192,244454,1,8,0:0:0:0:
256,192,244546,1,0,0:0:0:0:
256,192,244638,1,0,0:0:0:0:
256,192,244730,1,8,0:0:0:0:
256,192,244822,1,8,0:0:0:0:
256,192,244913,1,8,0:0:0:0:
256,192,245005,1,0,0:0:0:0:
256,192,245097,1,0,0:0:0:0:
256,192,245189,1,0,0:0:0:0:
256,192,245281,1,8,0:0:0:0:
256,192,245373,1,0,0:0:0:0:
256,192,245465,1,0,0:0:0:0:
256,192,245557,1,8,0:0:0:0:
256,192,245649,1,0,0:0:0:0:
256,192,245741,1,0,0:0:0:0:
256,192,245833,1,8,0:0:0:0:
256,192,245925,1,8,0:0:0:0:
256,192,246017,1,0,0:0:0:0:
256,192,246109,1,12,0:0:0:0:
256,192,246523,1,0,0:0:0:0:
256,192,246799,1,0,0:0:0:0:
256,192,246868,1,0,0:0:0:0:
256,192,246936,1,8,0:0:0:0:
256,192,247212,1,0,0:0:0:0:
256,192,247488,1,0,0:0:0:0:
256,192,247764,1,0,0:0:0:0:
256,192,247902,1,0,0:0:0:0:
256,192,248178,1,0,0:0:0:0:
256,192,248454,1,0,0:0:0:0:
256,192,248523,1,0,0:0:0:0:
256,192,248592,1,8,0:0:0:0:
256,192,248868,1,8,0:0:0:0:
256,192,249143,1,0,0:0:0:0:
256,192,249281,1,8,0:0:0:0:
256,192,249419,1,4,0:0:0:0:
256,192,249557,1,0,0:0:0:0:
256,192,249833,1,0,0:0:0:0:
256,192,250109,1,0,0:0:0:0:
256,192,250178,1,0,0:0:0:0:
256,192,250247,1,8,0:0:0:0:
256,192,250385,1,0,0:0:0:0:
256,192,250799,1,8,0:0:0:0:
256,192,251074,1,0,0:0:0:0:
256,192,251212,1,0,0:0:0:0:
256,192,251488,1,0,0:0:0:0:
256,192,251764,1,0,0:0:0:0:
256,192,251833,1,0,0:0:0:0:
256,192,251902,1,8,0:0:0:0:
256,192,252178,1,0,0:0:0:0:
256,192,252454,1,8,0:0:0:0:
256,192,252730,1,4,0:0:0:0:
256,192,252867,1,0,0:0:0:0:
256,192,253143,1,0,0:0:0:0:
256,192,253419,1,0,0:0:0:0:
256,192,253488,1,0,0:0:0:0:
256,192,253557,1,8,0:0:0:0:
256,192,253833,1,0,0:0:0:0:
256,192,254109,1,0,0:0:0:0:
256,192,254247,1,0,0:0:0:0:
256,192,254385,1,0,0:0:0:0:
256,192,254523,1,0,0:0:0:0:
256,192,254799,1,0,0:0:0:0:
256,192,255074,1,0,0:0:0:0:
256,192,255143,1,0,0:0:0:0:
256,192,255212,1,8,0:0:0:0:
256,192,255350,1,0,0:0:0:0:
256,192,255488,1,8,0:0:0:0:
256,192,255764,1,0,0:0:0:0:
256,192,256040,1,12,0:0:0:0:
256,192,256316,1,0,0:0:0:0:
256,192,256454,1,0,0:0:0:0:
256,192,256729,1,0,0:0:0:0:
256,192,256798,1,0,0:0:0:0:
256,192,256867,1,8,0:0:0:0:
256,192,257143,1,0,0:0:0:0:
256,192,257419,1,0,0:0:0:0:
256,192,257695,1,0,0:0:0:0:
256,192,257833,1,0,0:0:0:0:
256,192,258109,1,0,0:0:0:0:
256,192,258247,1,0,0:0:0:0:
256,192,258385,1,0,0:0:0:0:
256,192,258523,1,12,0:0:0:0:
256,192,258799,1,0,0:0:0:0:
256,192,258936,1,12,0:0:0:0:
256,192,259212,1,8,0:0:0:0:
256,192,259350,1,4,0:0:0:0:
256,192,259764,1,0,0:0:0:0:
256,192,260040,1,0,0:0:0:0:
256,192,260109,1,0,0:0:0:0:
256,192,260178,1,8,0:0:0:0:
256,192,260454,1,8,0:0:0:0:
256,192,260730,1,0,0:0:0:0:
256,192,261005,1,0,0:0:0:0:
256,192,261143,1,8,0:0:0:0:
256,192,261419,1,0,0:0:0:0:
256,192,261695,1,0,0:0:0:0:
256,192,261764,1,0,0:0:0:0:
256,192,261833,1,8,0:0:0:0:
256,192,262109,1,8,0:0:0:0:
256,192,262385,1,0,0:0:0:0:
288,192,262523,1,8,0:0:0:0:
224,192,262661,1,4,0:0:0:0:
256,192,262799,1,0,0:0:0:0:
256,192,263074,1,0,0:0:0:0:
256,192,263350,1,0,0:0:0:0:
256,192,263419,1,0,0:0:0:0:
256,192,263488,1,8,0:0:0:0:
256,192,263764,1,0,0:0:0:0:
256,192,264040,1,8,0:0:0:0:
256,192,264316,1,0,0:0:0:0:
256,192,264592,1,0,0:0:0:0:
256,192,264730,1,0,0:0:0:0:
256,192,265005,1,0,0:0:0:0:
256,192,265143,1,8,0:0:0:0:
256,192,265419,1,4,0:0:0:0:
256,192,265695,1,12,0:0:0:0:
256,192,265971,1,4,0:0:0:0:
256,192,266109,1,0,0:0:0:0:
256,192,266385,1,0,0:0:0:0:
256,192,266661,1,0,0:0:0:0:
256,192,266730,1,0,0:0:0:0:
256,192,266799,1,8,0:0:0:0:
256,192,267074,1,0,0:0:0:0:
256,192,267350,1,8,0:0:0:0:
256,192,267626,1,0,0:0:0:0:
256,192,267902,1,0,0:0:0:0:
256,192,268040,1,0,0:0:0:0:
256,192,268316,1,0,0:0:0:0:
256,192,268385,1,0,0:0:0:0:
288,192,268454,1,8,0:0:0:0:
256,192,268730,1,0,0:0:0:0:
256,192,268822,1,0,0:0:0:0:
256,192,268913,1,0,0:0:0:0:
256,160,269005,1,8,0:0:0:0:
256,192,269097,1,0,0:0:0:0:
256,192,269189,1,0,0:0:0:0:
256,160,269281,1,12,0:0:0:0:
256,192,269695,1,0,0:0:0:0:
256,192,269971,1,0,0:0:0:0:
256,192,270040,1,0,0:0:0:0:
256,192,270109,1,8,0:0:0:0:
256,192,270385,1,0,0:0:0:0:
256,192,270661,1,0,0:0:0:0:
256,192,270936,1,12,0:0:0:0:
256,192,271212,1,8,0:0:0:0:
256,192,271281,1,8,0:0:0:0:
256,192,271350,1,8,0:0:0:0:
256,192,271488,1,8,0:0:0:0:
256,192,271557,1,8,0:0:0:0:
256,192,271626,1,8,0:0:0:0:
256,192,271764,1,8,0:0:0:0:
256,192,271833,1,8,0:0:0:0:
256,192,271902,1,0,0:0:0:0:
288,192,272040,1,8,0:0:0:0:
256,192,272109,1,0,0:0:0:0:
256,192,272178,1,0,0:0:0:0:
256,192,272316,1,0,0:0:0:0:
256,192,272385,1,0,0:0:0:0:
256,192,272454,1,0,0:0:0:0:
256,192,272592,1,4,0:0:0:0:
256,192,272729,1,0,0:0:0:0:
256,192,272867,1,0,0:0:0:0:
256,192,273005,1,8,0:0:0:0:
256,192,273419,1,8,0:0:0:0:
256,192,273557,1,0,0:0:0:0:
256,192,273695,1,8,0:0:0:0:
256,192,273831,1,0,0:0:0:0:
256,192,273968,1,0,0:0:0:0:
256,192,274106,1,0,0:0:0:0:
256,192,274244,1,8,0:0:0:0:
256,192,274658,1,8,0:0:0:0:
256,192,274796,1,0,0:0:0:0:
256,192,274934,1,0,0:0:0:0:
256,192,275072,1,8,0:0:0:0:
256,192,275210,1,0,0:0:0:0:
256,192,275348,1,8,0:0:0:0:
256,192,275486,1,0,0:0:0:0:
256,192,275623,1,0,0:0:0:0:
256,192,275761,1,0,0:0:0:0:
256,192,275899,1,8,0:0:0:0:
256,192,276313,1,0,0:0:0:0:
256,192,276451,1,0,0:0:0:0:
256,192,276589,1,8,0:0:0:0:
256,192,276727,1,0,0:0:0:0:
256,192,276864,1,0,0:0:0:0:
256,192,277002,1,0,0:0:0:0:
256,192,277140,1,8,0:0:0:0:
256,192,277278,1,0,0:0:0:0:
256,192,277347,1,0,0:0:0:0:
256,192,277416,1,0,0:0:0:0:
256,192,277554,1,8,0:0:0:0:
256,192,277692,1,0,0:0:0:0:
256,192,277830,1,0,0:0:0:0:
256,192,277968,1,8,0:0:0:0:
256,192,278106,1,0,0:0:0:0:
256,192,278244,1,8,0:0:0:0:
256,192,278382,1,4,0:0:0:0:
256,192,278520,1,0,0:0:0:0:
256,192,278658,1,8,0:0:0:0:
256,192,278795,1,4,0:0:0:0:
256,192,278932,1,0,0:0:0:0:
256,192,279070,1,0,0:0:0:0:
256,192,279208,1,8,0:0:0:0:
256,192,279622,1,8,0:0:0:0:
256,192,279760,1,0,0:0:0:0:
256,192,279898,1,8,0:0:0:0:
256,192,280036,1,0,0:0:0:0:
256,192,280173,1,0,0:0:0:0:
256,192,280311,1,0,0:0:0:0:
256,192,280449,1,8,0:0:0:0:
256,192,280725,1,0,0:0:0:0:
256,192,280863,1,8,0:0:0:0:
256,192,281001,1,0,0:0:0:0:
256,192,281139,1,8,0:0:0:0:
256,192,281277,1,8,0:0:0:0:
256,192,281415,1,0,0:0:0:0:
256,192,281553,1,8,0:0:0:0:
256,192,281691,1,0,0:0:0:0:
256,192,281828,1,0,0:0:0:0:
256,192,281966,1,0,0:0:0:0:
256,192,282104,1,8,0:0:0:0:
256,192,282518,1,8,0:0:0:0:
256,192,282656,1,0,0:0:0:0:
256,192,282794,1,0,0:0:0:0:
256,192,282938,1,8,0:0:0:0:
256,192,283006,1,8,0:0:0:0:
256,192,283075,1,8,0:0:0:0:
256,192,283213,1,8,0:0:0:0:
256,192,283351,1,8,0:0:0:0:
256,192,283489,1,0,0:0:0:0:
256,192,283558,1,0,0:0:0:0:
256,192,283627,1,0,0:0:0:0:
256,192,283765,1,8,0:0:0:0:
256,192,283903,1,0,0:0:0:0:
256,192,283972,1,0,0:0:0:0:
256,192,284041,1,0,0:0:0:0:
256,192,284179,1,8,0:0:0:0:
256,192,284317,1,8,0:0:0:0:
256,192,284455,1,0,0:0:0:0:
256,192,284593,1,4,0:0:0:0:
256,192,284731,1,0,0:0:0:0:
256,192,284869,1,0,0:0:0:0:
256,192,285006,1,8,0:0:0:0:
256,192,285144,1,0,0:0:0:0:
256,192,285213,1,0,0:0:0:0:
256,192,285282,1,0,0:0:0:0:
256,192,285420,1,8,0:0:0:0:
256,192,285558,1,0,0:0:0:0:
256,192,285696,1,0,0:0:0:0:
256,192,285834,1,8,0:0:0:0:
256,192,285972,1,0,0:0:0:0:
256,192,286110,1,8,0:0:0:0:
256,192,286248,1,0,0:0:0:0:
256,192,286386,1,0,0:0:0:0:
256,192,286524,1,0,0:0:0:0:
256,192,286662,1,8,0:0:0:0:
256,192,286800,1,0,0:0:0:0:
256,192,286869,1,0,0:0:0:0:
256,192,286938,1,0,0:0:0:0:
256,192,287075,1,8,0:0:0:0:
256,192,287213,1,8,0:0:0:0:
256,192,287351,1,8,0:0:0:0:
256,192,287489,1,8,0:0:0:0:
256,192,287627,1,0,0:0:0:0:
256,192,287765,1,8,0:0:0:0:
256,192,287903,1,0,0:0:0:0:
256,192,288041,1,0,0:0:0:0:
256,192,288179,1,0,0:0:0:0:
256,192,288317,1,8,0:0:0:0:
256,192,288455,1,8,0:0:0:0:
256,192,288524,1,8,0:0:0:0:
256,192,288593,1,0,0:0:0:0:
256,192,288731,1,8,0:0:0:0:
256,192,288869,1,0,0:0:0:0:
256,192,289006,1,0,0:0:0:0:
256,192,289144,1,8,0:0:0:0:
256,192,289282,1,0,0:0:0:0:
256,192,289420,1,8,0:0:0:0:
256,192,289558,1,0,0:0:0:0:
256,192,289696,1,0,0:0:0:0:
256,192,289834,1,0,0:0:0:0:
256,192,289972,1,8,0:0:0:0:
256,192,290110,1,0,0:0:0:0:
256,192,290179,1,0,0:0:0:0:
256,192,290248,1,0,0:0:0:0:
256,192,290386,1,8,0:0:0:0:
256,192,290524,1,8,0:0:0:0:
256,192,290662,1,0,0:0:0:0:
256,192,290800,1,8,0:0:0:0:
256,192,290938,1,8,0:0:0:0:
256,192,291075,1,8,0:0:0:0:
256,192,291213,1,4,0:0:0:0:
256,192,291351,1,0,0:0:0:0:
256,192,291489,1,0,0:0:0:0:
256,192,291627,1,8,0:0:0:0:
256,192,291765,1,0,0:0:0:0:
256,192,291834,1,0,0:0:0:0:
256,192,291903,1,0,0:0:0:0:
256,192,292041,1,8,0:0:0:0:
256,192,292179,1,8,0:0:0:0:
256,192,292317,1,0,0:0:0:0:
256,192,292455,1,8,0:0:0:0:
256,192,292593,1,0,0:0:0:0:
256,192,292731,1,8,0:0:0:0:
256,192,292869,1,0,0:0:0:0:
256,192,293006,1,0,0:0:0:0:
256,192,293144,1,0,0:0:0:0:
256,192,293282,1,8,0:0:0:0:
256,192,293420,1,0,0:0:0:0:
256,192,293489,1,0,0:0:0:0:
256,192,293558,1,0,0:0:0:0:
256,192,293696,1,8,0:0:0:0:
256,192,293834,1,8,0:0:0:0:
256,192,293972,1,8,0:0:0:0:
256,192,294110,1,0,0:0:0:0:
256,192,294248,1,0,0:0:0:0:
256,192,294386,1,8,0:0:0:0:
256,192,294524,1,0,0:0:0:0:
256,192,294662,1,0,0:0:0:0:
256,192,294800,1,0,0:0:0:0:
256,192,294938,1,8,0:0:0:0:
256,192,295075,1,8,0:0:0:0:
256,192,295144,1,8,0:0:0:0:
256,192,295213,1,0,0:0:0:0:
256,192,295351,1,8,0:0:0:0:
256,192,295489,1,8,0:0:0:0:
256,192,295627,1,0,0:0:0:0:
256,192,295765,1,8,0:0:0:0:
256,192,295903,1,0,0:0:0:0:
256,192,296041,1,8,0:0:0:0:
256,192,296179,1,8,0:0:0:0:
256,192,296248,1,8,0:0:0:0:
256,192,296317,1,0,0:0:0:0:
256,192,296386,1,0,0:0:0:0:
256,192,296455,1,8,0:0:0:0:
256,192,296524,1,0,0:0:0:0:
256,192,296593,1,0,0:0:0:0:
256,192,296662,1,0,0:0:0:0:
256,192,296731,1,8,0:0:0:0:
256,192,296800,1,8,0:0:0:0:
256,192,296869,1,0,0:0:0:0:
256,192,296938,1,0,0:0:0:0:
256,192,297006,1,8,0:0:0:0:
256,192,297075,1,0,0:0:0:0:
256,192,297144,1,8,0:0:0:0:
256,192,297213,1,8,0:0:0:0:
256,192,297282,1,0,0:0:0:0:
256,192,297351,1,0,0:0:0:0:
256,192,297420,1,8,0:0:0:0:
256,192,297489,1,0,0:0:0:0:
256,192,297558,1,8,0:0:0:0:
256,192,297627,1,8,0:0:0:0:
256,192,297696,1,0,0:0:0:0:
256,192,297840,1,4,0:0:0:0:
256,192,298115,1,0,0:0:0:0:
256,192,298391,1,8,0:0:0:0:
256,192,298483,1,8,0:0:0:0:
256,192,298575,1,8,0:0:0:0:
256,192,298667,1,0,0:0:0:0:
256,192,298943,1,0,0:0:0:0:
256,192,299219,1,8,0:0:0:0:
256,192,299311,1,8,0:0:0:0:
256,192,299403,1,8,0:0:0:0:
256,192,299495,1,0,0:0:0:0:
256,192,299771,1,0,0:0:0:0:
256,192,300023,1,8,0:0:0:0:
256,192,300115,1,8,0:0:0:0:
256,192,300207,1,8,0:0:0:0:
256,192,300299,1,0,0:0:0:0:
256,192,300598,1,0,0:0:0:0:
256,192,300736,1,8,0:0:0:0:
256,192,300874,1,0,0:0:0:0:
256,192,301156,1,0,0:0:0:0:
256,192,301432,1,0,0:0:0:0:
256,192,301708,1,0,0:0:0:0:
256,192,301800,1,8,0:0:0:0:
256,192,301891,1,8,0:0:0:0:
256,192,301983,1,0,0:0:0:0:
256,192,302259,1,0,0:0:0:0:
256,192,302535,1,0,0:0:0:0:
256,192,302627,1,8,0:0:0:0:
256,192,302719,1,8,0:0:0:0:
256,192,302811,1,0,0:0:0:0:
256,192,303087,1,0,0:0:0:0:
256,192,303339,1,0,0:0:0:0:
256,192,303431,1,8,0:0:0:0:
256,192,303523,1,8,0:0:0:0:
256,192,303615,1,0,0:0:0:0:
256,192,303914,1,8,0:0:0:0:
256,192,304052,1,8,0:0:0:0:
256,192,304190,1,8,0:0:0:0:
256,192,304454,1,4,0:0:0:0:
256,192,304730,1,0,0:0:0:0:
256,192,305005,1,0,0:0:0:0:
256,192,305097,1,0,0:0:0:0:
256,192,305189,1,0,0:0:0:0:
256,192,305281,1,8,0:0:0:0:
256,192,305557,1,0,0:0:0:0:
256,192,305833,1,8,0:0:0:0:
256,192,305925,1,8,0:0:0:0:
256,192,306017,1,8,0:0:0:0:
256,192,306109,1,0,0:0:0:0:
256,192,306385,1,0,0:0:0:0:
256,192,306660,1,0,0:0:0:0:
256,192,306752,1,0,0:0:0:0:
256,192,306844,1,0,0:0:0:0:
256,192,306936,1,8,0:0:0:0:
256,192,307212,1,0,0:0:0:0:
256,192,307350,1,8,0:0:0:0:
256,192,307488,1,0,0:0:0:0:
256,192,307764,1,0,0:0:0:0:
256,192,308039,1,0,0:0:0:0:
256,192,308315,1,0,0:0:0:0:
256,192,308407,1,8,0:0:0:0:
256,192,308499,1,8,0:0:0:0:
256,192,308591,1,0,0:0:0:0:
256,192,308867,1,0,0:0:0:0:
256,192,309143,1,8,0:0:0:0:
256,192,309235,1,0,0:0:0:0:
256,192,309327,1,0,0:0:0:0:
256,192,309419,1,8,0:0:0:0:
224,192,309695,1,0,0:0:0:0:
256,192,309970,1,0,0:0:0:0:
256,192,310062,1,8,0:0:0:0:
256,192,310154,1,8,0:0:0:0:
256,192,310246,1,8,0:0:0:0:
256,192,310522,1,8,0:0:0:0:
256,192,310660,1,8,0:0:0:0:
256,192,310798,1,8,0:0:0:0:
256,192,311074,1,0,0:0:0:0:
256,192,311350,1,0,0:0:0:0:
256,192,311626,1,8,0:0:0:0:
256,192,311718,1,8,0:0:0:0:
256,192,311810,1,0,0:0:0:0:
256,192,311901,1,0,0:0:0:0:
256,192,312177,1,0,0:0:0:0:
256,192,312453,1,8,0:0:0:0:
256,192,312545,1,8,0:0:0:0:
256,192,312637,1,0,0:0:0:0:
256,192,312729,1,8,0:0:0:0:
256,192,313005,1,0,0:0:0:0:
256,192,313281,1,0,0:0:0:0:
256,192,313373,1,0,0:0:0:0:
256,192,313465,1,0,0:0:0:0:
256,192,313557,1,8,0:0:0:0:
256,192,313833,1,0,0:0:0:0:
256,192,313970,1,8,0:0:0:0:
256,192,314109,1,0,0:0:0:0:
288,192,314385,1,8,0:0:0:0:
256,192,314522,1,0,0:0:0:0:
256,192,314660,1,0,0:0:0:0:
256,192,314798,1,8,0:0:0:0:
256,192,314936,1,8,0:0:0:0:
256,192,315074,1,0,0:0:0:0:
256,192,315212,1,8,0:0:0:0:
256,192,315350,1,8,0:0:0:0:
256,192,315488,1,0,0:0:0:0:
256,192,315626,1,8,0:0:0:0:
256,192,315764,1,0,0:0:0:0:
256,192,315902,1,0,0:0:0:0:
256,192,316040,1,8,0:0:0:0:
256,192,316178,1,0,0:0:0:0:
256,192,316247,1,0,0:0:0:0:
256,192,316316,1,0,0:0:0:0:
256,192,316453,1,8,0:0:0:0:
256,192,316591,1,0,0:0:0:0:
256,192,316729,1,0,0:0:0:0:
256,192,316867,1,8,0:0:0:0:
256,192,316902,1,8,0:0:0:0:
256,192,317005,1,8,0:0:0:0:
256,192,317143,1,8,0:0:0:0:
256,192,317281,1,8,0:0:0:0:
256,192,317419,1,8,0:0:0:0:
256,192,317557,1,8,0:0:0:0:
256,192,317705,1,4,0:0:0:0:
256,192,317981,1,0,0:0:0:0:
256,192,318257,1,0,0:0:0:0:
256,192,318349,1,0,0:0:0:0:
256,192,318441,1,0,0:0:0:0:
256,192,318533,1,8,0:0:0:0:
256,192,318809,1,0,0:0:0:0:
256,192,319085,1,8,0:0:0:0:
256,192,319176,1,8,0:0:0:0:
256,192,319268,1,8,0:0:0:0:
256,192,319360,1,0,0:0:0:0:
256,192,319636,1,0,0:0:0:0:
256,192,319912,1,0,0:0:0:0:
256,192,320004,1,0,0:0:0:0:
256,192,320096,1,0,0:0:0:0:
256,192,320188,1,8,0:0:0:0:
256,192,320464,1,0,0:0:0:0:
256,192,320602,1,8,0:0:0:0:
256,192,320740,1,0,0:0:0:0:
256,192,321016,1,0,0:0:0:0:
256,192,321291,1,0,0:0:0:0:
256,192,321567,1,8,0:0:0:0:
256,192,321659,1,0,0:0:0:0:
256,192,321750,1,0,0:0:0:0:
256,192,321842,1,8,0:0:0:0:
256,192,322118,1,0,0:0:0:0:
256,192,322394,1,0,0:0:0:0:
256,192,322486,1,8,0:0:0:0:
256,192,322578,1,8,0:0:0:0:
256,192,322670,1,0,0:0:0:0:
224,192,322946,1,0,0:0:0:0:
256,192,323222,1,0,0:0:0:0:
256,192,323314,1,8,0:0:0:0:
256,192,323406,1,8,0:0:0:0:
256,192,323498,1,8,0:0:0:0:
256,192,323774,1,8,0:0:0:0:
256,192,323865,1,8,0:0:0:0:
256,192,323957,1,8,0:0:0:0:
256,192,324050,1,0,0:0:0:0:
256,192,324141,1,0,0:0:0:0:
256,192,324233,1,8,0:0:0:0:
256,192,324326,1,4,0:0:0:0:
256,192,324602,1,0,0:0:0:0:
256,192,324878,1,8,0:0:0:0:
256,192,324970,1,8,0:0:0:0:
256,192,325062,1,0,0:0:0:0:
256,192,325153,1,0,0:0:0:0:
256,192,325429,1,0,0:0:0:0:
256,192,325705,1,8,0:0:0:0:
256,192,325797,1,8,0:0:0:0:
256,192,325889,1,0,0:0:0:0:
256,192,325981,1,8,0:0:0:0:
256,192,326257,1,0,0:0:0:0:
256,192,326533,1,0,0:0:0:0:
256,192,326625,1,0,0:0:0:0:
256,192,326717,1,0,0:0:0:0:
256,192,326809,1,8,0:0:0:0:
256,192,327084,1,0,0:0:0:0:
256,192,327176,1,0,0:0:0:0:
256,192,327268,1,0,0:0:0:0:
256,192,327360,1,0,0:0:0:0:
256,192,327636,1,8,0:0:0:0:
256,192,327773,1,0,0:0:0:0:
256,192,327911,1,0,0:0:0:0:
256,192,328049,1,8,0:0:0:0:
256,192,328187,1,8,0:0:0:0:
256,192,328325,1,0,0:0:0:0:
256,192,328463,1,8,0:0:0:0:
256,192,328601,1,8,0:0:0:0:
256,192,328739,1,0,0:0:0:0:
256,192,328877,1,8,0:0:0:0:
256,192,329015,1,0,0:0:0:0:
256,192,329084,1,0,0:0:0:0:
256,192,329153,1,0,0:0:0:0:
256,192,329222,1,0,0:0:0:0:
256,192,329291,1,8,0:0:0:0:
256,192,329429,1,0,0:0:0:0:
256,192,329567,1,0,0:0:0:0:
256,192,329704,1,8,0:0:0:0:
256,192,329842,1,8,0:0:0:0:
256,192,329980,1,0,0:0:0:0:
256,192,330118,1,8,0:0:0:0:
256,192,330256,1,0,0:0:0:0:
256,192,330325,1,0,0:0:0:0:
256,192,330394,1,0,0:0:0:0:
256,192,330463,1,0,0:0:0:0:
256,192,330532,1,8,0:0:0:0:
256,192,330670,1,8,0:0:0:0:
256,192,330808,1,8,0:0:0:0:
224,192,330940,1,4,0:0:0:0:
256,192,331216,1,0,0:0:0:0:
256,192,331354,1,8,0:0:0:0:
256,192,331492,1,8,0:0:0:0:
256,192,331630,1,0,0:0:0:0:
256,192,331767,1,8,0:0:0:0:
256,192,331905,1,8,0:0:0:0:
256,192,332043,1,8,0:0:0:0:
256,192,332181,1,0,0:0:0:0:
256,192,332319,1,0,0:0:0:0:
256,192,332457,1,8,0:0:0:0:
256,192,332595,1,0,0:0:0:0:
256,192,332663,1,0,0:0:0:0:
256,192,332732,1,0,0:0:0:0:
256,192,332870,1,8,0:0:0:0:
256,192,333008,1,0,0:0:0:0:
256,192,333146,1,0,0:0:0:0:
256,192,333284,1,8,0:0:0:0:
256,192,333422,1,8,0:0:0:0:
256,192,333560,1,0,0:0:0:0:
256,192,333698,1,8,0:0:0:0:
256,192,333836,1,0,0:0:0:0:
256,192,333974,1,8,0:0:0:0:
256,192,334112,1,0,0:0:0:0:
256,192,334250,1,8,0:0:0:0:
256,192,334388,1,8,0:0:0:0:
256,192,334526,1,0,0:0:0:0:
256,192,334665,1,4,0:0:0:0:
256,192,334802,1,0,0:0:0:0:
256,192,334871,1,0,0:0:0:0:
256,192,334940,1,8,0:0:0:0:
256,192,335078,1,0,0:0:0:0:
256,192,335216,1,0,0:0:0:0:
256,192,335354,1,8,0:0:0:0:
256,192,335492,1,8,0:0:0:0:
256,192,335630,1,0,0:0:0:0:
256,192,335768,1,8,0:0:0:0:
256,192,335906,1,0,0:0:0:0:
256,192,336044,1,0,0:0:0:0:
256,192,336182,1,8,0:0:0:0:
256,192,336320,1,0,0:0:0:0:
256,192,336458,1,0,0:0:0:0:
256,192,336527,1,0,0:0:0:0:
256,192,336596,1,8,0:0:0:0:
256,192,336733,1,8,0:0:0:0:
256,192,336871,1,8,0:0:0:0:
256,192,337009,1,0,0:0:0:0:
256,192,337147,1,8,0:0:0:0:
256,192,337285,1,0,0:0:0:0:
256,192,337423,1,8,0:0:0:0:
256,192,337561,1,0,0:0:0:0:
256,192,337699,1,8,0:0:0:0:
256,192,337837,1,0,0:0:0:0:
256,192,337969,1,8,0:0:0:0:
256,192,338106,1,8,0:0:0:0:
256,192,338244,1,0,0:0:0:0:
256,192,338382,1,0,0:0:0:0:
256,192,338520,1,8,0:0:0:0:
256,192,338658,1,0,0:0:0:0:
256,192,338796,1,4,0:0:0:0:
256,192,339071,1,0,0:0:0:0:
256,192,339209,1,8,0:0:0:0:
256,192,339347,1,0,0:0:0:0:
256,192,339416,1,0,0:0:0:0:
256,192,339485,1,0,0:0:0:0:
256,192,339623,1,8,0:0:0:0:
256,192,339761,1,0,0:0:0:0:
256,192,339899,1,0,0:0:0:0:
256,192,340037,1,8,0:0:0:0:
256,192,340106,1,8,0:0:0:0:
256,192,340175,1,8,0:0:0:0:
256,192,340313,1,0,0:0:0:0:
256,192,340451,1,8,0:0:0:0:
256,192,340589,1,0,0:0:0:0:
256,192,340727,1,0,0:0:0:0:
256,192,340796,1,0,0:0:0:0:
256,192,340864,1,8,0:0:0:0:
256,192,341002,1,0,0:0:0:0:
256,192,341140,1,0,0:0:0:0:
256,192,341278,1,8,0:0:0:0:
256,192,341416,1,0,0:0:0:0:
256,192,341554,1,8,0:0:0:0:
256,192,341692,1,0,0:0:0:0:
256,192,341830,1,0,0:0:0:0:
256,192,341968,1,8,0:0:0:0:
256,192,342106,1,8,0:0:0:0:
256,192,342382,1,0,0:0:0:0:
256,192,342451,1,0,0:0:0:0:
256,192,342520,1,8,0:0:0:0:
256,192,342658,1,0,0:0:0:0:
256,192,342796,1,0,0:0:0:0:
256,192,342933,1,8,0:0:0:0:
256,192,343002,1,8,0:0:0:0:
256,192,343071,1,8,0:0:0:0:
256,192,343209,1,0,0:0:0:0:
256,192,343347,1,8,0:0:0:0:
256,192,343485,1,8,0:0:0:0:
256,192,343623,1,0,0:0:0:0:
256,192,343761,1,8,0:0:0:0:
256,192,343899,1,0,0:0:0:0:
256,192,343968,1,0,0:0:0:0:
256,192,344037,1,0,0:0:0:0:
256,192,344175,1,8,0:0:0:0:
256,192,344313,1,0,0:0:0:0:
256,192,344451,1,8,0:0:0:0:
256,192,344589,1,0,0:0:0:0:
256,192,344727,1,8,0:0:0:0:
256,192,344864,1,0,0:0:0:0:
256,192,345002,1,12,0:0:0:0:
256,192,345140,1,0,0:0:0:0:
256,192,345278,1,8,0:0:0:0:
256,192,345416,1,4,0:0:0:0:
256,192,345692,1,0,0:0:0:0:
256,192,345761,1,0,0:0:0:0:
256,192,345830,1,8,0:0:0:0:
256,192,345968,1,8,0:0:0:0:
256,192,346106,1,0,0:0:0:0:
256,192,346244,1,8,0:0:0:0:
256,192,346313,1,8,0:0:0:0:
256,192,346382,1,0,0:0:0:0:
256,192,346520,1,0,0:0:0:0:
256,192,346658,1,8,0:0:0:0:
256,192,346796,1,0,0:0:0:0:
256,192,346933,1,0,0:0:0:0:
256,192,347071,1,8,0:0:0:0:
256,192,347209,1,8,0:0:0:0:
256,192,347347,1,8,0:0:0:0:
256,192,347485,1,0,0:0:0:0:
256,192,347623,1,0,0:0:0:0:
256,192,347761,1,8,0:0:0:0:
256,192,347899,1,8,0:0:0:0:
256,192,348037,1,8,0:0:0:0:
256,192,348175,1,0,0:0:0:0:
256,192,348313,1,8,0:0:0:0:
256,192,348451,1,0,0:0:0:0:
256,192,348589,1,0,0:0:0:0:
256,192,348727,1,4,0:0:0:0:
256,192,348864,1,0,0:0:0:0:
256,192,349002,1,0,0:0:0:0:
256,192,349071,1,0,0:0:0:0:
256,192,349140,1,8,0:0:0:0:
256,192,349278,1,0,0:0:0:0:
256,192,349416,1,8,0:0:0:0:
256,192,349554,1,8,0:0:0:0:
256,192,349623,1,0,0:0:0:0:
256,192,349692,1,0,0:0:0:0:
256,192,349830,1,0,0:0:0:0:
256,192,349968,1,8,0:0:0:0:
256,192,350106,1,0,0:0:0:0:
256,192,350244,1,8,0:0:0:0:
256,192,350382,1,8,0:0:0:0:
256,192,350451,1,8,0:0:0:0:
256,192,350520,1,8,0:0:0:0:
256,192,350658,1,8,0:0:0:0:
256,192,350796,1,4,0:0:0:0:
256,192,351209,1,8,0:0:0:0:
256,192,351278,1,8,0:0:0:0:
256,192,351347,1,8,0:0:0:0:
256,192,351485,1,8,0:0:0:0:
256,192,351623,1,12,0:0:0:0:
256,192,352037,1,4,0:0:0:0:
256,192,352313,1,0,0:0:0:0:
256,192,352382,1,0,0:0:0:0:
256,192,352451,1,8,0:0:0:0:
256,192,352589,1,0,0:0:0:0:
256,192,352727,1,0,0:0:0:0:
256,192,352864,1,8,0:0:0:0:
256,192,352933,1,8,0:0:0:0:
256,192,353002,1,8,0:0:0:0:
256,192,353140,1,0,0:0:0:0:
256,192,353278,1,8,0:0:0:0:
256,192,353416,1,0,0:0:0:0:
256,192,353554,1,0,0:0:0:0:
256,192,353692,1,8,0:0:0:0:
256,192,353830,1,0,0:0:0:0:
256,192,353899,1,0,0:0:0:0:
256,192,353968,1,0,0:0:0:0:
256,192,354106,1,8,0:0:0:0:
256,192,354244,1,0,0:0:0:0:
256,192,354382,1,8,0:0:0:0:
256,192,354520,1,8,0:0:0:0:
256,192,354658,1,0,0:0:0:0:
256,192,354727,1,0,0:0:0:0:
256,192,354796,1,8,0:0:0:0:
256,192,354933,1,8,0:0:0:0:
256,192,355071,1,0,0:0:0:0:
256,192,355209,1,8,0:0:0:0:
256,192,355347,1,0,0:0:0:0:
256,192,355623,1,0,0:0:0:0:
256,192,355692,1,0,0:0:0:0:
256,192,355761,1,8,0:0:0:0:
256,192,355899,1,0,0:0:0:0:
256,192,356037,1,0,0:0:0:0:
256,192,356175,1,8,0:0:0:0:
256,192,356244,1,8,0:0:0:0:
256,192,356313,1,8,0:0:0:0:
256,192,356451,1,0,0:0:0:0:
256,192,356589,1,8,0:0:0:0:
256,192,356727,1,8,0:0:0:0:
256,192,356796,1,8,0:0:0:0:
256,192,356864,1,0,0:0:0:0:
256,192,357002,1,8,0:0:0:0:
256,192,357140,1,0,0:0:0:0:
256,192,357209,1,0,0:0:0:0:
256,192,357278,1,0,0:0:0:0:
256,192,357416,1,8,0:0:0:0:
256,192,357554,1,8,0:0:0:0:
256,192,357692,1,0,0:0:0:0:
256,192,357830,1,8,0:0:0:0:
256,192,357899,1,0,0:0:0:0:
256,192,357968,1,0,0:0:0:0:
256,192,358037,1,0,0:0:0:0:
256,192,358106,1,0,0:0:0:0:
256,192,358175,1,0,0:0:0:0:
256,192,358244,1,8,0:0:0:0:
256,192,358313,1,8,0:0:0:0:
256,192,358382,1,0,0:0:0:0:
256,192,358451,1,0,0:0:0:0:
256,192,358520,1,0,0:0:0:0:
256,192,358589,1,0,0:0:0:0:
256,192,358658,1,8,0:0:0:0:
256,192,358796,1,0,0:0:0:0:
256,192,358864,1,0,0:0:0:0:
256,192,358933,1,0,0:0:0:0:
256,192,359071,1,8,0:0:0:0:
256,192,359209,1,0,0:0:0:0:
256,192,359347,1,8,0:0:0:0:
256,192,359416,1,0,0:0:0:0:
256,192,359485,1,8,0:0:0:0:
256,192,359623,1,0,0:0:0:0:
256,192,359761,1,0,0:0:0:0:
256,192,359899,1,8,0:0:0:0:
256,192,359968,1,8,0:0:0:0:
256,192,360037,1,0,0:0:0:0:
256,192,360175,1,0,0:0:0:0:
256,192,360313,1,8,0:0:0:0:
256,192,360382,1,8,0:0:0:0:
256,192,360451,1,8,0:0:0:0:
256,192,360589,1,0,0:0:0:0:
256,192,360727,1,8,0:0:0:0:
256,192,360864,1,0,0:0:0:0:
256,192,360933,1,0,0:0:0:0:
256,192,361002,1,0,0:0:0:0:
256,192,361140,1,8,0:0:0:0:
256,192,361278,1,0,0:0:0:0:
256,192,361416,1,0,0:0:0:0:
256,192,361485,1,0,0:0:0:0:
256,192,361554,1,8,0:0:0:0:
256,192,361692,1,0,0:0:0:0:
256,192,361830,1,8,0:0:0:0:
256,192,361968,1,8,0:0:0:0:
256,192,362106,1,0,0:0:0:0:
256,192,362244,1,0,0:0:0:0:
256,192,362382,1,0,0:0:0:0:
256,192,362520,1,8,0:0:0:0:
256,192,362658,1,0,0:0:0:0:
256,192,362796,1,0,0:0:0:0:
256,192,362933,1,0,0:0:0:0:
256,192,363071,1,8,0:0:0:0:
256,192,363209,1,0,0:0:0:0:
256,192,363347,1,8,0:0:0:0:
256,192,363485,1,0,0:0:0:0:
256,192,363623,1,8,0:0:0:0:
256,192,363691,1,0,0:0:0:0:
256,192,363760,1,0,0:0:0:0:
256,192,363829,1,0,0:0:0:0:
256,192,363898,1,8,0:0:0:0:
256,192,363967,1,8,0:0:0:0:
256,192,364036,1,0,0:0:0:0:
256,192,364105,1,0,0:0:0:0:
256,192,364174,1,8,0:0:0:0:
256,192,364243,1,0,0:0:0:0:
256,192,364312,1,0,0:0:0:0:
256,192,364381,1,0,0:0:0:0:
256,192,364450,1,0,0:0:0:0:
256,192,364657,1,0,0:0:0:0:
256,192,364726,1,0,0:0:0:0:
256,192,364795,1,0,0:0:0:0:
256,192,364864,1,0,0:0:0:0:
256,192,364933,1,0,0:0:0:0:
256,192,365002,1,8,0:0:0:0:
256,192,365140,1,8,0:0:0:0:
256,192,365272,5,12,0:0:0:0:
256,192,365547,1,0,0:0:0:0:
256,192,365685,1,0,0:0:0:0:
256,192,365938,1,0,0:0:0:0:
256,192,366007,1,0,0:0:0:0:
256,192,366076,1,8,0:0:0:0:
256,192,366375,1,0,0:0:0:0:
256,192,366651,1,0,0:0:0:0:
256,192,366927,1,8,0:0:0:0:
256,192,367203,1,8,0:0:0:0:
256,192,367340,1,0,0:0:0:0:
256,192,367616,1,0,0:0:0:0:
256,192,367685,1,0,0:0:0:0:
256,192,367754,1,8,0:0:0:0:
256,192,368030,1,0,0:0:0:0:
256,224,368306,1,8,0:0:0:0:
224,192,368582,1,0,0:0:0:0:
256,192,368996,1,0,0:0:0:0:
224,192,369272,1,0,0:0:0:0:
224,192,369340,1,0,0:0:0:0:
256,192,369409,1,8,0:0:0:0:
256,192,369685,1,8,0:0:0:0:
256,192,369961,1,0,0:0:0:0:
256,192,370237,1,0,0:0:0:0:
256,192,370375,1,0,0:0:0:0:
256,192,370674,1,0,0:0:0:0:
256,192,370950,1,0,0:0:0:0:
256,192,371019,1,0,0:0:0:0:
256,192,371088,1,8,0:0:0:0:
288,192,371340,1,0,0:0:0:0:
256,192,371616,1,0,0:0:0:0:
256,192,371754,1,8,0:0:0:0:
256,192,371892,1,4,0:0:0:0:
256,192,372168,1,0,0:0:0:0:
256,192,372306,1,0,0:0:0:0:
256,192,372582,1,0,0:0:0:0:
256,192,372651,1,0,0:0:0:0:
256,192,372720,1,8,0:0:0:0:
256,192,372996,1,0,0:0:0:0:
256,192,373272,1,8,0:0:0:0:
256,192,373547,1,0,0:0:0:0:
256,192,373685,1,0,0:0:0:0:
256,192,373961,1,0,0:0:0:0:
256,192,374237,1,0,0:0:0:0:
256,192,374306,1,0,0:0:0:0:
256,192,374375,1,8,0:0:0:0:
256,192,374651,1,8,0:0:0:0:
256,192,374927,1,8,0:0:0:0:
256,192,375065,1,0,0:0:0:0:
256,192,375134,1,0,0:0:0:0:
256,192,375203,1,8,0:0:0:0:
256,192,375616,1,0,0:0:0:0:
256,192,375892,1,0,0:0:0:0:
256,192,375961,1,0,0:0:0:0:
256,192,376030,1,8,0:0:0:0:
256,192,376306,1,8,0:0:0:0:
256,192,376582,1,0,0:0:0:0:
256,192,376835,1,8,0:0:0:0:
256,192,376927,1,0,0:0:0:0:
256,192,377019,1,0,0:0:0:0:
256,192,377111,1,8,0:0:0:0:
256,192,377203,1,8,0:0:0:0:
256,192,377294,1,8,0:0:0:0:
256,192,377386,1,0,0:0:0:0:
256,192,377478,1,0,0:0:0:0:
256,192,377570,1,0,0:0:0:0:
256,192,377662,1,8,0:0:0:0:
256,192,377754,1,0,0:0:0:0:
256,192,377846,1,0,0:0:0:0:
256,192,377938,1,8,0:0:0:0:
256,192,378030,1,0,0:0:0:0:
256,192,378122,1,0,0:0:0:0:
256,192,378214,1,8,0:0:0:0:
256,192,378306,1,8,0:0:0:0:
256,192,378421,1,0,0:0:0:0:
256,192,378520,1,12,0:0:0:0:
256,192,378934,1,0,0:0:0:0:
256,192,379233,1,0,0:0:0:0:
256,192,379302,1,0,0:0:0:0:
256,192,379370,1,8,0:0:0:0:
256,192,379646,1,0,0:0:0:0:
256,192,379922,1,0,0:0:0:0:
256,192,380175,1,0,0:0:0:0:
256,192,380313,1,0,0:0:0:0:
256,192,380589,1,0,0:0:0:0:
256,192,380865,1,0,0:0:0:0:
256,192,380934,1,0,0:0:0:0:
256,192,381003,1,8,0:0:0:0:
256,192,381279,1,8,0:0:0:0:
256,192,381554,1,0,0:0:0:0:
256,192,381692,1,8,0:0:0:0:
256,192,381830,1,4,0:0:0:0:
256,192,381968,1,0,0:0:0:0:
256,192,382244,1,0,0:0:0:0:
256,192,382520,1,0,0:0:0:0:
256,192,382589,1,0,0:0:0:0:
256,192,382658,1,8,0:0:0:0:
256,192,382796,1,0,0:0:0:0:
256,192,383210,1,8,0:0:0:0:
256,192,383485,1,0,0:0:0:0:
256,192,383623,1,8,0:0:0:0:
256,192,383899,1,0,0:0:0:0:
256,192,384175,1,0,0:0:0:0:
256,192,384244,1,0,0:0:0:0:
256,192,384310,1,8,0:0:0:0:
256,192,384586,1,0,0:0:0:0:
256,192,384724,1,0,0:0:0:0:
256,192,384862,1,8,0:0:0:0:
256,192,385000,1,8,0:0:0:0:
256,192,385138,1,4,0:0:0:0:
256,192,385275,1,0,0:0:0:0:
256,192,385551,1,0,0:0:0:0:
256,192,385827,1,0,0:0:0:0:
256,192,385896,1,0,0:0:0:0:
256,192,385965,1,8,0:0:0:0:
256,192,386241,1,0,0:0:0:0:
256,192,386517,1,0,0:0:0:0:
256,192,386655,1,0,0:0:0:0:
256,192,386793,1,0,0:0:0:0:
256,192,386931,1,0,0:0:0:0:
256,192,387207,1,0,0:0:0:0:
256,192,387482,1,0,0:0:0:0:
256,192,387551,1,0,0:0:0:0:
256,192,387620,1,8,0:0:0:0:
256,192,387758,1,0,0:0:0:0:
256,192,387896,1,8,0:0:0:0:
256,192,388172,1,0,0:0:0:0:
256,192,388264,1,8,0:0:0:0:
256,192,388356,1,8,0:0:0:0:
256,192,388448,1,12,0:0:0:0:
256,192,388724,1,0,0:0:0:0:
256,192,388862,1,0,0:0:0:0:
256,192,389137,1,0,0:0:0:0:
256,192,389206,1,0,0:0:0:0:
256,192,389275,1,8,0:0:0:0:
256,192,389551,1,0,0:0:0:0:
256,192,389827,1,0,0:0:0:0:
256,192,390103,1,0,0:0:0:0:
256,192,390241,1,0,0:0:0:0:
256,192,390517,1,0,0:0:0:0:
256,192,390655,1,0,0:0:0:0:
256,192,390793,1,0,0:0:0:0:
256,192,390931,1,12,0:0:0:0:
256,192,391207,1,0,0:0:0:0:
256,192,391344,1,12,0:0:0:0:
256,192,391620,1,8,0:0:0:0:
256,192,391758,1,4,0:0:0:0:
256,192,392172,1,0,0:0:0:0:
256,192,392448,1,0,0:0:0:0:
256,192,392517,1,0,0:0:0:0:
256,192,392586,1,8,0:0:0:0:
256,192,392862,1,8,0:0:0:0:
256,192,393138,1,0,0:0:0:0:
256,192,393413,1,0,0:0:0:0:
256,192,393551,1,8,0:0:0:0:
256,192,393827,1,0,0:0:0:0:
256,192,394103,1,0,0:0:0:0:
256,192,394172,1,0,0:0:0:0:
256,192,394241,1,8,0:0:0:0:
256,192,394517,1,8,0:0:0:0:
256,192,394793,1,0,0:0:0:0:
288,192,394931,1,8,0:0:0:0:
224,192,395069,1,4,0:0:0:0:
256,192,395207,1,0,0:0:0:0:
256,192,395482,1,0,0:0:0:0:
256,192,395758,1,0,0:0:0:0:
256,192,395827,1,0,0:0:0:0:
256,192,395896,1,8,0:0:0:0:
256,192,396172,1,0,0:0:0:0:
256,192,396448,1,8,0:0:0:0:
256,192,396724,1,0,0:0:0:0:
256,192,397000,1,0,0:0:0:0:
256,192,397138,1,0,0:0:0:0:
256,192,397413,1,0,0:0:0:0:
256,192,397551,1,8,0:0:0:0:
256,192,397827,1,4,0:0:0:0:
256,192,398103,1,12,0:0:0:0:
256,192,398379,1,4,0:0:0:0:
256,192,398517,1,0,0:0:0:0:
256,192,398793,1,0,0:0:0:0:
256,192,399069,1,0,0:0:0:0:
256,192,399138,1,0,0:0:0:0:
256,192,399207,1,8,0:0:0:0:
256,192,399482,1,0,0:0:0:0:
256,192,399758,1,8,0:0:0:0:
256,192,400034,1,0,0:0:0:0:
256,192,400310,1,0,0:0:0:0:
256,192,400448,1,0,0:0:0:0:
256,192,400724,1,0,0:0:0:0:
256,192,400793,1,0,0:0:0:0:
288,192,400862,1,8,0:0:0:0:
256,192,401138,1,0,0:0:0:0:
256,192,401230,1,0,0:0:0:0:
256,192,401321,1,0,0:0:0:0:
256,160,401413,1,8,0:0:0:0:
256,192,401505,1,0,0:0:0:0:
256,192,401597,1,0,0:0:0:0:
256,160,401689,1,12,0:0:0:0:
256,192,402103,1,0,0:0:0:0:
256,192,402379,1,0,0:0:0:0:
256,192,402448,1,0,0:0:0:0:
256,192,402517,1,8,0:0:0:0:
256,192,402793,1,0,0:0:0:0:
256,192,403069,1,0,0:0:0:0:
256,192,403344,1,12,0:0:0:0:
256,192,403620,1,8,0:0:0:0:
256,192,403689,1,8,0:0:0:0:
256,192,403758,1,8,0:0:0:0:
256,192,403896,1,8,0:0:0:0:
256,192,403965,1,8,0:0:0:0:
256,192,404034,1,8,0:0:0:0:
256,192,404172,1,8,0:0:0:0:
256,192,404241,1,8,0:0:0:0:
256,192,404310,1,0,0:0:0:0:
288,192,404448,1,8,0:0:0:0:
256,192,404517,1,0,0:0:0:0:
256,192,404586,1,0,0:0:0:0:
256,192,404724,1,0,0:0:0:0:
256,192,404793,1,0,0:0:0:0:
256,192,404862,1,0,0:0:0:0:
256,192,405000,1,4,0:0:0:0:
