osu file format v14

[General]
AudioFilename: audio.mp3
AudioLeadIn: 0
PreviewTime: 202682
Countdown: 0
SampleSet: Soft
StackLeniency: 0.7
Mode: 0
LetterboxInBreaks: 0
WidescreenStoryboard: 1

[Editor]
Bookmarks: 30266
DistanceSpacing: 0.5
BeatDivisor: 4
GridSize: 32
TimelineZoom: 2

[Metadata]
Title:Gyutto Milky Way (M@STER VERSION)
TitleUnicode:ギュっとMilky Way (M@STER VERSION)
Artist:Dream Away
ArtistUnicode:Dream Away
Creator:Sekai
Version:<3
Source:アイドルマスターシンデレラガールズ
Tags:Sekaii Sekai-nyan midorijeon 佐久間まゆ 牧野由依 Mayu Sakuma Yui Makino 喜多日菜子 深川芹亜 Hinako Kita Seria Fukagawa idolmaster idolm@ster im@s cinderella girls japanese jpop j-pop pop
BeatmapID:3211824
BeatmapSetID:1573058

[Difficulty]
HPDrainRate:7
CircleSize:4.5
OverallDifficulty:8
ApproachRate:9
SliderMultiplier:1.6
SliderTickRate:1

[Events]
//Background and Video events
0,0,"91115455.jpg",0,0
//Break Periods
//Storyboard Layer 0 (Background)
//Storyboard Layer 1 (Fail)
//Storyboard Layer 2 (Pass)
//Storyboard Layer 3 (Foreground)
//Storyboard Layer 4 (Overlay)
//Storyboard Sound Samples

[TimingPoints]
890,821.917808219178,4,2,3,60,1,0
890,-125,4,2,3,60,0,0
1300,-125,4,2,4,60,0,0
1711,-125,4,2,5,60,0,0
2122,-125,4,2,6,60,0,0
2533,-125,4,2,7,60,0,0
3355,-125,4,2,10,60,0,0
3766,-125,4,2,1,60,0,0
4177,-125,4,2,11,60,0,0
4998,-125,4,2,12,60,0,0
5410,-125,4,2,1,60,0,0
5821,-125,4,2,14,60,0,0
6643,-125,4,2,13,60,0,0
7054,-125,4,2,15,60,0,0
7465,-125,4,2,16,60,0,0
7876,-125,4,2,16,60,0,0
8287,-125,4,2,6,60,0,0
8698,-125,4,2,6,60,0,0
9109,-125,4,2,17,60,0,0
9725,-125,4,2,17,60,0,0
9931,-125,4,2,18,60,0,0
10547,-125,4,2,18,60,0,0
10800,821.917808219178,4,2,20,60,1,0
10800,-125,4,2,20,60,0,0
11210,-125,4,2,12,60,0,0
11621,-125,4,2,21,60,0,0
12032,-125,4,2,22,60,0,0
12480,821.917808219178,4,2,23,60,1,0
12480,-125,4,2,23,60,0,0
13400,821.917808219178,4,2,24,60,1,0
13400,-125,4,2,24,60,0,0
14334,337.078651685393,4,2,25,60,1,0
14334,-125,4,2,25,60,0,0
14386,-125,4,2,1,60,0,0
14418,-125,4,2,10,60,0,0
15766,-125,4,2,10,60,0,0
15772,337.078651685393,4,2,26,60,1,0
15772,-100,4,2,26,60,0,0
15940,-100,4,2,27,60,0,0
16783,-100,4,2,28,60,0,0
17120,-100,4,2,26,60,0,0
17372,-100,4,2,26,60,0,0
17457,-100,4,2,26,60,0,0
17625,-100,4,2,26,60,0,0
17794,-100,4,2,90,60,0,0
17962,-100,4,2,90,60,0,0
18131,-100,4,2,90,60,0,0
18300,-100,4,2,30,60,0,0
18636,-100,4,2,30,60,0,0
18805,-100,4,2,31,60,0,0
18973,-100,4,2,31,60,0,0
19142,-100,4,2,31,60,0,0
19310,-100,4,2,31,60,0,0
19479,-100,4,2,32,60,0,0
19647,-100,4,2,32,60,0,0
19816,-100,4,2,33,60,0,0
19985,-100,4,2,33,60,0,0
20154,-100,4,2,33,60,0,0
20322,-100,4,2,33,60,0,0
20491,-100,4,2,32,60,0,0
20659,-100,4,2,32,60,0,0
20828,-100,4,2,26,60,0,0
20996,-100,4,2,26,60,0,0
21165,-100,4,2,31,60,0,0
21333,-100,4,2,31,60,0,0
21502,-100,4,2,31,60,0,0
21670,-100,4,2,30,60,0,0
22007,-100,4,2,30,60,0,0
22176,-100,4,2,31,60,0,0
22344,-100,4,2,31,60,0,0
22513,-100,4,2,31,60,0,0
22850,-100,4,2,34,60,0,0
23019,-100,4,2,35,60,0,0
23692,-100,4,2,35,60,0,0
23861,-100,4,2,30,60,0,0
24030,-100,4,2,32,60,0,0
24198,-100,4,2,35,60,0,0
24367,-100,4,2,36,60,0,0
24535,-100,4,2,1,60,0,0
24704,-100,4,2,35,60,0,0
24872,-100,4,2,34,60,0,0
25041,-100,4,2,34,60,0,0
25210,-100,4,2,37,60,0,0
25378,-100,4,2,37,60,0,0
25547,-100,4,2,34,60,0,0
25715,-100,4,2,37,60,0,0
26052,-100,4,2,34,60,0,0
26221,-100,4,2,33,60,0,0
26389,-100,4,2,31,60,0,0
26558,-100,4,2,33,60,0,0
26810,-100,4,2,33,60,0,0
26895,-100,4,2,33,60,0,0
27063,-100,4,2,33,60,0,0
27232,-100,4,2,35,60,0,0
27400,-100,4,2,27,60,0,0
27738,-100,4,2,38,60,0,0
27906,-100,4,2,33,60,0,0
28158,-100,4,2,33,60,0,0
28243,-100,4,2,33,60,0,0
28411,-100,4,2,33,60,0,0
28580,-100,4,2,33,60,0,0
28748,-100,4,2,33,60,0,0
28918,-100,4,2,33,60,0,0
29086,-100,4,2,27,60,0,0
29423,-100,4,2,39,60,0,0
29760,-100,4,2,40,60,0,0
29845,-100,4,2,26,60,0,0
29929,-100,4,2,40,60,0,0
30097,-100,4,2,41,60,0,0
30434,-100,4,2,27,60,0,0
30603,-100,4,2,42,60,0,0
30855,-100,4,2,42,60,0,0
30940,-100,4,2,42,60,0,0
32119,-100,4,2,42,60,0,0
32288,-100,4,2,42,60,0,0
32456,-100,4,2,42,60,0,0
32625,-100,4,2,42,60,0,0
32794,-100,4,2,42,60,0,0
32963,-100,4,2,42,60,0,0
33131,-100,4,2,42,60,0,0
33300,-100,4,2,42,60,0,0
33805,-100,4,2,42,60,0,0
33974,-100,4,2,42,60,0,0
34142,-100,4,2,42,60,0,0
34311,-100,4,2,42,60,0,0
35154,-100,4,2,42,60,0,0
35322,-100,4,2,42,60,0,0
35490,-100,4,2,42,60,0,0
35659,-100,4,2,42,60,0,0
35827,-100,4,2,42,60,0,0
35996,-100,4,2,42,60,0,0
36248,-100,4,2,42,60,0,0
36333,-100,4,2,42,60,0,0
37513,-100,4,2,42,60,0,0
37682,-100,4,2,42,60,0,0
37850,-100,4,2,42,60,0,0
38019,-100,4,2,42,60,0,0
38187,-100,4,2,42,60,0,0
38356,-100,4,2,42,60,0,0
38524,-100,4,2,42,60,0,0
38693,-100,4,2,42,60,0,0
38945,-100,4,2,42,60,0,0
39030,-100,4,2,42,60,0,0
39535,-100,4,2,42,60,0,0
39704,-100,4,2,42,60,0,0
40210,-100,4,2,42,60,0,0
40378,-100,4,2,42,60,0,0
41221,-100,4,2,42,60,0,0
41389,-100,4,2,42,60,0,0
41641,-100,4,2,42,60,0,0
41727,-100,4,2,42,60,0,0
42569,-100,4,2,43,60,0,0
42906,-100,4,2,43,60,0,0
43074,-100,4,2,43,60,0,0
43243,-100,4,2,43,60,0,0
43412,-100,4,2,43,60,0,0
43580,-100,4,2,43,60,0,0
43749,-100,4,2,43,60,0,0
43917,-100,4,2,43,60,0,0
44086,-100,4,2,42,60,0,0
44338,-100,4,2,42,60,0,0
44423,-100,4,2,42,60,0,0
45266,-100,4,2,43,60,0,0
45603,-100,4,2,43,60,0,0
45771,-100,4,2,43,60,0,0
45940,-100,4,2,43,60,0,0
46109,-100,4,2,43,60,0,0
46277,-100,4,2,43,60,0,0
46446,-100,4,2,43,60,0,0
46614,-100,4,2,43,60,0,0
46783,-100,4,2,42,60,0,0
46951,-100,4,2,42,60,0,0
47120,-100,4,2,42,60,0,0
47288,-100,4,2,42,60,0,0
47457,-100,4,2,42,60,0,0
47625,-100,4,2,42,60,0,0
47794,-100,4,2,42,60,0,0
47962,-100,4,2,42,60,0,0
48131,-100,4,2,42,60,0,0
48637,-100,4,2,42,60,0,0
48805,-100,4,2,42,60,0,0
48973,-100,4,2,42,60,0,0
49142,-100,4,2,42,60,0,0
49310,-100,4,2,42,60,0,0
49479,-100,4,2,42,60,0,0
49985,-100,4,2,43,60,0,0
50659,-100,4,2,44,60,0,0
50828,-100,4,2,44,60,0,0
50996,-100,4,2,44,60,0,0
52176,-100,4,2,42,60,0,0
52344,-100,4,2,42,60,0,0
52513,-100,4,2,42,60,0,0
53692,-100,4,2,42,60,0,0
53861,-100,4,2,42,60,0,0
54029,-100,4,2,42,60,0,0
54198,-100,4,2,42,60,0,0
54367,-100,4,2,42,60,0,0
54536,-100,4,2,42,60,0,0
54704,-100,4,2,42,60,0,0
54873,-100,4,2,42,60,0,0
55378,-100,4,2,42,60,0,0
55547,-100,4,2,42,60,0,0
55715,-100,4,2,42,60,0,0
55884,-100,4,2,42,60,0,0
56473,-100,4,2,42,60,0,0
56558,-100,4,2,42,60,0,0
56726,-100,4,2,42,60,0,0
56895,-100,4,2,42,60,0,0
57063,-100,4,2,42,60,0,0
57232,-100,4,2,42,60,0,0
57401,-100,4,2,42,60,0,0
57569,-100,4,2,42,60,0,0
57821,-100,4,2,42,60,0,0
57906,-100,4,2,42,60,0,0
59423,-100,4,2,42,60,0,0
59592,-100,4,2,42,60,0,0
59760,-100,4,2,42,60,0,0
59929,-100,4,2,42,60,0,0
60097,-100,4,2,42,60,0,0
60266,-100,4,2,42,60,0,0
60518,-100,4,2,42,60,0,0
60603,-100,4,2,42,60,0,0
61108,-100,4,2,42,60,0,0
61277,-100,4,2,42,60,0,0
61446,-100,4,2,42,60,0,0
61614,-100,4,2,42,60,0,0
61782,-100,4,2,42,60,0,0
61951,-100,4,2,42,60,0,0
62119,-100,4,2,42,60,0,0
62288,-100,4,2,42,60,0,0
62456,-100,4,2,42,60,0,0
62625,-100,4,2,42,60,0,0
62794,-100,4,2,42,60,0,0
62963,-100,4,2,42,60,0,0
63131,-100,4,2,42,60,0,0
63300,-100,4,2,42,60,0,0
64142,-100,4,2,43,60,0,0
64479,-100,4,2,43,60,0,0
64647,-100,4,2,43,60,0,0
64816,-100,4,2,43,60,0,0
64985,-100,4,2,43,60,0,0
65154,-100,4,2,43,60,0,0
65322,-100,4,2,43,60,0,0
65490,-100,4,2,43,60,0,0
65659,-100,4,2,42,60,0,0
65911,-100,4,2,42,60,0,0
65996,-100,4,2,42,60,0,0
66839,-100,4,2,43,60,0,0
67176,-100,4,2,43,60,0,0
67345,-100,4,2,43,60,0,0
67513,-100,4,2,43,60,0,0
67682,-100,4,2,43,60,0,0
67850,-100,4,2,43,60,0,0
68019,-100,4,2,43,60,0,0
68187,-100,4,2,43,60,0,0
68356,-100,4,2,42,60,0,0
68608,-100,4,2,42,60,0,0
68693,-100,4,2,42,60,0,0
68861,-100,4,2,42,60,0,0
69030,-100,4,2,42,60,0,0
69198,-100,4,2,42,60,0,0
69367,-100,4,2,42,60,0,0
69536,-100,4,2,42,60,0,0
69704,-100,4,2,42,60,0,0
69956,-100,4,2,42,60,0,0
70041,-100,4,2,42,60,0,0
70210,-100,4,2,42,60,0,0
70378,-100,4,2,42,60,0,0
70546,-100,4,2,42,60,0,0
70715,-100,4,2,42,60,0,0
71304,-100,4,2,42,60,0,0
71389,-100,4,2,42,60,0,0
72232,-100,4,2,43,60,0,0
73749,-100,4,2,42,60,0,0
73917,-100,4,2,42,60,0,0
74086,-100,4,2,42,60,0,0
74255,-100,4,2,43,60,0,0
74423,-100,4,2,43,60,0,0
74592,-100,4,2,43,60,0,0
74760,-100,4,2,44,60,0,0
74929,-100,4,2,44,60,0,0
75266,-100,4,2,44,60,0,0
75603,-100,4,2,44,60,0,0
75771,-100,4,2,44,60,0,0
76446,-100,4,2,42,60,0,0
76614,-100,4,2,42,60,0,0
76783,-100,4,2,42,60,0,0
76951,-100,4,2,43,60,0,0
77119,-100,4,2,43,60,0,0
77288,-100,4,2,43,60,0,0
77457,-100,4,2,44,60,0,0
77625,-100,4,2,44,60,0,0
77963,-100,4,2,44,60,0,0
78300,-100,4,2,44,60,0,0
78468,-100,4,2,44,60,0,0
79142,-100,4,2,42,60,0,0
79394,-100,4,2,42,60,0,0
79479,-100,4,2,42,60,0,0
79647,-100,4,2,42,60,0,0
79816,-100,4,2,42,60,0,0
80322,-100,4,2,42,60,0,0
80491,-100,4,2,42,60,0,0
80659,-100,4,2,42,60,0,0
80828,-100,4,2,42,60,0,0
80996,-100,4,2,42,60,0,0
81165,-100,4,2,42,60,0,0
81333,-100,4,2,45,60,0,0
81838,-100,4,2,42,60,0,0
82007,-100,4,2,42,60,0,0
82176,-100,4,2,42,60,0,0
84704,-100,4,2,42,60,0,0
84873,-100,4,2,42,60,0,0
85041,-100,4,2,43,60,0,0
85209,-100,4,2,43,60,0,0
85378,-100,4,2,43,60,0,0
85547,-100,4,2,42,60,0,0
85715,-100,4,2,44,60,0,0
85883,-100,4,2,44,60,0,0
86052,-100,4,2,44,60,0,0
86727,-100,4,2,45,60,0,0
87232,-90.9090909090909,4,2,45,65,0,1
87401,-90.9090909090909,4,2,36,65,0,1
87906,-90.9090909090909,4,2,42,65,0,1
88074,-90.9090909090909,4,2,36,65,0,1
88411,-90.9090909090909,4,2,46,65,0,1
88580,-90.9090909090909,4,2,36,65,0,1
89255,-90.9090909090909,4,2,42,65,0,1
89423,-90.9090909090909,4,2,29,65,0,1
89592,-90.9090909090909,4,2,42,65,0,1
89844,-90.9090909090909,4,2,42,65,0,1
89929,-90.9090909090909,4,2,42,65,0,1
90097,-90.9090909090909,4,2,29,65,0,1
90266,-90.9090909090909,4,2,42,65,0,1
90434,-90.9090909090909,4,2,29,65,0,1
90603,-90.9090909090909,4,2,42,65,0,1
90771,-90.9090909090909,4,2,29,65,0,1
90940,-90.9090909090909,4,2,42,65,0,1
91108,-90.9090909090909,4,2,29,65,0,1
91277,-90.9090909090909,4,2,42,65,0,1
91529,-90.9090909090909,4,2,42,65,0,1
91614,-90.9090909090909,4,2,36,65,0,1
91782,-90.9090909090909,4,2,46,65,0,1
91951,-90.9090909090909,4,2,42,65,0,1
92119,-90.9090909090909,4,2,36,65,0,1
92625,-90.9090909090909,4,2,42,65,0,1
92793,-90.9090909090909,4,2,46,65,0,1
92963,-90.9090909090909,4,2,42,65,0,1
93131,-90.9090909090909,4,2,46,65,0,1
93300,-90.9090909090909,4,2,26,65,0,1
93468,-90.9090909090909,4,2,46,65,0,1
93637,-90.9090909090909,4,2,42,65,0,1
93805,-90.9090909090909,4,2,29,65,0,1
93974,-90.9090909090909,4,2,42,65,0,1
94142,-90.9090909090909,4,2,46,65,0,1
94311,-90.9090909090909,4,2,42,65,0,1
94479,-90.9090909090909,4,2,46,65,0,1
94648,-90.9090909090909,4,2,26,65,0,1
94817,-90.9090909090909,4,2,46,65,0,1
94985,-90.9090909090909,4,2,42,65,0,1
95237,-90.9090909090909,4,2,42,65,0,1
95322,-90.9090909090909,4,2,42,65,0,1
95490,-90.9090909090909,4,2,36,65,0,1
95827,-90.9090909090909,4,2,46,65,0,1
95996,-90.9090909090909,4,2,42,65,0,1
96164,-90.9090909090909,4,2,29,65,0,1
96333,-90.9090909090909,4,2,44,65,0,1
96670,-90.9090909090909,4,2,44,65,0,1
96839,-90.9090909090909,4,2,44,65,0,1
97345,-90.9090909090909,4,2,43,65,0,1
98019,-90.9090909090909,4,2,42,65,0,1
98271,-90.9090909090909,4,2,42,65,0,1
98356,-90.9090909090909,4,2,36,65,0,1
98693,-90.9090909090909,4,2,42,65,0,1
98861,-90.9090909090909,4,2,36,65,0,1
99198,-90.9090909090909,4,2,46,65,0,1
99367,-90.9090909090909,4,2,36,65,0,1
100041,-90.9090909090909,4,2,42,65,0,1
100210,-90.9090909090909,4,2,29,65,0,1
100378,-90.9090909090909,4,2,42,65,0,1
100547,-90.9090909090909,4,2,29,65,0,1
100715,-90.9090909090909,4,2,42,65,0,1
100883,-90.9090909090909,4,2,29,65,0,1
101052,-90.9090909090909,4,2,42,65,0,1
101220,-90.9090909090909,4,2,29,65,0,1
101389,-90.9090909090909,4,2,42,65,0,1
101558,-90.9090909090909,4,2,29,65,0,1
101727,-90.9090909090909,4,2,42,65,0,1
101979,-90.9090909090909,4,2,42,65,0,1
102064,-90.9090909090909,4,2,42,65,0,1
102232,-90.9090909090909,4,2,29,65,0,1
102401,-90.9090909090909,4,2,42,65,0,1
102569,-90.9090909090909,4,2,29,65,0,1
102737,-90.9090909090909,4,2,42,65,0,1
102906,-90.9090909090909,4,2,29,65,0,1
103075,-90.9090909090909,4,2,42,65,0,1
103243,-90.9090909090909,4,2,46,65,0,1
103412,-90.9090909090909,4,2,26,65,0,1
103664,-90.9090909090909,4,2,26,65,0,1
103749,-90.9090909090909,4,2,42,65,0,1
103917,-90.9090909090909,4,2,46,65,0,1
104086,-90.9090909090909,4,2,1,65,0,1
104255,-90.9090909090909,4,2,46,65,0,1
104423,-90.9090909090909,4,2,42,65,0,1
104675,-90.9090909090909,4,2,42,65,0,1
104760,-90.9090909090909,4,2,26,65,0,1
104928,-90.9090909090909,4,2,46,65,0,1
105097,-90.9090909090909,4,2,42,65,0,1
105349,-90.9090909090909,4,2,42,65,0,1
105602,-90.9090909090909,4,2,46,65,0,1
105771,-90.9090909090909,4,2,42,65,0,1
105940,-90.9090909090909,4,2,46,65,0,1
106109,-90.9090909090909,4,2,26,65,0,1
106361,-90.9090909090909,4,2,26,65,0,1
106446,-90.9090909090909,4,2,42,65,0,1
106614,-90.9090909090909,4,2,46,65,0,1
106783,-90.9090909090909,4,2,1,65,0,1
106951,-90.9090909090909,4,2,46,65,0,1
107120,-90.9090909090909,4,2,42,65,0,1
107288,-90.9090909090909,4,2,46,65,0,1
107457,-90.9090909090909,4,2,42,65,0,1
107709,-90.9090909090909,4,2,42,65,0,1
107794,-90.9090909090909,4,2,26,65,0,1
107962,-90.9090909090909,4,2,46,65,0,1
108131,-90.9090909090909,4,2,42,65,0,1
108300,-90.9090909090909,4,2,28,65,0,1
108637,-90.9090909090909,4,2,29,65,0,1
108721,-90.9090909090909,4,2,27,65,0,1
108805,-90.9090909090909,4,2,60,65,0,1
109142,-90.9090909090909,4,2,42,65,0,1
109310,-90.9090909090909,4,2,29,65,0,1
109479,-90.9090909090909,4,2,42,65,0,1
109648,-90.9090909090909,4,2,29,65,0,1
109816,-90.9090909090909,4,2,42,65,0,1
109984,-90.9090909090909,4,2,29,65,0,1
110154,-90.9090909090909,4,2,42,65,0,1
110322,-90.9090909090909,4,2,29,65,0,1
110491,-90.9090909090909,4,2,42,65,0,1
110659,-90.9090909090909,4,2,29,65,0,1
110828,-90.9090909090909,4,2,42,65,0,1
110996,-90.9090909090909,4,2,29,65,0,1
111165,-90.9090909090909,4,2,42,65,0,1
111333,-90.9090909090909,4,2,46,65,0,1
111502,-90.9090909090909,4,2,36,65,0,1
112850,-90.9090909090909,4,2,26,65,0,1
113019,-90.9090909090909,4,2,46,65,0,1
113187,-90.9090909090909,4,2,42,65,0,1
113356,-90.9090909090909,4,2,46,65,0,1
113524,-90.9090909090909,4,2,42,65,0,1
113693,-90.9090909090909,4,2,46,65,0,1
113861,-90.9090909090909,4,2,45,65,0,1
114030,-90.9090909090909,4,2,46,65,0,1
114114,-90.9090909090909,4,2,27,65,0,1
114198,-90.9090909090909,4,2,60,65,0,1
114536,-90.9090909090909,4,2,36,65,0,1
115547,-90.9090909090909,4,2,60,65,0,1
115799,-90.9090909090909,4,2,1,65,0,1
115884,-90.9090909090909,4,2,36,65,0,1
116221,-90.9090909090909,4,2,27,65,0,1
116389,-90.9090909090909,4,2,29,65,0,1
116473,-90.9090909090909,4,2,27,65,0,1
116557,-90.9090909090909,4,2,47,65,0,1
116641,-90.9090909090909,4,2,27,65,0,1
116726,-90.9090909090909,4,2,29,65,0,1
116810,-90.9090909090909,4,2,27,65,0,1
116895,-100,4,2,26,60,0,0
117401,-100,4,2,26,60,0,0
117569,-100,4,2,90,60,0,0
117737,-100,4,2,90,60,0,0
117906,-100,4,2,90,60,0,0
118074,-100,4,2,30,60,0,0
118580,-100,4,2,31,60,0,0
118749,-100,4,2,31,60,0,0
118918,-100,4,2,31,60,0,0
119086,-100,4,2,31,60,0,0
119255,-100,4,2,32,60,0,0
119423,-100,4,2,32,60,0,0
119592,-100,4,2,33,60,0,0
119760,-100,4,2,33,60,0,0
119929,-100,4,2,33,60,0,0
120097,-100,4,2,33,60,0,0
120266,-100,4,2,32,60,0,0
120434,-100,4,2,32,60,0,0
120603,-100,4,2,26,60,0,0
120771,-100,4,2,26,60,0,0
120940,-100,4,2,31,60,0,0
121108,-100,4,2,31,60,0,0
121277,-100,4,2,31,60,0,0
121445,-100,4,2,30,60,0,0
121783,-100,4,2,30,60,0,0
121951,-100,4,2,31,60,0,0
122119,-100,4,2,31,60,0,0
122288,-100,4,2,31,60,0,0
122457,-100,4,2,33,60,0,0
122625,-100,4,2,34,60,0,0
122794,-100,4,2,35,60,0,0
122962,-100,4,2,35,60,0,0
123131,-100,4,2,35,60,0,0
123468,-100,4,2,35,60,0,0
123637,-100,4,2,30,60,0,0
123805,-100,4,2,32,60,0,0
123974,-100,4,2,35,60,0,0
124142,-100,4,2,36,60,0,0
124311,-100,4,2,1,60,0,0
124479,-100,4,2,35,60,0,0
124647,-100,4,2,34,60,0,0
124816,-100,4,2,34,60,0,0
124985,-100,4,2,37,60,0,0
125153,-100,4,2,37,60,0,0
125322,-100,4,2,34,60,0,0
125490,-100,4,2,37,60,0,0
125827,-100,4,2,34,60,0,0
125996,-100,4,2,33,60,0,0
126165,-100,4,2,31,60,0,0
126333,-100,4,2,33,60,0,0
126585,-100,4,2,33,60,0,0
126670,-100,4,2,48,60,0,0
126838,-100,4,2,48,60,0,0
127007,-100,4,2,49,60,0,0
127176,-100,4,2,26,60,0,0
127344,-100,4,2,50,60,0,0
127428,-100,4,2,26,60,0,0
127682,-125,4,2,51,60,0,0
128019,-125,4,2,42,60,0,0
138468,-111.111111111111,4,2,42,60,0,0
138637,-111.111111111111,4,2,42,60,0,0
138805,-111.111111111111,4,2,42,60,0,0
140068,-111.111111111111,4,2,42,60,0,0
140154,-111.111111111111,4,2,42,60,0,0
140322,-111.111111111111,4,2,42,60,0,0
140491,-111.111111111111,4,2,42,60,0,0
140659,-111.111111111111,4,2,42,60,0,0
140828,-111.111111111111,4,2,42,60,0,0
140996,-111.111111111111,4,2,42,60,0,0
141165,-111.111111111111,4,2,42,60,0,0
141333,-111.111111111111,4,2,42,60,0,0
141502,-111.111111111111,4,2,42,60,0,0
142765,-111.111111111111,4,2,42,60,0,0
142850,-111.111111111111,4,2,42,60,0,0
143018,-111.111111111111,4,2,42,60,0,0
143187,-111.111111111111,4,2,42,60,0,0
143355,-111.111111111111,4,2,42,60,0,0
143524,-111.111111111111,4,2,42,60,0,0
143692,-111.111111111111,4,2,42,60,0,0
143861,-111.111111111111,4,2,42,60,0,0
144030,-111.111111111111,4,2,42,60,0,0
144198,-111.111111111111,4,2,42,60,0,0
144367,-111.111111111111,4,2,42,60,0,0
144536,-111.111111111111,4,2,42,60,0,0
144705,-111.111111111111,4,2,42,60,0,0
144873,-111.111111111111,4,2,42,60,0,0
145042,-111.111111111111,4,2,42,60,0,0
145210,-111.111111111111,4,2,42,60,0,0
145378,-111.111111111111,4,2,42,60,0,0
145547,-111.111111111111,4,2,42,60,0,0
145715,-111.111111111111,4,2,42,60,0,0
145884,-111.111111111111,4,2,42,60,0,0
146052,-111.111111111111,4,2,42,60,0,0
146221,-111.111111111111,4,2,42,60,0,0
146727,-111.111111111111,4,2,42,60,0,0
146895,-111.111111111111,4,2,42,60,0,0
147738,-111.111111111111,4,2,43,60,0,0
149255,-100,4,2,42,60,0,0
149760,-100,4,2,43,60,0,0
150266,-100,4,2,44,60,0,0
150434,-100,4,2,44,60,0,0
150771,-100,4,2,44,60,0,0
151108,-100,4,2,44,60,0,0
151277,-100,4,2,44,60,0,0
151951,-100,4,2,42,60,0,0
152457,-100,4,2,43,60,0,0
152963,-100,4,2,44,60,0,0
153131,-100,4,2,44,60,0,0
153468,-100,4,2,44,60,0,0
153805,-100,4,2,44,60,0,0
153974,-100,4,2,44,60,0,0
154648,-100,4,2,42,60,0,0
155154,-100,4,2,42,60,0,0
155322,-100,4,2,42,60,0,0
155827,-100,4,2,42,60,0,0
155996,-100,4,2,42,60,0,0
156248,-100,4,2,42,60,0,0
156333,-100,4,2,42,60,0,0
156501,-100,4,2,42,60,0,0
156670,-100,4,2,42,60,0,0
156838,-100,4,2,45,60,0,0
157345,-100,4,2,42,60,0,0
157513,-100,4,2,42,60,0,0
157682,-100,4,2,42,60,0,0
160210,-100,4,2,42,60,0,0
160378,-100,4,2,42,60,0,0
160547,-100,4,2,43,60,0,0
160715,-100,4,2,43,60,0,0
160884,-100,4,2,43,60,0,0
161052,-100,4,2,42,60,0,0
161221,-100,4,2,44,60,0,0
161389,-100,4,2,44,60,0,0
161558,-100,4,2,44,60,0,0
161895,-100,4,2,44,60,0,0
162064,-100,4,2,44,60,0,0
162232,-100,4,2,45,60,0,0
162738,-90.9090909090909,4,2,45,65,0,1
162907,-90.9090909090909,4,2,36,65,0,1
163412,-90.9090909090909,4,2,42,65,0,1
163580,-90.9090909090909,4,2,36,65,0,1
163917,-90.9090909090909,4,2,46,65,0,1
164086,-90.9090909090909,4,2,36,65,0,1
164761,-90.9090909090909,4,2,42,65,0,1
164929,-90.9090909090909,4,2,29,65,0,1
165097,-90.9090909090909,4,2,42,65,0,1
165349,-90.9090909090909,4,2,42,65,0,1
165435,-90.9090909090909,4,2,42,65,0,1
165603,-90.9090909090909,4,2,29,65,0,1
165772,-90.9090909090909,4,2,42,65,0,1
165940,-90.9090909090909,4,2,29,65,0,1
166109,-90.9090909090909,4,2,42,65,0,1
166277,-90.9090909090909,4,2,29,65,0,1
166446,-90.9090909090909,4,2,42,65,0,1
166614,-90.9090909090909,4,2,29,65,0,1
166783,-90.9090909090909,4,2,42,65,0,1
167035,-90.9090909090909,4,2,42,65,0,1
167120,-90.9090909090909,4,2,36,65,0,1
167288,-90.9090909090909,4,2,46,65,0,1
167457,-90.9090909090909,4,2,42,65,0,1
167625,-90.9090909090909,4,2,36,65,0,1
168131,-90.9090909090909,4,2,42,65,0,1
168299,-90.9090909090909,4,2,46,65,0,1
168469,-90.9090909090909,4,2,42,65,0,1
168637,-90.9090909090909,4,2,46,65,0,1
168805,-90.9090909090909,4,2,26,65,0,1
168974,-90.9090909090909,4,2,46,65,0,1
169142,-90.9090909090909,4,2,42,65,0,1
169310,-90.9090909090909,4,2,29,65,0,1
169480,-90.9090909090909,4,2,42,65,0,1
169648,-90.9090909090909,4,2,46,65,0,1
169817,-90.9090909090909,4,2,42,65,0,1
169985,-90.9090909090909,4,2,46,65,0,1
170154,-90.9090909090909,4,2,26,65,0,1
170323,-90.9090909090909,4,2,46,65,0,1
170491,-90.9090909090909,4,2,42,65,0,1
170743,-90.9090909090909,4,2,42,65,0,1
170828,-90.9090909090909,4,2,42,65,0,1
170996,-90.9090909090909,4,2,36,65,0,1
171502,-90.9090909090909,4,2,42,65,0,1
171670,-90.9090909090909,4,2,29,65,0,1
171839,-90.9090909090909,4,2,42,65,0,1
172008,-90.9090909090909,4,2,52,65,0,1
172176,-90.9090909090909,4,2,1,65,0,1
172345,-90.9090909090909,4,2,32,65,0,1
172851,-90.9090909090909,4,2,43,65,0,1
173525,-90.9090909090909,4,2,42,65,0,1
173777,-90.9090909090909,4,2,42,65,0,1
173861,-90.9090909090909,4,2,36,65,0,1
174198,-90.9090909090909,4,2,42,65,0,1
174366,-90.9090909090909,4,2,36,65,0,1
174704,-90.9090909090909,4,2,46,65,0,1
174873,-90.9090909090909,4,2,36,65,0,1
175547,-90.9090909090909,4,2,42,65,0,1
175716,-90.9090909090909,4,2,29,65,0,1
175884,-90.9090909090909,4,2,42,65,0,1
176053,-90.9090909090909,4,2,29,65,0,1
176221,-90.9090909090909,4,2,42,65,0,1
176389,-90.9090909090909,4,2,29,65,0,1
176558,-90.9090909090909,4,2,42,65,0,1
176726,-90.9090909090909,4,2,29,65,0,1
176895,-90.9090909090909,4,2,42,65,0,1
177064,-90.9090909090909,4,2,29,65,0,1
177232,-90.9090909090909,4,2,42,65,0,1
177484,-90.9090909090909,4,2,42,65,0,1
177570,-90.9090909090909,4,2,42,65,0,1
177738,-90.9090909090909,4,2,29,65,0,1
177907,-90.9090909090909,4,2,42,65,0,1
178075,-90.9090909090909,4,2,29,65,0,1
178243,-90.9090909090909,4,2,42,65,0,1
178412,-90.9090909090909,4,2,29,65,0,1
178580,-90.9090909090909,4,2,42,65,0,1
178748,-90.9090909090909,4,2,46,65,0,1
178918,-90.9090909090909,4,2,26,65,0,1
179170,-90.9090909090909,4,2,26,65,0,1
179255,-90.9090909090909,4,2,42,65,0,1
179423,-90.9090909090909,4,2,46,65,0,1
179592,-90.9090909090909,4,2,1,65,0,1
179760,-90.9090909090909,4,2,46,65,0,1
179929,-90.9090909090909,4,2,42,65,0,1
180181,-90.9090909090909,4,2,42,65,0,1
180266,-90.9090909090909,4,2,26,65,0,1
180434,-90.9090909090909,4,2,46,65,0,1
180603,-90.9090909090909,4,2,42,65,0,1
180855,-90.9090909090909,4,2,42,65,0,1
181108,-90.9090909090909,4,2,46,65,0,1
181277,-90.9090909090909,4,2,42,65,0,1
181446,-90.9090909090909,4,2,46,65,0,1
181614,-90.9090909090909,4,2,26,65,0,1
181866,-90.9090909090909,4,2,26,65,0,1
181952,-90.9090909090909,4,2,42,65,0,1
182120,-90.9090909090909,4,2,46,65,0,1
182289,-90.9090909090909,4,2,1,65,0,1
182457,-90.9090909090909,4,2,46,65,0,1
182626,-90.9090909090909,4,2,42,65,0,1
182794,-90.9090909090909,4,2,46,65,0,1
182963,-90.9090909090909,4,2,42,65,0,1
183215,-90.9090909090909,4,2,42,65,0,1
183300,-90.9090909090909,4,2,26,65,0,1
183468,-90.9090909090909,4,2,46,65,0,1
183637,-90.9090909090909,4,2,42,65,0,1
183806,-90.9090909090909,4,2,28,65,0,1
184143,-90.9090909090909,4,2,29,65,0,1
184227,-90.9090909090909,4,2,27,65,0,1
184311,-90.9090909090909,4,2,60,65,0,1
184648,-90.9090909090909,4,2,42,65,0,1
184816,-90.9090909090909,4,2,29,65,0,1
184985,-90.9090909090909,4,2,42,65,0,1
185154,-90.9090909090909,4,2,29,65,0,1
185322,-90.9090909090909,4,2,42,65,0,1
185490,-90.9090909090909,4,2,29,65,0,1
185659,-90.9090909090909,4,2,42,65,0,1
185827,-90.9090909090909,4,2,29,65,0,1
185996,-90.9090909090909,4,2,42,65,0,1
186165,-90.9090909090909,4,2,29,65,0,1
186333,-90.9090909090909,4,2,42,65,0,1
186501,-90.9090909090909,4,2,29,65,0,1
186670,-90.9090909090909,4,2,42,65,0,1
186838,-90.9090909090909,4,2,46,65,0,1
187008,-90.9090909090909,4,2,36,65,0,1
188356,-90.9090909090909,4,2,60,65,0,1
188525,-90.9090909090909,4,2,46,65,0,1
188693,-90.9090909090909,4,2,42,65,0,1
188862,-90.9090909090909,4,2,46,65,0,1
189030,-90.9090909090909,4,2,42,65,0,1
189199,-90.9090909090909,4,2,46,65,0,1
189367,-90.9090909090909,4,2,45,65,0,1
189536,-90.9090909090909,4,2,46,65,0,1
189620,-90.9090909090909,4,2,27,65,0,1
189704,-100,4,2,45,60,0,0
189956,-100,4,2,45,60,0,0
190041,-100,4,2,53,60,0,0
191052,-100,4,2,54,60,0,0
191558,-100,4,2,55,60,0,0
192064,-100,4,2,33,60,0,0
192232,-100,4,2,55,60,0,0
192738,-100,4,2,26,60,0,0
192906,-100,4,2,56,60,0,0
193075,-100,4,2,29,60,0,0
193412,-100,4,2,57,60,0,0
193580,-100,4,2,29,60,0,0
193749,-100,4,2,58,60,0,0
194086,-100,4,2,36,60,0,0
194255,-100,4,2,59,60,0,0
194423,-100,4,2,29,60,0,0
194760,-100,4,2,57,60,0,0
194928,-100,4,2,60,60,0,0
195266,-100,4,2,61,60,0,0
195434,-100,4,2,48,60,0,0
195603,-100,4,2,60,60,0,0
195772,-100,4,2,62,60,0,0
195940,-100,4,2,63,60,0,0
196109,-100,4,2,64,60,0,0
196278,-100,4,2,62,60,0,0
196446,-100,4,2,65,60,0,0
196614,-100,4,2,66,60,0,0
196783,-100,4,2,61,60,0,0
196951,-100,4,2,65,60,0,0
197120,-100,4,2,67,60,0,0
197289,-100,4,2,68,60,0,0
197457,-100,4,2,35,60,0,0
197625,-100,4,2,67,60,0,0
197710,-100,4,2,26,60,0,0
197794,-100,4,2,69,60,0,0
198046,-100,4,2,69,60,0,0
198131,-100,4,2,36,60,0,0
198637,-100,4,2,70,60,0,0
198805,-100,4,2,68,60,0,0
198974,-100,4,2,71,60,0,0
199142,-100,4,2,61,60,0,0
199310,-100,4,2,72,60,0,0
199479,-100,4,2,73,60,0,0
199647,-100,4,2,74,60,0,0
199816,-100,4,2,75,60,0,0
199985,-100,4,2,76,60,0,0
200069,-100,4,2,27,60,0,0
200153,-100,4,2,77,60,0,0
200237,-100,4,2,27,60,0,0
200322,-100,4,2,29,60,0,0
200406,-100,4,2,27,60,0,0
200490,-100,4,2,78,60,0,0
200659,-100,4,2,79,60,0,0
200827,-100,4,2,80,60,0,0
200996,-100,4,2,81,60,0,0
201165,-100,4,2,64,60,0,0
201333,-100,4,2,82,60,0,0
201502,-100,4,2,83,60,0,0
201670,-100,4,2,84,60,0,0
201839,-100,4,2,85,60,0,0
202007,-100,4,2,86,60,0,0
202176,-100,4,2,87,60,0,0
202344,-100,4,2,87,60,0,0
202513,-100,4,2,42,60,0,0
202682,-100,4,2,45,60,0,0
203187,-111.111111111111,4,2,45,60,0,0
211277,-200,4,2,45,60,0,0
211529,-200,4,2,45,5,0,0
211614,-66.6666666666667,4,2,42,60,0,0
211866,-66.6666666666667,4,2,42,5,0,0
211951,-200,4,2,42,60,0,0
212203,-200,4,2,42,5,0,0
212288,-66.6666666666667,4,2,42,60,0,0
212540,-66.6666666666667,4,2,42,5,0,0
212625,-200,4,2,42,60,0,0
212877,-200,4,2,42,5,0,0
212963,-66.6666666666667,4,2,42,60,0,0
213215,-66.6666666666667,4,2,42,5,0,0
213300,-111.111111111111,4,2,42,60,0,0
213552,-111.111111111111,4,2,42,5,0,0
213637,-100,4,2,42,60,0,0
213805,-100,4,2,42,60,0,0
214816,-100,4,2,42,60,0,0
215322,-83.3333333333333,4,2,43,60,0,0
215659,-71.4285714285714,4,2,43,60,0,0
215996,337.078651685393,4,2,45,65,1,1
215996,-90.9090909090909,4,2,45,65,0,1
216164,-90.9090909090909,4,2,36,65,0,1
216670,-90.9090909090909,4,2,42,65,0,1
216922,-90.9090909090909,4,2,42,65,0,1
217007,-90.9090909090909,4,2,36,65,0,1
217176,-90.9090909090909,4,2,46,65,0,1
217345,-90.9090909090909,4,2,36,65,0,1
218019,-90.9090909090909,4,2,42,65,0,1
218188,-90.9090909090909,4,2,29,65,0,1
218356,-90.9090909090909,4,2,42,65,0,1
218524,-90.9090909090909,4,2,29,65,0,1
218693,-90.9090909090909,4,2,42,65,0,1
218861,-90.9090909090909,4,2,29,65,0,1
219030,-90.9090909090909,4,2,42,65,0,1
219198,-90.9090909090909,4,2,29,65,0,1
219367,-90.9090909090909,4,2,42,65,0,1
219536,-90.9090909090909,4,2,29,65,0,1
219704,-90.9090909090909,4,2,42,65,0,1
219872,-90.9090909090909,4,2,29,65,0,1
220041,-90.9090909090909,4,2,42,65,0,1
220209,-90.9090909090909,4,2,29,65,0,1
220378,-90.9090909090909,4,2,42,65,0,1
220547,-90.9090909090909,4,2,29,65,0,1
220715,-90.9090909090909,4,2,42,65,0,1
220967,-90.9090909090909,4,2,42,65,0,1
221052,-90.9090909090909,4,2,42,65,0,1
221221,-90.9090909090909,4,2,46,65,0,1
221389,-90.9090909090909,4,2,26,65,0,1
221557,-90.9090909090909,4,2,46,65,0,1
221727,-90.9090909090909,4,2,42,65,0,1
221895,-90.9090909090909,4,2,46,65,0,1
222063,-90.9090909090909,4,2,1,65,0,1
222232,-90.9090909090909,4,2,46,65,0,1
222400,-90.9090909090909,4,2,42,65,0,1
222569,-90.9090909090909,4,2,46,65,0,1
222738,-90.9090909090909,4,2,26,65,0,1
222906,-90.9090909090909,4,2,46,65,0,1
223075,-90.9090909090909,4,2,42,65,0,1
223243,-90.9090909090909,4,2,46,65,0,1
223411,-90.9090909090909,4,2,1,65,0,1
223580,-90.9090909090909,4,2,46,65,0,1
223749,-90.9090909090909,4,2,42,65,0,1
223918,-90.9090909090909,4,2,46,65,0,1
224086,-90.9090909090909,4,2,26,65,0,1
224254,-90.9090909090909,4,2,46,65,0,1
224423,-90.9090909090909,4,2,42,65,0,1
224592,-90.9090909090909,4,2,46,65,0,1
224760,-90.9090909090909,4,2,1,65,0,1
224929,-90.9090909090909,4,2,46,65,0,1
225097,-90.9090909090909,4,2,42,65,0,1
225266,-90.9090909090909,4,2,46,65,0,1
225434,-90.9090909090909,4,2,42,65,0,1
225602,-90.9090909090909,4,2,29,65,0,1
225771,-90.9090909090909,4,2,26,65,0,1
225940,-90.9090909090909,4,2,46,65,0,1
226109,-90.9090909090909,4,2,42,65,0,1
226277,-90.9090909090909,4,2,28,65,0,1
226614,-90.9090909090909,4,2,29,65,0,1
226698,-90.9090909090909,4,2,27,65,0,1
226783,-90.9090909090909,4,2,60,65,0,1
227120,-90.9090909090909,4,2,42,65,0,1
227288,-90.9090909090909,4,2,29,65,0,1
227457,-90.9090909090909,4,2,42,65,0,1
227709,-90.9090909090909,4,2,42,65,0,1
227794,-90.9090909090909,4,2,42,65,0,1
227962,-90.9090909090909,4,2,29,65,0,1
228131,-90.9090909090909,4,2,42,65,0,1
228299,-90.9090909090909,4,2,29,65,0,1
228468,-90.9090909090909,4,2,42,65,0,1
228637,-90.9090909090909,4,2,29,65,0,1
228805,-90.9090909090909,4,2,42,65,0,1
229311,-90.9090909090909,4,2,46,65,0,1
229479,-90.9090909090909,4,2,60,65,0,1
229816,-90.9090909090909,4,2,36,65,0,1
230996,-90.9090909090909,4,2,46,65,0,1
231165,-90.9090909090909,4,2,42,65,0,1
231333,-90.9090909090909,4,2,46,65,0,1
231502,-90.9090909090909,4,2,42,65,0,1
231670,-90.9090909090909,4,2,46,65,0,1
231839,-90.9090909090909,4,2,45,65,0,1
232007,-90.9090909090909,4,2,46,65,0,1
232091,-90.9090909090909,4,2,27,65,0,1
232176,-90.9090909090909,4,2,26,65,0,1
232344,-90.9090909090909,4,2,36,65,0,1
233524,-100,4,2,42,60,0,0
233693,-100,4,2,29,60,0,0
233777,-100,4,2,45,60,0,0
234030,-100,4,2,29,60,0,0
234114,-100,4,2,27,60,0,0
234367,-100,4,2,29,60,0,0
234451,-100,4,2,27,60,0,0
234704,-100,4,2,29,60,0,0
234788,-100,4,2,45,60,0,0
234872,-90.9090909090909,4,2,42,65,0,1
235041,-90.9090909090909,4,2,29,65,0,1
235210,-90.9090909090909,4,2,42,65,0,1
235378,-90.9090909090909,4,2,46,65,0,1
235547,-90.9090909090909,4,2,26,65,0,1
235715,-90.9090909090909,4,2,46,65,0,1
235884,-90.9090909090909,4,2,26,65,0,1
236052,-90.9090909090909,4,2,46,65,0,1
236220,-90.9090909090909,4,2,29,65,0,1
236558,-90.9090909090909,4,2,42,65,0,1
236726,-90.9090909090909,4,2,29,65,0,1
236895,-90.9090909090909,4,2,42,65,0,1
237147,-90.9090909090909,4,2,42,65,0,1
237232,-90.9090909090909,4,2,42,65,0,1
237401,-90.9090909090909,4,2,29,65,0,1
237569,-90.9090909090909,4,2,42,65,0,1
237737,-90.9090909090909,4,2,36,65,0,1
238580,-90.9090909090909,4,2,42,65,0,1
238748,-90.9090909090909,4,2,46,65,0,1
238918,-90.9090909090909,4,2,29,65,0,1
239255,-90.9090909090909,4,2,42,65,0,1
239423,-90.9090909090909,4,2,29,65,0,1
239592,-90.9090909090909,4,2,42,65,0,1
239760,-90.9090909090909,4,2,29,65,0,1
239929,-90.9090909090909,4,2,42,65,0,1
240097,-90.9090909090909,4,2,29,65,0,1
240266,-90.9090909090909,4,2,42,65,0,1
240434,-90.9090909090909,4,2,29,65,0,1
240603,-90.9090909090909,4,2,42,65,0,1
240771,-90.9090909090909,4,2,46,65,0,1
240940,-90.9090909090909,4,2,26,65,0,1
241192,-90.9090909090909,4,2,26,65,0,1
241277,-90.9090909090909,4,2,26,65,0,1
241446,-90.9090909090909,4,2,46,65,0,1
241614,-90.9090909090909,4,2,29,65,0,1
241951,-90.9090909090909,4,2,42,65,0,1
242119,-90.9090909090909,4,2,29,65,0,1
242288,-90.9090909090909,4,2,42,65,0,1
242540,-90.9090909090909,4,2,42,65,0,1
242625,-90.9090909090909,4,2,42,65,0,1
242794,-90.9090909090909,4,2,29,65,0,1
242963,-90.9090909090909,4,2,42,65,0,1
243131,-90.9090909090909,4,2,36,65,0,1
243468,-90.9090909090909,4,2,46,65,0,1
243637,-90.9090909090909,4,2,42,65,0,1
243974,-90.9090909090909,4,2,36,65,0,1
244142,-90.9090909090909,4,2,46,65,0,1
244311,-90.9090909090909,4,2,36,65,0,1
244816,-90.9090909090909,4,2,46,65,0,1
244985,-90.9090909090909,4,2,26,65,0,1
245154,-90.9090909090909,4,2,46,65,0,1
245322,-90.9090909090909,4,2,36,65,0,1
245659,-90.9090909090909,4,2,60,65,0,1
245996,-90.9090909090909,4,2,42,65,0,1
246164,-90.9090909090909,4,2,29,65,0,1
246333,-90.9090909090909,4,2,42,65,0,1
246585,-90.9090909090909,4,2,42,65,0,1
246670,-90.9090909090909,4,2,26,65,0,1
246839,-90.9090909090909,4,2,52,65,0,1
247007,-90.9090909090909,4,2,29,65,0,1
247345,-90.9090909090909,4,2,42,65,0,1
247513,-90.9090909090909,4,2,29,65,0,1
247682,-90.9090909090909,4,2,42,65,0,1
247850,-90.9090909090909,4,2,29,65,0,1
248019,-90.9090909090909,4,2,42,65,0,1
248187,-90.9090909090909,4,2,60,65,0,1
248693,-90.9090909090909,4,2,42,65,0,1
248861,-90.9090909090909,4,2,46,65,0,1
249030,-90.9090909090909,4,2,42,65,0,1
249198,-90.9090909090909,4,2,46,65,0,1
249366,-90.9090909090909,4,2,26,65,0,1
249536,-90.9090909090909,4,2,46,65,0,1
249704,-90.9090909090909,4,2,1,65,0,1
249873,-90.9090909090909,4,2,46,65,0,1
250041,-90.9090909090909,4,2,1,65,0,1
250210,-90.9090909090909,4,2,46,65,0,1
250378,-90.9090909090909,4,2,1,65,0,1
250546,-90.9090909090909,4,2,46,65,0,1
250715,-90.9090909090909,4,2,1,65,0,1
250883,-90.9090909090909,4,2,46,65,0,1
251052,-90.9090909090909,4,2,26,65,0,1
251137,-90.9090909090909,4,2,26,65,0,1
251221,-90.9090909090909,4,2,29,65,0,1
251305,-90.9090909090909,4,2,27,65,0,1
251558,-90.9090909090909,4,2,29,65,0,1
251642,-90.9090909090909,4,2,27,65,0,1
251895,-90.9090909090909,4,2,29,65,0,1
251979,-90.9090909090909,4,2,27,65,0,1
252232,-90.9090909090909,4,2,46,65,0,1
252316,-90.9090909090909,4,2,27,65,0,1
252401,-90.9090909090909,4,2,42,65,0,1
252569,-90.9090909090909,4,2,29,65,0,1
252738,-90.9090909090909,4,2,42,65,0,1
252906,-90.9090909090909,4,2,29,65,0,1
253075,-90.9090909090909,4,2,42,65,0,1
253243,-90.9090909090909,4,2,29,65,0,1
253412,-90.9090909090909,4,2,42,65,0,1
253580,-90.9090909090909,4,2,29,65,0,1
253749,-90.9090909090909,4,2,42,65,0,1
253918,-90.9090909090909,4,2,29,65,0,1
254086,-90.9090909090909,4,2,42,65,0,1
254255,-90.9090909090909,4,2,29,65,0,1
254423,-90.9090909090909,4,2,42,65,0,1
254591,-90.9090909090909,4,2,29,65,0,1
254760,-90.9090909090909,4,2,42,65,0,1
254928,-90.9090909090909,4,2,46,65,0,1
255097,-90.9090909090909,4,2,60,65,0,1
255434,-90.9090909090909,4,2,26,65,0,1
255602,-90.9090909090909,4,2,46,65,0,1
255771,-90.9090909090909,4,2,42,65,0,1
255940,-90.9090909090909,4,2,46,65,0,1
256109,-90.9090909090909,4,2,26,65,0,1
256277,-90.9090909090909,4,2,52,65,0,1
256445,-90.9090909090909,4,2,36,65,0,1
256783,-90.9090909090909,4,2,26,65,0,1
256951,-90.9090909090909,4,2,36,65,0,1
257036,-90.9090909090909,4,2,26,65,0,1
257288,-90.9090909090909,4,2,36,65,0,1
257625,-90.9090909090909,4,2,52,65,0,1
257794,-90.9090909090909,4,2,42,65,0,1
257962,-90.9090909090909,4,2,29,65,0,1
258131,-90.9090909090909,4,2,42,65,0,1
258299,-90.9090909090909,4,2,29,65,0,1
258468,-90.9090909090909,4,2,42,65,0,1
258637,-90.9090909090909,4,2,29,65,0,1
258721,-90.9090909090909,4,2,45,65,0,1
258974,-90.9090909090909,4,2,29,65,0,1
259058,-90.9090909090909,4,2,27,65,0,1
259142,-90.9090909090909,4,2,88,65,0,1
259311,-90.9090909090909,4,2,29,65,0,1
259479,-90.9090909090909,4,2,42,65,0,1
259648,-90.9090909090909,4,2,46,65,0,1
259816,-90.9090909090909,4,2,1,65,0,1
259984,-90.9090909090909,4,2,46,65,0,1
260154,-90.9090909090909,4,2,1,65,0,1
260322,-90.9090909090909,4,2,46,65,0,1
260490,-100,4,2,89,60,0,0
260743,-100,4,2,1,60,0,0
260828,-100,4,2,90,60,0,0
260996,-100,4,2,89,60,0,0
261333,-100,4,2,54,60,0,0
261670,-100,4,2,55,60,0,0
262176,-100,4,2,54,60,0,0
262513,-100,4,2,89,60,0,0
262850,-100,4,2,53,60,0,0
263187,-100,4,2,89,60,0,0
263524,-100,4,2,36,60,0,0
264198,-100,4,2,90,60,0,0
264367,-100,4,2,29,60,0,0
264873,-100,4,2,53,60,0,0
266221,-100,4,2,91,60,0,0
266389,-100,4,2,53,60,0,0
266727,-100,4,2,29,60,0,0
266895,-100,4,2,26,60,0,0
267064,-100,4,2,89,60,0,0
267569,-100,4,2,53,60,0,0
267906,-100,4,2,89,60,0,0
268243,-100,4,2,33,60,0,0
268411,-100,4,2,29,60,0,0
268580,-100,4,2,92,60,0,0
268749,-100,4,2,36,60,0,0
269255,-100,4,2,93,60,0,0
269423,-100,4,2,36,60,0,0
269929,-100,4,2,94,60,0,0
270097,-100,4,2,36,60,0,0
270603,-100,4,2,95,60,0,0
270771,-100,4,2,36,60,0,0
271277,-100,4,2,96,60,0,0
271361,-100,4,2,27,60,0,0
271446,-100,4,2,29,60,0,0
271530,-100,4,2,27,60,0,0
271783,-100,4,2,29,60,0,0
271867,-100,4,2,27,60,0,0
271951,-100,4,2,97,60,0,0
272035,-100,4,2,27,60,0,0
272119,-100,4,2,29,60,0,0
272203,-100,4,2,27,60,0,0
272457,-100,4,2,29,60,0,0
272541,-100,4,2,27,60,0,0
272625,-100,4,2,98,60,0,0
272709,-100,4,2,27,60,0,0
272794,-100,4,2,29,60,0,0
272878,-100,4,2,27,60,0,0
273131,-100,4,2,29,60,0,0
273216,-100,4,2,27,60,0,0
273300,-100,4,2,99,60,0,0
273384,-100,4,2,27,60,0,0
273468,-100,4,2,29,60,0,0
273552,-100,4,2,27,60,0,0
273805,-100,4,2,29,60,0,0
273889,-100,4,2,27,60,0,0
273974,-100,4,2,29,60,0,0
274648,-100,4,2,102,60,0,0
274732,-100,4,2,100,60,0,0
275321,-100,4,2,100,50,0,0
276670,-100,4,2,100,40,0,0
278018,-100,4,2,100,30,0,0
279366,-100,4,2,100,20,0,0
280715,-100,4,2,100,10,0,0
282064,-100,4,2,100,5,0,0

[Colours]
Combo1 : 255,149,215
Combo2 : 185,138,255
SliderBorder : 255,255,255
SliderTrackOverride : 255,128,192

[HitObjects]
322,191,890,5,2,0:0:0:0:
190,191,1300,5,2,0:0:0:0:
257,90,1711,5,2,0:0:0:0:
322,191,2122,5,2,0:0:0:0:
190,191,2533,5,2,0:0:0:0:
190,191,3355,5,2,0:0:0:0:
175,220,3766,5,2,0:0:0:0:
157,250,4177,6,0,B|229:228|214:280|283:258,1,128,2|2,0:0|0:0,0:0:0:0:
426,194,5410,5,2,0:0:0:0:
280,258,5821,5,2,0:0:0:0:
280,258,6643,5,2,0:0:0:0:
189,133,7054,1,2,0:0:0:0:
335,181,7465,1,2,0:0:0:0:
189,228,7876,1,0,0:0:0:0:
280,104,8287,1,2,0:0:0:0:
280,258,8698,1,0,0:0:0:0:
188,132,9109,2,0,P|152:145|98:124,1,96,2|0,0:0|0:0,0:0:0:0:
158,61,9931,2,0,P|194:48|248:69,1,96,2|0,0:0|0:0,0:0:0:0:
298,128,10753,5,2,0:0:0:0:
365,246,11210,5,2,0:0:0:0:
426,130,11621,5,2,0:0:0:0:
289,193,12032,5,2,0:0:0:0:
364,76,12443,5,2,0:0:0:0:
257,290,13400,5,2,0:0:0:0:
148,75,14418,1,2,0:0:0:0:
148,75,15772,5,8,2:2:0:0:
213,148,15940,1,8,2:2:0:0:
231,162,16024,1,8,2:2:0:0:
250,177,16109,1,8,2:2:0:0:
269,192,16193,1,8,2:2:0:0:
288,207,16277,1,8,2:2:0:0:
307,221,16361,1,8,2:2:0:0:
327,236,16446,2,0,L|363:203,1,40,10|8,2:2|2:2,0:0:0:0:
415,143,16614,2,0,L|449:163,1,40,8|8,2:2|2:2,0:0:0:0:
429,258,16783,5,10,2:2:0:0:
412,275,16867,1,8,2:2:0:0:
395,292,16951,1,8,2:2:0:0:
378,309,17036,1,8,2:2:0:0:
362,328,17120,6,0,P|295:335|244:370,1,120,6|0,3:2|0:0,0:0:0:0:
153,324,17457,2,0,P|189:311|219:277,1,80,8|0,3:2|0:0,0:0:0:0:
241,139,17794,2,0,P|205:152|175:186,1,80,2|0,3:2|0:0,0:0:0:0:
306,193,18131,1,8,3:2:0:0:
211,66,18300,1,2,2:2:0:0:
360,37,18468,6,0,P|365:79|351:137,1,80,0|0,3:3|0:0,0:0:0:0:
306,193,18805,2,0,L|404:200,1,80,8|0,3:2|0:0,0:0:0:0:
127,240,19142,2,0,P|122:196|127:157,1,80,2|0,3:2|0:0,0:0:0:0:
260,37,19479,2,0,P|265:81|260:120,1,80,10|0,3:2|0:0,0:0:0:0:
285,220,19816,5,2,3:2:0:0:
195,149,19985,1,0,0:0:0:0:
330,119,20154,1,10,3:2:0:0:
200,236,20322,1,0,0:0:0:0:
363,216,20491,2,0,P|319:211|268:228,1,80,2|0,3:2|0:0,0:0:0:0:
178,324,20828,2,0,P|222:329|273:312,1,80,10|0,3:2|0:0,0:0:0:0:
62,311,21165,6,0,L|72:227,1,80,2|0,3:2|0:0,0:0:0:0:
200,236,21502,2,0,L|210:152,1,80,8|2,3:2|2:2,0:0:0:0:
219,59,21839,1,2,3:2:0:0:
219,59,22007,1,0,0:0:0:0:
331,152,22176,2,0,P|371:151|416:137,1,80,8|0,3:2|0:0,0:0:0:0:
412,273,22513,6,0,P|329:275|259:340,1,160,6|10,3:2|2:2,0:0:0:0:
93,245,23019,2,0,P|176:243|246:178,1,160,6|0,3:2|3:3,0:0:0:0:
402,173,23524,2,0,L|328:128,1,80,8|0,2:2|0:0,0:0:0:0:
392,265,23861,5,6,3:2:0:0:
471,319,24030,1,2,2:2:0:0:
364,356,24198,1,10,2:2:0:0:
473,240,24367,2,0,P|478:284|467:327,1,80,6|0,3:2|0:0,0:0:0:0:
314,283,24704,2,0,P|309:239|320:196,1,80,2|10,3:2|2:2,0:0:0:0:
426,128,25041,1,0,0:0:0:0:
255,70,25210,6,0,L|340:58,1,80,6|0,3:2|0:0,0:0:0:0:
216,169,25547,2,0,L|301:157,1,80,10|2,3:2|2:2,0:0:0:0:
152,281,25884,1,0,3:3:0:0:
95,191,26052,1,2,2:2:0:0:
255,247,26221,2,0,P|260:295|248:334,1,80,10|2,3:2|2:2,0:0:0:0:
95,191,26558,6,0,P|97:128|129:82,1,120,2|0,3:2|0:0,0:0:0:0:
194,50,26895,2,0,L|244:113,1,80,8|0,3:2|0:0,0:0:0:0:
320,50,27232,2,0,L|370:113,1,80,2|8,3:2|2:2,0:0:0:0:
440,228,27569,1,8,3:2:0:0:
440,228,27654,1,8,2:2:0:0:
440,228,27738,1,10,2:2:0:0:
440,228,27822,1,8,2:2:0:0:
440,228,27906,6,0,P|376:220|332:252,1,120,6|0,3:2|0:0,0:0:0:0:
263,289,28243,2,0,P|238:258|225:210,1,80,0|0,3:3|0:0,0:0:0:0:
145,140,28580,2,0,P|176:115|224:102,1,80,0|0,3:3|0:0,0:0:0:0:
346,146,28918,1,0,3:3:0:0:
315,26,29086,1,4,2:2:0:0:
423,135,29255,6,0,P|387:134|326:157,1,80,0|10,3:3|2:3,0:0:0:0:
287,230,29592,1,10,3:3:0:0:
205,113,29760,1,6,2:3:0:0:
205,113,29845,1,4,2:3:0:0:
205,113,29929,2,0,P|241:114|302:91,1,80,6|10,3:3|2:3,0:0:0:0:
88,75,30266,2,0,L|98:156,1,80,10|4,3:3|2:3,0:0:0:0:
78,293,30603,6,0,P|140:281|206:286,1,120,6|0,3:2|0:0,0:0:0:0:
259,331,30940,2,0,L|283:242,1,80,10|2,3:2|2:2,0:0:0:0:
365,300,31277,2,0,L|389:211,1,80,0|2,3:3|2:2,0:0:0:0:
439,327,31614,1,8,3:2:0:0:
319,191,31783,1,2,2:2:0:0:
468,157,31951,6,0,P|473:203|467:243,1,80,0|0,3:3|0:0,0:0:0:0:
319,191,32288,2,0,P|314:145|320:105,1,80,10|0,3:2|0:0,0:0:0:0:
349,9,32625,1,2,3:2:0:0:
400,93,32794,1,0,0:0:0:0:
272,53,32963,2,0,P|232:59|191:55,1,80,10|0,3:2|0:0,0:0:0:0:
29,153,33300,6,0,P|86:141|178:185,1,160,2|8,3:2|3:2,0:0:0:0:
232,283,33805,1,0,0:0:0:0:
328,215,33974,2,0,P|335:174|331:135,1,80,0|0,3:3|0:0,0:0:0:0:
232,283,34311,2,0,P|225:324|229:363,1,80,10|2,3:2|2:2,0:0:0:0:
455,328,34648,6,0,P|384:313|301:347,1,160,0|8,3:3|3:2,0:0:0:0:
197,279,35154,1,0,0:0:0:0:
304,343,35322,2,0,L|213:377,1,80,0|0,3:3|0:0,0:0:0:0:
197,279,35659,2,0,L|106:313,1,80,8|0,3:2|0:0,0:0:0:0:
56,181,35996,6,0,P|47:138|76:67,1,120,2|0,3:2|0:0,0:0:0:0:
151,87,36333,2,0,L|244:98,1,80,10|2,3:2|2:2,0:0:0:0:
272,187,36670,2,0,L|192:177,1,80,0|2,3:3|2:2,0:0:0:0:
224,267,37007,2,0,L|317:278,1,80,8|2,3:2|2:2,0:0:0:0:
447,297,37345,5,0,3:3:0:0:
489,193,37513,1,0,0:0:0:0:
387,133,37682,2,0,P|378:172|383:217,1,80,10|0,3:2|0:0,0:0:0:0:
421,60,38019,2,0,L|323:37,1,80,2|0,3:2|0:0,0:0:0:0:
290,125,38356,2,0,L|192:102,1,80,10|0,3:2|0:0,0:0:0:0:
51,196,38693,6,0,P|109:189|161:221,1,120,2|0,3:2|0:0,0:0:0:0:
197,292,39030,2,0,L|114:313,1,80,8|2,3:2|2:2,0:0:0:0:
261,183,39367,2,0,P|272:230|267:267,1,80,2|0,3:2|0:0,0:0:0:0:
199,376,39704,2,0,L|276:356,1,80,8|2,3:2|2:2,0:0:0:0:
416,225,40041,5,0,3:3:0:0:
380,318,40210,1,0,0:0:0:0:
300,243,40378,2,0,P|280:206|276:165,1,80,8|2,3:2|2:2,0:0:0:0:
217,62,40715,2,0,P|259:53|305:56,1,80,0|2,3:3|2:2,0:0:0:0:
150,170,41052,1,8,3:2:0:0:
217,62,41221,1,0,0:0:0:0:
275,168,41389,6,0,L|403:141,1,120,4|0,3:2|0:0,0:0:0:0:
441,201,41727,2,0,P|451:242|446:283,1,80,10|2,3:2|2:2,0:0:0:0:
281,246,42064,2,0,P|271:205|276:164,1,80,2|2,3:2|2:2,0:0:0:0:
202,284,42401,1,8,3:2:0:0:
362,233,42569,6,0,L|346:324,1,80,6|0,2:2|3:3,0:0:0:0:
188,362,42906,2,0,L|202:284,1,80,0|10,0:0|3:2,0:0:0:0:
222,157,43243,1,0,0:0:0:0:
202,284,43412,1,2,3:2:0:0:
112,207,43580,1,0,0:0:0:0:
222,157,43749,2,0,P|227:117|220:75,1,80,10|0,3:2|0:0,0:0:0:0:
448,107,44086,6,0,P|388:106|327:127,1,120,4|0,3:2|0:0,0:0:0:0:
291,193,44423,2,0,L|328:288,1,80,10|2,3:2|2:2,0:0:0:0:
464,284,44760,2,0,P|410:304|378:302,1,80,2|2,3:2|2:2,0:0:0:0:
284,365,45097,1,8,3:2:0:0:
320,267,45266,2,0,P|277:262|230:275,1,80,14|0,2:2|3:3,0:0:0:0:
162,351,45603,5,0,0:0:0:0:
241,269,45771,1,10,3:2:0:0:
130,244,45940,1,0,0:0:0:0:
162,351,46109,2,0,P|117:360|75:351,1,80,2|0,3:2|0:0,0:0:0:0:
130,244,46446,2,0,P|124:200|133:159,1,80,10|0,3:2|0:0,0:0:0:0:
302,100,46783,6,0,L|239:171,1,80,6|0,3:2|0:0,0:0:0:0:
408,112,47120,2,0,L|345:183,1,80,10|0,3:2|0:0,0:0:0:0:
469,184,47457,1,2,3:2:0:0:
356,55,47625,1,0,0:0:0:0:
469,184,47794,2,0,P|477:235|463:268,1,80,10|0,3:2|0:0,0:0:0:0:
245,314,48131,6,0,P|321:299|411:323,1,160,2|8,3:2|3:2,0:0:0:0:
484,367,48637,1,0,0:0:0:0:
467,260,48805,2,0,P|478:222|469:184,1,80,2|0,3:2|0:0,0:0:0:0:
360,97,49142,2,0,P|350:135|361:173,1,80,8|0,3:2|0:0,0:0:0:0:
254,58,49479,6,0,P|170:51|91:87,1,160,6|10,3:2|2:2,0:0:0:0:
79,218,49985,2,0,P|163:225|242:189,1,160,6|2,3:2|3:2,0:0:0:0:
339,177,50491,2,0,P|357:213|361:256,1,80,10|6,2:2|3:2,0:0:0:0:
289,361,50828,5,0,0:0:0:0:
253,257,50996,1,0,3:3:0:0:
183,337,51165,2,0,P|138:340|97:322,1,80,8|4,2:2|2:2,0:0:0:0:
253,257,51502,2,0,L|259:173,1,80,0|0,3:3|3:3,0:0:0:0:
256,42,51839,1,8,2:2:0:0:
411,153,52007,1,8,2:2:0:0:
411,153,52092,1,8,2:2:0:0:
411,153,52176,6,0,P|372:158|330:144,1,80,6|0,3:2|0:0,0:0:0:0:
256,42,52513,2,0,P|261:82|253:125,1,80,10|2,3:2|2:2,0:0:0:0:
168,236,52850,1,0,3:3:0:0:
294,195,53019,1,2,2:2:0:0:
167,129,53187,2,0,L|175:47,1,80,8|2,3:2|2:2,0:0:0:0:
339,24,53524,6,0,L|244:31,1,80,0|0,3:3|0:0,0:0:0:0:
294,195,53861,2,0,L|301:115,1,80,10|0,3:2|0:0,0:0:0:0:
377,228,54198,1,2,3:2:0:0:
214,185,54367,1,0,0:0:0:0:
377,228,54536,2,0,P|380:270|368:309,1,80,10|0,3:2|0:0,0:0:0:0:
144,303,54873,6,0,P|221:293|307:326,1,160,2|8,3:2|3:2,0:0:0:0:
83,370,55378,1,0,0:0:0:0:
52,275,55547,1,0,3:3:0:0:
144,303,55715,1,0,0:0:0:0:
57,196,55884,2,0,P|47:248|54:281,1,80,10|2,3:2|2:2,0:0:0:0:
233,149,56221,6,0,P|163:153|109:136,1,120,0|0,3:3|0:0,0:0:0:0:
56,196,56558,2,0,P|47:234|51:274,1,80,8|0,3:2|0:0,0:0:0:0:
239,228,56895,2,0,P|243:188|233:149,1,80,0|0,3:3|0:0,0:0:0:0:
153,261,57232,1,8,3:2:0:0:
316,214,57401,1,0,0:0:0:0:
257,346,57569,6,0,L|237:216,1,120,2|0,3:2|0:0,0:0:0:0:
316,214,57906,2,0,P|317:174|303:137,1,80,10|2,3:2|2:2,0:0:0:0:
381,84,58243,2,0,P|353:55|317:38,1,80,0|2,3:3|2:2,0:0:0:0:
173,82,58580,1,8,3:2:0:0:
220,0,58749,1,2,2:2:0:0:
252,142,58918,6,0,P|183:172|92:154,1,160,0|10,3:3|3:2,0:0:0:0:
29,83,59423,1,0,0:0:0:0:
23,186,59592,2,0,L|37:266,1,80,2|0,3:2|0:0,0:0:0:0:
121,255,59929,2,0,L|135:335,1,80,10|0,3:2|0:0,0:0:0:0:
335,290,60266,6,0,P|273:281|211:302,1,120,2|0,3:2|0:0,0:0:0:0:
134,333,60603,2,0,L|121:255,1,80,8|2,3:2|2:2,0:0:0:0:
23,186,60940,2,0,L|36:264,1,80,2|0,3:2|0:0,0:0:0:0:
124,175,61277,1,8,3:2:0:0:
10,113,61446,1,0,0:0:0:0:
201,67,61614,6,0,P|210:114|203:157,1,80,0|0,3:3|0:0,0:0:0:0:
287,199,61951,2,0,P|246:223|212:232,1,80,8|0,3:2|0:0,0:0:0:0:
92,258,62288,2,0,P|130:269|164:290,1,80,0|0,3:3|0:0,0:0:0:0:
256,367,62625,1,8,3:2:0:0:
274,261,62794,1,0,0:0:0:0:
164,290,62963,6,0,P|156:326|163:372,2,80,4|0|10,3:2|0:0|3:2,0:0:0:0:
274,261,63468,1,2,2:2:0:0:
186,182,63637,2,0,P|143:176|96:190,1,80,2|2,3:2|2:2,0:0:0:0:
17,257,63974,1,8,3:2:0:0:
107,184,64142,6,0,L|91:97,1,80,14|0,2:2|3:3,0:0:0:0:
186,98,64479,2,0,L|170:11,1,80,0|10,0:0|3:2,0:0:0:0:
198,192,64816,1,0,0:0:0:0:
92,105,64985,1,2,3:2:0:0:
259,51,65154,1,0,0:0:0:0:
198,192,65322,2,0,P|236:181|266:154,1,80,10|0,3:2|0:0,0:0:0:0:
424,192,65659,6,0,P|362:201|313:244,1,120,4|0,3:2|0:0,0:0:0:0:
302,308,65996,2,0,L|390:323,1,80,10|2,3:2|2:2,0:0:0:0:
179,285,66333,1,2,3:2:0:0:
302,308,66502,1,2,2:2:0:0:
179,285,66670,1,8,3:2:0:0:
247,137,66839,6,0,P|253:179|247:222,1,80,14|0,2:2|3:3,0:0:0:0:
140,146,67176,1,0,0:0:0:0:
205,46,67345,2,0,P|247:40|290:46,1,80,10|0,3:2|0:0,0:0:0:0:
409,56,67682,2,0,L|357:127,1,80,2|0,3:2|0:0,0:0:0:0:
437,185,68019,2,0,L|385:256,1,80,10|0,3:2|0:0,0:0:0:0:
258,311,68356,6,0,P|195:294|136:312,1,120,6|0,3:2|0:0,0:0:0:0:
69,324,68693,2,0,P|54:292|51:246,1,80,10|0,3:2|0:0,0:0:0:0:
5,133,69030,2,0,P|47:130|89:147,1,80,2|0,3:2|0:0,0:0:0:0:
179,224,69367,1,10,3:2:0:0:
82,142,69536,1,0,0:0:0:0:
324,118,69704,6,0,P|256:125|217:161,1,120,2|0,3:2|0:0,0:0:0:0:
179,224,70041,1,10,3:2:0:0:
273,273,70210,1,0,0:0:0:0:
179,224,70378,2,0,P|164:261|173:316,1,80,2|0,3:2|0:0,0:0:0:0:
350,292,70715,2,0,L|271:272,1,80,10|2,3:2|2:2,0:0:0:0:
461,240,71052,6,0,L|336:212,1,120,4|0,3:2|0:0,0:0:0:0:
308,151,71389,2,0,P|306:110|324:71,1,80,10|2,3:2|2:2,0:0:0:0:
452,61,71727,2,0,P|454:102|436:141,1,80,2|2,3:2|2:2,0:0:0:0:
376,26,72064,1,10,3:2:0:0:
238,90,72232,6,0,L|154:119,1,80,14|0,2:2|3:3,0:0:0:0:
79,22,72569,1,2,3:2:0:0:
79,22,72738,2,0,P|68:63|77:104,1,80,10|10,3:2|2:2,0:0:0:0:
109,162,72991,1,8,2:2:0:0:
109,162,73075,2,0,P|115:201|104:239,1,80,10|8,2:2|2:2,0:0:0:0:
37,339,73412,1,8,2:2:0:0:
37,339,73580,1,8,2:2:0:0:
224,351,73749,6,0,L|130:318,1,80,6|0,3:2|0:0,0:0:0:0:
254,239,74086,1,10,2:2:0:0:
211,371,74255,2,0,L|117:338,1,80,6|0,3:2|0:0,0:0:0:0:
254,239,74592,1,2,3:2:0:0:
320,322,74760,1,14,2:2:0:0:
374,236,74929,2,0,P|377:192|363:151,1,80
255,108,75266,5,0,3:3:0:0:
366,158,75434,1,8,2:2:0:0:
254,239,75603,1,0,0:0:0:0:
255,108,75771,2,0,L|329:55,1,80,2|2,3:2|3:2,0:0:0:0:
124,84,76109,2,0,L|198:31,1,80,10|2,2:2|2:2,0:0:0:0:
73,187,76446,6,0,P|67:232|78:266,1,80,6|0,3:2|0:0,0:0:0:0:
169,192,76783,1,10,2:2:0:0:
124,84,76951,2,0,P|79:78|45:89,1,80,6|0,3:2|0:0,0:0:0:0:
169,192,77288,1,2,3:2:0:0:
255,87,77457,2,0,P|259:47|247:6,1,80,14|0,2:2|0:0,0:0:0:0:
362,137,77794,5,0,0:0:0:0:
255,192,77963,1,0,3:3:0:0:
362,266,78131,1,8,2:2:0:0:
362,137,78300,1,0,0:0:0:0:
255,192,78468,2,0,P|244:233|254:271,1,80,2|2,3:2|3:2,0:0:0:0:
432,171,78805,2,0,P|443:130|433:92,1,80,10|2,2:2|2:2,0:0:0:0:
409,342,79142,6,0,L|272:329,1,120,6|0,3:2|0:0,0:0:0:0:
252,268,79479,2,0,P|244:230|255:192,1,80,8|0,2:2|0:0,0:0:0:0:
432,171,79816,2,0,P|443:130|433:92,1,80,2|0,3:2|3:3,0:0:0:0:
338,24,80154,1,8,2:2:0:0:
338,24,80322,1,0,0:0:0:0:
166,97,80491,6,0,P|132:129|114:167,1,80,2|0,3:2|0:0,0:0:0:0:
190,209,80828,2,0,P|180:245|186:289,1,80,10|0,2:2|0:0,0:0:0:0:
286,260,81165,1,2,3:2:0:0:
190,209,81333,1,8,2:2:0:0:
206,191,81418,1,8,2:2:0:0:
223,174,81502,1,10,3:2:0:0:
240,157,81586,1,8,2:2:0:0:
257,140,81670,1,8,2:2:0:0:
274,123,81755,1,8,2:2:0:0:
290,106,81839,5,6,3:2:0:0:
384,15,82007,1,0,0:0:0:0:
415,139,82176,1,8,2:2:0:0:
288,80,82345,5,0,3:3:0:0:
407,26,82513,1,8,2:2:0:0:
394,153,82682,1,0,3:3:0:0:
295,55,82850,5,8,2:2:0:0:
425,45,83019,1,0,3:3:0:0:
370,160,83187,6,0,L|318:241,1,80,8|2,2:2|2:2,0:0:0:0:
252,172,83524,2,0,L|200:253,1,80,10|2,2:2|3:2,0:0:0:0:
52,300,83861,2,0,P|103:303|137:287,1,80,10|2,2:2|3:2,0:0:0:0:
85,176,84198,2,0,P|45:171|7:183,1,80,10|2,2:2|2:2,0:0:0:0:
252,172,84536,5,14,2:2:0:0:
163,52,84704,1,0,0:0:0:0:
85,176,84873,1,0,3:3:0:0:
241,81,85041,2,0,P|243:35|227:0,1,80,14|0,2:2|0:0,0:0:0:0:
252,172,85378,1,0,3:3:0:0:
163,52,85547,1,14,2:2:0:0:
252,172,85715,2,0,P|298:159|323:127,1,80,14|0,3:2|0:0,0:0:0:0:
348,33,86052,5,10,2:2:0:0:
348,33,86221,1,10,2:2:0:0:
256,301,86558,1,10,2:2:0:0:
252,172,86727,1,8,2:2:0:0:
228,178,86811,1,8,2:2:0:0:
205,184,86895,1,10,2:2:0:0:
182,190,86979,1,8,2:2:0:0:
159,196,87064,1,8,2:2:0:0:
136,203,87148,1,8,2:2:0:0:
112,209,87232,5,6,3:2:0:0:
119,328,87401,1,0,2:2:0:0:
34,266,87569,1,8,3:2:0:0:
203,268,87738,1,0,2:2:0:0:
34,266,87906,2,0,P|23:306|33:352,1,88.000002685547,2|0,3:2|2:2,0:0:0:0:
203,268,88243,2,0,P|214:228|204:182,1,88.000002685547,8|2,3:2|2:2,0:0:0:0:
359,58,88580,6,0,P|279:46|195:88,1,176.000005371094,0|8,3:3|3:2,0:0:0:0:
412,173,89086,1,0,2:2:0:0:
359,58,89255,1,2,3:2:0:0:
481,90,89423,1,0,2:2:0:0:
332,156,89592,2,0,P|322:204|359:281,1,132.00000402832,10|0,3:2|0:0,0:0:0:0:
325,345,89929,6,0,L|229:331,1,88.000002685547,2|0,3:2|2:2,0:0:0:0:
249,235,90266,2,0,L|153:221,1,88.000002685547,10|0,3:2|2:2,0:0:0:0:
332,156,90603,1,2,3:2:0:0:
161,309,90771,1,0,2:2:0:0:
332,156,90940,2,0,P|346:107|334:61,1,88.000002685547,10|0,3:2|2:2,0:0:0:0:
139,68,91277,6,0,L|279:102,1,132.00000402832,2|0,3:2|0:0,0:0:0:0:
339,71,91614,2,0,P|345:114|332:156,1,88.000002685547,8|2,3:2|2:2,0:0:0:0:
391,251,91951,2,0,P|339:259|294:248,1,88.000002685547,2|0,3:2|2:2,0:0:0:0:
184,191,92288,1,8,3:2:0:0:
304,252,92457,1,0,2:2:0:0:
332,155,92625,6,0,P|345:114|339:71,1,88.000002685547,6|2,3:2|2:2,0:0:0:0:
256,7,92963,1,10,3:2:0:0:
256,7,93131,1,2,2:2:0:0:
136,79,93300,1,0,3:3:0:0:
256,151,93468,1,2,2:2:0:0:
256,7,93637,2,0,L|161:0,1,88.000002685547,10|0,3:2|2:2,0:0:0:0:
162,178,93974,6,0,P|161:225|183:266,1,88.000002685547,2|2,3:2|2:2,0:0:0:0:
256,343,94311,1,10,3:2:0:0:
256,343,94479,1,2,2:2:0:0:
258,225,94648,1,0,3:3:0:0:
117,300,94816,1,2,2:2:0:0:
256,343,94985,2,0,L|385:292,1,132.00000402832,10|0,3:2|0:0,0:0:0:0:
438,251,95322,6,0,P|443:212|425:163,1,88.000002685547,2|0,3:2|2:2,0:0:0:0:
449,66,95659,2,0,P|402:63|354:88,1,88.000002685547,8|2,3:2|2:2,0:0:0:0:
248,43,95996,2,0,P|243:82|261:131,1,88.000002685547,2|0,3:2|2:2,0:0:0:0:
342,220,96333,1,10,3:2:0:0:
209,232,96502,6,0,L|119:228,1,88.000002685547,10|0,2:2|0:0,0:0:0:0:
173,130,96839,1,12,2:2:0:0:
244,311,97007,2,0,L|154:307,1,88.000002685547,12|0,2:2|3:3,0:0:0:0:
173,130,97345,2,0,P|164:81|182:35,1,88.000002685547,14|0,2:2|3:3,0:0:0:0:
315,8,97682,2,0,P|324:57|306:103,1,88.000002685547,14|8,2:2|2:2,0:0:0:0:
475,175,98019,6,0,P|404:171|347:203,1,132.00000402832,6|0,3:2|0:0,0:0:0:0:
305,260,98356,2,0,L|393:320,1,88.000002685547,8|0,3:2|2:2,0:0:0:0:
185,291,98693,2,0,L|273:351,1,88.000002685547,2|0,3:2|2:2,0:0:0:0:
129,362,99030,1,8,3:2:0:0:
237,222,99198,1,2,2:2:0:0:
129,362,99367,6,0,P|63:363|35:338,1,88.000002685547,0|0,3:3|2:2,0:0:0:0:
154,212,99704,2,0,P|196:203|236:221,1,88.000002685547,8|0,3:2|2:2,0:0:0:0:
47,283,100041,1,2,3:2:0:0:
154,211,100210,1,0,2:2:0:0:
32,164,100378,1,10,3:2:0:0:
47,283,100547,1,0,2:2:0:0:
154,211,100715,6,0,L|178:127,1,88.000002685547,2|0,3:2|2:2,0:0:0:0:
299,44,101052,2,0,L|323:128,1,88.000002685547,10|0,3:2|2:2,0:0:0:0:
364,268,101389,1,2,3:2:0:0:
323,128,101558,1,0,2:2:0:0:
493,128,101727,2,0,P|428:146|390:205,1,132.00000402832,10|0,3:2|0:0,0:0:0:0:
364,268,102064,5,2,3:2:0:0:
416,360,102232,1,0,2:2:0:0:
364,268,102401,2,0,P|324:252|276:248,1,88.000002685547,10|0,3:2|2:2,0:0:0:0:
175,230,102738,1,2,3:2:0:0:
232,130,102906,1,0,2:2:0:0:
175,230,103075,2,0,P|129:243|81:243,1,88.000002685547,10|2,3:2|2:2,0:0:0:0:
103,349,103412,6,0,P|177:341|235:379,1,132.00000402832,4|0,3:2|0:0,0:0:0:0:
272,309,103749,2,0,P|291:269|293:226,1,88.000002685547,10|6,2:2|3:2,0:0:0:0:
184,193,104086,1,0,0:0:0:0:
319,117,104255,1,2,3:2:0:0:
184,193,104423,2,0,L|173:48,1,132.00000402832,10|0,2:2|0:0,0:0:0:0:
105,42,104760,6,0,P|68:33|-5:51,1,88.000002685547,4|2,3:2|2:2,0:0:0:0:
23,160,105097,2,0,P|60:169|133:151,1,88.000002685547,10|6,2:2|2:2,0:0:0:0:
177,49,105434,1,0,0:0:0:0:
109,163,105603,1,2,3:2:0:0:
247,102,105771,2,0,L|176:48,1,88.000002685547,10|2,2:2|2:2,0:0:0:0:
109,163,106109,6,0,L|179:216,1,88.000002685547,4|0,3:2|0:0,0:0:0:0:
307,292,106446,2,0,P|321:250|317:207,1,88.000002685547,10|6,2:2|3:2,0:0:0:0:
247,102,106783,1,0,0:0:0:0:
179,216,106951,1,2,3:2:0:0:
317,207,107120,1,10,2:2:0:0:
179,216,107288,1,0,0:0:0:0:
146,350,107457,6,0,P|209:334|268:359,1,132.00000402832,6|0,3:2|0:0,0:0:0:0:
307,292,107794,2,0,L|318:200,1,88.000002685547,8|6,2:2|3:2,0:0:0:0:
333,39,108131,1,2,2:2:0:0:
317,204,108300,1,0,3:3:0:0:
425,161,108468,1,8,2:2:0:0:
425,161,108552,1,8,2:2:0:0:
425,161,108637,1,8,2:2:0:0:
425,161,108721,1,8,2:2:0:0:
425,161,108805,6,0,P|439:116|437:73,1,88.000002685547,4|0,3:2|2:2,0:0:0:0:
237,89,109142,2,0,P|223:134|225:177,1,88.000002685547,10|0,3:2|2:2,0:0:0:0:
255,303,109479,1,2,3:2:0:0:
307,216,109648,1,0,2:2:0:0:
135,172,109816,2,0,P|150:217|185:252,1,88.000002685547,10|0,3:2|2:2,0:0:0:0:
386,253,110154,6,0,L|292:208,1,88.000002685547,2|0,3:2|2:2,0:0:0:0:
255,303,110491,1,10,3:2:0:0:
354,148,110659,1,0,2:2:0:0:
255,303,110828,2,0,L|334:340,1,88.000002685547,2|0,3:2|2:2,0:0:0:0:
461,216,111165,2,0,P|467:253|450:306,1,88.000002685547,10|2,3:2|2:2,0:0:0:0:
354,148,111502,6,0,P|267:155|181:123,1,176.000005371094,4|8,3:2|3:2,0:0:0:0:
103,34,112007,1,0,2:2:0:0:
51,130,112176,2,0,P|46:183|56:216,1,88.000002685547,0|0,3:3|2:2,0:0:0:0:
191,326,112513,2,0,P|196:273|186:240,1,88.000002685547,8|0,3:2|2:2,0:0:0:0:
358,281,112850,5,4,3:2:0:0:
358,281,113019,1,2,2:2:0:0:
218,192,113187,1,10,3:2:0:0:
218,192,113356,1,2,2:2:0:0:
367,102,113524,1,2,3:2:0:0:
367,102,113693,1,10,2:2:0:0:
194,31,113861,1,10,3:2:0:0:
194,31,113946,1,8,2:2:0:0:
194,31,114030,1,10,2:2:0:0:
194,31,114114,1,8,2:2:0:0:
194,31,114198,6,0,P|182:76|193:123,1,88.000002685547,4|0,3:2|2:2,0:0:0:0:
362,186,114536,2,0,P|374:141|363:94,1,88.000002685547,8|0,3:2|2:2,0:0:0:0:
139,231,114873,2,0,L|234:184,1,88.000002685547,0|0,3:3|2:2,0:0:0:0:
209,322,115210,2,0,L|131:362,1,88.000002685547,8|0,3:2|2:2,0:0:0:0:
39,220,115547,6,0,P|25:172|61:92,1,132.00000402832,4|0,3:2|0:0,0:0:0:0:
113,53,115884,1,8,3:2:0:0:
189,124,116052,1,2,2:2:0:0:
255,41,116221,1,2,3:2:0:0:
323,124,116389,1,8,2:2:0:0:
313,148,116474,1,8,2:2:0:0:
304,173,116558,1,10,3:2:0:0:
294,198,116642,1,8,2:2:0:0:
285,222,116727,1,8,2:2:0:0:
276,247,116811,1,8,2:2:0:0:
267,268,116895,6,0,P|349:287|417:247,1,160,6|8,3:2|3:2,0:0:0:0:
387,160,117401,1,0,0:0:0:0:
434,344,117569,2,0,L|509:314,1,80,2|0,3:2|0:0,0:0:0:0:
461,130,117906,2,0,L|386:160,1,80,8|2,3:2|2:2,0:0:0:0:
175,121,118243,6,0,P|246:133|326:92,1,160,0|8,3:3|3:2,0:0:0:0:
254,20,118749,1,0,0:0:0:0:
175,122,118918,2,0,P|166:163|172:200,1,80,2|0,3:2|0:0,0:0:0:0:
337,262,119255,2,0,P|346:221|340:184,1,80,10|0,3:2|0:0,0:0:0:0:
212,276,119592,5,2,3:2:0:0:
295,113,119760,1,0,0:0:0:0:
337,262,119929,2,0,P|346:221|340:184,1,80,10|0,3:2|0:0,0:0:0:0:
216,128,120266,2,0,L|318:108,1,80,2|0,3:2|0:0,0:0:0:0:
121,58,120603,1,10,3:2:0:0:
216,128,120771,1,0,0:0:0:0:
119,177,120940,6,0,P|113:228|122:257,1,80,2|0,3:2|0:0,0:0:0:0:
204,349,121277,2,0,L|111:343,1,80,8|2,3:2|2:2,0:0:0:0:
205,215,121614,1,2,3:2:0:0:
205,215,121783,1,0,0:0:0:0:
284,382,121951,2,0,P|290:331|281:302,1,80,8|0,3:2|0:0,0:0:0:0:
334,152,122288,5,6,3:2:0:0:
390,249,122457,1,2,2:2:0:0:
441,150,122625,1,10,2:2:0:0:
334,152,122794,2,0,P|291:145|250:161,1,80,6|0,3:2|0:0,0:0:0:0:
213,264,123131,5,0,3:3:0:0:
157,167,123300,1,8,2:2:0:0:
106,266,123468,1,0,0:0:0:0:
213,264,123637,6,0,P|256:271|297:255,2,80,6|2|10,3:2|2:2|2:2,0:0:0:0:
106,266,124142,1,6,3:2:0:0:
157,167,124311,1,0,0:0:0:0:
157,167,124479,1,2,3:2:0:0:
248,335,124648,2,0,L|213:264,1,80,10|2,2:2|2:2,0:0:0:0:
332,78,124985,6,0,P|342:117|334:156,1,80,6|0,3:2|0:0,0:0:0:0:
253,48,125322,2,0,L|163:41,1,80,10|2,3:2|2:2,0:0:0:0:
82,127,125659,2,0,P|73:88|83:49,1,80,0|2,3:3|2:2,0:0:0:0:
157,167,125996,1,10,3:2:0:0:
3,136,126165,1,2,2:2:0:0:
67,316,126333,6,0,P|80:268|79:198,1,120,2|0,3:2|0:0,0:0:0:0:
82,127,126670,2,0,P|73:88|83:49,1,80,10|0,3:2|0:0,0:0:0:0:
182,16,127007,1,2,3:2:0:0:
214,120,127176,1,8,2:2:0:0:
235,131,127260,1,8,2:2:0:0:
258,137,127345,1,10,3:2:0:0:
282,139,127429,1,8,2:2:0:0:
305,135,127513,1,8,2:2:0:0:
328,127,127597,1,8,2:2:0:0:
343,115,127682,6,0,P|407:98|468:127,1,128,6|2,3:2|2:2,0:0:0:0:
439,239,128187,2,0,P|375:256|314:227,1,128,2|2,2:2|2:2,0:0:0:0:
227,199,128693,2,0,P|188:196|156:207,1,64,0|2,0:0|2:2,0:0:0:0:
91,280,129030,2,0,L|69:131,2,128,0|2|2,0:0|2:2|2:2,0:0:0:0:
115,369,129873,1,0,0:0:0:0:
193,295,130041,2,0,P|229:289|258:292,1,64,2|0,2:2|0:0,0:0:0:0:
340,335,130378,6,0,P|410:348|465:318,1,128,2|0,2:2|0:0,0:0:0:0:
487,243,130884,2,0,P|487:171|490:99,1,128,2|0,0:0|0:0,0:0:0:0:
385,84,131389,2,0,P|390:115|381:145,1,64,2|2,2:2|2:2,0:0:0:0:
398,235,131727,6,0,P|333:221|272:252,1,128,2|2,2:2|0:0,0:0:0:0:
225,357,132232,2,0,P|215:313|173:234,1,128,2|0,0:0|0:0,0:0:0:0:
264,183,132738,2,0,P|266:214|278:244,1,64,2|0,2:2|0:0,0:0:0:0:
293,111,133075,6,0,P|227:112|165:105,1,128,2|2,2:2|2:2,0:0:0:0:
63,78,133580,1,2,2:2:0:0:
105,210,133749,2,0,P|96:173|100:136,1,64,0|2,0:0|2:2,0:0:0:0:
231,178,134086,2,0,P|240:215|236:252,1,64,0|2,0:0|2:2,0:0:0:0:
93,291,134423,6,0,P|161:285|220:322,1,128,0|2,0:0|2:2,0:0:0:0:
271,383,134929,1,0,0:0:0:0:
336,308,135097,2,0,P|369:306|405:291,1,64,2|0,2:2|0:0,0:0:0:0:
437,183,135434,2,0,P|404:185|368:200,1,64,2|0,2:2|0:0,0:0:0:0:
258,238,135771,6,0,L|294:101,1,128,2|0,2:2|0:0,0:0:0:0:
178,156,136277,1,2,2:2:0:0:
178,156,136446,2,0,L|196:82,1,64,2|0,2:2|2:2,0:0:0:0:
265,36,136783,2,0,P|235:21|190:16,1,64,2|0,2:2|2:2,0:0:0:0:
120,56,137120,6,0,L|87:179,1,128,2|0,2:2|0:0,0:0:0:0:
197,255,137794,2,0,P|169:241|130:233,2,64,2|0|0,2:2|0:0|0:0,0:0:0:0:
256,334,138300,1,0,0:0:0:0:
370,193,138468,5,4,3:2:0:0:
454,252,138637,1,0,0:0:0:0:
466,155,138805,1,2,3:2:0:0:
370,193,138974,1,2,2:2:0:0:
454,252,139142,2,0,P|490:248|519:228,1,71.9999978027344,2|2,3:2|2:2,0:0:0:0:
364,110,139479,2,0,P|328:114|299:134,1,71.9999978027344,0|2,3:3|2:2,0:0:0:0:
142,190,139816,6,0,L|252:206,1,107.999996704102,0|0,3:3|0:0,0:0:0:0:
293,214,140154,2,0,P|296:252|278:291,1,71.9999978027344,2|0,3:2|0:0,0:0:0:0:
321,360,140491,2,0,P|276:366|245:356,1,71.9999978027344,2|0,3:2|0:0,0:0:0:0:
121,312,140828,2,0,P|154:288|188:280,1,71.9999978027344,2|0,3:2|0:0,0:0:0:0:
125,78,141165,5,0,3:3:0:0:
99,197,141333,1,0,0:0:0:0:
125,78,141502,1,2,3:2:0:0:
99,197,141670,1,2,2:2:0:0:
235,139,141839,2,0,L|146:148,1,71.9999978027344,2|2,3:2|2:2,0:0:0:0:
294,43,142176,2,0,L|205:52,1,71.9999978027344,0|2,3:3|2:2,0:0:0:0:
354,125,142513,6,0,P|363:167|335:231,1,107.999996704102,0|0,3:3|0:0,0:0:0:0:
303,250,142850,2,0,L|361:304,1,71.9999978027344,2|0,3:2|0:0,0:0:0:0:
216,193,143187,2,0,L|158:247,1,71.9999978027344,2|0,3:2|0:0,0:0:0:0:
280,345,143524,2,0,L|227:295,1,71.9999978027344,2|0,3:2|0:0,0:0:0:0:
293,178,143861,5,6,3:2:0:0:
293,178,144030,1,0,0:0:0:0:
180,120,144198,1,2,3:2:0:0:
180,120,144367,1,0,0:0:0:0:
312,64,144536,1,2,3:2:0:0:
312,64,144704,1,0,0:0:0:0:
187,4,144873,1,2,3:2:0:0:
187,4,145041,1,0,0:0:0:0:
293,178,145210,6,0,P|340:179|376:159,1,71.9999978027344,2|0,3:2|0:0,0:0:0:0:
381,55,145547,2,0,P|334:54|298:74,1,71.9999978027344,2|0,3:2|0:0,0:0:0:0:
180,120,145884,2,0,L|257:113,1,71.9999978027344,2|0,3:2|0:0,0:0:0:0:
132,212,146221,2,0,L|209:205,1,71.9999978027344,2|2,3:2|2:2,0:0:0:0:
316,344,146558,5,6,3:2:0:0:
255,250,146727,1,0,0:0:0:0:
201,347,146895,1,2,3:2:0:0:
302,362,147064,5,2,2:2:0:0:
276,253,147232,1,0,3:3:0:0:
192,325,147401,1,2,2:2:0:0:
282,374,147569,5,2,3:2:0:0:
296,263,147738,2,0,P|333:275|387:270,1,71.9999978027344,14|0,2:2|3:3,0:0:0:0:
433,167,148075,5,2,2:2:0:0:
366,274,148243,1,10,3:2:0:0:
496,288,148412,1,10,2:2:0:0:
496,288,148496,1,8,2:2:0:0:
496,288,148580,1,10,2:2:0:0:
496,96,148749,1,10,2:2:0:0:
345,191,148918,1,10,2:2:0:0:
496,96,149086,1,10,2:2:0:0:
423,235,149255,6,0,P|366:230|275:283,1,160,6|10,3:2|2:2,0:0:0:0:
141,245,149760,2,0,P|140:166|184:100,1,160,6|2,3:2|3:2,0:0:0:0:
292,86,150266,2,0,P|327:92|382:83,1,80,14|0,2:2|0:0,0:0:0:0:
228,173,150603,5,0,0:0:0:0:
217,23,150771,1,0,3:3:0:0:
350,140,150940,2,0,L|284:78,1,80,8|0,2:2|0:0,0:0:0:0:
169,227,151277,2,0,L|235:165,1,80,2|2,3:2|3:2,0:0:0:0:
395,290,151614,2,0,L|329:228,1,80,10|2,2:2|2:2,0:0:0:0:
150,359,151951,6,0,L|262:239,1,160,6|10,3:2|2:2,0:0:0:0:
355,189,152457,2,0,P|436:182|499:225,1,160,6|2,3:2|3:2,0:0:0:0:
393,369,152963,2,0,L|395:284,1,80,14|0,2:2|0:0,0:0:0:0:
302,144,153300,5,0,0:0:0:0:
228,239,153468,1,0,3:3:0:0:
326,251,153637,2,0,P|304:291|269:317,1,80,8|0,2:2|0:0,0:0:0:0:
208,117,153974,2,0,P|230:77|265:51,1,80,2|2,3:2|3:2,0:0:0:0:
302,144,154311,1,10,2:2:0:0:
228,239,154479,1,2,2:2:0:0:
131,174,154648,6,0,P|111:110|137:14,1,160,6|8,3:2|2:2,0:0:0:0:
258,4,155154,1,0,0:0:0:0:
302,144,155322,2,0,L|221:115,1,80,2|0,3:2|3:3,0:0:0:0:
303,265,155659,2,0,L|222:236,1,80,8|0,2:2|0:0,0:0:0:0:
75,319,155996,6,0,P|137:326|202:289,1,120,2|0,3:2|0:0,0:0:0:0:
227,238,156333,2,0,L|303:265,1,80,10|0,2:2|0:0,0:0:0:0:
302,144,156670,2,0,L|221:115,1,80,2|8,3:2|2:2,0:0:0:0:
192,103,156923,1,8,2:2:0:0:
192,103,157007,1,10,3:2:0:0:
192,103,157092,1,8,2:2:0:0:
192,103,157176,1,8,2:2:0:0:
192,103,157260,1,8,2:2:0:0:
192,103,157345,6,0,P|183:63|197:20,1,80,6|0,3:2|0:0,0:0:0:0:
371,108,157682,2,0,P|380:148|366:191,1,80,8|0,2:2|3:3,0:0:0:0:
189,249,158019,1,8,2:2:0:0:
189,249,158187,1,0,3:3:0:0:
308,333,158356,1,8,2:2:0:0:
308,333,158524,1,0,3:3:0:0:
292,185,158693,6,0,P|330:176|369:184,1,80,8|2,2:2|3:2,0:0:0:0:
308,333,159030,2,0,P|269:341|230:333,1,80,10|2,2:2|3:2,0:0:0:0:
187,170,159367,2,0,P|180:209|189:248,1,80,10|2,2:2|3:2,0:0:0:0:
395,337,159704,2,0,P|404:298|396:260,1,80,10|2,2:2|3:2,0:0:0:0:
316,136,160041,5,6,3:2:0:0:
396,260,160210,1,0,0:0:0:0:
455,122,160378,1,0,3:3:0:0:
284,226,160547,2,0,P|324:220|366:185,1,80,14|0,2:2|0:0,0:0:0:0:
168,158,160884,1,0,3:3:0:0:
255,94,161052,1,14,2:2:0:0:
168,158,161221,2,0,P|160:196|166:236,1,80,14|0,3:2|0:0,0:0:0:0:
203,358,161558,5,10,3:2:0:0:
203,358,161727,1,10,3:2:0:0:
92,327,161895,1,0,0:0:0:0:
166,236,162064,1,10,3:2:0:0:
92,327,162232,1,8,2:2:0:0:
78,307,162316,1,8,2:2:0:0:
69,285,162401,1,10,2:2:0:0:
67,261,162485,1,8,2:2:0:0:
70,237,162569,1,8,2:2:0:0:
78,215,162654,1,8,2:2:0:0:
89,191,162738,5,6,3:2:0:0:
137,72,162906,1,0,2:2:0:0:
41,109,163075,1,8,3:2:0:0:
184,163,163243,1,0,2:2:0:0:
41,109,163412,2,0,P|31:66|42:24,1,88.000002685547,2|0,3:2|2:2,0:0:0:0:
184,163,163749,2,0,P|195:205|185:247,1,88.000002685547,8|2,3:2|2:2,0:0:0:0:
386,310,164086,6,0,P|306:298|222:340,1,176.000005371094,0|8,3:3|3:2,0:0:0:0:
429,197,164592,1,0,2:2:0:0:
386,310,164760,1,2,3:2:0:0:
495,298,164929,1,0,2:2:0:0:
429,197,165097,2,0,P|438:145|410:61,1,132.00000402832,10|0,3:2|0:0,0:0:0:0:
346,55,165434,6,0,L|250:41,1,88.000002685547,2|0,3:2|2:2,0:0:0:0:
252,137,165771,2,0,L|156:123,1,88.000002685547,10|0,3:2|2:2,0:0:0:0:
329,213,166109,1,2,3:2:0:0:
179,281,166277,1,0,2:2:0:0:
329,213,166446,2,0,P|343:164|331:118,1,88.000002685547,10|0,3:2|2:2,0:0:0:0:
179,281,166783,6,0,P|233:263|312:282,1,132.00000402832,2|0,3:2|0:0,0:0:0:0:
329,213,167120,2,0,P|343:164|331:118,1,88.000002685547,8|2,3:2|2:2,0:0:0:0:
203,43,167457,2,0,P|196:86|210:127,1,88.000002685547,2|0,3:2|2:2,0:0:0:0:
329,213,167794,1,8,3:2:0:0:
210,127,167963,1,0,2:2:0:0:
188,284,168131,6,0,L|239:212,1,88.000002685547,6|2,3:2|2:2,0:0:0:0:
92,141,168468,1,10,3:2:0:0:
188,284,168637,1,2,2:2:0:0:
210,127,168805,1,0,3:3:0:0:
100,263,168974,1,2,2:2:0:0:
92,141,169142,2,0,P|37:167|10:208,1,88.000002685547,10|0,3:2|2:2,0:0:0:0:
100,263,169479,6,0,P|99:310|121:351,1,88.000002685547,2|2,3:2|2:2,0:0:0:0:
233,350,169816,1,10,3:2:0:0:
233,350,169985,1,2,2:2:0:0:
239,212,170154,1,0,3:3:0:0:
100,263,170322,1,2,2:2:0:0:
233,350,170491,2,0,P|290:336|363:353,1,132.00000402832,10|0,3:2|0:0,0:0:0:0:
433,345,170828,6,0,P|438:306|420:257,1,88.000002685547,2|0,3:2|2:2,0:0:0:0:
450,170,171165,2,0,P|403:167|355:192,1,88.000002685547,8|0,3:2|2:2,0:0:0:0:
254,136,171502,2,0,L|267:224,1,88.000002685547,2|0,3:2|2:2,0:0:0:0:
366,182,171839,1,10,3:2:0:0:
304,64,172007,6,0,L|214:60,1,88.000002685547,10|0,2:2|0:0,0:0:0:0:
97,60,172345,1,12,2:2:0:0:
254,136,172513,2,0,L|166:132,1,88.000002685547,12|0,2:2|3:3,0:0:0:0:
109,271,172850,2,0,P|100:222|118:176,1,88.000002685547,14|0,2:2|3:3,0:0:0:0:
254,136,173187,2,0,P|263:185|245:231,1,88.000002685547,14|8,2:2|2:2,0:0:0:0:
211,353,173524,6,0,P|287:355|334:329,1,132.00000402832,6|0,3:2|0:0,0:0:0:0:
387,278,173861,2,0,P|432:262|479:262,1,88.000002685547,8|0,3:2|2:2,0:0:0:0:
321,204,174198,2,0,P|279:219|236:221,1,88.000002685547,2|0,3:2|2:2,0:0:0:0:
141,340,174536,1,8,3:2:0:0:
236,221,174704,1,2,2:2:0:0:
141,340,174873,6,0,P|75:341|47:316,1,88.000002685547,0|0,3:3|2:2,0:0:0:0:
3,208,175210,2,0,P|45:199|85:217,1,88.000002685547,8|0,3:2|2:2,0:0:0:0:
38,283,175547,1,2,3:2:0:0:
160,239,175715,1,0,2:2:0:0:
83,133,175884,1,10,3:2:0:0:
38,283,176052,1,0,2:2:0:0:
160,239,176221,6,0,P|213:238|246:222,1,88.000002685547,2|0,3:2|2:2,0:0:0:0:
307,95,176558,2,0,L|331:179,1,88.000002685547,10|0,3:2|2:2,0:0:0:0:
233,131,176895,1,2,3:2:0:0:
379,50,177064,1,0,2:2:0:0:
233,131,177232,2,0,P|185:137|113:85,1,132.00000402832,10|0,3:2|0:0,0:0:0:0:
100,54,177569,5,2,3:2:0:0:
0,120,177738,1,0,2:2:0:0:
122,194,177906,1,10,3:2:0:0:
2,273,178075,1,0,2:2:0:0:
0,120,178243,1,2,3:2:0:0:
122,194,178412,1,0,2:2:0:0:
2,273,178580,2,0,L|54:188,1,88.000002685547,10|2,3:2|2:2,0:0:0:0:
244,213,178918,6,0,P|185:183|121:193,1,132.00000402832,4|0,3:2|0:0,0:0:0:0:
47,197,179255,2,0,L|2:273,1,88.000002685547,10|6,2:2|3:2,0:0:0:0:
132,276,179592,1,0,0:0:0:0:
83,133,179760,1,2,3:2:0:0:
132,276,179929,2,0,P|181:298|238:285,1,88.000002685547,10|0,2:2|0:0,0:0:0:0:
320,311,180266,6,0,P|359:292|403:292,1,88.000002685547,4|2,3:2|2:2,0:0:0:0:
459,158,180603,1,10,3:2:0:0:
512,265,180771,1,4,2:2:0:0:
459,158,180940,2,0,P|415:158|375:176,1,88.000002685547,2|0,3:2|3:2,0:0:0:0:
300,68,181277,1,10,2:2:0:0:
291,193,181446,1,2,2:2:0:0:
134,126,181614,6,0,P|174:118|232:137,1,88.000002685547,4|0,3:2|0:0,0:0:0:0:
291,193,181951,2,0,P|295:241|277:283,1,88.000002685547,10|6,2:2|3:2,0:0:0:0:
206,341,182288,1,0,0:0:0:0:
140,238,182457,1,2,3:2:0:0:
206,341,182625,2,0,P|257:365|292:368,1,88.000002685547,10|2,2:2|2:2,0:0:0:0:
469,319,182963,6,0,P|411:294|338:315,1,132.00000402832,6|0,3:2|0:0,0:0:0:0:
280,277,183300,2,0,L|276:187,1,88.000002685547,8|6,2:2|3:2,0:0:0:0:
256,51,183637,1,2,2:2:0:0:
276,189,183805,1,0,3:3:0:0:
173,131,183974,1,8,2:2:0:0:
173,131,184058,1,8,2:2:0:0:
173,131,184142,1,8,2:2:0:0:
173,131,184227,1,8,2:2:0:0:
173,131,184311,6,0,P|159:86|161:43,1,88.000002685547,4|0,3:2|2:2,0:0:0:0:
344,84,184648,2,0,P|358:129|356:172,1,88.000002685547,10|0,3:2|2:2,0:0:0:0:
256,51,184985,1,2,3:2:0:0:
276,189,185154,1,0,2:2:0:0:
173,131,185322,2,0,L|93:168,1,88.000002685547,10|0,3:2|2:2,0:0:0:0:
276,189,185659,6,0,P|311:222|359:231,1,88.000002685547,2|0,3:2|2:2,0:0:0:0:
458,277,185996,1,10,3:2:0:0:
435,156,186165,1,0,2:2:0:0:
348,231,186333,2,0,P|342:274|355:315,1,88.000002685547,2|0,3:2|2:2,0:0:0:0:
509,187,186670,2,0,P|514:143|501:102,1,88.000002685547,10|2,3:2|2:2,0:0:0:0:
320,82,187007,6,0,P|233:89|147:57,1,176.000005371094,4|8,3:2|3:2,0:0:0:0:
47,26,187513,1,0,2:2:0:0:
37,139,187682,2,0,P|32:192|42:225,1,88.000002685547,0|0,3:3|2:2,0:0:0:0:
164,310,188019,2,0,P|169:257|159:224,1,88.000002685547,8|0,3:2|2:2,0:0:0:0:
358,281,188356,5,4,3:2:0:0:
358,281,188524,1,2,2:2:0:0:
218,192,188693,1,10,3:2:0:0:
218,192,188861,1,2,2:2:0:0:
367,102,189030,1,2,3:2:0:0:
367,102,189198,1,10,2:2:0:0:
194,31,189367,1,10,3:2:0:0:
194,31,189451,1,8,2:2:0:0:
194,31,189536,1,10,2:2:0:0:
194,31,189620,1,8,2:2:0:0:
194,31,189704,6,0,P|141:26|78:63,1,120,4|0,3:2|0:0,0:0:0:0:
56,94,190041,1,8,3:2:0:0:
144,194,190210,1,0,2:2:0:0:
15,207,190378,1,2,3:2:0:0:
149,106,190547,1,0,2:2:0:0:
15,207,190715,2,0,L|56:286,1,80,8|0,3:2|2:2,0:0:0:0:
230,346,191052,6,0,P|171:322|79:356,1,160,2|8,3:2|3:2,0:0:0:0:
214,163,191558,2,0,P|201:215|210:254,2,80,2|0|0,2:2|3:3|2:2,0:0:0:0:
301,95,192064,2,0,P|270:67|224:51,1,80,10|0,3:2|2:2,0:0:0:0:
444,187,192401,6,0,L|271:208,1,160,2|8,3:2|3:2,0:0:0:0:
179,218,192906,1,2,2:2:0:0:
138,300,193075,2,0,P|134:341|144:379,2,80,0|0|10,3:3|2:2|3:2,0:0:0:0:
179,218,193580,1,0,2:2:0:0:
259,300,193749,6,0,P|338:311|423:264,1,160,2|8,3:2|3:2,0:0:0:0:
369,144,194255,2,0,P|349:186|351:233,2,80,2|0|0,2:2|3:3|2:2,0:0:0:0:
439,79,194760,2,0,P|395:54|340:55,1,80,10|0,3:2|2:2,0:0:0:0:
173,97,195097,5,6,3:2:0:0:
253,183,195266,1,2,2:2:0:0:
299,73,195434,1,10,3:2:0:0:
170,121,195603,1,2,2:2:0:0:
274,175,195771,5,6,3:2:0:0:
280,56,195940,1,2,2:2:0:0:
175,145,196109,1,10,3:2:0:0:
292,160,196277,1,2,2:2:0:0:
256,46,196446,5,6,3:2:0:0:
189,166,196614,1,2,2:2:0:0:
303,140,196783,1,10,3:2:0:0:
231,45,196951,1,2,2:2:0:0:
209,181,197120,5,6,3:2:0:0:
307,117,197288,1,2,2:2:0:0:
207,53,197457,1,10,3:2:0:0:
335,30,197625,1,10,2:2:0:0:
335,30,197710,1,8,2:2:0:0:
335,30,197794,6,4,L|455:54,1,120,6|0,3:2|0:0,0:0:0:0:
483,126,198131,2,0,P|487:168|459:213,1,80,8|0,3:2|2:2,0:0:0:0:
388,272,198468,1,0,3:3:0:0:
320,170,198637,1,2,2:2:0:0:
258,272,198805,1,10,3:2:0:0:
388,272,198974,1,2,2:2:0:0:
232,178,199142,6,0,L|140:169,1,80,2|2,3:2|2:2,0:0:0:0:
258,272,199479,2,0,L|166:263,2,80,10|2|2,3:2|2:2|3:2,0:0:0:0:
459,331,199985,1,10,2:2:0:0:
437,321,200069,1,8,2:2:0:0:
413,317,200154,1,10,3:2:0:0:
389,318,200238,1,8,2:2:0:0:
366,324,200322,1,8,2:2:0:0:
345,336,200406,1,8,2:2:0:0:
327,352,200491,5,2,3:2:0:0:
177,315,200659,2,0,P|218:320|259:304,1,80,6|2,3:2|2:2,0:0:0:0:
305,210,200996,1,2,3:2:0:0:
196,181,201165,2,0,P|148:181|114:194,1,80,6|2,3:2|2:2,0:0:0:0:
305,210,201502,1,2,3:2:0:0:
258,93,201670,1,6,3:2:0:0:
353,131,201839,5,2,2:2:0:0:
196,181,202007,1,2,3:2:0:0:
222,23,202176,2,0,L|313:12,2,80,6|0|10,3:2|0:0|3:2,0:0:0:0:
196,181,202682,1,8,2:2:0:0:
196,181,202766,1,8,2:2:0:0:
196,181,202850,1,10,2:2:0:0:
196,181,202934,1,8,2:2:0:0:
196,181,203019,1,8,2:2:0:0:
196,181,203103,1,8,2:2:0:0:
196,181,203187,6,0,P|184:220|190:254,1,71.9999978027344,6|0,3:2|0:0,0:0:0:0:
162,340,203524,2,0,P|211:341|241:320,1,71.9999978027344,0|0,3:3|0:0,0:0:0:0:
339,267,203861,2,0,P|306:254|256:260,2,71.9999978027344,2|0|0,3:2|0:0|3:3,0:0:0:0:
415,345,204367,1,2,2:2:0:0:
452,256,204536,6,0,P|456:179|416:123,1,143.999995605469,0|0,3:3|3:3,0:0:0:0:
331,46,205041,1,0,0:0:0:0:
254,104,205210,2,0,P|216:110|182:130,1,71.9999978027344,2|0,3:2|0:0,0:0:0:0:
180,238,205547,2,0,P|218:232|252:212,1,71.9999978027344,2|0,3:2|0:0,0:0:0:0:
273,196,205800,1,0,0:0:0:0:
273,196,205884,6,0,P|338:177|409:200,1,143.999995605469,2|2,3:2|3:2,0:0:0:0:
469,278,206389,1,0,0:0:0:0:
408,199,206558,2,0,L|468:149,1,71.9999978027344,2|0,3:2|0:0,0:0:0:0:
383,101,206895,2,0,L|443:51,1,71.9999978027344,2|0,3:2|0:0,0:0:0:0:
255,66,207232,6,0,P|203:56|121:100,1,143.999995605469,2|0,3:2|3:3,0:0:0:0:
115,223,207738,1,2,2:2:0:0:
124,95,207906,2,0,P|158:105|187:126,1,71.9999978027344,2|0,3:2|0:0,0:0:0:0:
178,254,208243,2,0,P|143:243|114:222,1,71.9999978027344,0|0,3:3|0:0,0:0:0:0:
301,196,208580,5,2,3:2:0:0:
179,253,208749,1,2,2:2:0:0:
187,126,208918,2,0,P|224:107|263:107,1,71.9999978027344,2|2,3:2|2:2,0:0:0:0:
301,196,209255,2,0,P|303:243|282:274,1,71.9999978027344,0|2,3:3|2:2,0:0:0:0:
179,253,209592,2,0,P|141:236|118:199,1,71.9999978027344,2|0,3:2|0:0,0:0:0:0:
257,366,209929,5,2,3:2:0:0:
291,263,210097,1,2,2:2:0:0:
178,253,210266,2,0,L|140:327,1,71.9999978027344,2|2,3:2|2:2,0:0:0:0:
257,366,210603,2,0,L|333:355,1,71.9999978027344,0|2,3:3|2:2,0:0:0:0:
291,263,210940,2,0,L|240:197,1,71.9999978027344,2|0,3:2|0:0,0:0:0:0:
122,140,211277,6,0,P|151:132|192:140,1,60,2|0,2:2|0:0,0:0:0:0:
229,73,211614,6,0,P|153:58|49:103,1,180.000006866455,8|0,3:2|0:0,0:0:0:0:
122,140,211951,6,0,P|151:132|192:140,1,60,2|0,2:2|0:0,0:0:0:0:
227,56,212288,6,0,P|151:41|47:86,1,180.000006866455,8|0,3:2|0:0,0:0:0:0:
122,140,212625,6,0,P|151:132|192:140,1,60,2|0,2:2|0:0,0:0:0:0:
223,38,212963,6,0,P|147:23|43:68,1,180.000006866455,10|0,3:2|0:0,0:0:0:0:
37,86,213300,6,0,P|24:128|45:188,1,107.999996704102
73,215,213637,1,10,3:2:0:0:
186,185,213805,6,0,B|171:145|194:106|254:113|254:113|326:84|390:160|297:208|276:248|276:248|255:230|217:233,1,400,2|0,2:2|3:3,0:0:0:0:
73,215,214816,1,12,2:2:0:0:
73,215,214985,6,0,L|97:127,1,80,12|0,2:2|3:3,0:0:0:0:
186,185,215322,6,0,L|215:73,1,95.9999970703126,14|0,2:2|3:3,0:0:0:0:
309,157,215659,6,0,L|339:39,1,111.999996582031,14|8,2:2|2:2,0:0:0:0:
347,12,215912,1,8,2:2:0:0:
347,12,215996,6,0,P|399:11|441:34,1,88.000002685547,6|0,3:2|2:2,0:0:0:0:
393,176,216333,2,0,P|341:177|299:154,1,88.000002685547,8|0,3:2|2:2,0:0:0:0:
142,111,216670,2,0,L|284:89,1,132.00000402832,2|0,3:2|0:0,0:0:0:0:
314,84,217007,1,8,3:2:0:0:
241,203,217175,1,2,2:2:0:0:
142,111,217344,6,0,P|133:157|144:195,1,88.000002685547,0|0,3:3|2:2,0:0:0:0:
314,84,217681,2,0,P|323:38|312:0,1,88.000002685547,8|0,3:2|2:2,0:0:0:0:
241,203,218018,1,2,3:2:0:0:
146,277,218187,1,0,2:2:0:0:
253,314,218355,1,10,3:2:0:0:
144,195,218524,1,0,2:2:0:0:
253,314,218692,6,0,L|344:329,1,88.000002685547,2|0,3:2|2:2,0:0:0:0:
327,217,219029,2,0,L|241:203,1,88.000002685547,10|0,3:2|2:2,0:0:0:0:
402,247,219366,1,2,3:2:0:0:
308,140,219535,1,0,2:2:0:0:
479,191,219703,2,0,P|480:142|458:101,1,88.000002685547,10|0,3:2|2:2,0:0:0:0:
327,217,220040,6,0,P|326:266|348:307,1,88.000002685547,2|0,3:2|2:2,0:0:0:0:
389,122,220378,1,10,3:2:0:0:
327,217,220546,1,0,2:2:0:0:
244,147,220715,2,0,P|196:139|121:176,1,132.00000402832,2|0,3:2|0:0,0:0:0:0:
102,209,221052,1,10,3:2:0:0:
171,279,221220,1,2,2:2:0:0:
84,332,221389,6,0,P|42:335|2:314,1,88.000002685547,4|2,3:2|2:2,0:0:0:0:
102,209,221726,1,10,2:2:0:0:
171,279,221894,2,0,P|188:317|183:362,1,88.000002685547,6|0,3:2|0:0,0:0:0:0:
295,231,222231,2,0,P|347:234|385:220,1,88.000002685547,2|10,3:2|2:2,0:0:0:0:
449,152,222569,1,2,2:2:0:0:
486,240,222737,6,0,P|501:283|498:328,1,88.000002685547,4|2,3:2|2:2,0:0:0:0:
449,152,223074,1,10,2:2:0:0:
380,222,223243,2,0,P|338:235|295:231,1,88.000002685547,6|0,3:2|0:0,0:0:0:0:
152,136,223580,1,2,3:2:0:0:
156,249,223748,1,10,2:2:0:0:
257,173,223917,1,2,2:2:0:0:
152,136,224085,6,0,P|102:133|53:158,1,88.000002685547,4|2,3:2|2:2,0:0:0:0:
156,249,224422,1,10,2:2:0:0:
257,173,224591,2,0,P|260:128|241:81,1,88.000002685547,6|0,3:2|0:0,0:0:0:0:
288,305,224928,1,2,3:2:0:0:
156,249,225097,1,10,2:2:0:0:
257,173,225265,1,2,2:2:0:0:
288,305,225434,6,0,L|371:259,2,88.000002685547,6|0|8,3:2|2:2|2:2,0:0:0:0:
257,173,225939,1,6,3:2:0:0:
156,249,226108,2,0,P|145:298|161:347,1,88.000002685547,2|0,2:2|3:3,0:0:0:0:
153,131,226445,1,8,2:2:0:0:
153,131,226529,1,8,2:2:0:0:
153,131,226613,1,8,2:2:0:0:
153,131,226698,1,8,2:2:0:0:
153,131,226782,6,0,P|110:144|77:177,1,88.000002685547,4|0,3:2|2:2,0:0:0:0:
257,173,227119,2,0,L|298:92,1,88.000002685547,10|0,3:2|2:2,0:0:0:0:
439,228,227456,2,0,P|387:241|312:215,1,132.00000402832,2|0,3:2|0:0,0:0:0:0:
257,173,227793,2,0,L|296:94,1,88.000002685547,10|0,3:2|2:2,0:0:0:0:
439,228,228130,6,0,L|399:306,2,88.000002685547,2|0|10,3:2|2:2|3:2,0:0:0:0:
499,128,228636,1,0,2:2:0:0:
393,128,228804,2,0,P|338:131|234:58,1,176.000005371094,2|10,3:2|3:2,0:0:0:0:
83,25,229310,1,2,2:2:0:0:
240,68,229479,5,4,3:2:0:0:
86,150,229647,1,0,2:2:0:0:
219,192,229816,1,8,3:2:0:0:
83,25,229984,1,0,2:2:0:0:
219,192,230153,2,0,P|224:237|207:280,1,88.000002685547,0|0,3:3|2:2,0:0:0:0:
76,234,230490,2,0,P|71:189|88:146,1,88.000002685547,8|0,3:2|2:2,0:0:0:0:
209,276,230827,5,4,3:2:0:0:
76,234,230996,1,2,2:2:0:0:
101,359,231164,1,10,3:2:0:0:
209,276,231333,1,2,2:2:0:0:
76,234,231501,1,2,3:2:0:0:
178,350,231670,1,10,2:2:0:0:
232,204,231838,5,10,3:2:0:0:
258,202,231922,1,8,2:2:0:0:
284,200,232007,1,10,2:2:0:0:
311,198,232091,1,8,2:2:0:0:
337,196,232175,6,0,P|354:237|369:291,1,88.000002685547,4|0,3:2|2:2,0:0:0:0:
432,143,232512,2,0,P|415:102|402:60,1,88.000002685547,8|0,3:2|2:2,0:0:0:0:
258,35,232849,1,0,3:3:0:0:
182,142,233018,1,0,2:2:0:0:
115,35,233187,2,0,P|77:33|16:61,1,88.000002685547,8|0,3:2|2:2,0:0:0:0:
182,142,233524,1,6,3:2:0:0:
258,35,233692,5,8,2:2:0:0:
268,56,233776,1,8,2:2:0:0:
279,77,233861,1,10,3:2:0:0:
290,99,233945,1,8,2:2:0:0:
301,120,234029,1,8,2:2:0:0:
312,141,234113,1,8,2:2:0:0:
323,163,234198,6,0,L|363:173,1,40,12|8,3:2|2:2,0:0:0:0:
477,225,234366,2,0,L|437:235,1,40,8|8,2:2|2:2,0:0:0:0:
365,262,234535,1,8,3:2:0:0:
343,273,234619,1,8,2:2:0:0:
320,279,234703,1,8,2:2:0:0:
296,279,234788,1,8,2:2:0:0:
268,277,234872,5,6,3:2:0:0:
196,169,235040,1,0,2:2:0:0:
140,282,235209,1,10,3:2:0:0:
270,191,235378,1,2,2:2:0:0:
124,211,235546,2,0,P|116:162|130:119,1,88.000002685547,0|2,3:3|2:2,0:0:0:0:
170,23,235883,1,8,3:2:0:0:
250,91,236052,2,0,P|295:86|353:68,1,88.000002685547,2|0,2:2|3:3,0:0:0:0:
426,11,236389,5,0,2:2:0:0:
464,107,236557,2,0,P|470:142|454:198,1,88.000002685547,10|0,3:2|2:2,0:0:0:0:
290,278,236894,6,0,L|433:280,1,132.00000402832,2|0,3:2|0:0,0:0:0:0:
466,283,237231,1,10,3:2:0:0:
382,376,237400,1,0,2:2:0:0:
466,283,237569,2,0,P|481:317|480:369,1,88.000002685547,2|0,3:2|2:2,0:0:0:0:
290,278,237906,2,0,P|275:244|276:192,1,88.000002685547,8|0,3:2|2:2,0:0:0:0:
270,41,238243,2,0,L|178:52,1,88.000002685547,0|0,3:3|2:2,0:0:0:0:
206,140,238580,2,0,L|114:151,1,88.000002685547,10|2,3:2|2:2,0:0:0:0:
3,85,238917,5,2,3:2:0:0:
118,150,239085,1,2,2:2:0:0:
110,29,239254,1,10,3:2:0:0:
3,85,239422,1,0,2:2:0:0:
118,150,239591,1,2,3:2:0:0:
5,193,239760,1,0,2:2:0:0:
107,268,239928,1,10,3:2:0:0:
118,150,240097,1,0,2:2:0:0:
107,268,240265,6,0,P|151:272|192:248,1,88.000002685547,2|0,3:2|2:2,0:0:0:0:
199,133,240602,2,0,P|155:129|114:153,1,88.000002685547,10|2,3:2|2:2,0:0:0:0:
301,196,240939,2,0,L|411:183,1,88.000002685547,0|0,3:3|0:0,0:0:0:0:
483,171,241276,1,8,3:2:0:0:
419,88,241445,1,2,2:2:0:0:
483,171,241613,6,0,P|493:211|478:259,1,88.000002685547,0|0,3:3|2:2,0:0:0:0:
419,88,241951,2,0,P|464:71|507:72,1,88.000002685547,10|0,3:2|2:2,0:0:0:0:
315,48,242288,2,0,P|249:70|190:49,1,132.00000402832,2|0,3:2|0:0,0:0:0:0:
158,22,242625,1,10,3:2:0:0:
65,90,242793,1,0,2:2:0:0:
163,144,242962,6,0,P|170:193|166:249,1,88.000002685547,2|0,3:2|2:2,0:0:0:0:
112,330,243299,2,0,P|150:320|207:316,1,88.000002685547,8|2,3:2|2:2,0:0:0:0:
314,339,243636,2,0,P|404:345|471:292,1,176.000005371094,2|8,3:2|3:2,0:0:0:0:
505,192,244142,1,2,2:2:0:0:
435,89,244310,5,0,3:3:0:0:
389,195,244479,1,0,2:2:0:0:
435,89,244647,2,0,P|388:84|341:96,1,88.000002685547,8|2,3:2|2:2,0:0:0:0:
250,185,244984,1,0,3:3:0:0:
348,92,245153,1,2,2:2:0:0:
250,185,245321,1,8,3:2:0:0:
348,92,245490,1,0,2:2:0:0:
221,68,245658,6,0,P|172:70|133:92,1,88.000002685547,4|0,3:2|2:2,0:0:0:0:
167,204,245995,2,0,P|216:202|255:180,1,88.000002685547,10|0,3:2|2:2,0:0:0:0:
404,293,246333,2,0,P|359:282|313:305,1,88.000002685547,2|0,3:2|0:0,0:0:0:0:
243,358,246670,1,8,3:2:0:0:
171,289,246838,2,0,P|159:245|170:195,1,88.000002685547,14|0,2:2|3:3,0:0:0:0:
255,127,247175,5,0,2:2:0:0:
165,85,247344,2,0,L|74:78,1,88.000002685547,10|0,3:2|2:2,0:0:0:0:
255,127,247681,2,0,P|266:82|258:38,1,88.000002685547,2|0,3:2|2:2,0:0:0:0:
165,85,248018,1,10,3:2:0:0:
166,203,248187,1,0,2:2:0:0:
342,134,248355,6,0,L|243:126,1,88.000002685547,4|0,3:2|2:2,0:0:0:0:
414,230,248692,1,10,3:2:0:0:
464,137,248861,1,2,2:2:0:0:
342,134,249029,1,2,3:2:0:0:
464,137,249198,2,0,P|475:95|467:47,1,88.000002685547,2|8,2:2|3:2,0:0:0:0:
414,230,249535,6,0,P|328:223|256:274,1,176.000005371094,6|0,2:2|2:2,0:0:0:0:
123,350,250040,2,0,P|165:357|208:346,1,88.000002685547,0|0,0:0|2:2,0:0:0:0:
148,220,250378,2,0,P|105:212|62:223,1,88.000002685547,0|0,0:0|2:2,0:0:0:0:
215,117,250715,1,0,0:0:0:0:
148,220,250883,1,0,2:2:0:0:
215,117,251052,5,8,3:2:0:0:
215,117,251136,1,8,0:0:0:0:
215,117,251220,1,8,2:2:0:0:
215,117,251304,1,8,2:2:0:0:
215,117,251389,2,0,L|173:99,1,44.0000013427735,8|8,2:2|2:2,0:0:0:0:
300,30,251557,2,0,L|258:48,1,44.0000013427735,8|8,2:2|2:2,0:0:0:0:
329,119,251726,5,8,2:2:0:0:
354,124,251810,1,8,2:2:0:0:
380,130,251894,1,8,2:2:0:0:
406,136,251979,1,8,2:2:0:0:
432,143,252063,2,0,L|412:186,1,44.0000013427735,8|8,2:2|2:2,0:0:0:0:
323,221,252231,2,0,L|343:264,1,44.0000013427735,10|8,2:2|2:2,0:0:0:0:
305,366,252400,6,0,P|251:368|222:353,1,88.000002685547,6|0,3:2|2:2,0:0:0:0:
101,327,252737,2,0,P|133:292|183:267,1,88.000002685547,10|0,3:2|2:2,0:0:0:0:
323,221,253074,1,2,3:2:0:0:
323,221,253243,1,0,2:2:0:0:
190,147,253411,1,10,3:2:0:0:
190,147,253580,1,0,2:2:0:0:
324,60,253748,5,2,3:2:0:0:
324,60,253917,1,0,2:2:0:0:
181,12,254085,1,10,3:2:0:0:
181,12,254254,1,0,2:2:0:0:
324,60,254422,2,0,L|346:155,1,88.000002685547,2|0,3:2|2:2,0:0:0:0:
190,147,254760,2,0,L|168:242,1,88.000002685547,10|2,3:2|2:2,0:0:0:0:
300,301,255097,6,0,P|345:307|392:285,1,88.000002685547,4|0,3:2|2:2,0:0:0:0:
427,136,255434,2,0,P|382:130|335:152,1,88.000002685547,8|2,3:2|2:2,0:0:0:0:
300,301,255771,1,2,3:2:0:0:
225,176,255939,1,2,2:2:0:0:
154,291,256108,1,8,3:2:0:0:
98,176,256276,2,0,P|89:126|102:86,1,88.000002685547,14|0,2:2|3:3,0:0:0:0:
170,11,256613,5,8,2:2:0:0:
255,86,256782,2,0,P|298:90|343:76,1,88.000002685547,8|8,3:2|2:2,0:0:0:0:
374,56,257035,1,8,2:2:0:0:
374,56,257119,1,8,3:2:0:0:
473,134,257288,1,8,2:2:0:0:
352,180,257456,2,0,P|346:215|363:267,1,88.000002685547,8|10,3:2|2:2,0:0:0:0:
458,283,257793,6,0,P|464:318|447:370,1,88.000002685547,6|0,3:2|2:2,0:0:0:0:
251,354,258130,2,0,P|295:344|340:343,1,88.000002685547,10|0,3:2|2:2,0:0:0:0:
222,248,258467,1,2,3:2:0:0:
129,317,258636,1,8,2:2:0:0:
129,317,258720,1,8,2:2:0:0:
129,317,258804,1,10,3:2:0:0:
129,317,258889,1,8,2:2:0:0:
129,317,258973,1,8,2:2:0:0:
129,317,259057,1,8,2:2:0:0:
129,317,259142,6,0,L|174:135,1,176.000005371094,14|2,3:2|2:2,0:0:0:0:
195,65,259647,1,2,2:2:0:0:
92,138,259816,2,0,L|68:222,1,88.000002685547,0|2,0:0|2:2,0:0:0:0:
208,304,260153,2,0,L|231:219,1,88.000002685547,0|2,0:0|2:2,0:0:0:0:
320,124,260490,6,0,P|371:111|458:142,1,120,6|0,3:2|0:0,0:0:0:0:
460,194,260827,2,0,L|390:247,1,80,10|2,3:2|2:2,0:0:0:0:
369,342,261164,2,0,L|305:293,1,80,0|2,3:3|2:2,0:0:0:0:
191,197,261501,1,8,3:2:0:0:
305,293,261670,1,2,2:2:0:0:
188,315,261838,6,0,P|131:314|81:295,1,80,0|0,3:3|2:2,0:0:0:0:
278,205,262175,2,0,P|320:204|367:219,1,80,10|0,3:2|2:2,0:0:0:0:
191,197,262512,2,0,P|189:151|203:116,1,80,2|0,3:2|2:2,0:0:0:0:
305,293,262849,2,0,P|307:339|293:374,1,80,10|0,3:2|2:2,0:0:0:0:
188,315,263187,6,0,L|103:300,1,80,2|0,3:2|2:2,0:0:0:0:
112,183,263524,2,0,L|191:197,1,80,8|0,3:2|2:2,0:0:0:0:
369,194,263861,2,0,P|374:154|366:108,1,80,0|0,3:3|2:2,0:0:0:0:
256,30,264198,1,10,3:2:0:0:
256,30,264366,1,2,2:2:0:0:
190,117,264535,6,0,P|185:157|193:203,1,80,0|0,3:3|2:2,0:0:0:0:
140,293,264872,2,0,P|178:300|233:287,1,80,8|0,3:2|2:2,0:0:0:0:
377,342,265209,1,0,3:3:0:0:
422,252,265378,1,0,2:2:0:0:
299,255,265546,2,0,P|285:297|294:336,1,80,8|0,3:2|2:2,0:0:0:0:
422,252,265883,5,2,3:2:0:0:
300,255,266052,1,0,2:2:0:0:
351,147,266220,1,10,3:2:0:0:
422,252,266389,1,2,2:2:0:0:
275,165,266557,1,0,3:3:0:0:
429,144,266726,2,0,P|415:105|397:71,1,80,2|8,2:2|3:2,0:0:0:0:
242,91,267063,2,0,P|256:130|274:164,1,80,2|0,2:2|3:3,0:0:0:0:
173,153,267400,5,0,2:2:0:0:
289,20,267569,1,10,3:2:0:0:
340,99,267737,1,0,2:2:0:0:
163,74,267906,2,0,P|124:80|83:102,1,80,2|0,3:2|2:2,0:0:0:0:
0,67,268243,2,0,P|2:115|18:150,1,80,10|0,3:2|2:2,0:0:0:0:
136,191,268580,5,6,3:2:0:0:
136,191,268748,1,0,2:2:0:0:
30,289,268917,1,8,3:2:0:0:
30,289,269085,1,0,2:2:0:0:
176,323,269254,2,0,L|108:269,1,80,2|0,3:2|2:2,0:0:0:0:
300,305,269591,2,0,L|232:251,1,80,8|0,3:2|2:2,0:0:0:0:
375,267,269928,6,0,P|386:309|376:348,1,80,2|0,3:2|2:2,0:0:0:0:
304,207,270265,2,0,P|296:168|307:130,1,80,8|0,3:2|2:2,0:0:0:0:
379,26,270602,1,2,3:2:0:0:
307,130,270771,1,0,2:2:0:0:
194,72,270939,2,0,L|282:54,1,80,8|0,3:2|2:2,0:0:0:0:
112,124,271276,5,10,3:2:0:0:
112,124,271361,1,8,2:2:0:0:
112,124,271445,1,8,2:2:0:0:
112,124,271529,1,8,2:2:0:0:
112,124,271613,2,0,L|155:149,1,40,8|8,3:2|2:2,0:0:0:0:
206,216,271782,2,0,L|171:236,1,40,8|8,2:2|2:2,0:0:0:0:
104,331,271951,5,10,3:2:0:0:
126,322,272035,1,8,2:2:0:0:
150,319,272119,1,8,2:2:0:0:
173,321,272203,1,8,2:2:0:0:
196,329,272288,1,8,3:2:0:0:
216,342,272372,1,8,2:2:0:0:
234,358,272456,2,0,L|278:374,1,40,8|8,2:2|2:2,0:0:0:0:
338,267,272625,6,0,L|294:283,1,40,10|8,3:2|2:2,0:0:0:0:
257,192,272793,1,8,2:2:0:0:
257,192,272878,1,8,2:2:0:0:
257,192,272962,1,8,3:2:0:0:
257,192,273046,1,8,2:2:0:0:
257,192,273130,1,8,2:2:0:0:
257,192,273215,1,8,2:2:0:0:
257,192,273299,6,0,L|287:163,3,40,10|8|8|8,3:2|2:2|2:2|2:2,0:0:0:0:
334,87,273636,2,0,L|360:117,3,40,8|8|8|8,3:2|2:2|2:2|2:2,0:0:0:0:
256,66,273973,1,0,2:2:0:0:
256,66,274647,5,6,3:2:0:0:
256,192,274731,12,0,282063,0:0:0:0:
