osu file format v14

[General]
AudioFilename: audio.mp3
AudioLeadIn: 0
PreviewTime: 53742
Countdown: 1
SampleSet: None
StackLeniency: 0.7
Mode: 0
LetterboxInBreaks: 0
WidescreenStoryboard: 1

[Editor]
DistanceSpacing: 1
BeatDivisor: 1
GridSize: 32
TimelineZoom: 0.8

[Metadata]
Title:My Will
TitleUnicode:My Will
Artist:Dream
ArtistUnicode:Dream
Creator:Veridian
Version:Normal
Source:Inuyasha
Tags:Ending 1 ED Nostalgia Childhood adult swim
BeatmapID:1960146
BeatmapSetID:938334

[Difficulty]
HPDrainRate:3
CircleSize:3.5
OverallDifficulty:3
ApproachRate:5
SliderMultiplier:1
SliderTickRate:1

[Events]
//Background and Video events
0,0,"9475d74c285bec39a6327b0e887135e0.jpg",0,0
//Break Periods
//Storyboard Layer 0 (Background)
//Storyboard Layer 1 (Fail)
//Storyboard Layer 2 (Pass)
//Storyboard Layer 3 (Foreground)
//Storyboard Sound Samples

[TimingPoints]
1302,472.44094488189,4,2,0,80,1,0
54215,-100,4,2,0,100,0,1
73107,472.44094488189,4,2,0,80,1,1
73107,-100,4,2,0,80,0,1
76881,472.44094488189,4,2,0,80,1,1
76881,-100,4,2,0,80,0,1
84440,-100,4,2,0,80,0,0

[HitObjects]
84,192,1302,5,4,0:0:0:0:
189,297,2010,1,0,0:0:0:0:
259,226,2483,1,0,0:0:0:0:
329,296,2955,1,2,0:0:0:0:
435,189,3664,1,10,0:0:0:0:
256,100,4609,1,10,0:0:0:0:
180,164,5081,5,0,0:0:0:0:
332,164,5790,1,0,0:0:0:0:
306,260,6262,1,0,0:0:0:0:
206,260,6735,1,2,0:0:0:0:
256,120,7443,1,10,0:0:0:0:
256,320,8388,5,8,0:0:0:0:
256,219,8861,1,6,0:0:0:0:
176,92,9569,1,2,0:0:0:0:
254,31,10042,1,0,0:0:0:0:
332,96,10514,2,0,P|372:119|481:85,1,150,2|0,0:0|0:0,0:0:0:0:
308,216,12168,1,0,0:0:0:0:
204,216,12640,5,2,0:0:0:0:
308,324,13349,1,2,0:0:0:0:
204,324,13821,1,0,0:0:0:0:
256,236,14294,2,0,L|256:76,1,150,2|2,0:0|0:0,0:0:0:0:
180,376,16420,5,2,0:0:0:0:
329,376,17128,1,2,0:0:0:0:
256,308,17601,1,0,0:0:0:0:
326,237,18073,2,0,P|349:197|315:88,1,150,2|0,0:0|0:0,0:0:0:0:
127,100,19727,1,0,0:0:0:0:
197,170,20199,5,2,0:0:0:0:
196,20,20908,1,2,0:0:0:0:
12,104,21853,2,0,L|180:104,1,150,2|0,0:0|0:0,0:0:0:0:
313,363,23979,6,0,P|304:324|202:384,1,200,6|0,0:0|0:0,0:0:0:0:
256,220,25632,1,2,0:0:0:0:
308,132,26105,1,0,0:0:0:0:
204,132,26577,1,2,0:0:0:0:
308,24,27286,1,10,0:0:0:0:
204,24,27758,5,2,0:0:0:0:
256,216,28703,1,2,0:0:0:0:
180,344,29412,2,0,L|344:344,1,150,2|10,0:0|0:0,0:0:0:0:
256,216,30829,1,0,0:0:0:0:
326,145,31302,5,2,0:0:0:0:
255,74,31774,1,0,0:0:0:0:
184,144,32246,1,2,0:0:0:0:
156,344,33191,5,2,0:0:0:0:
256,344,33664,1,0,0:0:0:0:
356,344,34136,1,2,0:0:0:0:
324,148,35081,2,0,B|225:147|225:227|256:247|292:227|292:147|189:147,1,250,2|0,0:0|0:0,0:0:0:0:
256,192,36971,12,6,39097,0:0:0:0:
184,144,40750,5,2,0:0:0:0:
256,72,41223,1,0,0:0:0:0:
324,145,41695,1,2,0:0:0:0:
204,236,42404,1,10,0:0:0:0:
303,236,42876,5,2,0:0:0:0:
352,44,43821,1,2,0:0:0:0:
151,44,44766,5,2,0:0:0:0:
256,152,45475,1,2,0:0:0:0:
256,52,45947,1,0,0:0:0:0:
356,52,46420,5,2,0:0:0:0:
426,122,46892,1,2,0:0:0:0:
355,192,47364,1,2,0:0:0:0:
154,192,48309,5,0,0:0:0:0:
83,122,48782,1,2,0:0:0:0:
153,52,49254,1,2,0:0:0:0:
256,160,49963,1,8,0:0:0:0:
340,212,50435,2,0,P|252:260|172:208,1,200,6|2,0:0|0:0,0:0:0:0:
340,100,52325,2,0,P|252:52|172:104,1,200,2|2,0:0|0:0,0:0:0:0:
206,296,54215,6,0,L|43:339,2,150,6|2|10,0:0|0:0|0:0,0:0:0:0:
306,296,56105,2,0,L|468:339,2,150,2|2|8,0:0|0:0|0:0,0:0:0:0:
315,196,57994,6,0,P|306:157|204:217,1,200,0|2,0:0|0:1,0:0:0:0:
256,356,59648,1,2,0:0:0:0:
184,288,60120,2,0,B|256:264|256:264|328:288,1,150,2|0,0:0|0:0,0:0:0:0:
397,358,61302,1,10,0:0:0:0:
467,287,61774,5,6,0:0:0:0:
396,216,62246,1,10,0:0:0:0:
167,115,63427,2,0,P|263:154|347:109,2,200,2|2|2,0:0|0:0|0:0,0:0:0:0:
167,115,65553,5,6,0:0:0:0:
256,236,66262,1,2,0:0:0:0:
208,376,66971,1,10,0:0:0:0:
307,376,67443,1,2,0:0:0:0:
256,184,68388,1,2,0:0:0:0:
60,140,69333,6,0,L|222:96,2,150,6|10|10,0:0|0:0|0:0,0:0:0:0:
60,240,71223,2,0,L|204:278,2,150,2|10|8,0:0|0:0|0:0,0:0:0:0:
60,140,73107,6,0,P|118:73|177:139,1,200,0|2,0:0|0:1,0:0:0:0:
327,139,74760,1,2,0:0:0:0:
397,68,75232,2,0,B|421:140|421:140|397:212,1,150,2|0,0:0|0:0,0:0:0:0:
326,281,76414,1,8,0:0:0:0:
255,210,76881,5,2,0:0:0:0:
336,80,77589,1,10,0:0:0:0:
180,80,78298,1,10,0:0:0:0:
256,12,78770,2,0,L|256:220,1,200,2|2,0:0|0:0,0:0:0:0:
256,376,80660,5,6,0:0:0:0:
180,248,81369,1,10,0:0:0:0:
330,248,82077,1,10,0:0:0:0:
304,152,82550,2,0,L|304:44,1,100,6|12,0:0|0:0,0:0:0:0:
203,52,83495,2,0,L|203:152,1,100,10|8,0:0|0:0,0:0:0:0:
204,252,84440,6,0,P|184:296|92:328,2,150,6|2|8,0:0|0:0|0:0,0:0:0:0:
256,176,87747,1,10,0:0:0:0:
306,254,88219,2,0,P|326:298|418:330,2,150,2|2|8,0:0|0:0|0:0,0:0:0:0:
152,128,90581,1,10,0:0:0:0:
352,128,91526,1,8,0:0:0:0:
