osu file format v14

[General]
AudioFilename: audio.mp3
AudioLeadIn: 0
PreviewTime: 53742
Countdown: 1
SampleSet: None
StackLeniency: 0.7
Mode: 0
LetterboxInBreaks: 0
WidescreenStoryboard: 1

[Editor]
DistanceSpacing: 1.2
BeatDivisor: 1
GridSize: 32
TimelineZoom: 1.9

[Metadata]
Title:My Will
TitleUnicode:My Will
Artist:Dream
ArtistUnicode:Dream
Creator:Veridian
Version:Insane
Source:Inuyasha
Tags:Ending 1 ED Nostalgia Childhood adult swim
BeatmapID:1960145
BeatmapSetID:938334

[Difficulty]
HPDrainRate:5
CircleSize:4
OverallDifficulty:5
ApproachRate:7.6
SliderMultiplier:1.8
SliderTickRate:1

[Events]
//Background and Video events
0,0,"9475d74c285bec39a6327b0e887135e0.jpg",0,0
//Break Periods
//Storyboard Layer 0 (Background)
//Storyboard Layer 1 (Fail)
//Storyboard Layer 2 (Pass)
//Storyboard Layer 3 (Foreground)
//Storyboard Sound Samples

[TimingPoints]
1302,472.44094488189,4,2,0,80,1,0
54215,-90.9090909090909,4,2,0,100,0,1
73107,472.44094488189,4,2,0,80,1,1
73107,-90.9090909090909,4,2,0,80,0,1
76881,472.44094488189,4,2,0,80,1,1
76881,-90.9090909090909,4,2,0,80,0,1
84440,-100,4,2,0,80,0,0

[Colours]
Combo1 : 255,62,62
Combo2 : 255,128,255
Combo3 : 0,128,255
Combo4 : 131,252,173
Combo5 : 105,235,121
Combo6 : 255,255,94
Combo7 : 255,128,64

[HitObjects]
56,240,1302,6,0,P|76:192|200:172,1,180,4|8,0:0|0:0,0:0:0:0:
328,284,2010,2,0,L|134:249,1,180
332,184,2719,1,8,0:0:0:0:
412,244,2955,2,0,P|423:296|394:351,1,90,2|0,0:0|0:0,0:0:0:0:
332,184,3427,1,0,0:0:0:0:
432,128,3664,2,0,B|356:96|356:176|260:140,1,180,10|0,0:0|0:0,0:0:0:0:
96,272,4609,2,0,L|123:114,1,135,10|0,0:0|0:0,0:0:0:0:
124,112,5081,6,0,P|92:76|32:76,2,90,0|0|8,0:0|0:0|0:0,0:0:0:0:
188,212,5790,2,0,P|220:240|352:196,1,180
268,152,6498,1,8,0:0:0:0:
424,256,6735,6,0,P|435:213|423:170,1,90,2|0,0:0|0:0,0:0:0:0:
268,152,7207,1,0,0:0:0:0:
424,68,7443,2,0,L|309:47,1,90,10|0,0:0|0:0,0:0:0:0:
316,64,7798,1,0,0:0:0:0:
284,72,7916,1,0,0:0:0:0:
248,72,8034,1,0,0:0:0:0:
220,60,8152,1,0,0:0:0:0:
44,104,8388,2,0,P|86:92|129:103,1,90,8|0,0:0|0:0,0:0:0:0:
100,276,8861,6,0,L|81:173,2,90,6|0|0,0:0|0:0|0:0,0:0:0:0:
204,336,9569,2,0,L|239:135,2,180,2|0|2,0:0|0:0|0:0,0:0:0:0:
300,340,10750,2,0,P|320:292|444:272,1,180
512,136,11459,2,0,P|434:175|357:135,1,180,2|0,0:0|0:0,0:0:0:0:
452,0,12168,2,0,L|433:102,1,90
328,224,12640,6,0,L|293:30,1,180,2|0,0:0|0:0,0:0:0:0:
216,120,13349,2,0,P|129:121|80:193,1,180,2|0,0:0|0:0,0:0:0:0:
172,204,14057,1,0,0:0:0:0:
44,280,14294,2,0,B|120:248|120:328|216:292,1,180,2|0,0:0|0:0,0:0:0:0:
312,248,15002,2,0,P|323:290|312:333,1,90,2|0,0:0|0:0,0:0:0:0:
240,192,15475,1,0,0:0:0:0:
416,336,15947,1,0,0:0:0:0:
496,252,16420,6,0,L|461:58,1,180,2|0,0:0|0:0,0:0:0:0:
376,0,17128,2,0,P|336:77|375:154,2,180,2|0|2,0:0|0:0|0:0,0:0:0:0:
432,76,18309,2,0,B|336:112|336:32|260:64,1,180
160,28,19018,2,0,P|161:114|233:163,1,180,2|0,0:0|0:0,0:0:0:0:
316,248,19727,2,0,L|331:159,1,90
392,308,20199,6,0,P|314:268|237:307,1,180,2|0,0:0|0:0,0:0:0:0:
12,248,20908,2,0,P|89:287|166:248,1,180,2|0,0:0|0:0,0:0:0:0:
168,112,21616,1,0,0:0:0:0:
56,24,21853,2,0,L|87:201,1,180,2|0,0:0|0:0,0:0:0:0:
168,112,22561,1,0,0:0:0:0:
248,200,22798,6,0,L|283:193,2,22.5
283,173,23034,2,0,L|369:157,2,45
416,212,23506,2,0,B|428:168|428:168|412:114,1,90
424,112,23861,1,0,0:0:0:0:
436,96,23979,6,0,L|333:77,1,90,6|0,0:0|0:0,0:0:0:0:
160,76,24451,2,0,L|262:94,1,90,10|0,0:1|0:0,0:0:0:0:
100,8,24924,1,0,0:0:0:0:
152,204,25160,1,0,0:0:0:0:
0,128,25396,1,8,0:0:0:0:
80,248,25632,2,0,P|68:205|79:161,1,90,2|0,0:0|0:0,0:0:0:0:
200,312,26105,2,0,B|104:348|104:268|28:300,2,180,0|2|0,0:0|0:0|0:0,0:0:0:0:
272,192,27286,1,10,0:0:0:0:
364,312,27522,1,0,0:0:0:0:
380,208,27758,6,0,L|395:119,1,90,2|0,0:0|0:0,0:0:0:0:
464,268,28231,2,0,L|479:356,1,90,10|0,0:1|0:0,0:0:0:0:
364,312,28703,1,2,0:0:0:0:
488,176,28939,1,0,0:0:0:0:
395,119,29176,1,8,0:0:0:0:
472,56,29412,6,0,P|394:16|317:55,1,180,2|0,0:0|0:0,0:0:0:0:
212,192,30120,2,0,L|300:176,2,90,10|0|0,0:0|0:0|0:0,0:0:0:0:
208,92,30829,1,0,0:0:0:0:
116,192,31065,1,8,0:0:0:0:
27,153,31302,6,0,P|16:197|28:240,1,90,2|0,0:0|0:0,0:0:0:0:
112,376,31774,2,0,P|123:333|112:289,1,90,0|8,0:0|0:0,0:0:0:0:
28,336,32246,1,2,0:0:0:0:
304,92,32719,1,0,0:0:0:0:
396,192,32955,1,8,0:0:0:0:
484,153,33191,6,0,P|495:197|484:240,1,90,2|0,0:0|0:0,0:0:0:0:
400,376,33664,2,0,P|388:333|399:289,1,90,0|8,0:0|0:0,0:0:0:0:
484,336,34136,1,2,0:0:0:0:
176,136,34609,1,0,0:0:0:0:
340,136,34845,1,8,0:0:0:0:
256,228,35081,6,0,L|256:28,1,180,2|0,0:0|0:0,0:0:0:0:
432,148,35790,1,10,0:1:0:0:
475,62,36026,2,0,P|388:63|339:135,1,180
384,284,36735,1,10,0:0:0:0:
512,264,36971,1,0,0:0:0:0:
256,192,37207,12,0,38624,0:0:0:0:
37,62,39097,6,0,P|123:63|172:135,1,180,6|8,0:0|0:0,0:0:0:0:
172,232,39805,1,0,0:0:0:0:
256,176,40042,1,2,0:0:0:0:
80,232,40278,1,0,0:0:0:0:
172,328,40514,1,8,0:0:0:0:
336,264,40750,2,0,L|247:279,1,90,2|0,0:0|0:0,0:0:0:0:
404,340,41223,6,0,P|365:262|405:185,2,180,0|2|0,0:0|0:0|0:0,0:0:0:0:
460,264,42404,1,10,0:0:0:0:
304,160,42640,1,0,0:0:0:0:
444,96,42876,2,0,B|348:132|348:52|272:84,1,180,2|8,0:0|0:0,0:0:0:0:
108,156,43585,1,0,0:0:0:0:
184,212,43821,2,0,B|204:160|204:160|172:52,2,135,2|0|0,0:0|0:0|0:0,0:0:0:0:
88,240,44766,6,0,L|269:271,1,180,2|8,0:0|0:0,0:0:0:0:
468,228,45475,1,2,0:0:0:0:
468,256,45593,1,0,0:0:0:0:
456,284,45711,1,0,0:0:0:0:
432,304,45829,1,0,0:0:0:0:
408,312,45947,1,0,0:0:0:0:
265,271,46183,1,8,0:0:0:0:
384,192,46420,5,2,0:0:0:0:
380,212,46538,1,0,0:0:0:0:
376,228,46656,1,4,0:0:0:0:
324,116,46892,2,0,L|430:97,1,90,2|8,0:0|0:0,0:0:0:0:
448,0,47364,2,0,L|341:18,1,90,2|0,0:0|0:0,0:0:0:0:
256,168,47837,1,0,0:0:0:0:
160,28,48073,1,8,0:0:0:0:
72,136,48309,6,0,P|115:124|158:136,1,90,0|4,0:0|0:0,0:0:0:0:
300,248,48782,2,0,P|256:259|213:247,1,90,2|8,0:0|0:0,0:0:0:0:
360,168,49254,2,0,P|399:244|361:322,1,180,2|0,0:0|0:0,0:0:0:0:
300,248,49963,1,8,0:0:0:0:
476,164,50199,1,0,0:0:0:0:
456,60,50435,6,0,P|420:100|292:100,1,180,6|8,0:0|0:0,0:0:0:0:
256,32,51144,1,0,0:0:0:0:
56,60,51380,2,0,P|92:100|220:100,1,180,2|8,0:0|0:0,0:0:0:0:
256,32,52089,1,0,0:0:0:0:
328,240,52325,5,2,0:0:0:0:
184,240,52561,1,0,0:0:0:0:
256,328,52798,1,8,0:0:0:0:
256,192,53034,1,0,0:0:0:0:
256,184,53152,1,8,0:0:0:0:
256,176,53270,1,2,0:0:0:0:
256,168,53388,1,0,0:0:0:0:
256,160,53506,1,0,0:0:0:0:
256,152,53624,1,0,0:0:0:0:
256,144,53742,1,8,0:0:0:0:
256,136,53861,1,0,0:0:0:0:
256,128,53979,1,2,0:0:0:0:
256,120,54097,1,0,0:0:0:0:
256,112,54215,6,0,P|354:113|409:195,1,198.000006042481,6|8,0:0|0:0,0:0:0:0:
488,308,54924,2,0,L|271:269,1,198.000006042481,2|0,0:0|0:0,0:0:0:0:
192,320,55632,2,0,P|179:263|204:212,1,99.0000030212403,10|0,0:0|0:0,0:0:0:0:
124,68,56105,2,0,P|123:166|41:221,1,198.000006042481,2|8,0:0|0:0,0:0:0:0:
32,120,56813,2,0,L|256:159,1,198.000006042481,2|0,0:0|0:0,0:0:0:0:
304,72,57522,1,8,0:0:0:0:
368,260,57758,1,2,0:0:0:0:
400,168,57994,5,0,0:0:0:0:
272,232,58231,1,0,0:0:0:0:
340,352,58467,1,8,0:0:0:0:
468,288,58704,1,0,0:0:0:0:
400,168,58939,1,2,0:1:0:0:
272,232,59176,1,0,0:0:0:0:
252,228,59294,1,0,0:0:0:0:
228,224,59412,1,8,0:0:0:0:
120,344,59648,6,0,L|230:324,1,99.0000030212403,2|0,0:0|0:0,0:0:0:0:
264,124,60120,2,0,P|169:134|121:217,1,198.000006042481,2|0,0:0|0:0,0:0:0:0:
228,224,60829,1,0,0:0:0:0:
280,36,61065,1,0,0:0:0:0:
428,172,61302,1,10,0:0:0:0:
280,36,61538,1,0,0:0:0:0:
492,104,61774,5,6,0:0:0:0:
332,172,62010,1,0,0:0:0:0:
432,260,62246,2,0,L|495:248,2,49.5000015106202,10|0|0,0:0|0:0|0:0,0:0:0:0:
288,332,62719,1,2,0:1:0:0:
311,336,62837,1,0,0:0:0:0:
335,340,62955,1,0,0:0:0:0:
358,344,63073,1,0,0:0:0:0:
379,348,63191,1,8,0:0:0:0:
328,240,63427,6,0,P|233:249|185:332,1,198.000006042481,2|0,0:0|0:0,0:0:0:0:
288,332,64136,1,8,0:0:0:0:
320,148,64372,2,0,L|331:81,2,49.5000015106202,2|0|0,0:0|0:0|0:0,0:0:0:0:
424,228,64845,2,0,L|412:294,2,49.5000015106202,0|0|8,0:0|0:0|0:0,0:0:0:0:
436,64,65317,1,2,0:0:0:0:
436,64,65435,1,0,0:0:0:0:
436,64,65553,6,0,B|336:20|336:120|212:56,1,198.000006042481,6|8,0:0|0:0,0:0:0:0:
12,160,66262,2,0,P|60:77|154:67,1,198.000006042481,2|0,0:0|0:0,0:0:0:0:
244,276,66971,1,10,0:0:0:0:
112,160,67207,1,0,0:0:0:0:
284,160,67443,5,2,0:0:0:0:
160,316,67679,1,0,0:0:0:0:
332,236,67916,1,8,0:0:0:0:
80,352,68152,1,0,0:0:0:0:
136,232,68388,5,2,0:0:0:0:
155,235,68506,1,0,0:0:0:0:
171,238,68624,1,0,0:0:0:0:
416,272,68861,1,8,0:0:0:0:
280,368,69097,1,0,0:0:0:0:
488,304,69333,6,0,B|478:343|478:343|440:174,1,198.000006042481,6|8,0:0|0:0,0:0:0:0:
490,112,70042,2,0,P|430:98|375:135,1,99.0000030212403,10|0,0:0|0:0,0:0:0:0:
296,188,70514,1,0,0:0:0:0:
396,20,70750,2,0,P|337:37|307:97,1,99.0000030212403,10|0,0:0|0:0,0:0:0:0:
296,284,71223,6,0,P|354:266|384:206,1,99.0000030212403,2|0,0:0|0:0,0:0:0:0:
296,188,71695,1,8,0:0:0:0:
232,340,71931,2,0,P|286:369|349:347,1,99.0000030212403,10|0,0:0|0:0,0:0:0:0:
144,248,72404,2,0,L|154:307,2,49.5000015106202,0|0|8,0:0|0:0|0:0,0:0:0:0:
216,116,72876,1,2,0:0:0:0:
216,116,72994,1,0,0:0:0:0:
216,116,73107,5,0,0:0:0:0:
296,188,73343,1,0,0:0:0:0:
108,120,73579,1,8,0:0:0:0:
296,56,73815,1,8,0:0:0:0:
212,256,74051,1,2,0:1:0:0:
372,120,74288,1,0,0:0:0:0:
391,123,74406,1,0,0:0:0:0:
407,126,74524,1,8,0:0:0:0:
490,222,74760,6,0,L|277:184,2,198.000006042481,2|2|0,0:0|0:0|0:0,0:0:0:0:
488,336,75941,1,0,0:0:0:0:
465,340,76059,1,0,0:0:0:0:
441,344,76177,1,0,0:0:0:0:
418,348,76295,1,0,0:0:0:0:
397,352,76413,1,8,0:0:0:0:
196,288,76650,1,0,0:0:0:0:
260,204,76881,6,0,P|304:288|263:374,1,198.000006042481,2|8,0:0|0:0,0:0:0:0:
196,288,77589,2,0,P|151:203|192:117,1,198.000006042481,10|0,0:0|0:0,0:0:0:0:
256,20,78298,1,10,0:0:0:0:
368,192,78534,1,0,0:0:0:0:
476,72,78770,6,0,L|251:111,1,198.000006042481,2|8,0:0|0:0,0:0:0:0:
368,192,79479,1,8,0:0:0:0:
281,277,79715,2,0,L|476:312,1,198.000006042481,2|8,0:0|0:0,0:0:0:0:
224,188,80423,1,0,0:0:0:0:
224,188,80541,1,0,0:0:0:0:
224,188,80660,6,0,P|129:198|81:280,1,198.000006042481,6|8,0:0|0:0,0:0:0:0:
164,376,81369,2,0,L|186:246,1,99.0000030212403,10|0,0:0|0:0,0:0:0:0:
16,192,81842,1,0,0:0:0:0:
208,88,82078,1,10,0:0:0:0:
32,8,82314,1,0,0:0:0:0:
112,124,82550,6,0,B|203:173|203:73|303:117,1,198.000006042481,6|12,0:0|0:0,0:0:0:0:
444,28,83258,1,0,0:0:0:0:
440,64,83376,1,0,0:0:0:0:
436,104,83494,1,10,0:0:0:0:
432,144,83613,1,0,0:0:0:0:
428,184,83730,1,0,0:0:0:0:
340,32,83967,1,8,0:0:0:0:
512,184,84203,1,0,0:0:0:0:
448,280,84440,6,0,P|428:232|304:212,1,180,6|8,0:0|0:0,0:0:0:0:
176,324,85148,2,0,L|370:289,1,180,2|0,0:0|0:0,0:0:0:0:
172,224,85857,1,8,0:0:0:0:
92,284,86093,2,0,P|81:336|110:391,1,90,2|0,0:0|0:0,0:0:0:0:
172,224,86566,1,0,0:0:0:0:
72,168,86802,2,0,B|148:136|148:216|244:180,1,180,10|0,0:0|0:0,0:0:0:0:
408,312,87747,2,0,L|381:154,1,135,10|0,0:0|0:0,0:0:0:0:
380,152,88219,6,0,P|412:116|472:116,2,90,2|0|8,0:0|0:0|0:0,0:0:0:0:
316,252,88928,2,0,P|284:280|152:236,1,180,2|0,0:0|0:0,0:0:0:0:
236,192,89636,1,8,0:0:0:0:
80,296,89873,2,0,P|69:253|81:210,1,90,2|0,0:0|0:0,0:0:0:0:
236,192,90345,1,0,0:0:0:0:
80,108,90581,2,0,L|195:87,1,90,10|0,0:0|0:0,0:0:0:0:
188,104,90936,5,0,0:0:0:0:
220,112,91054,1,0,0:0:0:0:
256,112,91172,1,0,0:0:0:0:
284,100,91290,1,0,0:0:0:0:
447,38,91526,2,0,P|405:26|362:37,1,90,8|0,0:0|0:0,0:0:0:0:
256,192,91999,12,0,95306,0:0:0:0:
