osu file format v14

[General]
AudioFilename: audio.mp3
AudioLeadIn: 0
PreviewTime: 62204
Countdown: 0
SampleSet: Soft
StackLeniency: 0.7
Mode: 0
LetterboxInBreaks: 0
WidescreenStoryboard: 1

[Editor]
DistanceSpacing: 1.3
BeatDivisor: 4
GridSize: 4
TimelineZoom: 1.6

[Metadata]
Title:Konnanimo
TitleUnicode:こんなにも
Artist:Dream
ArtistUnicode:Dream
Creator:timemon
Version:Hinsvar's Hard
Source:
Tags:dkblaze erisu jpop j-pop pop japanese 26th single nishida shizuka 西田静香 takamoto aya 高本彩 nakashima ami 中島麻未 abe erie 阿部絵里恵 hinsvar Mayuzumi Fuyuko
BeatmapID:2952467
BeatmapSetID:1429419

[Difficulty]
HPDrainRate:5
CircleSize:3.5
OverallDifficulty:6.5
ApproachRate:8
SliderMultiplier:2.8
SliderTickRate:1

[Events]
//Background and Video events
0,0,"bg.jpg",0,0
//Break Periods
2,98410,107337
2,201836,208305
//Storyboard Layer 0 (Background)
//Storyboard Layer 1 (Fail)
//Storyboard Layer 2 (Pass)
//Storyboard Layer 3 (Foreground)
//Storyboard Layer 4 (Overlay)
//Storyboard Sound Samples

[TimingPoints]
346,645.161290322581,4,2,1,60,1,0
20991,-111.111111111111,4,2,1,60,0,0
60991,-111.111111111111,4,2,1,20,0,0
61313,-111.111111111111,4,2,1,40,0,0
61636,-111.111111111111,4,2,1,60,0,0
62281,-90.9090909090909,4,2,1,75,0,1
62523,-90.9090909090909,4,2,1,5,0,1
62604,-90.9090909090909,4,2,1,75,0,1
63168,-90.9090909090909,4,2,1,5,0,1
63249,-90.9090909090909,4,2,1,75,0,1
67684,-90.9090909090909,4,2,1,5,0,1
67765,-90.9090909090909,4,2,1,75,0,1
68329,-90.9090909090909,4,2,1,5,0,1
68410,-90.9090909090909,4,2,1,75,0,1
71555,-90.9090909090909,4,2,1,5,0,1
71636,-90.9090909090909,4,2,1,75,0,1
82523,-90.9090909090909,4,2,1,5,0,1
82604,-90.9090909090909,4,2,1,75,0,1
82765,-90.9090909090909,4,2,1,75,0,0
82926,-90.9090909090909,4,2,1,75,0,1
83168,-90.9090909090909,4,2,1,5,0,1
83249,-90.9090909090909,4,2,1,75,0,1
83813,-90.9090909090909,4,2,1,5,0,1
83894,-90.9090909090909,4,2,1,75,0,1
88329,-90.9090909090909,4,2,1,5,0,1
88410,-90.9090909090909,4,2,1,75,0,1
88975,-90.9090909090909,4,2,1,5,0,1
89055,-90.9090909090909,4,2,1,75,0,1
93249,-100,4,2,1,75,0,0
95829,-100,4,2,1,50,0,0
98410,-111.111111111111,4,2,1,50,0,0
108087,-111.111111111111,4,2,1,60,0,0
147442,-111.111111111111,4,2,1,50,0,0
148733,-111.111111111111,4,2,1,60,0,0
150023,-90.9090909090909,4,2,1,75,0,1
150265,-90.9090909090909,4,2,1,5,0,1
150345,-90.9090909090909,4,2,1,75,0,1
150910,-90.9090909090909,4,2,1,5,0,1
150991,-90.9090909090909,4,2,1,75,0,1
155426,-90.9090909090909,4,2,1,5,0,1
155507,-90.9090909090909,4,2,1,75,0,1
156071,-90.9090909090909,4,2,1,5,0,1
156152,-90.9090909090909,4,2,1,75,0,1
159297,-90.9090909090909,4,2,1,5,0,1
159378,-90.9090909090909,4,2,1,75,0,1
170265,-90.9090909090909,4,2,1,5,0,1
170346,-90.9090909090909,4,2,1,75,0,1
170507,-90.9090909090909,4,2,1,75,0,0
170668,-90.9090909090909,4,2,1,75,0,1
170910,-90.9090909090909,4,2,1,5,0,1
170991,-90.9090909090909,4,2,1,75,0,1
176071,-90.9090909090909,4,2,1,5,0,1
176152,-90.9090909090909,4,2,1,75,0,1
180991,-100,4,2,1,75,0,0
183571,-100,4,2,1,50,0,0
186152,-100,4,2,1,65,0,0
201636,-111.111111111111,4,2,1,50,0,0
209055,-100,4,2,1,60,0,0
211958,-90.9090909090909,4,2,1,75,0,1
221878,-90.9090909090909,4,2,1,5,0,1
221958,-90.9090909090909,4,2,1,75,0,1
222120,-90.9090909090909,4,2,1,75,0,0
222281,-90.9090909090909,4,2,1,75,0,1
222523,-90.9090909090909,4,2,1,5,0,1
222604,-90.9090909090909,4,2,1,75,0,1
223168,-90.9090909090909,4,2,1,5,0,1
223249,-90.9090909090909,4,2,1,75,0,1
227684,-90.9090909090909,4,2,1,5,0,1
227765,-90.9090909090909,4,2,1,75,0,1
228329,-90.9090909090909,4,2,1,5,0,1
228410,-90.9090909090909,4,2,1,75,0,1
232604,-100,4,2,1,75,0,0
235184,-100,4,2,1,50,0,0
237765,-100,4,2,1,30,0,0

[Colours]
Combo1 : 235,213,165
Combo2 : 234,149,151
Combo3 : 209,176,223
Combo4 : 236,180,164

[HitObjects]
222,308,20346,5,8,0:0:0:0:
222,308,20991,6,0,P|283:317|369:336,1,125.999996154785,4|0,1:2|0:0,0:0:0:0:
428,362,21475,1,0,0:0:0:0:
495,305,21636,1,8,0:0:0:0:
347,148,21958,1,0,1:0:0:0:
363,234,22120,2,0,P|300:269|232:361,1,188.999994232178,0|0,1:0|1:0,0:0:0:0:
152,321,22765,1,0,0:0:0:0:
152,321,22926,2,0,P|139:283|140:256,1,62.9999980773926,8|0,0:0|0:0,0:0:0:0:
207,72,23410,1,0,0:0:0:0:
207,72,23571,6,0,P|93:118|60:3,1,251.999992309571,2|8,1:2|0:0,0:0:0:0:
19,227,24539,1,0,1:0:0:0:
19,227,24700,2,0,P|76:217|147:213,1,125.999996154785,0|0,1:0|0:0,0:0:0:0:
211,279,25184,2,0,P|199:310|188:358,2,62.9999980773926,0|0|8,1:0|0:0|0:0,0:0:0:0:
297,241,25668,1,0,0:0:0:0:
377,299,25829,1,0,1:0:0:0:
377,299,25991,1,0,1:0:0:0:
488,260,26152,6,0,P|514:145|489:13,1,251.999992309571,2|8,1:2|0:0,0:0:0:0:
279,55,27120,1,0,1:0:0:0:
367,87,27281,1,0,1:0:0:0:
279,254,27604,1,0,0:0:0:0:
185,264,27765,2,0,P|131:294|74:338,2,125.999996154785,0|8|2,1:0|0:0|0:3,0:0:0:0:
358,144,28733,6,0,P|358:87|343:10,2,125.999996154785,2|0|8,1:2|0:0|0:0,0:0:0:0:
161,37,29700,1,0,1:0:0:0:
143,130,29862,1,0,1:0:0:0:
143,130,30023,2,0,P|97:167|18:186,1,125.999996154785,0|0,0:0|1:0,0:0:0:0:
108,359,30668,2,0,P|154:322|233:303,1,125.999996154785,8|0,0:0|3:0,0:0:0:0:
295,357,31152,1,0,3:0:0:0:
389,362,31313,6,0,L|516:344,1,125.999996154785,4|0,1:2|0:0,0:0:0:0:
504,254,31797,1,0,0:0:0:0:
504,254,31958,1,8,0:0:0:0:
319,133,32281,1,0,1:0:0:0:
331,39,32442,2,0,B|245:13|245:13|155:68,1,188.999994232178,0|0,1:0|1:0,0:0:0:0:
92,139,33087,1,0,0:0:0:0:
92,139,33249,2,0,P|76:105|56:74,1,62.9999980773926,8|0,0:0|0:0,0:0:0:0:
203,246,33733,1,0,0:0:0:0:
203,246,33894,6,0,P|245:180|301:151,2,125.999996154785,2|0|8,1:2|0:0|0:0,0:0:0:0:
19,308,34862,1,0,1:0:0:0:
104,361,35023,1,0,1:0:0:0:
104,361,35184,2,0,L|115:290,1,62.9999980773926,0|0,0:0|0:0,0:0:0:0:
45,208,35507,2,0,L|54:145,2,62.9999980773926,0|0|8,1:0|0:0|0:0,0:0:0:0:
136,189,35991,1,0,0:0:0:0:
217,251,36152,1,0,1:0:0:0:
217,251,36313,1,0,1:0:0:0:
326,212,36475,6,0,P|406:226|416:386,1,251.999992309571,2|8,1:2|0:0,0:0:0:0:
205,338,37442,1,0,1:0:0:0:
298,321,37604,1,0,1:0:0:0:
179,158,37926,1,0,0:0:0:0:
272,141,38087,2,0,B|291:75|291:75|265:17,2,125.999996154785,0|8|2,1:0|0:0|0:3,0:0:0:0:
326,218,38894,1,0,0:0:0:0:
260,309,39055,6,0,P|204:331|137:344,2,125.999996154785,2|0|8,1:2|0:0|0:0,0:0:0:0:
72,208,40023,1,0,1:0:0:0:
159,242,40184,1,0,1:0:0:0:
131,51,40507,1,0,0:0:0:0:
131,51,40668,2,0,P|162:111|209:153,1,125.999996154785,0|8,1:0|0:0,0:0:0:0:
302,106,41152,2,0,P|297:137|303:176,1,62.9999980773926,0|0,0:0|3:0,0:0:0:0:
382,228,41475,1,0,3:0:0:0:
382,228,41636,6,0,P|334:281|319:361,2,125.999996154785,6|0|8,1:2|0:0|0:0,0:0:0:0:
506,85,42604,1,0,1:0:0:0:
451,8,42765,1,0,1:0:0:0:
451,8,42926,2,0,P|386:43|308:55,1,125.999996154785,0|0,0:0|1:0,0:0:0:0:
245,22,43410,1,0,0:0:0:0:
227,114,43571,1,8,0:0:0:0:
209,207,43733,2,0,L|228:346,1,125.999996154785,0|0,0:0|0:0,0:0:0:0:
110,374,44216,6,0,P|124:304|6:178,1,251.999992309571,2|8,1:2|0:0,0:0:0:0:
110,16,45184,1,0,1:0:0:0:
161,95,45346,2,0,L|357:78,1,188.999994232178,0|0,1:0|1:0,0:0:0:0:
487,208,46152,1,8,0:0:0:0:
293,299,46475,1,0,1:0:0:0:
357,368,46636,1,0,1:0:0:0:
385,278,46797,6,0,P|394:214|394:143,2,125.999996154785,2|0|8,1:2|0:0|0:0,0:0:0:0:
198,174,47765,1,0,1:0:0:0:
224,264,47926,1,0,1:0:0:0:
41,349,48249,1,0,0:0:0:0:
41,349,48410,2,0,B|100:327|100:327|183:362,2,125.999996154785,0|8|2,1:0|0:0|0:3,0:0:0:0:
99,113,49378,6,0,P|96:148|86:189,1,62.9999980773926,2|0,1:2|0:0,0:0:0:0:
183,194,49700,2,0,P|165:225|139:258,1,62.9999980773926,0|0,0:0|0:0,0:0:0:0:
181,336,50023,2,0,P|237:339|316:353,1,125.999996154785,8|0,0:0|1:0,0:0:0:0:
420,366,50507,1,0,1:0:0:0:
420,366,50668,2,0,P|398:332|391:301,1,62.9999980773926,0|0,0:0|0:0,0:0:0:0:
333,235,50991,2,0,P|342:205|360:179,1,62.9999980773926,0|0,1:0|0:0,0:0:0:0:
451,154,51313,1,8,0:0:0:0:
429,61,51475,1,0,0:0:0:0:
338,88,51636,1,0,3:0:0:0:
248,116,51797,1,0,3:0:0:0:
210,28,51958,6,0,P|93:58|45:187,1,251.999992309571,4|8,1:2|0:0,0:0:0:0:
187,292,52926,1,0,1:0:0:0:
207,199,53087,1,0,1:0:0:0:
207,199,53249,2,0,P|267:179|345:166,1,125.999996154785,0|0,0:0|1:0,0:0:0:0:
392,237,53733,1,0,0:0:0:0:
384,331,53894,1,8,0:0:0:0:
297,368,54055,2,0,P|251:319|175:323,1,125.999996154785,0|0,0:0|0:0,0:0:0:0:
111,360,54539,6,0,L|12:274,2,125.999996154785,2|0|8,1:2|0:0|0:0,0:0:0:0:
182,152,55507,1,0,1:0:0:0:
202,244,55668,1,0,1:0:0:0:
261,342,55829,2,0,P|285:280|324:228,1,125.999996154785,0|0,0:0|1:0,0:0:0:0:
407,267,56313,2,0,P|439:284|476:292,2,62.9999980773926,0|8|0,0:0|0:0|0:0,0:0:0:0:
466,193,56797,1,0,1:0:0:0:
413,114,56958,1,0,1:0:0:0:
323,144,57120,6,0,P|254:96|360:40,1,251.999992309571,2|8,1:2|0:0,0:0:0:0:
285,252,58087,1,0,1:0:0:0:
191,237,58249,1,0,1:0:0:0:
97,223,58410,2,0,L|33:240,2,62.9999980773926,0|0|0,0:0|0:0|1:0,0:0:0:0:
269,353,59055,2,0,L|404:376,1,125.999996154785,8|2,0:0|0:3,0:0:0:0:
492,186,59700,5,4,1:2:0:0:
492,186,61636,2,0,B|475:326,1,125.999996154785,0|0,1:2|3:0,0:0:0:0:
391,352,62120,1,0,3:0:0:0:
302,234,62281,6,0,B|236:275|236:275|308:307,1,154.000004699707,4|0,1:2|0:0,0:0:0:0:
414,266,62765,2,0,L|496:256,1,77.0000023498536,0|8,0:0|0:0,0:0:0:0:
296,71,63249,2,0,B|230:112|230:112|302:144,1,154.000004699707,0|0,1:0|0:0,0:0:0:0:
408,103,63733,2,0,L|490:93,1,77.0000023498536,0|0,0:0|1:0,0:0:0:0:
302,234,64216,2,0,L|220:244,1,77.0000023498536,8|0,0:0|0:0,0:0:0:0:
145,375,64539,6,0,B|68:291|68:291|210:89|210:89|144:11,1,462.000014099122,2|8,0:3|0:0,0:0:0:0:
331,138,65829,1,0,1:0:0:0:
436,148,65991,1,0,1:0:0:0:
446,39,66152,1,0,0:0:0:0:
339,29,66313,1,0,0:0:0:0:
331,138,66475,1,0,1:0:0:0:
80,84,66797,2,0,B|144:130|144:130|166:214,1,154.000004699707,8|0,0:0|1:0,0:0:0:0:
138,300,67281,1,0,1:0:0:0:
246,361,67442,6,0,P|313:321|397:324,1,154.000004699707,2|0,1:2|0:0,0:0:0:0:
475,273,67926,1,0,0:0:0:0:
389,221,68087,1,8,0:0:0:0:
389,221,68410,2,0,L|379:141,1,77.0000023498536,0|0,1:0|1:0,0:0:0:0:
289,217,68733,2,0,L|224:73,2,154.000004699707,0|0|8,0:0|1:0|0:0,0:0:0:0:
112,365,69700,1,2,0:3:0:0:
35,179,70023,6,0,L|46:101,2,77.0000023498536,2|0|0,1:2|0:0|0:0,0:0:0:0:
105,251,70507,1,0,0:0:0:0:
170,175,70668,2,0,L|181:97,2,77.0000023498536,8|0|0,0:0|0:0|1:0,0:0:0:0:
247,239,71152,1,0,1:0:0:0:
341,205,71313,2,0,L|362:49,1,154.000004699707,0|0,0:0|1:0,0:0:0:0:
81,51,71958,1,8,0:0:0:0:
109,164,72119,1,0,0:0:0:0:
221,136,72280,1,0,3:0:0:0:
193,23,72442,1,0,3:0:0:0:
81,51,72604,5,6,1:2:0:0:
193,252,72926,2,0,P|188:294|179:335,2,77.0000023498536,0|0|8,0:0|0:0|0:0,0:0:0:0:
109,195,73410,1,0,0:0:0:0:
24,247,73571,2,0,P|45:279|83:287,1,77.0000023498536,0|0,1:0|1:0,0:0:0:0:
157,367,73894,2,0,P|229:340|315:335,1,154.000004699707,2|0,0:0|1:0,0:0:0:0:
301,195,74378,2,0,P|378:259|514:297,1,231.000007049561,2|2,0:0|0:3,0:0:0:0:
471,31,75184,5,2,1:2:0:0:
260,126,75507,2,0,P|276:158|287:204,1,77.0000023498536,0|0,0:0|0:0,0:0:0:0:
383,259,75829,1,8,0:0:0:0:
383,259,75991,2,0,P|319:303|253:365,1,154.000004699707,0|0,0:0|1:0,0:0:0:0:
130,272,76475,1,2,0:0:0:0:
130,272,76636,2,0,L|212:266,1,77.0000023498536,0|0,1:0|1:0,0:0:0:0:
269,188,76958,1,0,0:0:0:0:
175,150,77120,2,0,B|143:80|143:80|165:-7,1,154.000004699707,8|0,0:0|1:0,0:0:0:0:
268,67,77604,1,0,1:0:0:0:
268,67,77765,6,0,P|379:18|501:136,1,308.000009399414,2|8,1:2|0:0,0:0:0:0:
388,339,78733,2,0,L|376:255,1,77.0000023498536,0|0,1:0|1:0,0:0:0:0:
361,164,79055,1,0,0:0:0:0:
149,36,79378,2,0,L|137:120,1,77.0000023498536,0|0,1:0|0:0,0:0:0:0:
122,211,79700,1,8,0:0:0:0:
306,289,80023,1,2,0:3:0:0:
490,367,80346,6,0,P|417:368|336:377,1,154.000004699707,2|0,1:2|0:0,0:0:0:0:
399,281,80829,1,0,0:0:0:0:
399,281,80991,2,0,P|437:277|484:260,1,77.0000023498536,8|0,0:0|0:0,0:0:0:0:
500,172,81313,2,0,P|462:176|415:193,1,77.0000023498536,0|0,1:0|1:0,0:0:0:0:
337,139,81636,1,2,1:2:0:0:
337,139,81797,2,0,P|332:99|323:56,2,77.0000023498536,0|0|0,0:0|0:0|0:0,0:0:0:0:
237,122,82281,2,0,P|183:79|88:61,1,154.000004699707,8|0,0:0|3:0,0:0:0:0:
20,154,82765,1,0,3:0:0:0:
122,221,82926,6,0,L|88:375,1,154.000004699707,4|0,1:2|0:0,0:0:0:0:
226,356,83410,1,0,0:0:0:0:
218,256,83571,1,8,0:0:0:0:
218,256,83894,2,0,P|256:273|300:280,1,77.0000023498536,0|0,1:0|1:0,0:0:0:0:
351,357,84216,2,0,P|419:340|523:328,2,154.000004699707,0|0|8,0:0|1:0|0:0,0:0:0:0:
276,149,85184,6,0,B|327:200|399:217|399:217|466:132|434:44|434:44|370:25|297:41,1,462.000014099122,2|8,0:3|0:0,0:0:0:0:
154,177,86475,2,0,P|98:149|56:69,1,154.000004699707,0|0,1:0|0:0,0:0:0:0:
128,2,86958,1,0,0:0:0:0:
128,2,87120,2,0,P|207:16|285:38,1,154.000004699707,0|8,1:0|0:0,0:0:0:0:
426,178,87765,1,0,1:0:0:0:
426,178,87926,1,0,1:0:0:0:
329,205,88087,6,0,P|307:266|332:359,1,154.000004699707,2|0,1:2|0:0,0:0:0:0:
421,383,88571,2,0,P|425:338|404:291,1,77.0000023498536,0|8,0:0|0:0,0:0:0:0:
185,282,89055,1,0,1:0:0:0:
93,322,89216,1,0,1:0:0:0:
176,378,89378,2,0,P|258:373|331:348,2,154.000004699707,0|0|8,0:0|1:0|0:0,0:0:0:0:
43,227,90346,1,2,0:3:0:0:
192,31,90668,6,0,P|193:88|229:200,1,154.000004699707,2|0,1:2|0:0,0:0:0:0:
287,254,91152,1,0,0:0:0:0:
386,250,91313,2,0,P|427:185|451:112,1,154.000004699707,8|0,0:0|1:0,0:0:0:0:
396,28,91797,1,0,1:0:0:0:
396,28,91958,2,0,L|316:39,1,77.0000023498536,0|0,0:0|0:0,0:0:0:0:
211,95,92281,2,0,L|285:126,1,77.0000023498536,0|0,1:0|0:0,0:0:0:0:
328,231,92604,1,8,0:0:0:0:
354,343,92765,1,0,0:0:0:0:
467,317,92926,1,0,3:0:0:0:
441,205,93087,1,0,3:0:0:0:
328,231,93249,6,0,B|241:242|200:170|224:156|177:74|95:90,1,280,4|8,1:2|0:0,0:0:0:0:
39,334,94216,2,0,P|71:332|112:316,1,70,0|0,1:0|1:0,0:0:0:0:
130,216,94539,2,0,P|105:195|65:178,2,70,0|0|0,0:0|0:0|1:0,0:0:0:0:
279,363,95184,1,8,0:0:0:0:
466,266,95507,2,0,P|476:234|476:191,1,70,2|0,0:3|0:0,0:0:0:0:
417,112,95829,5,2,0:2:0:0:
222,308,108087,5,8,0:0:0:0:
222,308,108732,6,0,P|204:254|206:176,1,125.999996154785,4|0,1:2|0:0,0:0:0:0:
282,131,109216,2,0,P|291:154|289:204,1,62.9999980773926,0|8,0:0|0:0,0:0:0:0:
87,255,109700,1,0,1:0:0:0:
87,255,109862,2,0,P|112:165|113:49,1,188.999994232178,0|0,1:0|1:0,0:0:0:0:
223,25,110507,1,0,0:0:0:0:
223,25,110668,2,0,P|211:57|204:103,1,62.9999980773926,8|0,0:0|0:0,0:0:0:0:
334,223,111152,1,0,0:0:0:0:
334,223,111313,6,0,P|383:322|516:322,1,251.999992309571,2|8,1:2|0:0,0:0:0:0:
445,134,112281,1,0,1:0:0:0:
474,44,112442,1,0,1:0:0:0:
289,84,112765,1,0,0:0:0:0:
323,171,112926,2,0,P|266:205|205:226,1,125.999996154785,0|8,1:0|0:0,0:0:0:0:
48,126,113571,1,0,1:0:0:0:
48,126,113733,1,0,1:0:0:0:
89,41,113894,6,0,B|187:61|187:61|221:90|221:90|332:106,1,251.999992309571,2|8,1:2|0:0,0:0:0:0:
497,23,114862,1,0,1:0:0:0:
460,110,115023,2,0,L|475:237,1,125.999996154785,0|0,1:0|0:0,0:0:0:0:
380,222,115507,2,0,L|395:349,2,125.999996154785,0|8|2,1:0|0:0|0:3,0:0:0:0:
242,40,116475,5,2,1:2:0:0:
50,122,116797,1,0,0:0:0:0:
214,238,117120,2,0,B|229:295|229:295|203:368,1,125.999996154785,8|0,0:0|1:0,0:0:0:0:
100,340,117604,1,0,1:0:0:0:
100,340,117765,2,0,B|85:283|85:283|111:210,1,125.999996154785,0|0,0:0|1:0,0:0:0:0:
320,297,118410,2,0,L|456:276,1,125.999996154785,8|0,0:0|3:0,0:0:0:0:
498,200,118894,1,0,3:0:0:0:
410,162,119055,6,0,B|347:104|347:104|391:6,1,188.999994232178,4|0,1:2|0:0,0:0:0:0:
477,45,119700,1,8,0:0:0:0:
261,82,120023,1,0,1:0:0:0:
261,82,120184,2,0,P|184:41|72:35,1,188.999994232178,0|0,1:0|1:0,0:0:0:0:
39,145,120829,2,0,P|92:145|171:114,2,125.999996154785,0|0|0,0:0|0:0|0:0,0:0:0:0:
121,225,121636,6,0,P|156:275|184:347,1,125.999996154785,2|0,1:2|0:0,0:0:0:0:
90,365,122120,1,0,0:0:0:0:
90,365,122281,1,8,0:0:0:0:
286,279,122604,1,0,1:0:0:0:
349,348,122765,2,0,P|411:354|503:368,1,125.999996154785,0|0,1:0|0:0,0:0:0:0:
498,271,123249,1,0,1:0:0:0:
338,169,123571,2,0,B|321:107|321:107|334:44,1,125.999996154785,8|0,0:0|1:0,0:0:0:0:
425,21,124055,1,0,1:0:0:0:
425,21,124216,6,0,B|480:93|480:93|463:200,1,188.999994232178,2|0,1:2|0:0,0:0:0:0:
448,284,124862,1,8,0:0:0:0:
254,374,125184,1,0,1:0:0:0:
217,286,125346,2,0,P|146:245|25:218,1,188.999994232178,0|0,1:0|1:0,0:0:0:0:
175,84,126152,1,8,0:0:0:0:
175,84,126313,2,0,P|144:100|108:108,2,62.9999980773926,0|2|0,0:0|0:3|0:0,0:0:0:0:
255,33,126797,6,0,P|318:42|382:71,1,125.999996154785,2|0,1:2|0:0,0:0:0:0:
331,250,127442,2,0,B|279:287|279:287|259:361,1,125.999996154785,8|0,0:0|1:0,0:0:0:0:
357,376,127926,1,0,1:0:0:0:
357,376,128087,1,0,0:0:0:0:
502,255,128410,2,0,P|473:208|448:123,1,125.999996154785,0|8,1:0|0:0,0:0:0:0:
367,96,128894,2,0,P|373:58|395:31,1,62.9999980773926,0|0,0:0|3:0,0:0:0:0:
291,6,129216,1,0,3:0:0:0:
291,6,129378,6,0,P|250:55|161:95,2,125.999996154785,4|0|8,1:2|0:0|0:0,0:0:0:0:
79,41,130346,1,0,1:0:0:0:
36,124,130507,1,0,1:0:0:0:
36,124,130668,2,0,P|58:174|77:255,1,125.999996154785,0|0,0:0|1:0,0:0:0:0:
27,324,131152,1,0,0:0:0:0:
118,345,131313,1,8,0:0:0:0:
210,367,131475,2,0,L|337:333,1,125.999996154785,0|0,0:0|0:0,0:0:0:0:
424,267,131958,6,0,P|333:215|383:87,1,251.999992309571,2|8,1:2|0:0,0:0:0:0:
180,21,132926,1,0,1:0:0:0:
115,89,133087,2,0,P|152:148|171:287,1,188.999994232178,0|0,1:0|1:0,0:0:0:0:
18,373,133894,1,8,0:0:0:0:
34,172,134216,1,0,1:0:0:0:
74,257,134378,1,0,1:0:0:0:
162,290,134539,6,0,P|215:255|265:201,2,125.999996154785,2|0|8,1:2|0:0|0:0,0:0:0:0:
110,76,135507,1,0,1:0:0:0:
199,106,135668,1,0,1:0:0:0:
383,17,135991,1,0,0:0:0:0:
465,75,136152,2,0,L|417:195,2,125.999996154785,0|8|2,1:0|0:0|0:3,0:0:0:0:
269,162,137120,6,0,L|301:229,1,62.9999980773926,2|0,1:2|0:0,0:0:0:0:
236,291,137442,2,0,L|306:315,1,62.9999980773926,0|0,0:0|0:0,0:0:0:0:
193,367,137765,2,0,L|65:379,1,125.999996154785,8|0,0:0|1:0,0:0:0:0:
19,296,138249,1,0,1:0:0:0:
19,296,138410,2,0,P|40:268|50:233,1,62.9999980773926,0|0,0:0|0:0,0:0:0:0:
58,99,138733,2,0,P|37:127|27:162,1,62.9999980773926,0|0,1:0|0:0,0:0:0:0:
132,217,139055,1,8,0:0:0:0:
225,207,139216,1,0,0:0:0:0:
209,113,139378,1,0,3:0:0:0:
302,103,139539,1,0,3:0:0:0:
300,8,139700,6,0,P|431:33|456:142,1,251.999992309571,4|8,1:2|0:0,0:0:0:0:
306,247,140668,1,0,1:0:0:0:
212,256,140829,1,0,1:0:0:0:
212,256,140991,2,0,B|191:315|191:315|225:374,1,125.999996154785,0|0,0:0|1:0,0:0:0:0:
317,376,141475,2,0,L|382:338,1,62.9999980773926,0|8,0:0|0:0,0:0:0:0:
286,175,141958,1,2,0:3:0:0:
96,176,142281,6,0,L|125:35,2,125.999996154785,2|0|8,1:2|0:0|0:0,0:0:0:0:
18,348,143249,1,0,1:0:0:0:
110,329,143410,1,0,1:0:0:0:
182,268,143571,2,0,P|234:297|304:368,1,125.999996154785,0|0,0:0|1:0,0:0:0:0:
353,277,144055,2,0,P|356:235|368:206,2,62.9999980773926,0|8|0,0:0|0:0|0:0,0:0:0:0:
408,354,144539,1,0,1:0:0:0:
499,333,144700,1,0,1:0:0:0:
505,238,144862,6,0,B|460:56|460:56|399:99,1,251.999992309571,2|8,1:2|0:0,0:0:0:0:
291,242,145829,1,0,1:0:0:0:
223,175,145991,1,0,1:0:0:0:
224,80,146152,2,0,P|233:43|251:20,2,62.9999980773926,0|0|0,0:0|0:0|1:0,0:0:0:0:
14,35,146797,2,0,P|68:79|84:141,1,125.999996154785,8|2,0:0|0:3,0:0:0:0:
22,310,147442,5,2,1:2:0:0:
324,81,148087,1,8,0:3:0:0:
324,81,148249,1,8,0:3:0:0:
324,81,148410,1,8,0:3:0:0:
390,248,148733,2,0,L|460:265,1,62.9999980773926,0|0,3:0|3:0,0:0:0:0:
507,346,149055,1,0,3:0:0:0:
418,378,149216,2,0,L|411:342,2,31.4999990386963,0|0|2,3:0|3:0|3:2,0:0:0:0:
311,360,149539,1,0,3:0:0:0:
205,342,149700,2,0,L|140:329,1,62.9999980773926,0|0,3:0|3:0,0:0:0:0:
53,237,150023,6,0,P|119:240|193:181,1,154.000004699707,4|0,1:2|0:0,0:0:0:0:
163,76,150507,2,0,P|129:61|79:62,1,77.0000023498536,0|8,0:0|0:0,0:0:0:0:
277,241,150991,2,0,P|343:244|417:185,1,154.000004699707,0|0,1:0|0:0,0:0:0:0:
387,80,151475,2,0,P|353:65|303:66,1,77.0000023498536,0|0,0:0|1:0,0:0:0:0:
64,140,151958,2,0,P|98:155|148:154,1,77.0000023498536,8|0,0:0|0:0,0:0:0:0:
229,116,152281,6,0,B|260:255|260:255|196:374|196:374|112:318|112:318|156:246,1,462.000014099122,2|8,0:3|0:0,0:0:0:0:
378,183,153571,1,0,1:0:0:0:
492,193,153733,1,0,1:0:0:0:
483,310,153894,1,0,0:0:0:0:
368,299,154055,1,0,0:0:0:0:
378,183,154216,1,0,1:0:0:0:
155,246,154539,2,0,B|107:182|107:182|127:107,1,154.000004699707,8|0,0:0|1:0,0:0:0:0:
197,39,155023,1,0,1:0:0:0:
274,144,155184,6,0,P|368:138|432:122,1,154.000004699707,2|0,1:2|0:0,0:0:0:0:
498,54,155668,1,0,0:0:0:0:
406,13,155829,2,0,P|312:19|248:35,1,154.000004699707,8|0,0:0|1:0,0:0:0:0:
180,101,156313,1,0,1:0:0:0:
180,101,156475,1,0,0:0:0:0:
37,282,156797,2,0,P|45:226|54:124,2,154.000004699707,0|8|2,1:0|0:0|0:3,0:0:0:0:
253,364,157765,6,0,P|281:336|320:319,2,77.0000023498536,2|0|0,1:2|0:0|0:0,0:0:0:0:
181,293,158249,1,0,0:0:0:0:
137,202,158410,2,0,P|143:163|166:126,2,77.0000023498536,8|0|0,0:0|0:0|1:0,0:0:0:0:
40,230,158894,1,0,1:0:0:0:
11,134,159055,2,0,P|38:57|119:36,1,154.000004699707,0|0,0:0|1:0,0:0:0:0:
332,156,159700,1,8,0:0:0:0:
352,42,159862,1,0,0:0:0:0:
466,62,160023,1,0,3:0:0:0:
445,176,160184,1,0,3:0:0:0:
332,156,160346,5,4,1:2:0:0:
180,330,160668,2,0,P|149:345|101:345,2,77.0000023498536,0|0|8,0:0|0:0|0:0,0:0:0:0:
236,246,161152,1,0,0:0:0:0:
182,161,161313,2,0,P|172:122|171:75,1,77.0000023498536,0|0,1:0|1:0,0:0:0:0:
79,15,161636,2,0,P|68:84|37:169,1,154.000004699707,2|0,0:0|1:0,0:0:0:0:
47,263,162120,2,0,P|136:298|242:388,1,231.000007049561,2|2,0:0|0:3,0:0:0:0:
474,278,162926,5,2,1:2:0:0:
287,204,163249,2,0,P|274:166|277:126,1,77.0000023498536,0|0,0:0|0:0,0:0:0:0:
338,20,163571,1,8,0:0:0:0:
338,20,163733,2,0,P|370:86|443:60,1,154.000004699707,0|0,0:0|1:0,0:0:0:0:
510,174,164216,1,2,0:0:0:0:
510,174,164378,2,0,P|473:176|420:185,1,77.0000023498536,0|0,1:0|1:0,0:0:0:0:
364,254,164700,1,0,0:0:0:0:
275,207,164862,2,0,B|240:266|240:266|262:364,1,154.000004699707,8|0,0:0|1:0,0:0:0:0:
31,239,165507,6,0,P|171:190|191:34,1,308.000009399414,2|8,1:2|0:0,0:0:0:0:
400,155,166475,2,0,P|381:190|369:226,1,77.0000023498536,0|0,1:0|1:0,0:0:0:0:
390,322,166797,2,0,P|460:279|487:201,1,154.000004699707,0|0,0:0|1:0,0:0:0:0:
509,117,167281,2,0,P|496:80|478:46,1,77.0000023498536,0|8,0:0|0:0,0:0:0:0:
280,11,167765,1,2,0:3:0:0:
155,235,168087,6,0,P|100:189|86:94,1,154.000004699707,2|0,1:2|0:0,0:0:0:0:
164,53,168571,1,0,0:0:0:0:
164,53,168733,2,0,P|187:81|181:133,1,77.0000023498536,8|0,0:0|0:0,0:0:0:0:
278,160,169055,2,0,P|277:196|239:232,1,77.0000023498536,0|0,1:0|1:0,0:0:0:0:
269,325,169378,1,2,1:2:0:0:
269,325,169539,2,0,L|352:335,2,77.0000023498536,0|0|0,0:0|0:0|0:0,0:0:0:0:
174,360,170023,2,0,L|8:340,1,154.000004699707,8|0,0:0|3:0,0:0:0:0:
101,260,170507,1,0,3:0:0:0:
27,192,170668,6,0,P|29:116|83:64,1,154.000004699707,4|0,1:2|0:0,0:0:0:0:
165,6,171152,2,0,P|201:26|226:57,1,77.0000023498536,0|8,0:0|0:0,0:0:0:0:
292,277,171636,2,0,P|294:201|348:149,1,154.000004699707,0|0,1:0|0:0,0:0:0:0:
430,91,172120,2,0,P|449:100|465:111,2,38.5000011749268,0|0|0,0:0|0:0|1:0,0:0:0:0:
505,309,172604,1,8,0:0:0:0:
248,361,172926,6,0,B|129:334|129:334|177:109|177:109|69:82,1,462.000014099122,2|8,0:3|0:0,0:0:0:0:
309,15,174216,2,0,P|311:89|331:169,1,154.000004699707,0|0,1:0|0:0,0:0:0:0:
406,239,174700,1,0,0:0:0:0:
406,239,174862,1,0,1:0:0:0:
186,302,175184,2,0,P|265:314|353:336,1,154.000004699707,8|0,0:0|1:0,0:0:0:0:
427,375,175668,1,0,1:0:0:0:
498,261,175829,6,0,B|510:180|510:180|478:102,1,154.000004699707,2|0,1:2|0:0,0:0:0:0:
494,13,176313,2,0,L|407:4,1,77.0000023498536,0|8,0:0|0:0,0:0:0:0:
197,87,176797,1,0,1:0:0:0:
294,67,176958,1,0,1:0:0:0:
262,162,177120,2,0,P|250:235|237:330,2,154.000004699707,0|0|8,0:0|1:0|0:0,0:0:0:0:
68,31,178087,1,2,0:3:0:0:
160,255,178410,6,0,P|117:311|29:282,1,154.000004699707,2|0,1:2|0:0,0:0:0:0:
12,207,178894,1,0,0:0:0:0:
12,207,179055,2,0,P|55:151|143:180,1,154.000004699707,8|0,0:0|1:0,0:0:0:0:
232,184,179539,1,0,1:0:0:0:
232,184,179700,2,0,L|248:101,1,77.0000023498536,0|0,0:0|0:0,0:0:0:0:
337,64,180023,2,0,L|392:127,1,77.0000023498536,0|0,1:0|0:0,0:0:0:0:
426,214,180346,1,8,0:0:0:0:
442,328,180507,1,0,0:0:0:0:
327,345,180668,1,0,3:0:0:0:
312,230,180829,1,0,3:0:0:0:
426,214,180991,6,0,B|506:127|506:127|403:0,1,280,4|8,1:2|0:0,0:0:0:0:
205,69,181958,2,0,L|117:55,1,70,0|0,1:0|1:0,0:0:0:0:
118,162,182281,2,0,L|206:176,2,70,0|0|0,0:0|0:0|1:0,0:0:0:0:
282,334,182926,1,8,0:0:0:0:
76,379,183249,2,0,P|47:350|35:307,1,70,2|0,0:3|0:0,0:0:0:0:
26,219,183571,5,2,0:2:0:0:
26,219,185507,2,0,P|25:181|18:141,2,70,8|8|8,0:0|0:3|0:3,0:0:0:0:
208,322,186152,6,0,P|301:258|420:255,1,210,4|0,1:2|0:0,0:0:0:0:
444,327,186797,2,0,P|441:262|457:175,1,140,8|0,0:0|1:0,0:0:0:0:
433,99,187281,1,0,1:0:0:0:
268,34,187604,1,0,0:0:0:0:
268,34,187765,2,0,P|205:46|123:73,2,140,0|8|2,1:0|0:0|0:3,0:0:0:0:
127,198,188733,6,0,P|22:203|28:108,1,210,2|0,1:2|0:0,0:0:0:0:
108,111,189378,1,8,0:0:0:0:
269,272,189700,1,0,1:0:0:0:
269,272,189862,2,0,P|276:186|290:121,1,140,0|0,1:0|0:0,0:0:0:0:
333,54,190346,1,0,1:0:0:0:
463,180,190668,2,0,P|476:248|480:318,1,140,8|0,0:0|1:0,0:0:0:0:
401,364,191152,1,0,1:0:0:0:
341,295,191313,6,0,P|281:284|265:363,1,140,2|0,1:2|0:0,0:0:0:0:
104,246,191958,2,0,P|44:235|28:314,1,140,8|0,0:0|1:0,0:0:0:0:
94,358,192442,1,0,1:0:0:0:
94,358,192604,1,0,0:0:0:0:
264,243,192926,1,0,1:0:0:0:
147,40,193249,2,0,P|147:114|164:186,1,140,8|2,0:0|0:3,0:0:0:0:
286,346,193894,6,0,P|342:309|420:300,1,140,2|0,1:2|0:0,0:0:0:0:
484,212,194378,1,0,0:0:0:0:
484,212,194539,2,0,P|446:209|407:185,1,70,8|0,0:0|0:0,0:0:0:0:
365,118,194862,1,0,1:0:0:0:
400,36,195023,1,0,1:0:0:0:
400,36,195184,2,0,P|436:22|476:17,2,70,0|0|0,0:0|0:0|1:0,0:0:0:0:
246,134,195829,2,0,P|228:189|216:275,1,140,8|0,3:2|3:2,0:0:0:0:
279,354,196313,1,0,3:2:0:0:
174,368,196475,6,0,P|102:301|-1:261,1,210,4|0,1:2|0:0,0:0:0:0:
47,371,197120,1,8,0:0:0:0:
219,228,197442,1,0,1:0:0:0:
178,147,197604,2,0,L|39:128,1,140,0|0,1:0|0:0,0:0:0:0:
4,45,198087,1,0,1:0:0:0:
182,8,198410,1,8,0:0:0:0:
342,187,198733,5,6,0:0:0:0:
256,192,199055,12,4,201636,0:0:0:0:
222,308,209055,5,4,1:0:0:0:
222,308,210346,1,0,1:0:0:0:
222,308,210507,2,0,P|304:315|368:342,1,140,0|0,1:0|0:0,0:0:0:0:
431,282,210991,2,0,P|418:247|419:200,1,70,0|0,1:0|0:0,0:0:0:0:
354,147,211313,2,0,P|360:110|384:69,1,70,8|0,0:0|0:0,0:0:0:0:
456,37,211636,1,0,3:0:0:0:
456,37,211797,1,0,3:0:0:0:
501,118,211958,5,4,1:2:0:0:
274,28,212281,2,0,P|244:18|188:18,2,77.0000023498536,0|0|8,0:0|0:0|0:0,0:0:0:0:
317,118,212765,1,0,0:0:0:0:
249,191,212926,2,0,P|229:227|226:271,1,77.0000023498536,0|0,1:0|1:0,0:0:0:0:
161,340,213249,2,0,P|117:280|124:184,1,154.000004699707,2|0,0:0|1:0,0:0:0:0:
35,142,213733,2,0,P|116:51|240:46,1,231.000007049561,2|2,0:0|0:3,0:0:0:0:
447,141,214539,5,2,1:2:0:0:
306,319,214862,2,0,P|317:281|320:242,1,77.0000023498536,0|0,0:0|0:0,0:0:0:0:
400,360,215184,1,8,0:0:0:0:
400,360,215346,2,0,P|430:298|499:243,1,154.000004699707,0|0,0:0|1:0,0:0:0:0:
429,170,215829,1,2,0:0:0:0:
429,170,215991,2,0,P|437:131|454:89,1,77.0000023498536,0|0,1:0|1:0,0:0:0:0:
379,25,216313,1,0,0:0:0:0:
325,109,216475,2,0,P|257:130|166:137,1,154.000004699707,8|0,0:0|1:0,0:0:0:0:
75,79,216958,1,0,1:0:0:0:
181,28,217120,6,0,P|326:109|317:249,1,308.000009399414,2|8,1:2|0:0,0:0:0:0:
71,271,218087,2,0,L|150:285,1,77.0000023498536,0|0,1:0|1:0,0:0:0:0:
246,298,218410,1,0,0:0:0:0:
95,122,218733,2,0,L|174:136,1,77.0000023498536,0|0,1:0|0:0,0:0:0:0:
270,149,219056,1,8,0:0:0:0:
383,349,219378,1,2,0:3:0:0:
475,110,219700,6,0,P|411:61|319:87,1,154.000004699707,2|0,1:2|0:0,0:0:0:0:
277,146,220184,1,0,0:0:0:0:
277,146,220346,2,0,L|285:226,1,77.0000023498536,8|0,0:0|0:0,0:0:0:0:
186,240,220668,2,0,L|178:160,1,77.0000023498536,0|0,1:0|1:0,0:0:0:0:
121,87,220991,1,2,1:2:0:0:
121,87,221152,2,0,P|92:58|51:32,2,77.0000023498536,0|0|0,0:0|0:0|0:0,0:0:0:0:
228,21,221636,2,0,P|256:87|274:189,1,154.000004699707,8|0,0:0|3:0,0:0:0:0:
369,252,222120,1,0,3:0:0:0:
277,341,222281,6,0,P|218:290|137:285,1,154.000004699707,4|0,1:2|0:0,0:0:0:0:
38,331,222765,2,0,P|74:357|120:361,1,77.0000023498536,0|8,0:0|0:0,0:0:0:0:
214,92,223249,2,0,P|136:84|67:126,1,154.000004699707,0|0,1:0|0:0,0:0:0:0:
14,202,223733,2,0,B|14:203|34:215|61:205,2,38.5000011749268,0|0|0,0:0|0:0|1:0,0:0:0:0:
224,299,224216,1,8,0:0:0:0:
331,59,224539,6,0,B|377:2|458:20|495:127|453:197|349:223|308:143|264:100|213:100|172:144,1,462.000014099122,2|8,0:3|0:0,0:0:0:0:
23,334,225829,2,0,P|88:302|196:300,1,154.000004699707,0|0,1:0|0:0,0:0:0:0:
248,364,226313,1,0,0:0:0:0:
248,364,226475,1,0,1:0:0:0:
373,172,226797,2,0,B|423:206|423:206|411:305,1,154.000004699707,8|0,0:0|1:0,0:0:0:0:
356,382,227281,1,0,1:0:0:0:
356,382,227442,6,0,P|325:316|293:239,1,154.000004699707,2|0,1:2|0:0,0:0:0:0:
209,186,227926,2,0,P|221:145|242:102,1,77.0000023498536,0|8,0:0|0:0,0:0:0:0:
66,5,228410,1,0,1:0:0:0:
12,89,228571,1,0,1:0:0:0:
18,189,228733,2,0,P|49:270|93:345,2,154.000004699707,0|0|8,0:0|1:0|0:0,0:0:0:0:
210,41,229700,6,0,P|353:67|519:148,1,308.000009399414,4|0,1:2|1:0,0:0:0:0:
448,222,230507,1,0,0:0:0:0:
448,222,230668,2,0,P|417:306|409:371,1,154.000004699707,8|0,0:0|1:0,0:0:0:0:
322,319,231152,1,0,1:0:0:0:
322,319,231313,2,0,P|290:339|249:351,1,77.0000023498536,0|0,0:0|0:0,0:0:0:0:
176,285,231636,2,0,P|139:276|101:256,1,77.0000023498536,0|0,1:0|0:0,0:0:0:0:
79,161,231958,1,8,0:0:0:0:
69,46,232120,1,0,0:0:0:0:
184,36,232281,1,0,3:0:0:0:
194,150,232442,1,0,3:0:0:0:
79,161,232604,6,0,B|-16:271|-16:271|97:359,1,280,4|8,1:2|0:0,0:0:0:0:
225,232,233571,2,0,P|261:239|302:254,1,70,0|0,1:0|1:0,0:0:0:0:
367,175,233894,2,0,P|364:138|368:94,2,70,0|0|0,0:0|0:0|1:0,0:0:0:0:
471,357,234539,1,8,0:0:0:0:
292,249,234862,2,0,P|259:238|225:232,1,70,2|0,0:3|0:0,0:0:0:0:
123,257,235184,5,2,0:2:0:0:
256,192,235507,12,2,237765,0:0:0:0:
