osu file format v14

[General]
AudioFilename: audio.mp3
AudioLeadIn: 0
PreviewTime: 62204
Countdown: 0
SampleSet: Soft
StackLeniency: 0.4
Mode: 0
LetterboxInBreaks: 0
WidescreenStoryboard: 0

[Editor]
DistanceSpacing: 1.2
BeatDivisor: 8
GridSize: 16
TimelineZoom: 1

[Metadata]
Title:Konnanimo
TitleUnicode:こんなにも
Artist:Dream
ArtistUnicode:Dream
Creator:timemon
Version:Desperate Desire
Source:
Tags:dkblaze erisu jpop j-pop pop japanese 26th single nishida shizuka 西田静香 takamoto aya 高本彩 nakashima ami 中島麻未 abe erie 阿部絵里恵 hinsvar Mayuzumi Fuyuko
BeatmapID:2942697
BeatmapSetID:1429419

[Difficulty]
HPDrainRate:6
CircleSize:4.2
OverallDifficulty:8
ApproachRate:9
SliderMultiplier:3.2
SliderTickRate:1

[Events]
//Background and Video events
0,0,"bg.jpg",0,0
//Break Periods
2,98414,107487
2,201836,208455
//Storyboard Layer 0 (Background)
//Storyboard Layer 1 (Fail)
//Storyboard Layer 2 (Pass)
//Storyboard Layer 3 (Foreground)
//Storyboard Layer 4 (Overlay)
//Storyboard Sound Samples

[TimingPoints]
346,645.161290322581,4,2,1,60,1,0
20991,-125,4,2,1,60,0,0
59700,-200,4,2,1,60,0,0
60991,-200,4,2,1,20,0,0
61313,-200,4,2,1,40,0,0
61636,-200,4,2,1,60,0,0
62281,-83.3333333333333,4,2,1,75,0,1
62523,-83.3333333333333,4,2,1,5,0,1
62604,-83.3333333333333,4,2,1,75,0,1
63168,-83.3333333333333,4,2,1,5,0,1
63249,-83.3333333333333,4,2,1,75,0,1
63571,-100,4,2,1,75,0,1
67442,-83.3333333333333,4,2,1,75,0,1
67684,-83.3333333333333,4,2,1,5,0,1
67765,-83.3333333333333,4,2,1,75,0,1
68329,-83.3333333333333,4,2,1,5,0,1
68410,-83.3333333333333,4,2,1,75,0,1
68733,-100,4,2,1,75,0,1
70023,-100,4,2,2,75,0,1
71313,-90.9090909090909,4,2,1,75,0,1
71555,-90.9090909090909,4,2,1,5,0,1
71636,-100,4,2,1,75,0,1
82281,-90.9090909090909,4,2,1,75,0,1
82523,-90.9090909090909,4,2,1,5,0,1
82604,-100,4,2,1,75,0,1
82765,-100,4,2,1,75,0,0
82926,-83.3333333333333,4,2,1,75,0,1
83168,-83.3333333333333,4,2,1,5,0,1
83249,-83.3333333333333,4,2,1,75,0,1
83813,-83.3333333333333,4,2,1,5,0,1
83894,-83.3333333333333,4,2,1,75,0,1
84216,-100,4,2,1,75,0,1
88087,-83.3333333333333,4,2,1,75,0,1
88329,-83.3333333333333,4,2,1,5,0,1
88410,-83.3333333333333,4,2,1,75,0,1
88975,-83.3333333333333,4,2,1,5,0,1
89055,-83.3333333333333,4,2,1,75,0,1
89378,-100,4,2,1,75,0,1
90668,-100,4,2,2,75,0,1
92926,-100,4,2,1,75,0,1
93249,-111.111111111111,4,2,1,75,0,0
95829,-111.111111111111,4,2,1,50,0,0
98410,-111.111111111111,4,2,1,50,0,0
108087,-125,4,2,1,60,0,0
108733,-125,4,2,1,60,0,0
147442,-200,4,2,1,50,0,0
148733,-125,4,2,1,60,0,0
150023,-83.3333333333333,4,2,1,75,0,1
150265,-83.3333333333333,4,2,1,5,0,1
150345,-100,4,2,1,75,0,1
150668,-83.3333333333333,4,2,1,75,0,1
150910,-83.3333333333333,4,2,1,5,0,1
150991,-100,4,2,1,75,0,1
155184,-83.3333333333333,4,2,1,75,0,1
155426,-83.3333333333333,4,2,1,5,0,1
155507,-100,4,2,1,75,0,1
155829,-83.3333333333333,4,2,1,75,0,1
156071,-83.3333333333333,4,2,1,5,0,1
156152,-100,4,2,1,75,0,1
157765,-100,4,2,2,75,0,1
159055,-90.9090909090909,4,2,1,75,0,1
159297,-90.9090909090909,4,2,1,5,0,1
159378,-100,4,2,1,75,0,1
170023,-90.9090909090909,4,2,1,75,0,1
170265,-90.9090909090909,4,2,1,5,0,1
170346,-90.9090909090909,4,2,1,75,0,1
170507,-90.9090909090909,4,2,1,75,0,0
170668,-83.3333333333333,4,2,1,75,0,1
170910,-83.3333333333333,4,2,1,5,0,1
170991,-83.3333333333333,4,2,1,75,0,1
171313,-83.3333333333333,4,2,1,75,0,1
171555,-83.3333333333333,4,2,1,5,0,1
171636,-100,4,2,1,75,0,1
175829,-83.3333333333333,4,2,1,75,0,1
176071,-83.3333333333333,4,2,1,5,0,1
176152,-83.3333333333333,4,2,1,75,0,1
176475,-100,4,2,1,75,0,1
178410,-100,4,2,2,75,0,1
180668,-100,4,2,1,75,0,1
180991,-111.111111111111,4,2,1,75,0,0
183571,-111.111111111111,4,2,1,50,0,0
185507,-125,4,2,1,50,0,0
186152,-111.111111111111,4,2,1,65,0,0
201636,-111.111111111111,4,2,1,50,0,0
209055,-200,4,2,1,60,0,0
210023,-99.9999999999999,4,2,1,60,0,0
210345,-100,4,2,1,60,0,0
211958,-100,4,2,1,75,0,1
219700,-100,4,2,2,75,0,1
220991,-100,4,2,1,75,0,1
221636,-90.9090909090909,4,2,1,75,0,1
221878,-90.9090909090909,4,2,1,5,0,1
221958,-90.9090909090909,4,2,1,75,0,1
222120,-90.9090909090909,4,2,1,75,0,0
222281,-83.3333333333333,4,2,1,75,0,1
222523,-83.3333333333333,4,2,1,5,0,1
222604,-83.3333333333333,4,2,1,75,0,1
223168,-83.3333333333333,4,2,1,5,0,1
223249,-83.3333333333333,4,2,1,75,0,1
223410,-100,4,2,1,75,0,1
227442,-83.3333333333333,4,2,1,75,0,1
227684,-83.3333333333333,4,2,1,5,0,1
227765,-83.3333333333333,4,2,1,75,0,1
228329,-83.3333333333333,4,2,1,5,0,1
228410,-83.3333333333333,4,2,1,75,0,1
228733,-100,4,2,1,75,0,1
229700,-133.333333333333,4,2,1,75,0,1
230345,-100,4,2,2,75,0,1
232281,-100,4,2,1,75,0,1
232604,-111.111111111111,4,2,1,75,0,0
235184,-111.111111111111,4,2,1,50,0,0
237765,-111.111111111111,4,2,1,30,0,0

[Colours]
Combo1 : 235,213,165
Combo2 : 234,149,151
Combo3 : 209,176,223
Combo4 : 236,180,164

[HitObjects]
256,192,20346,5,8,0:0:0:0:
256,192,20991,6,0,P|250:127|310:87,1,128,4|0,1:2|0:0,0:0:0:0:
402,31,21475,1,0,0:0:0:0:
402,31,21636,2,0,P|358:24|323:19,1,64,8|0,0:0|0:0,0:0:0:0:
499,125,21958,1,0,1:0:0:0:
499,125,22120,2,0,P|416:111|351:102,1,128,0|0,1:0|0:0,0:0:0:0:
217,13,22604,2,0,P|276:40|280:112,2,128,0|8|2,1:0|0:0|0:3,0:0:0:0:
94,132,23571,6,0,P|97:207|103:267,1,128,2|0,1:2|0:0,0:0:0:0:
187,303,24055,1,0,0:0:0:0:
57,371,24216,2,0,P|94:347|128:345,1,64,8|0,0:0|0:0,0:0:0:0:
187,303,24539,1,0,1:0:0:0:
35,223,24700,2,0,B|77:237|109:251|109:251|141:228|172:217,1,128,0|0,1:0|0:0,0:0:0:0:
139,140,25184,2,0,P|134:97|126:56,1,64,0|0,1:0|0:0,0:0:0:0:
251,1,25507,2,0,P|245:32|242:64,1,64,8|0,0:0|0:0,0:0:0:0:
308,162,25829,1,0,1:0:0:0:
374,123,25991,1,0,1:0:0:0:
440,161,26152,6,0,P|438:241|431:307,1,128,2|0,1:2|0:0,0:0:0:0:
304,370,26636,1,0,0:0:0:0:
304,370,26797,2,0,P|298:306|297:242,1,128,8|0,0:0|1:0,0:0:0:0:
197,102,27281,2,0,P|252:158|317:135,1,128,0|0,1:0|0:0,0:0:0:0:
343,62,27765,2,0,P|296:68|265:73,1,64,0|0,1:0|0:0,0:0:0:0:
432,88,28087,2,0,P|438:41|443:10,1,64,8|0,0:0|0:0,0:0:0:0:
398,174,28410,2,0,P|445:180|476:185,1,64,2|0,0:3|0:0,0:0:0:0:
330,286,28733,6,0,B|373:268|411:257|411:257|446:270|479:283,2,128,2|0|8,1:2|0:0|0:0,0:0:0:0:
271,127,29700,1,0,1:0:0:0:
200,158,29862,1,0,1:0:0:0:
132,195,30023,2,0,P|87:188|63:185,1,64
0,97,30346,2,0,P|45:90|69:87,1,64,2|0,1:2|0:0,0:0:0:0:
166,86,30668,2,0,P|161:54|156:22,1,64,8|0,0:0|0:0,0:0:0:0:
273,30,30991,1,0,3:2:0:0:
270,44,31152,1,0,3:2:0:0:
436,60,31313,6,0,P|394:106|333:103,1,128,4|0,1:2|0:0,0:0:0:0:
166,86,31797,1,0,0:0:0:0:
166,86,31958,2,0,P|208:40|269:43,1,128,8|0,0:0|1:0,0:0:0:0:
332,102,32442,2,0,P|322:192|319:245,1,128,0|0,1:0|0:0,0:0:0:0:
220,324,32926,2,0,B|264:311|292:302|292:302|318:302|353:320,2,128,0|8|2,1:0|0:0|0:3,0:0:0:0:
220,324,33894,6,0,P|142:317|78:302,1,128,2|0,1:2|0:0,0:0:0:0:
21,212,34378,1,0,0:0:0:0:
21,212,34539,2,0,P|69:218|111:210,1,64,8|0,0:0|0:0,0:0:0:0:
161,143,34862,1,0,1:0:0:0:
93,60,35023,1,0,1:0:0:0:
198,2,35184,2,0,P|188:44|188:79,1,64,0|0,0:0|0:0,0:0:0:0:
295,159,35507,1,0,1:0:0:0:
295,159,35668,2,0,P|292:127|284:96,2,64,0|8|0,0:0|0:0|0:0,0:0:0:0:
418,137,36152,1,0,1:0:0:0:
415,124,36313,1,0,1:0:0:0:
497,251,36475,6,0,P|456:222|369:243,1,128,2|0,1:2|0:0,0:0:0:0:
312,297,36958,1,0,0:0:0:0:
312,297,37120,2,0,P|271:303|236:287,1,64,8|0,0:0|0:0,0:0:0:0:
147,258,37442,1,0,1:0:0:0:
147,258,37604,2,0,P|157:172|163:127,1,128,0|0,1:0|0:0,0:0:0:0:
105,34,38087,2,0,P|142:46|176:47,1,64,0|0,1:0|0:0,0:0:0:0:
309,0,38410,2,0,P|277:2|247:13,1,64,8|0,0:0|0:0,0:0:0:0:
352,93,38733,1,2,0:3:0:0:
425,71,38894,1,0,0:0:0:0:
481,122,39055,6,0,P|506:189|475:247,1,128,2|0,1:2|0:0,0:0:0:0:
426,324,39539,1,0,0:0:0:0:
426,324,39700,2,0,P|387:319|348:312,1,64,8|0,0:0|0:0,0:0:0:0:
255,268,40023,1,0,1:0:0:0:
258,256,40184,1,0,1:0:0:0:
338,214,40346,2,0,P|343:182|347:150,1,64,0|0,0:0|0:0,0:0:0:0:
242,18,40668,2,0,P|245:49|251:81,1,64,0|0,1:2|0:0,0:0:0:0:
155,209,40991,1,10,0:2:0:0:
32,122,41152,1,2,0:2:0:0:
173,52,41313,1,2,3:2:0:0:
120,136,41475,1,2,3:2:0:0:
43,16,41636,5,6,1:2:0:0:
43,16,42281,2,0,P|71:77|46:131,1,128,8|0,0:0|1:0,0:0:0:0:
1,212,42765,1,0,1:0:0:0:
81,265,42926,2,0,B|120:282|142:295|142:295|179:270|210:262,1,128,0|0,0:0|1:0,0:0:0:0:
236,190,43410,2,0,P|237:143|230:116,1,64,0|8,0:0|0:0,0:0:0:0:
314,26,43733,1,0,0:0:0:0:
314,26,43894,2,0,P|309:57|311:89,1,64,2|0,0:3|0:0,0:0:0:0:
377,166,44216,6,0,P|408:142|492:163,2,128,2|0|8,1:2|0:0|0:0,0:0:0:0:
333,243,45184,1,0,1:0:0:0:
330,254,45346,1,0,1:0:0:0:
401,327,45507,2,0,P|450:331|482:308,1,64,0|0,0:0|0:0,0:0:0:0:
299,352,45829,1,0,1:0:0:0:
226,264,45991,1,0,0:0:0:0:
332,181,46152,2,0,P|340:211|333:242,1,64,8|0,0:0|0:0,0:0:0:0:
297,80,46475,1,0,1:0:0:0:
226,48,46636,1,0,1:0:0:0:
154,75,46797,6,0,P|82:90|26:52,1,128,2|0,1:2|0:0,0:0:0:0:
135,196,47281,1,0,0:0:0:0:
135,196,47442,2,0,P|191:169|252:186,1,128,8|0,0:0|1:0,0:0:0:0:
305,250,47926,2,0,P|297:342|292:382,1,128,0|0,1:0|0:0,0:0:0:0:
386,337,48410,2,0,P|382:296|383:264,1,64,0|0,1:0|0:0,0:0:0:0:
405,186,48733,2,0,P|446:182|478:183,1,64,8|0,0:0|0:0,0:0:0:0:
474,84,49055,2,0,P|433:80|401:81,1,64,2|0,0:3|0:0,0:0:0:0:
282,47,49378,5,2,1:2:0:0:
148,4,49539,1,0,0:0:0:0:
182,160,49700,2,0,P|177:111|167:81,1,64
378,11,50023,2,0,P|370:42|369:74,1,64,10|0,0:0|0:0,0:0:0:0:
379,166,50346,1,0,1:0:0:0:
469,79,50507,1,0,1:0:0:0:
384,258,50668,6,0,P|340:249|304:241,1,64,2|0,0:0|0:0,0:0:0:0:
439,374,50991,2,0,P|483:365|519:357,1,64,0|0,1:2|0:0,0:0:0:0:
480,243,51313,1,10,0:2:0:0:
379,166,51475,1,2,0:2:0:0:
469,79,51636,1,2,3:2:0:0:
300,4,51797,1,2,3:2:0:0:
384,74,51958,5,6,1:2:0:0:
384,74,52604,2,0,P|375:154|371:218,1,128,8|0,0:0|1:0,0:0:0:0:
456,296,53087,1,0,1:0:0:0:
456,296,53249,2,0,P|397:286|367:285,1,64,0|0,0:0|0:0,0:0:0:0:
276,375,53571,2,0,P|335:365|365:364,1,64,0|0,1:0|0:0,0:0:0:0:
203,308,53894,2,0,P|207:244|215:180,1,128,8|2,0:0|0:3,0:0:0:0:
24,46,54539,6,0,P|36:92|117:90,1,128,2|0,1:2|0:0,0:0:0:0:
184,11,55023,1,0,0:0:0:0:
184,11,55184,2,0,P|133:12|100:4,1,64,8|0,0:0|0:0,0:0:0:0:
247,128,55507,1,0,1:0:0:0:
313,15,55668,1,0,1:0:0:0:
401,89,55829,6,0,P|456:96|511:42,1,128,0|0,0:0|1:0,0:0:0:0:
247,128,56313,1,0,0:0:0:0:
313,15,56475,2,0,P|321:58|324:89,1,64,8|0,0:0|0:0,0:0:0:0:
427,205,56797,1,0,1:0:0:0:
427,205,56958,1,0,1:0:0:0:
427,205,57120,2,0,B|355:178|355:178|288:204,2,128,2|0|8,1:2|0:0|0:0,0:0:0:0:
137,341,58087,1,0,1:0:0:0:
133,332,58249,1,0,1:0:0:0:
95,235,58410,6,0,P|140:244|185:240,1,64,0|0,0:0|0:0,0:0:0:0:
235,114,58733,2,0,P|227:145|226:176,1,64,0|0,1:0|0:0,0:0:0:0:
356,254,59055,2,0,P|324:246|293:245,1,64,8|0,0:0|0:0,0:0:0:0:
217,381,59378,2,0,P|224:349|225:318,1,64,2|0,0:3|0:0,0:0:0:0:
235,114,59700,6,0,B|238:200|303:249|303:249|222:208|183:192|137:221,1,320,4|0,1:2|0:2,0:2:0:0:
149,214,61313,1,2,0:0:0:0:
299,339,61636,1,0,1:2:0:0:
279,111,61958,5,0,3:0:0:0:
276,99,62120,1,0,3:0:0:0:
150,215,62281,6,0,B|234:186|234:186|311:210,1,143.999995605469,4|0,1:2|0:2,0:2:0:0:
286,202,62604,1,2,0:2:0:0:
178,119,62765,1,2,0:2:0:0:
162,351,62926,2,0,B|133:267|133:267|157:190,1,143.999995605469,10|0,0:2|0:2,0:2:0:0:
149,214,63249,1,2,1:2:0:0:
52,326,63410,1,2,1:2:0:0:
241,281,63571,5,2,0:0:0:0:
58,173,63733,1,2,0:0:0:0:
256,131,63894,2,0,P|217:121|178:119,1,80,2|0,1:2|0:0,0:0:0:0:
241,281,64216,2,0,B|330:315|316:234|393:263,1,160,10|2,0:0|0:3,0:0:0:0:
391,262,64862,6,0,P|354:318|434:381,1,160,2|0,1:2|0:0,0:0:0:0:
510,211,65346,1,0,0:0:0:0:
510,211,65507,2,0,P|452:199|422:186,1,80,8|0,0:0|0:0,0:0:0:0:
321,152,65829,1,0,1:2:0:0:
444,89,65991,1,0,1:0:0:0:
277,11,66152,6,0,P|327:42|365:34,1,80
342,224,66475,2,0,P|333:165|303:141,1,80,0|0,1:2|0:0,0:0:0:0:
136,123,66797,2,0,P|194:114|218:84,1,80,8|0,0:0|0:0,0:0:0:0:
33,65,67120,1,0,1:2:0:0:
37,51,67281,1,0,1:0:0:0:
49,280,67442,6,0,B|40:227|40:227|53:190|53:190|44:139,1,143.999995605469,2|0,1:2|0:2,0:2:0:0:
33,65,67765,1,2,0:2:0:0:
187,199,67926,1,2,0:2:0:0:
134,103,68087,2,0,B|187:94|187:94|224:107|224:107|275:98,1,143.999995605469,10|0,0:2|0:2,0:2:0:0:
349,86,68410,1,2,1:2:0:0:
246,7,68571,1,0,1:2:0:0:
435,128,68733,6,0,P|433:87|417:31,1,80,2|0,0:0|0:0,0:0:0:0:
313,240,69055,2,0,P|354:238|410:222,1,80,2|0,1:2|0:0,0:0:0:0:
489,373,69378,2,0,P|450:363|410:362,1,80,10|0,0:0|0:0,0:0:0:0:
227,267,69700,2,0,P|217:305|216:345,1,80,2|0,0:3|0:0,0:0:0:0:
313,240,70023,5,2,1:2:0:0:
155,150,70184,1,0,3:2:0:0:
336,50,70346,1,0,3:2:0:0:
256,157,70507,1,0,3:2:0:0:
170,5,70668,1,10,3:2:0:0:
259,76,70829,1,0,3:0:0:0:
61,130,70991,1,0,1:0:0:0:
87,26,71152,1,0,1:0:0:0:
70,229,71313,6,0,P|125:194|205:214,1,132.00000402832,0|0,0:0|0:0,0:0:0:0:
239,255,71636,2,0,P|231:324|233:363,1,80,0|0,1:0|0:0,0:0:0:0:
373,224,71958,2,0,P|371:184|365:144,1,80,8|0,0:0|0:0,0:0:0:0:
300,23,72281,1,0,3:0:0:0:
233,130,72442,1,0,3:0:0:0:
455,109,72604,5,6,1:2:0:0:
455,109,72926,2,0,P|409:100|354:94,1,80,0|0,0:0|0:0,0:0:0:0:
294,237,73249,2,0,P|340:228|395:222,1,80,8|0,0:0|0:0,0:0:0:0:
466,286,73571,1,0,1:0:0:0:
381,383,73733,1,0,1:0:0:0:
255,313,73894,6,0,B|177:270|191:351|97:313,1,160,0|0,0:0|1:0,0:0:0:0:
35,198,74378,1,0,0:0:0:0:
35,198,74539,2,0,P|77:215|130:200,1,80,8|0,0:0|0:0,0:0:0:0:
171,129,74862,2,0,P|188:87|173:34,1,80,2|0,0:3|0:0,0:0:0:0:
224,223,75184,6,0,P|302:212|376:241,1,160,2|0,1:2|0:0,0:0:0:0:
431,339,75668,1,0,0:0:0:0:
505,174,75829,2,0,P|499:236|498:283,1,80,8|0,0:0|0:0,0:0:0:0:
512,71,76152,1,0,1:0:0:0:
358,166,76313,1,0,1:0:0:0:
355,2,76475,6,0,P|428:47|399:123,1,160,0|0,0:0|1:0,0:0:0:0:
249,36,76958,1,0,0:0:0:0:
274,226,77120,2,0,P|272:168|267:134,1,80,8|0,0:0|0:0,0:0:0:0:
133,32,77442,1,0,1:0:0:0:
130,44,77604,1,0,1:0:0:0:
15,116,77765,6,0,B|104:90|82:160|174:121,2,160,2|0|8,1:2|0:0|0:0,0:0:0:0:
363,297,78733,1,0,1:0:0:0:
458,162,78894,1,0,1:0:0:0:
300,182,79055,2,0,P|337:205|388:203,1,80
458,162,79378,1,0,1:0:0:0:
360,84,79539,1,0,0:0:0:0:
471,0,79700,2,0,P|487:35|485:75,1,80,8|0,0:0|0:0,0:0:0:0:
360,84,80023,2,0,P|315:79|278:70,1,80,2|0,0:3|0:0,0:0:0:0:
117,24,80346,6,0,P|155:15|195:10,2,80,2|0|0,1:2|0:0|0:0,0:0:0:0:
33,99,80829,1,0,0:0:0:0:
145,205,80991,2,0,P|140:165|131:126,1,80,8|0,0:0|0:0,0:0:0:0:
52,314,81313,1,0,1:0:0:0:
145,205,81475,1,0,1:0:0:0:
281,283,81636,6,0,B|230:309|200:347|200:347|159:317|137:302,1,160,2|0,1:2|0:0,0:0:0:0:
145,205,82120,1,0,0:0:0:0:
9,108,82281,2,0,P|58:120|109:97,1,88.000002685547,8|0,0:0|0:0,0:0:0:0:
180,27,82604,1,0,3:0:0:0:
186,15,82765,1,0,3:0:0:0:
251,155,82926,6,0,P|327:148|416:146,1,143.999995605469,4|0,1:2|0:0,0:0:0:0:
466,142,83249,1,2,0:0:0:0:
363,253,83410,1,2,0:0:0:0:
511,368,83571,2,0,P|435:361|346:359,1,143.999995605469,10|0,0:0|0:0,0:0:0:0:
295,353,83894,1,2,1:2:0:0:
453,253,84055,1,0,1:0:0:0:
281,185,84216,6,0,P|236:161|194:170,1,80,2|0,0:0|0:0,0:0:0:0:
295,353,84539,2,0,P|338:326|351:285,1,80,2|0,1:2|0:0,0:0:0:0:
108,343,84862,2,0,P|106:294|108:244,1,80,10|0,0:0|0:0,0:0:0:0:
281,185,85184,2,0,P|281:224|279:264,1,80,2|0,0:3|0:0,0:0:0:0:
179,86,85507,6,0,B|225:69|266:50|266:50|303:80|343:94,1,160,2|0,1:2|0:0,0:0:0:0:
396,154,85991,1,0,0:0:0:0:
396,154,86152,2,0,P|453:154|485:126,1,80,8|0,0:0|0:0,0:0:0:0:
405,22,86475,1,0,1:0:0:0:
405,22,86636,1,0,1:0:0:0:
284,83,86797,6,0,P|289:140|297:185,1,80
435,231,87120,2,0,P|432:270|426:310,1,80,0|0,1:0|0:0,0:0:0:0:
220,246,87442,2,0,P|259:248|299:254,1,80,8|0,0:0|0:0,0:0:0:0:
414,147,87765,1,0,1:0:0:0:
284,83,87926,1,0,1:0:0:0:
477,3,88087,6,0,P|447:65|377:53,1,143.999995605469,2|0,1:2|0:0,0:0:0:0:
325,10,88410,1,2,0:0:0:0:
414,147,88571,1,2,0:0:0:0:
207,104,88733,2,0,P|275:98|300:165,1,143.999995605469,10|0,0:0|0:0,0:0:0:0:
272,226,89055,1,2,1:2:0:0:
414,147,89216,1,2,1:2:0:0:
401,311,89378,6,0,P|337:299|305:288,1,80,2|0,0:0|0:0,0:0:0:0:
119,364,89700,2,0,P|183:352|215:341,1,80,2|0,1:2|0:0,0:0:0:0:
124,218,90023,2,0,P|113:179|107:139,1,80,10|0,0:0|0:0,0:0:0:0:
263,28,90346,2,0,P|257:67|246:106,1,80,2|0,0:3|0:0,0:0:0:0:
134,24,90668,5,2,1:2:0:0:
228,197,90829,1,0,3:2:0:0:
353,100,90991,1,0,3:2:0:0:
146,128,91152,1,0,3:2:0:0:
263,28,91313,2,0,P|257:67|246:106,1,80,8|0,3:2|3:2,2:2:0:0:
106,241,91636,1,0,1:2:0:0:
49,138,91797,1,0,1:2:0:0:
216,300,91958,5,2,3:2:0:0:
55,361,92120,1,2,3:2:0:0:
106,241,92281,2,2,P|64:253|18:247,1,80,2|2,1:2|3:2,0:2:0:0:
169,127,92604,2,2,P|208:124|246:136,1,80,10|2,3:2|3:2,0:2:0:0:
52,39,92926,1,2,3:2:0:0:
58,28,93087,1,2,3:2:0:0:
246,136,93249,6,0,P|176:138|129:87,2,143.999995605469,4|0|8,1:2|0:0|0:0,0:0:0:0:
398,115,94216,1,0,1:0:0:0:
478,146,94378,1,0,1:0:0:0:
471,60,94539,2,0,B|431:36|396:16|396:16|368:34|323:50,2,143.999995605469,0|0|8,0:0|1:0|0:0,0:0:0:0:
287,243,95507,1,2,0:3:0:0:
356,280,95668,1,0,0:0:0:0:
425,242,95829,5,2,0:2:0:0:
256,192,108087,5,8,0:0:0:0:
77,299,108733,6,0,P|138:260|206:284,1,128,4|0,1:2|0:0,0:0:0:0:
336,274,109216,1,0,0:0:0:0:
336,274,109378,2,0,P|271:240|258:169,1,128,8|0,0:0|1:0,0:0:0:0:
189,71,109862,2,0,P|250:110|318:86,1,128,0|0,1:0|0:0,0:0:0:0:
359,25,110346,1,0,1:0:0:0:
359,25,110507,2,0,P|401:30|440:31,1,64,0|8,0:0|0:0,0:0:0:0:
509,119,110829,2,0,P|477:120|445:124,1,64,0|2,0:0|0:3,0:0:0:0:
445,124,111313,6,0,P|452:201|453:273,1,128,2|0,1:2|0:0,0:0:0:0:
366,357,111797,1,0,0:0:0:0:
274,217,111958,2,0,P|313:272|380:257,1,128,8|0,0:0|1:0,0:0:0:0:
457,211,112442,2,0,P|389:217|369:282,1,128,0|0,1:0|0:0,0:0:0:0:
394,361,112926,1,0,1:0:0:0:
399,351,113087,1,0,0:0:0:0:
295,312,113249,2,0,P|257:321|224:327,1,64,8|0,0:0|0:0,0:0:0:0:
171,250,113571,1,0,1:0:0:0:
126,187,113733,1,0,1:0:0:0:
175,127,113894,6,0,P|189:45|204:-20,1,128,2|0,1:2|0:0,0:0:0:0:
281,33,114378,1,0,0:0:0:0:
281,33,114539,2,0,P|267:115|252:180,1,128,8|0,0:0|1:0,0:0:0:0:
295,253,115023,2,0,P|369:211|426:231,1,128,0|0,1:0|0:0,0:0:0:0:
465,294,115507,2,0,P|460:329|459:361,1,64,0|0,1:0|0:0,0:0:0:0:
500,212,115829,2,0,P|498:180|493:148,1,64,8|0,0:0|0:0,0:0:0:0:
381,49,116152,1,2,0:3:0:0:
381,49,116475,6,0,B|417:65|444:83|444:83|482:65|516:60,2,128,2|0|8,1:2|0:0|0:0,0:0:0:0:
168,33,117442,1,0,1:0:0:0:
241,9,117604,1,0,1:0:0:0:
295,62,117765,2,0,P|289:115|288:149,1,64,0|0,0:0|0:0,0:0:0:0:
190,183,118087,2,0,P|186:135|181:94,1,64,2|0,1:2|0:0,0:0:0:0:
189,301,118410,2,0,P|241:253|315:263,1,128,8|0,0:0|3:0,0:0:0:0:
295,253,118894,1,0,3:0:0:0:
465,212,119055,6,0,P|402:208|358:164,1,128,4|0,1:2|0:0,0:0:0:0:
312,58,119539,1,0,0:0:0:0:
312,58,119700,2,0,P|353:68|403:72,1,64,8|0,0:0|0:0,0:0:0:0:
223,16,120023,1,0,1:0:0:0:
223,16,120184,2,0,P|159:23|97:38,1,128,0|0,1:0|0:0,0:0:0:0:
62,131,120668,2,0,P|19:119|4:95,1,64,0|0,1:0|0:0,0:0:0:0:
144,198,120991,2,0,P|175:166|204:165,1,64,8|0,0:0|0:0,0:0:0:0:
273,212,121313,1,2,0:3:0:0:
205,304,121475,1,0,0:0:0:0:
205,304,121636,6,0,B|161:320|148:328|148:328|106:313|64:306,1,128,2|0,1:2|0:0,0:0:0:0:
26,234,122120,1,0,0:0:0:0:
119,361,122281,2,0,P|111:271|100:224,1,128,8|0,0:0|1:0,0:0:0:0:
97,146,122765,2,0,P|93:114|85:83,1,64,0|0,1:0|0:0,0:0:0:0:
201,22,123087,1,0,0:0:0:0:
201,22,123249,2,0,P|190:69|190:104,1,64,0|0,1:0|0:0,0:0:0:0:
311,132,123571,2,0,P|307:100|299:69,1,64,8|0,0:0|0:0,0:0:0:0:
407,51,123894,1,0,1:0:0:0:
403,41,124055,1,0,1:0:0:0:
361,143,124216,6,0,P|368:236|371:293,1,128,2|0,1:2|0:0,0:0:0:0:
421,349,124700,1,0,0:0:0:0:
262,291,124862,2,0,P|263:259|266:227,1,64,8|0,0:0|0:0,0:0:0:0:
240,107,125184,1,0,1:0:0:0:
240,107,125346,2,0,B|287:148|287:148|353:125,1,128,0|0,1:0|0:0,0:0:0:0:
420,70,125829,2,0,B|373:29|373:29|307:52,1,128,0|8,1:0|0:0,0:0:0:0:
240,107,126313,1,0,0:0:0:0:
184,7,126475,1,2,0:3:0:0:
99,77,126636,1,0,0:0:0:0:
206,178,126797,6,0,P|270:181|319:117,1,128,2|0,1:2|0:0,0:0:0:0:
212,78,127281,1,0,0:0:0:0:
212,78,127442,2,0,P|158:68|132:67,1,64,8|0,0:0|0:0,0:0:0:0:
46,132,127765,1,0,1:0:0:0:
46,132,127926,1,0,1:0:0:0:
129,198,128087,2,0,P|125:229|118:260,1,64,0|0,0:0|0:0,0:0:0:0:
39,357,128410,2,2,P|31:325|28:294,1,64,2|0,1:2|0:2,0:2:0:0:
129,198,128733,1,10,0:2:0:0:
9,109,128894,1,2,0:2:0:0:
165,44,129055,1,2,3:2:0:0:
95,119,129216,1,2,3:2:0:0:
264,79,129378,5,6,1:2:0:0:
264,79,130023,2,0,P|258:170|254:225,1,128,8|0,0:0|1:0,0:0:0:0:
174,278,130507,1,0,1:0:0:0:
174,278,130668,2,0,B|244:256|218:321|316:293,1,128,0|0,0:0|1:0,0:0:0:0:
388,249,131152,2,0,P|383:305|386:343,1,64,0|8,0:0|0:0,0:0:0:0:
437,174,131475,2,0,P|436:142|432:110,1,64,0|2,0:0|0:3,0:0:0:0:
371,32,131797,1,0,0:0:0:0:
254,32,131958,6,0,P|321:54|378:23,1,128,2|0,1:2|0:0,0:0:0:0:
370,31,132442,1,0,0:0:0:0:
277,141,132604,2,0,P|218:117|160:140,1,128,8|0,0:0|1:0,0:0:0:0:
101,223,133087,1,0,1:0:0:0:
101,223,133249,2,0,P|97:320|94:376,1,128,0|0,0:0|1:0,0:0:0:0:
236,245,133733,1,0,0:0:0:0:
189,341,133894,2,0,P|246:331|274:331,1,64,8|0,0:0|0:0,0:0:0:0:
387,324,134216,1,0,1:0:0:0:
328,237,134378,1,0,1:0:0:0:
469,125,134539,6,0,P|397:172|356:145,2,128,2|0|8,1:2|0:0|0:0,0:0:0:0:
308,0,135507,1,0,1:0:0:0:
308,0,135668,2,0,P|267:45|285:104,1,128,0|0,1:0|0:0,0:0:0:0:
263,188,136152,2,0,P|223:183|190:181,1,64,0|0,1:0|0:0,0:0:0:0:
350,291,136475,2,0,P|354:259|356:227,1,64,8|0,0:0|0:0,0:0:0:0:
241,309,136797,2,0,P|243:340|247:372,1,64,2|0,0:3|0:0,0:0:0:0:
132,270,137120,5,2,1:2:0:0:
199,181,137281,1,0,0:0:0:0:
56,110,137442,2,0,P|92:108|121:93,1,64,0|0,0:0|0:0,0:0:0:0:
239,27,137765,2,0,P|209:14|178:13,1,64,10|0,0:0|0:0,0:0:0:0:
286,122,138087,1,0,1:0:0:0:
289,112,138249,1,0,1:0:0:0:
374,3,138410,6,0,P|370:50|366:84,1,64,2|0,0:0|0:0,0:0:0:0:
465,187,138733,2,0,P|468:155|470:123,1,64,0|0,1:0|0:0,0:0:0:0:
347,212,139055,1,10,0:0:0:0:
488,310,139216,1,2,0:2:0:0:
329,374,139378,1,2,3:2:0:0:
395,292,139539,1,2,3:2:0:0:
206,331,139700,5,6,1:2:0:0:
206,331,140346,2,0,P|158:323|121:324,1,64,8|0,0:0|0:0,0:0:0:0:
62,246,140668,1,0,1:0:0:0:
62,246,140829,1,0,1:0:0:0:
159,239,140991,2,0,P|166:167|116:138,1,128,0|0,0:0|1:0,0:0:0:0:
53,57,141475,1,0,0:0:0:0:
53,57,141636,2,0,P|91:62|136:54,1,64,8|0,0:0|0:0,0:0:0:0:
256,3,141958,2,0,P|224:0|192:5,1,64,2|0,0:3|0:0,0:0:0:0:
271,110,142281,6,0,B|312:118|350:128|350:128|374:105|391:68,2,128,2|0|8,1:2|0:0|0:0,0:0:0:0:
99,169,143249,1,0,1:0:0:0:
146,229,143410,1,0,1:0:0:0:
110,297,143571,2,0,P|67:308|-9:258,1,128,0|0,0:0|1:0,0:0:0:0:
202,366,144055,1,0,0:0:0:0:
227,213,144216,2,0,P|219:274|215:304,1,64,8|0,0:0|0:0,0:0:0:0:
363,324,144539,1,0,1:0:0:0:
363,324,144700,1,0,1:0:0:0:
363,324,144862,6,0,P|359:231|354:187,1,128,2|0,1:2|0:0,0:0:0:0:
338,91,145346,1,0,0:0:0:0:
338,91,145507,2,0,P|382:98|425:95,1,64,8|0,0:0|0:0,0:0:0:0:
264,21,145829,1,0,1:0:0:0:
216,125,145991,1,0,1:0:0:0:
76,18,146152,6,0,P|119:30|157:22,1,64,0|0,0:0|0:0,0:0:0:0:
277,135,146475,2,0,P|234:123|196:131,1,64,0|0,1:0|0:0,0:0:0:0:
20,229,146797,2,0,P|32:186|24:148,1,64,8|0,0:0|0:0,0:0:0:0:
137,28,147120,2,0,P|125:71|133:109,1,64,2|0,0:3|0:0,0:0:0:0:
218,209,147442,6,0,B|306:183|281:254|374:220,1,160,2|8,1:2|0:3,0:0:0:0:
438,168,148249,1,8,0:3:0:0:
438,168,148410,1,8,0:3:0:0:
220,61,148733,5,0,3:0:0:0:
321,193,148894,1,0,3:0:0:0:
406,40,149055,1,0,3:0:0:0:
293,116,149216,1,0,3:0:0:0:
293,116,149297,1,0,3:0:0:0:
293,116,149378,1,2,3:2:0:0:
433,226,149539,1,0,3:0:0:0:
247,276,149700,1,0,3:0:0:0:
370,380,149862,1,0,3:0:0:0:
433,226,150023,6,0,P|372:229|345:318,1,143.999995605469,4|0,1:2|0:0,0:0:0:0:
364,370,150346,1,2,0:0:0:0:
501,298,150507,1,2,0:0:0:0:
324,180,150668,2,0,P|357:231|447:210,1,143.999995605469,10|0,0:0|0:0,0:0:0:0:
484,170,150991,1,2,1:2:0:0:
313,75,151152,1,2,1:2:0:0:
444,10,151313,5,2,0:0:0:0:
324,180,151475,1,2,0:0:0:0:
203,9,151636,2,0,P|208:72|215:108,1,80,2|0,1:2|0:0,0:0:0:0:
316,259,151958,2,0,P|321:219|323:179,1,80,10|0,0:0|0:0,0:0:0:0:
94,175,152281,2,0,P|133:177|173:182,1,80,2|0,0:3|0:0,0:0:0:0:
53,291,152604,6,0,P|113:263|201:305,1,160,2|0,1:2|0:0,0:0:0:0:
338,330,153087,1,0,0:0:0:0:
338,330,153249,2,0,P|303:356|246:352,1,80,8|0,0:0|0:0,0:0:0:0:
322,218,153571,1,0,1:0:0:0:
464,303,153733,1,0,1:0:0:0:
416,194,153894,6,0,P|424:142|430:109,1,80,0|0,0:0|0:0,0:0:0:0:
276,16,154216,2,0,P|282:55|288:94,1,80,0|0,1:0|0:0,0:0:0:0:
492,27,154539,2,0,P|452:20|413:14,1,80,8|0,0:0|0:0,0:0:0:0:
288,94,154862,1,0,1:0:0:0:
291,106,155023,1,0,1:0:0:0:
301,317,155184,6,0,B|290:259|290:259|307:230|307:230|300:179,1,143.999995605469,2|0,1:2|0:0,0:0:0:0:
291,106,155507,1,2,0:0:0:0:
397,239,155668,1,2,0:0:0:0:
219,210,155829,2,0,B|168:216|168:216|139:199|139:199|81:210,1,143.999995605469,10|0,0:0|0:0,0:0:0:0:
10,224,156152,1,2,1:2:0:0:
159,303,156313,1,2,1:2:0:0:
41,109,156475,6,0,P|87:130|141:117,1,80,2|0,0:0|0:0,0:0:0:0:
267,0,156797,2,0,P|225:29|210:82,1,80,2|0,1:2|0:0,0:0:0:0:
248,250,157120,2,0,P|243:199|204:159,1,80,10|0,0:0|0:0,0:0:0:0:
107,315,157442,2,0,P|153:336|207:322,1,80,2|0,0:3|0:0,0:0:0:0:
400,178,157765,5,2,1:2:0:0:
248,250,157926,1,0,3:2:0:0:
395,357,158087,1,0,3:2:0:0:
343,256,158249,1,0,3:2:0:0:
504,198,158410,1,10,3:2:0:0:
312,63,158571,1,0,3:2:0:0:
400,178,158733,1,0,1:2:0:0:
463,73,158894,1,0,1:2:0:0:
258,258,159055,6,0,B|299:267|340:290|340:290|374:264|408:262,1,132.00000402832,0|0,0:0|0:0,0:0:0:0:
429,218,159378,2,0,P|491:221|523:233,1,80,0|0,1:0|0:0,0:0:0:0:
309,83,159700,2,0,P|247:86|215:98,1,80,8|0,0:0|0:0,0:0:0:0:
132,186,160023,1,0,3:0:0:0:
129,175,160184,1,0,3:0:0:0:
9,258,160346,6,0,B|92:234|68:309|169:277,1,160,4|0,1:2|0:0,0:0:0:0:
270,231,160829,1,0,0:0:0:0:
337,347,160991,1,8,0:0:0:0:
405,249,161152,2,0,P|402:198|398:166,1,80,0|0,0:0|1:0,0:0:0:0:
470,30,161475,1,0,1:0:0:0:
470,30,161636,6,0,P|416:84|338:66,1,160,0|0,0:0|1:0,0:0:0:0:
215,4,162120,1,0,0:0:0:0:
215,4,162281,2,0,P|221:65|226:105,1,80,8|0,0:0|0:0,0:0:0:0:
91,193,162604,2,0,P|95:153|99:113,1,80,2|0,0:3|0:0,0:0:0:0:
33,9,162926,5,2,1:2:0:0:
33,9,163249,2,0,P|73:37|126:22,2,80,0|0|8,0:0|0:0|0:0,0:0:0:0:
178,9,163733,1,0,0:0:0:0:
102,149,163894,1,0,1:0:0:0:
308,111,164055,1,0,1:0:0:0:
308,111,164216,6,0,B|242:75|242:75|160:93,1,160,0|0,0:0|1:0,0:0:0:0:
112,226,164700,1,0,0:0:0:0:
112,226,164862,2,0,P|116:282|123:323,1,80,8|0,0:0|0:0,0:0:0:0:
222,244,165184,1,0,1:0:0:0:
333,333,165346,1,0,1:0:0:0:
453,198,165507,6,0,B|385:164|376:253|288:199,2,160,2|0|8,1:2|0:0|0:0,0:0:0:0:
395,46,166475,1,0,1:0:0:0:
395,46,166636,1,0,1:0:0:0:
312,97,166797,2,0,P|272:91|229:73,1,80,0|0,0:0|0:0,0:0:0:0:
189,167,167120,1,0,1:0:0:0:
189,167,167281,1,0,0:0:0:0:
136,11,167442,2,0,P|121:48|115:87,1,80,8|0,0:0|0:0,0:0:0:0:
41,252,167765,2,0,P|35:212|20:175,1,80,2|0,0:3|0:0,0:0:0:0:
153,276,168087,6,0,B|200:288|242:299|242:299|269:266|303:240,1,160,2|0,1:2|0:0,0:0:0:0:
414,108,168571,1,0,0:0:0:0:
239,139,168733,2,0,P|301:156|348:158,1,80,8|0,0:0|0:0,0:0:0:0:
275,16,169055,1,0,1:0:0:0:
133,97,169216,1,0,1:0:0:0:
12,22,169378,6,0,P|22:140|31:195,1,160,2|0,1:2|0:0,0:0:0:0:
164,228,169862,1,0,0:0:0:0:
0,280,170023,2,0,P|48:292|106:263,1,88.000002685547,8|0,0:0|0:0,0:0:0:0:
207,304,170346,1,0,3:0:0:0:
28,181,170507,1,0,3:0:0:0:
179,59,170668,6,0,P|236:111|316:65,1,143.999995605469,4|0,1:2|0:0,0:0:0:0:
346,44,170991,1,2,0:0:0:0:
249,202,171152,1,2,0:0:0:0:
63,22,171313,2,0,P|130:8|178:58,1,143.999995605469,10|0,0:2|0:0,0:0:0:0:
193,136,171636,1,2,1:2:0:0:
267,7,171797,1,2,1:2:0:0:
24,110,171958,6,0,P|62:120|101:116,1,80,2|0,0:0|0:0,0:0:0:0:
231,244,172281,2,0,P|192:240|154:251,1,80,2|0,1:2|0:0,0:0:0:0:
388,346,172604,2,0,P|383:220|373:151,1,160,8|2,0:0|0:3,0:0:0:0:
378,186,173249,6,0,P|310:199|255:134,1,160,2|0,1:2|0:0,0:0:0:0:
236,27,173733,1,0,0:0:0:0:
236,27,173894,2,0,P|291:42|346:32,1,80,8|0,0:0|0:0,0:0:0:0:
158,115,174216,1,0,1:0:0:0:
91,13,174378,1,0,1:0:0:0:
14,112,174539,6,0,P|23:183|26:204,1,80,0|0,0:0|0:0,0:0:0:0:
156,317,174862,2,0,P|161:277|166:237,1,80,0|0,1:0|0:0,0:0:0:0:
0,359,175184,2,0,P|39:363|79:369,1,80,8|0,0:0|0:0,0:0:0:0:
166,237,175507,1,0,1:0:0:0:
170,224,175668,1,0,1:0:0:0:
57,99,175829,6,0,B|77:148|85:194|85:194|98:170|118:149,1,143.999995605469,2|0,1:2|0:0,0:0:0:0:
159,105,176152,1,2,0:0:0:0:
44,280,176313,1,2,0:0:0:0:
248,238,176475,2,0,P|175:224|137:223,1,80,10|0,0:0|0:0,0:0:0:0:
231,328,176797,1,2,1:2:0:0:
345,238,176958,1,2,1:2:0:0:
271,73,177120,6,0,P|257:146|256:184,1,80,2|0,0:0|0:0,0:0:0:0:
400,113,177442,2,0,P|438:101|475:86,1,80,2|0,1:2|0:0,0:0:0:0:
420,264,177765,2,0,P|383:248|344:237,1,80,10|0,0:0|0:0,0:0:0:0:
258,376,178087,2,0,P|253:336|243:297,1,80,2|0,0:3|0:0,0:0:0:0:
115,140,178410,5,2,1:2:0:0:
268,199,178571,1,0,3:2:0:0:
35,310,178733,1,0,3:2:0:0:
152,229,178894,1,0,3:2:0:0:
11,175,179055,2,0,P|16:113|19:79,1,80,8|0,3:2|3:2,2:2:0:0:
158,67,179378,1,0,1:2:0:0:
48,9,179539,1,0,1:2:0:0:
207,152,179700,5,2,3:2:0:0:
272,4,179862,1,2,3:2:0:0:
377,162,180023,1,2,1:2:0:0:
278,87,180184,1,2,3:2:0:0:
488,31,180346,2,0,P|430:33|380:22,1,80,10|2,3:2|3:2,2:2:0:0:
377,162,180668,1,2,3:0:0:0:
381,150,180829,1,2,3:0:0:0:
500,292,180991,6,0,P|499:208|426:192,2,143.999995605469,4|0|8,1:2|0:0|0:0,0:0:0:0:
346,366,181958,1,0,1:0:0:0:
346,366,182120,1,0,1:0:0:0:
292,295,182281,2,0,P|245:289|205:288,1,71.9999978027344,0|0,0:0|0:0,0:0:0:0:
55,372,182604,2,0,P|90:369|126:364,1,71.9999978027344,0|0,1:0|0:0,0:0:0:0:
112,182,182926,2,0,P|114:217|119:253,1,71.9999978027344,8|0,0:0|0:0,0:0:0:0:
207,150,183249,1,2,0:3:0:0:
166,82,183410,1,0,0:0:0:0:
213,18,183571,5,2,0:2:0:0:
292,180,185507,6,0,P|326:171|361:168,2,64,8|8|8,0:0|0:3|0:3,0:0:0:0:
292,180,186152,6,0,P|233:199|159:147,1,143.999995605469,4|0,1:2|0:0,0:0:0:0:
96,58,186636,1,0,0:0:0:0:
96,58,186797,2,0,P|132:68|186:54,1,71.9999978027344,8|0,0:0|0:0,0:0:0:0:
267,2,187120,1,0,1:0:0:0:
267,2,187281,2,0,P|258:82|253:152,1,143.999995605469,0|0,1:0|0:0,0:0:0:0:
198,221,187765,2,0,P|257:240|331:188,2,143.999995605469,0|8|2,1:0|0:0|0:3,0:0:0:0:
16,302,188733,6,0,P|75:283|149:335,1,143.999995605469,2|0,1:2|0:0,0:0:0:0:
287,253,189216,1,0,0:0:0:0:
218,377,189378,2,0,P|228:321|227:287,1,71.9999978027344,8|0,0:0|0:0,0:0:0:0:
183,174,189700,1,0,1:0:0:0:
183,174,189862,2,0,P|226:181|278:173,2,71.9999978027344,0|0|0,1:0|0:0|0:0,0:0:0:0:
143,59,190346,2,0,P|107:57|71:63,1,71.9999978027344,0|0,1:0|0:0,0:0:0:0:
261,6,190668,2,0,P|267:41|265:77,1,71.9999978027344,8|0,0:0|0:0,0:0:0:0:
183,174,190991,1,0,1:0:0:0:
222,242,191152,1,0,1:0:0:0:
176,306,191313,6,0,B|139:317|102:331|102:331|57:309|33:286,2,143.999995605469,2|0|8,1:2|0:0|0:0,0:0:0:0:
332,347,192281,1,0,1:0:0:0:
301,273,192442,1,0,1:0:0:0:
338,203,192604,2,0,B|375:192|412:178|412:178|457:200|481:223,2,143.999995605469,0|0|8,0:0|1:0|0:0,0:0:0:0:
271,132,193410,1,0,0:0:0:0:
271,132,193571,2,0,P|221:123|188:118,1,71.9999978027344,2|0,0:3|0:0,0:0:0:0:
149,15,193894,6,0,P|207:52|190:129,1,143.999995605469,2|0,1:2|0:0,0:0:0:0:
34,166,194378,1,0,0:0:0:0:
120,250,194539,2,0,P|128:198|98:167,1,71.9999978027344,8|0,0:0|0:0,0:0:0:0:
86,330,194862,1,0,1:0:0:0:
214,254,195023,1,0,1:0:0:0:
119,183,195184,6,0,P|72:192|29:203,1,71.9999978027344
229,338,195507,2,0,P|276:347|319:358,1,71.9999978027344,0|0,1:0|0:0,0:0:0:0:
325,188,195829,5,10,3:2:0:0:
214,254,195991,1,2,3:2:0:0:
121,95,196152,5,2,3:2:0:0:
238,166,196313,1,2,3:2:0:0:
346,32,196475,6,0,B|273:0|279:68|195:33,1,143.999995605469,4|0,1:2|0:0,0:0:0:0:
105,26,196958,1,0,0:0:0:0:
105,26,197120,2,0,P|119:74|122:113,1,71.9999978027344,8|0,0:0|0:0,0:0:0:0:
30,174,197442,1,0,1:0:0:0:
99,212,197604,2,0,P|164:220|218:151,1,143.999995605469,0|0,1:0|0:0,0:0:0:0:
243,11,198087,2,0,P|247:74|253:107,1,71.9999978027344,0|0,1:0|0:0,0:0:0:0:
400,226,198410,2,0,P|397:163|391:130,1,71.9999978027344,8|0,0:0|0:0,0:0:0:0:
333,43,198733,5,6,0:0:0:0:
256,192,198813,12,4,201636,0:0:0:0:
108,201,209055,6,0,B|172:229|203:258|203:258|237:229|292:217,1,200,4|0,1:0|0:0,0:0:0:0:
330,369,210023,6,0,P|339:330|344:290,1,80,10|0,0:0|0:0,0:0:0:0:
283,220,210346,1,0,1:0:0:0:
345,145,210507,2,0,B|390:157|428:173|428:173|456:132|463:93,1,160,0|0,1:0|0:0,0:0:0:0:
302,0,210991,2,0,P|294:53|281:99,1,80,0|0,1:0|0:0,0:0:0:0:
117,198,211313,2,0,P|107:159|102:119,1,80,10|0,0:2|0:0,0:0:0:0:
81,340,211636,1,0,3:0:0:0:
76,328,211797,1,0,3:0:0:0:
164,285,211958,6,0,B|245:253|245:253|322:289,1,160,4|0,1:2|0:0,0:0:0:0:
396,364,212442,1,0,0:0:0:0:
484,225,212604,1,8,0:0:0:0:
484,225,212765,2,0,P|427:245|393:236,1,80,0|0,0:0|1:0,0:0:0:0:
330,151,213087,1,0,1:0:0:0:
330,151,213249,6,0,P|264:124|189:167,1,160,0|0,0:0|1:0,0:0:0:0:
241,364,213733,1,0,0:0:0:0:
241,364,213894,2,0,P|174:327|161:251,1,160,8|2,0:0|0:3,0:0:0:0:
190,164,214378,1,0,0:0:0:0:
41,111,214539,5,2,1:2:0:0:
41,111,214862,1,0,0:0:0:0:
133,15,215023,1,0,0:0:0:0:
190,164,215184,2,0,P|185:114|172:73,1,80,8|0,0:0|0:0,0:0:0:0:
133,15,215507,1,0,1:0:0:0:
280,105,215668,1,0,1:0:0:0:
167,251,215829,6,0,P|217:246|258:233,1,80
222,370,216152,1,0,1:0:0:0:
384,344,216313,2,0,P|345:333|305:330,2,80,0|8|0,0:0|0:0|0:0,0:0:0:0:
481,268,216797,1,0,1:0:0:0:
481,268,216958,1,0,1:0:0:0:
385,116,217120,6,0,P|423:184|503:153,2,160,2|0|8,1:2|0:0|0:0,0:0:0:0:
104,214,218087,1,0,1:0:0:0:
104,214,218249,1,0,1:0:0:0:
187,163,218410,2,0,P|227:169|270:187,1,80,0|0,0:0|0:0,0:0:0:0:
310,93,218733,1,0,1:0:0:0:
310,93,218894,1,0,0:0:0:0:
363,249,219055,2,0,P|378:212|384:173,1,80,8|0,0:0|0:0,0:0:0:0:
458,8,219378,2,0,P|464:48|479:85,1,80,2|0,0:3|0:0,0:0:0:0:
165,92,219700,6,0,B|243:58|243:58|310:93,1,160,2|0,1:2|0:0,0:0:0:0:
239,200,220184,1,0,0:2:0:0:
111,261,220346,2,0,P|72:256|32:251,1,80,8|0,0:2|0:2,0:2:0:0:
124,375,220668,1,0,1:2:0:0:
239,200,220829,1,0,1:2:0:0:
31,250,220991,6,0,B|6:167|6:167|43:103,1,160,2|0,1:2|0:0,0:0:0:0:
153,8,221475,1,0,0:0:0:0:
226,132,221636,2,0,P|171:152|122:148,1,88.000002685547,8|0,0:0|0:0,0:0:0:0:
153,8,221958,1,0,3:0:0:0:
162,4,222120,1,0,3:0:0:0:
226,132,222281,6,0,P|290:131|328:233,1,143.999995605469,4|0,1:2|0:0,0:0:0:0:
322,263,222604,1,2,0:0:0:0:
492,209,222765,1,2,0:0:0:0:
290,335,222926,2,0,P|359:333|398:276,1,143.999995605469,10|0,0:0|0:0,0:0:0:0:
407,202,223249,1,2,1:2:0:0:
238,267,223410,1,2,1:2:0:0:
403,358,223571,6,0,P|451:350|494:346,1,80,2|0,0:0|0:0,0:0:0:0:
238,267,223894,2,0,P|190:259|147:255,1,80,2|0,1:2|0:0,0:0:0:0:
0,378,224216,2,0,P|48:370|91:366,1,80,10|0,0:0|0:0,0:0:0:0:
12,142,224539,2,0,P|20:190|24:233,1,80,2|0,0:3|0:0,0:0:0:0:
101,55,224862,6,0,B|195:26|174:100|259:64,1,160,2|0,1:2|0:0,0:0:0:0:
403,12,225346,1,0,0:0:0:0:
342,165,225507,2,0,P|356:91|370:66,1,80,8|0,0:0|0:0,0:0:0:0:
479,148,225829,1,0,1:0:0:0:
479,148,225991,1,0,1:0:0:0:
343,258,226152,6,0,P|397:248|431:246,1,80
272,358,226475,2,0,P|218:348|184:346,1,80,0|0,1:0|0:0,0:0:0:0:
191,221,226797,2,0,P|201:167|203:133,1,80,8|0,0:0|0:0,0:0:0:0:
138,15,227120,1,0,1:0:0:0:
141,5,227281,1,0,1:0:0:0:
77,124,227442,6,0,B|134:149|161:168|161:168|209:134|227:133,1,143.999995605469,2|0,1:2|0:0,0:0:0:0:
258,88,227765,1,2,0:0:0:0:
138,15,227926,1,2,0:0:0:0:
429,42,228087,2,0,B|372:17|345:-2|345:-2|297:32|279:33,1,143.999995605469,10|0,0:0|0:0,0:0:0:0:
258,88,228410,1,2,1:2:0:0:
258,88,228571,1,2,1:2:0:0:
401,195,228733,6,0,P|352:169|315:173,1,80,2|0,0:0|0:0,0:0:0:0:
181,63,229055,2,0,P|182:118|204:148,1,80,2|0,1:2|0:0,0:0:0:0:
176,319,229378,2,0,P|223:289|238:255,1,80,10|0,0:0|0:0,0:0:0:0:
254,193,229700,5,6,1:2:0:0:
254,193,230346,2,0,P|210:187|167:184,1,80,0|0,1:2|3:2,2:2:0:0:
30,323,230668,2,0,P|69:319|109:314,1,80,8|0,3:2|3:2,2:2:0:0:
225,272,230991,1,0,1:2:0:0:
84,127,231152,1,0,1:2:0:0:
229,50,231313,6,0,P|222:114|214:164,1,80,2|2,3:2|3:2,2:2:0:0:
121,20,231636,1,2,1:2:0:0:
313,166,231797,1,2,3:2:0:0:
100,220,231958,1,10,3:2:0:0:
229,50,232120,1,2,3:2:0:0:
45,133,232281,1,2,3:2:0:0:
221,244,232442,1,2,3:2:0:0:
76,342,232604,6,0,P|58:274|100:220,2,143.999995605469,4|0|8,1:2|0:0|0:0,0:0:0:0:
113,42,233571,1,0,1:0:0:0:
30,14,233733,1,0,1:0:0:0:
32,102,233894,2,0,B|90:127|117:141|117:141|158:117|190:111,2,143.999995605469,0|0|8,0:0|1:0|0:0,0:0:0:0:
287,7,234862,1,2,0:3:0:0:
324,76,235023,1,0,0:0:0:0:
290,147,235184,5,2,0:2:0:0:
256,192,235265,12,2,237765,0:0:0:0:
