osu file format v14

[General]
AudioFilename: audio.mp3
AudioLeadIn: 0
PreviewTime: 36955
Countdown: 1
SampleSet: Soft
StackLeniency: 0.7
Mode: 0
LetterboxInBreaks: 0
WidescreenStoryboard: 1

[Editor]
Bookmarks: 9262,27724,36955,53108,66955,76185,85416,97052,108688,120314,131951,143597,166870,190142
DistanceSpacing: 1
BeatDivisor: 4
GridSize: 8
TimelineZoom: 2.4

[Metadata]
Title:Vanished truth
TitleUnicode:Vanished truth
Artist:Draw the Emotional feat. Meramipop
ArtistUnicode:Draw the Emotional feat. めらみぽっぷ
Creator:IsomirDiAngelo
Version:lu^3's Extreme
Source:東方星蓮船 ~ Undefined Fantastic Object.
Tags:seto kousuke shirahane suou hey lululu lu^3 shadowx yshadowxop_ itswinter silence player 平安のエイリアン Heian Alien 東方Project 締め切り前日のおまいら ゆよゆっぺ yuyoyuppe zun Touhou C78 Comiket 78 Collapse of the sky 封獣 ぬえ Houjuu Nue 上海アリス幻樂団 Team Shanghai Alice rock metal japanese video game
BeatmapID:2077848
BeatmapSetID:984365

[Difficulty]
HPDrainRate:6
CircleSize:4.5
OverallDifficulty:9
ApproachRate:9.5
SliderMultiplier:1.9
SliderTickRate:1

[Events]
//Background and Video events
0,0,"bg.jpg",0,0
//Break Periods
2,120524,131072
2,132161,136527
2,137979,143072
//Storyboard Layer 0 (Background)
//Storyboard Layer 1 (Fail)
//Storyboard Layer 2 (Pass)
//Storyboard Layer 3 (Foreground)
//Storyboard Layer 4 (Overlay)
//Storyboard Sound Samples

[TimingPoints]
32,288.461538461538,4,2,1,60,1,0
176,-100,4,2,1,75,0,0
320,-100,4,2,1,60,0,0
2339,-100,4,2,1,60,0,0
2483,-100,4,2,1,75,0,0
2628,-100,4,2,1,60,0,0
3493,-66.6666666666667,4,2,1,60,0,0
3709,-66.6666666666667,4,2,1,60,0,0
3781,-66.6666666666667,4,2,1,60,0,0
3997,-66.6666666666667,4,2,1,60,0,0
4070,-66.6666666666667,4,2,1,60,0,0
4142,-66.6666666666667,4,2,1,75,0,0
4358,-66.6666666666667,4,2,1,60,0,0
4647,-100,4,2,1,60,0,0
4791,-100,4,2,1,75,0,0
4935,-100,4,2,1,60,0,0
6955,-100,4,2,1,60,0,0
7099,-100,4,2,1,75,0,0
7243,-100,4,2,1,60,0,0
8036,-100,4,2,1,5,0,0
8108,-66.6666666666667,4,2,1,60,0,0
8324,-66.6666666666667,4,2,1,5,0,0
8397,-66.6666666666667,4,2,1,60,0,0
8613,-66.6666666666667,4,2,1,5,0,0
8685,-66.6666666666667,4,2,1,60,0,0
8974,-133.333333333333,4,3,20,60,0,0
9190,-133.333333333333,4,2,1,5,0,0
9262,-133.333333333333,4,2,1,60,0,0
12724,-66.6666666666667,4,2,1,60,0,0
13589,-133.333333333333,4,2,1,60,0,0
13805,-133.333333333333,4,2,1,5,0,0
13878,-66.6666666666667,4,2,1,60,0,0
15248,-66.6666666666667,4,2,1,75,0,0
15320,-66.6666666666667,4,2,1,60,0,0
17339,-66.6666666666667,4,3,8,60,0,0
17483,-66.6666666666667,4,2,1,60,0,0
17988,-66.6666666666667,4,3,8,60,0,0
18060,-66.6666666666667,4,3,9,60,0,0
18132,-66.6666666666667,4,2,1,60,0,0
18205,-133.333333333333,4,2,1,60,0,0
18421,-133.333333333333,4,2,1,5,0,0
18493,-133.333333333333,4,2,1,60,0,0
20224,-100,4,2,1,60,0,0
21666,-133.333333333333,4,2,1,60,0,0
22531,-133.333333333333,4,2,1,60,0,0
22676,-133.333333333333,4,2,1,75,0,0
22820,-100,4,2,1,60,0,0
23036,-100,4,2,1,5,0,0
23108,-133.333333333333,4,2,1,60,0,0
24839,-100,4,2,1,60,0,0
25993,-133.333333333333,4,2,1,60,0,0
27147,-100,4,2,1,60,0,0
27651,-100,4,2,1,60,0,0
27724,-181.818181818181,4,2,1,60,0,0
27940,-181.818181818181,4,2,1,60,0,0
28012,-83.3333333333333,4,2,1,60,0,0
32339,-142.857142857143,4,2,1,60,0,0
35512,-181.818181818181,4,2,1,60,0,0
35728,-181.818181818181,4,2,1,5,0,0
35801,-100,4,2,1,60,0,0
36017,-100,4,2,1,5,0,0
36089,-66.6666666666667,4,2,1,60,0,0
36305,-66.6666666666667,4,2,1,5,0,0
36378,-66.6666666666667,4,2,1,60,0,0
36522,-66.6666666666667,4,3,8,60,0,0
36666,-66.6666666666667,4,2,1,60,0,0
36955,-133.333333333333,4,2,1,60,0,0
38541,-133.333333333333,4,2,1,70,0,0
38685,-133.333333333333,4,2,1,60,0,0
38901,-133.333333333333,4,2,1,60,0,0
40921,-133.333333333333,4,2,1,5,0,0
40993,-133.333333333333,4,2,1,60,0,0
41497,-133.333333333333,4,2,1,5,0,0
41570,-133.333333333333,4,2,1,60,0,0
43156,-133.333333333333,4,2,1,70,0,0
43301,-133.333333333333,4,2,1,60,0,0
43517,-133.333333333333,4,2,1,60,0,0
43733,-133.333333333333,4,2,1,60,0,0
44671,-133.333333333333,4,2,1,70,0,0
45176,-100,4,2,1,60,0,0
45392,-100,4,2,1,70,0,0
45464,-100,4,2,1,60,0,0
45536,-100,4,2,1,70,0,0
45608,-100,4,2,1,60,0,0
45680,-100,4,3,8,60,0,0
45752,-100,4,3,9,60,0,0
45824,-100,4,2,1,60,0,0
45897,-133.333333333333,4,2,1,60,0,0
46113,-133.333333333333,4,2,1,5,0,0
46185,-133.333333333333,4,2,1,60,0,0
47772,-133.333333333333,4,2,1,70,0,0
47916,-133.333333333333,4,2,1,60,0,0
48132,-133.333333333333,4,2,1,60,0,0
48348,-133.333333333333,4,2,1,60,0,0
51594,-133.333333333333,4,2,1,70,0,0
52099,-100,4,2,1,60,0,0
52603,-100,4,3,8,60,0,0
52675,-100,4,3,9,60,0,0
52747,-100,4,2,1,60,0,0
53108,-83.3333333333333,4,2,1,60,0,0
54262,-83.3333333333333,4,2,1,60,0,0
54478,-83.3333333333333,4,2,1,60,0,0
54551,-83.3333333333333,4,2,1,60,0,0
55705,-83.3333333333333,4,3,8,60,0,0
55993,-83.3333333333333,4,3,9,60,0,0
56281,-83.3333333333333,4,2,1,60,0,0
57651,-83.3333333333333,4,2,1,60,0,0
57724,-83.3333333333333,4,2,1,60,0,0
58878,-83.3333333333333,4,3,8,60,0,0
59166,-83.3333333333333,4,3,9,60,0,0
59455,-83.3333333333333,4,2,1,60,0,0
60824,-83.3333333333333,4,2,1,60,0,0
60897,-83.3333333333333,4,2,1,60,0,0
61185,-83.3333333333333,4,3,8,60,0,0
61329,-83.3333333333333,4,2,1,60,0,0
61474,-83.3333333333333,4,3,9,60,0,0
61618,-83.3333333333333,4,2,1,60,0,0
63997,-83.3333333333333,4,2,1,60,0,0
64070,-83.3333333333333,4,2,1,60,0,0
66017,-83.3333333333333,4,2,1,5,0,0
66089,-100,4,2,1,60,0,0
66305,-100,4,2,1,5,0,0
66378,-125,4,2,1,60,0,0
66594,-125,4,2,1,5,0,0
66666,-166.666666666667,4,2,1,60,0,0
66882,-166.666666666667,4,2,1,5,0,0
66955,-83.3333333333333,4,2,1,60,0,0
71281,-83.3333333333333,4,2,1,60,0,0
71497,-83.3333333333333,4,2,1,5,0,0
71570,-83.3333333333333,4,2,1,60,0,0
75753,-83.3333333333333,4,2,1,65,0,0
75897,-83.3333333333333,4,2,1,60,0,0
76113,-83.3333333333333,4,2,1,5,0,0
76185,-83.3333333333333,4,2,1,60,0,0
79935,-83.3333333333333,4,2,1,65,0,0
80079,-83.3333333333333,4,2,1,60,0,0
84551,-83.3333333333333,4,2,1,65,0,0
84695,-83.3333333333333,4,2,1,60,0,0
85128,-83.3333333333333,4,2,1,60,0,0
85416,363.636363636364,4,2,1,60,1,0
85506,-100,4,2,1,5,0,0
90870,-100,4,2,1,60,0,0
91234,-100,4,2,1,60,0,0
91325,-100,4,1,1,5,0,0
94870,-100,4,2,1,60,0,0
95052,-100,4,2,1,60,0,0
95234,-100,4,2,1,60,0,0
96324,-100,4,2,1,60,0,0
96551,-100,4,1,1,60,0,0
96566,-100,4,2,1,60,0,0
96688,-133.333333333333,4,2,1,60,0,0
96960,-133.333333333333,4,2,1,5,0,0
97052,-400,4,2,1,60,0,0
99961,-400,4,2,1,60,0,0
100688,-400,4,2,1,60,0,0
102778,-400,4,2,1,5,0,0
102870,-400,4,2,1,60,0,0
103960,-400,4,2,1,60,0,0
107657,-400,4,3,8,60,0,0
107718,-400,4,3,9,60,0,0
107778,-400,4,3,1,60,0,0
107961,-400,4,2,1,60,0,0
108597,-400,4,2,1,60,0,0
108688,-400,4,2,1,60,0,0
113961,-400,4,2,1,60,0,0
114415,-400,4,2,1,5,0,0
114506,-400,4,2,1,60,0,0
118870,-181.818181818182,4,2,1,60,0,0
119294,-181.818181818182,4,3,8,60,0,0
119355,-181.818181818182,4,3,9,60,0,0
119415,-181.818181818182,4,2,1,60,0,0
119778,-181.818181818182,4,2,1,60,0,0
131597,-181.818181818182,4,2,1,60,0,0
131961,-181.818181818182,4,3,20,60,0,0
143597,-181.818181818182,4,2,1,60,0,0
146415,-181.818181818182,4,2,1,5,0,0
146506,-181.818181818182,4,2,1,60,0,0
152233,-181.818181818182,4,2,1,5,0,0
152324,-181.818181818182,4,2,1,60,0,0
154416,-181.818181818182,4,2,1,5,0,0
154506,-181.818181818182,4,2,1,60,0,0
160960,-181.818181818182,4,2,1,5,0,0
161052,-181.818181818182,4,2,1,60,0,0
165780,-181.818181818182,4,3,8,60,0,0
165961,-181.818181818182,4,3,9,60,0,0
166142,-181.818181818182,4,2,1,60,0,0
166778,-181.818181818182,4,2,1,5,0,0
166870,-181.818181818182,4,2,1,60,0,0
169687,-181.818181818182,4,2,1,5,0,0
169779,-181.818181818182,4,2,1,60,0,0
172596,-181.818181818182,4,2,1,5,0,0
172688,-181.818181818182,4,2,1,60,0,0
174324,-181.818181818182,4,2,1,55,0,0
174506,-181.818181818182,4,2,1,60,0,0
175505,-181.818181818182,4,2,1,5,0,0
175597,-181.818181818182,4,2,1,60,0,0
177233,-181.818181818182,4,2,1,55,0,0
177415,-181.818181818182,4,2,1,60,0,0
178142,-181.818181818182,4,2,1,60,0,0
178506,-181.818181818182,4,2,1,60,0,0
180142,-181.818181818182,4,2,1,55,0,0
180324,-181.818181818182,4,2,1,60,0,0
181324,-181.818181818182,4,2,1,5,0,0
181415,-181.818181818182,4,2,1,60,0,0
183051,-181.818181818182,4,2,1,55,0,0
183233,-181.818181818182,4,2,1,60,0,0
185961,-181.818181818182,4,2,1,55,0,0
186142,-181.818181818182,4,2,1,60,0,0
187142,-181.818181818182,4,2,1,5,0,0
187233,-181.818181818182,4,2,1,60,0,0
189052,-181.818181818182,4,3,8,80,0,0
189233,-181.818181818182,4,3,8,80,0,0
189415,-181.818181818182,4,3,9,80,0,0
189596,-181.818181818182,4,3,9,80,0,0
189779,-181.818181818182,4,2,1,60,0,0
190325,-181.818181818182,4,2,1,70,0,0
199597,-181.818181818182,4,2,1,5,0,0

[Colours]
Combo1 : 55,117,130
Combo2 : 234,21,21

[HitObjects]
62,98,32,6,0,L|157:84,1,95,14|0,3:0|0:0,0:0:0:0:
180,105,320,1,2,0:0:0:0:
169,127,897,1,2,0:0:0:0:
181,143,1474,1,2,0:0:0:0:
170,165,2051,1,2,0:0:0:0:
233,350,2339,6,0,B|259:324|259:324|241:250,1,95,6|0,3:0|0:0,0:0:0:0:
230,259,2628,1,2,0:0:0:0:
208,248,3205,1,2,0:0:0:0:
0,306,3493,6,0,B|68:264|120:289|148:368|108:380|23:379|61:323|110:303,1,213.750008153916,6|0,3:0|0:0,0:0:0:0:
119,226,3781,2,0,B|127:174|86:122|75:169|30:138|42:35,1,213.750008153916,6|0,3:0|0:0,0:0:0:0:
96,0,4070,6,0,L|72:74,1,71.2500027179719,10|0,0:0|0:0,0:0:0:0:
26,201,4214,1,0,0:0:0:0:
180,91,4358,5,8,2:0:0:0:
250,78,4430,1,8,2:0:0:0:
320,66,4502,1,8,2:0:0:0:
390,54,4574,1,8,2:0:0:0:
460,41,4647,6,0,L|439:153,1,95,6|0,3:0|0:0,0:0:0:0:
437,154,4935,1,2,0:0:0:0:
459,165,5512,1,2,0:0:0:0:
475,153,6089,1,2,0:0:0:0:
497,164,6666,1,2,0:0:0:0:
501,281,6955,6,0,P|466:303|447:355,1,95,6|0,3:0|0:0,0:0:0:0:
437,357,7243,1,2,0:0:0:0:
321,239,7676,1,0,3:0:0:0:
321,239,7748,1,0,3:0:0:0:
321,239,7820,6,0,L|337:64,1,142.5,10|0,0:0|0:0,0:0:0:0:
316,69,8108,6,0,B|341:114|406:130|385:86|440:83|494:172,1,213.750008153916,6|0,3:0|0:0,0:0:0:0:
307,377,8397,2,0,B|358:368|395:313|347:317|363:265|464:244,1,213.750008153916,6|0,3:0|0:0,0:0:0:0:
512,317,8685,1,8,0:0:0:0:
506,332,8974,6,0,P|468:340|509:343,1,106.875004076958,2|0,2:3|0:0,0:0:0:0:
512,243,9262,5,14,0:0:0:0:
343,282,9406,1,8,0:0:0:0:
213,313,9551,1,8,0:0:0:0:
44,352,9695,1,8,0:0:0:0:
0,153,9839,5,8,0:0:0:0:
157,384,9983,1,8,0:0:0:0:
0,247,10128,1,8,0:0:0:0:
195,127,10272,1,8,0:0:0:0:
0,0,10416,5,14,0:0:0:0:
169,39,10560,1,8,0:0:0:0:
299,70,10705,1,8,0:0:0:0:
468,109,10849,1,8,0:0:0:0:
511,345,10993,5,8,0:0:0:0:
354,114,11137,1,8,0:0:0:0:
511,251,11282,1,8,0:0:0:0:
316,371,11426,1,8,0:0:0:0:
125,62,11570,5,14,0:3:0:0:
191,312,11714,1,8,0:0:0:0:
329,72,11858,1,8,0:0:0:0:
395,322,12002,1,8,0:0:0:0:
389,11,12147,5,8,0:0:0:0:
317,301,12291,1,8,0:0:0:0:
193,4,12435,1,8,0:0:0:0:
112,287,12579,1,8,0:0:0:0:
0,42,12724,6,0,B|92:38|37:104|152:93,1,142.500005435944,14|0,0:0|3:0,0:0:0:0:
288,86,12940,1,0,3:0:0:0:
288,86,13012,2,0,B|245:167|215:87|167:192,1,142.500005435944,14|0,0:0|3:0,0:0:0:0:
101,326,13229,1,0,3:0:0:0:
101,326,13301,1,8,0:0:0:0:
86,293,13373,1,8,0:0:0:0:
89,259,13445,1,0,3:0:0:0:
95,224,13517,1,0,3:0:0:0:
83,191,13589,6,0,L|118:319,1,106.875004076958,14|0,0:0|3:0,0:0:0:0:
217,384,13878,6,0,P|280:355|278:273,1,142.500005435944,14|0,0:3|3:0,0:0:0:0:
155,96,14166,2,0,B|178:158|178:158|191:165|191:165|219:242,1,142.500005435944,10|0,0:0|3:0,0:0:0:0:
383,285,14455,1,10,0:0:0:0:
510,142,14599,1,0,3:0:0:0:
475,133,14671,1,0,3:0:0:0:
440,124,14743,1,10,0:0:0:0:
339,97,14887,1,0,3:0:0:0:
458,0,15031,6,0,L|419:164,1,142.500005435944,14|0,0:3|3:0,0:0:0:0:
402,214,15248,1,0,3:0:0:0:
402,214,15320,1,10,0:0:0:0:
245,49,15464,1,0,3:0:0:0:
112,241,15608,1,10,0:0:0:0:
5,36,15753,1,0,3:0:0:0:
19,68,15825,1,0,3:0:0:0:
34,101,15897,1,10,0:0:0:0:
120,18,16041,1,0,3:0:0:0:
268,319,16185,5,8,0:0:0:0:
204,307,16257,1,8,0:0:0:0:
141,295,16329,1,8,0:0:0:0:
78,284,16401,1,8,0:0:0:0:
15,272,16473,5,0,3:0:0:0:
23,291,16546,1,0,3:0:0:0:
29,311,16618,5,8,0:0:0:0:
41,247,16690,1,8,0:0:0:0:
53,184,16762,1,8,0:0:0:0:
64,121,16834,1,8,0:0:0:0:
75,58,16906,5,0,3:0:0:0:
54,64,16979,1,0,3:0:0:0:
33,69,17051,5,8,0:0:0:0:
95,104,17123,1,8,0:0:0:0:
296,220,17339,5,0,0:0:0:0:
316,227,17411,1,0,0:0:0:0:
335,237,17483,1,0,3:0:0:0:
354,246,17555,1,0,3:0:0:0:
371,253,17628,5,8,0:0:0:0:
359,186,17700,1,8,0:0:0:0:
346,121,17772,1,0,3:0:0:0:
334,59,17844,1,0,3:0:0:0:
378,36,17916,5,8,0:0:0:0:
381,57,17988,1,0,0:0:0:0:
385,78,18060,1,0,0:0:0:0:
389,99,18132,1,0,3:0:0:0:
428,125,18205,6,0,P|485:115|510:58,1,106.875004076958,14|0,0:0|0:0,0:0:0:0:
502,43,18493,5,6,0:3:0:0:
429,221,18637,1,2,3:0:0:0:
429,221,18926,1,0,3:0:0:0:
296,157,19070,2,0,L|322:244,1,71.2500027179719,10|0,0:0|0:0,0:0:0:0:
372,338,19358,5,0,3:0:0:0:
339,323,19430,1,0,3:0:0:0:
304,325,19502,1,0,3:0:0:0:
273,341,19574,1,0,3:0:0:0:
252,370,19646,1,2,3:2:0:0:
52,329,19936,5,0,3:0:0:0:
85,344,20008,1,0,3:0:0:0:
120,342,20080,1,0,3:0:0:0:
151,326,20152,1,0,3:0:0:0:
172,297,20224,2,0,B|162:242|162:242|142:220|142:220|130:162,2,142.5,10|0|0,0:0|3:0|3:0,0:0:0:0:
232,199,20801,5,2,0:0:0:0:
57,123,20945,1,0,3:0:0:0:
253,13,21089,1,0,3:0:0:0:
253,13,21378,2,0,P|240:59|258:111,1,95,10|0,0:0|0:0,0:0:0:0:
358,219,21666,5,0,3:0:0:0:
364,183,21738,1,0,3:0:0:0:
370,148,21810,1,0,3:0:0:0:
377,113,21882,1,0,3:0:0:0:
383,78,21954,1,2,3:2:0:0:
278,215,22243,5,0,3:0:0:0:
281,250,22315,1,0,3:0:0:0:
300,279,22387,1,0,3:0:0:0:
331,296,22459,1,0,3:0:0:0:
366,297,22531,5,10,0:0:0:0:
497,164,22676,1,0,0:0:0:0:
507,382,22820,6,0,B|458:369|458:369|443:350|443:350|359:327,1,142.5,10|0,0:0|0:0,0:0:0:0:
305,377,23108,5,6,0:3:0:0:
481,270,23253,1,2,3:0:0:0:
481,270,23541,1,0,3:0:0:0:
385,198,23685,2,0,L|406:108,1,71.2500027179719,10|0,0:0|0:0,0:0:0:0:
512,50,23974,5,0,3:0:0:0:
479,64,24046,1,0,3:0:0:0:
444,61,24118,1,0,3:0:0:0:
415,42,24190,1,0,3:0:0:0:
398,11,24262,1,2,3:2:0:0:
212,0,24551,5,0,3:0:0:0:
217,35,24623,1,0,3:0:0:0:
222,70,24695,1,0,3:0:0:0:
227,105,24767,1,0,3:0:0:0:
232,141,24839,6,0,B|178:153|178:153|149:141|149:141|85:158,2,142.5,10|0|0,0:0|3:0|3:0,0:0:0:0:
246,153,25560,5,0,3:0:0:0:
246,153,25705,1,0,3:0:0:0:
21,265,25993,2,0,P|5:239|17:191,1,71.2500027179719,10|0,0:0|0:0,0:0:0:0:
124,178,26281,5,0,3:0:0:0:
117,212,26353,1,0,3:0:0:0:
110,247,26425,1,0,3:0:0:0:
103,282,26497,1,0,3:0:0:0:
96,317,26569,1,2,3:0:0:0:
301,353,26858,5,0,3:0:0:0:
286,320,26930,1,0,3:0:0:0:
260,297,27002,1,0,3:0:0:0:
226,286,27074,1,0,3:0:0:0:
191,289,27147,6,0,L|205:343,1,47.5,8|0,0:0|0:0,0:0:0:0:
274,215,27291,1,0,3:0:0:0:
176,134,27435,2,0,P|237:139|283:55,1,142.5,8|0,0:0|0:0,0:0:0:0:
290,44,27724,6,0,L|303:121,1,78.3750023918153,0|0,3:0|0:0,0:0:0:0:
316,176,28012,6,0,B|365:165|365:165|386:171|386:171|452:156,1,113.999996520996,14|0,0:3|0:0,0:0:0:0:
463,282,28301,1,2,3:0:0:0:
463,282,28445,1,0,3:0:0:0:
321,275,28589,2,0,L|354:390,1,113.999996520996,10|0,0:3|0:0,0:0:0:0:
151,101,28878,5,2,3:0:0:0:
151,101,29022,1,0,3:0:0:0:
243,143,29166,2,0,L|210:258,1,113.999996520996,10|0,0:3|0:0,0:0:0:0:
5,317,29455,2,0,P|37:291|126:292,1,113.999996520996,2|0,3:0|3:0,0:0:0:0:
319,91,29743,2,0,P|287:65|198:66,1,113.999996520996,10|0,0:3|0:0,0:0:0:0:
78,155,30031,5,2,3:0:0:0:
78,155,30176,1,0,3:0:0:0:
194,100,30320,2,0,B|185:150|185:150|191:168|191:168|180:236,1,113.999996520996,10|0,0:3|0:0,0:0:0:0:
386,306,30608,5,2,3:0:0:0:
386,306,30753,1,0,3:0:0:0:
247,266,30897,2,0,B|256:316|256:316|250:334|250:334|261:402,1,113.999996520996,10|0,0:3|0:0,0:0:0:0:
506,233,31185,5,0,3:0:0:0:
512,193,31257,1,0,3:0:0:0:
500,156,31329,1,0,3:0:0:0:
473,127,31401,1,0,3:0:0:0:
436,113,31474,2,0,L|314:134,1,113.999996520996,10|0,0:0|0:0,0:0:0:0:
157,79,31762,5,0,3:0:0:0:
150,58,31834,1,0,3:0:0:0:
152,37,31906,1,0,3:0:0:0:
161,18,31978,1,0,3:0:0:0:
177,4,32051,5,8,2:0:0:0:
211,48,32123,1,8,2:0:0:0:
222,103,32195,1,8,2:0:0:0:
206,158,32267,1,8,2:0:0:0:
173,179,32339,5,6,3:0:0:0:
159,176,32411,1,0,3:0:0:0:
145,173,32483,1,0,3:0:0:0:
131,170,32555,1,0,3:0:0:0:
90,166,32628,5,10,3:0:0:0:
94,179,32700,1,0,3:0:0:0:
98,193,32772,1,0,3:0:0:0:
103,206,32844,1,0,3:0:0:0:
111,244,32916,5,0,3:0:0:0:
97,241,32988,1,0,3:0:0:0:
83,238,33060,1,0,3:0:0:0:
69,235,33132,1,0,3:0:0:0:
28,231,33205,5,10,3:0:0:0:
32,244,33277,1,0,3:0:0:0:
36,258,33349,1,0,3:0:0:0:
41,271,33421,1,0,3:0:0:0:
49,309,33493,6,0,L|-9:326,3,33.2499989852906,0|0|0|0,3:0|3:0|3:0|3:0,0:0:0:0:
90,166,33781,2,0,L|45:154,3,33.2499989852906,10|0|0|0,3:0|3:0|3:0|3:0,0:0:0:0:
185,359,34070,2,0,L|127:376,3,33.2499989852906,0|0|0|0,3:0|3:0|3:0|3:0,0:0:0:0:
226,216,34358,2,0,L|181:204,3,33.2499989852906,10|0|0|0,3:0|3:0|3:0|3:0,0:0:0:0:
328,369,34647,5,6,3:0:0:0:
341,365,34719,1,0,3:0:0:0:
355,362,34791,1,0,3:0:0:0:
369,359,34863,1,0,3:0:0:0:
409,354,34935,5,10,3:0:0:0:
413,340,35007,1,0,3:0:0:0:
417,326,35079,1,0,3:0:0:0:
421,313,35151,1,0,3:0:0:0:
441,278,35224,5,2,3:0:0:0:
454,274,35296,1,0,3:0:0:0:
468,271,35368,1,0,3:0:0:0:
482,268,35440,1,0,3:0:0:0:
492,252,35512,6,0,L|408:270,1,78.3750023918153,0|0,3:0|0:0,0:0:0:0:
295,285,35801,6,0,B|234:270|234:270|220:251|220:251|148:228,1,142.5,2|0,3:0|0:0,0:0:0:0:
38,298,36089,6,0,B|97:316|97:316|48:160,1,213.750008153916,14|0,0:2|0:0,0:0:0:0:
16,38,36378,6,0,B|-7:59|-7:59|13:113,1,71.2500027179719,10|0,0:0|0:0,0:0:0:0:
151,208,36522,2,0,B|174:187|174:187|154:133,1,71.2500027179719
124,41,36666,5,8,2:0:0:0:
194,53,36738,1,8,2:0:0:0:
264,66,36810,1,8,2:0:0:0:
334,78,36882,1,8,2:0:0:0:
404,91,36955,6,0,P|465:54|437:-16,1,142.500005435944,6|2,3:0|0:0,0:0:0:0:
336,154,37387,1,0,3:0:0:0:
336,154,37459,1,0,3:0:0:0:
336,154,37531,2,0,B|355:197|355:197|370:205|370:205|395:269,2,106.875004076958,10|0|0,0:0|0:0|3:0,0:0:0:0:
332,143,38253,5,0,3:0:0:0:
228,206,38397,2,0,P|191:183|175:137,1,71.2500027179719,2|0,3:0|0:0,0:0:0:0:
191,62,38685,2,0,B|237:76|237:76|254:155,2,106.875004076958,10|0|0,0:0|0:0|0:0,0:0:0:0:
0,128,39262,6,0,B|80:108|50:174|147:148,1,142.500005435944,6|0,3:0|0:0,0:0:0:0:
42,290,39695,1,0,3:0:0:0:
42,290,39767,1,0,3:0:0:0:
42,290,39839,2,0,B|12:268|12:268|20:197,2,106.875004076958,10|0|0,0:0|0:0|3:0,0:0:0:0:
127,339,40416,5,2,0:0:0:0:
186,239,40560,1,0,3:0:0:0:
186,239,40632,1,0,3:0:0:0:
186,239,40705,2,0,L|218:376,1,106.875004076958,2|0,3:0|0:0,0:0:0:0:
218,370,40993,1,10,0:0:0:0:
127,339,41137,1,0,3:0:0:0:
278,276,41281,2,0,P|340:289|372:344,1,106.875004076958,10|0,0:0|0:0,0:0:0:0:
372,366,41570,6,0,L|534:337,1,142.500005435944,6|2,3:0|0:0,0:0:0:0:
472,265,42003,1,0,3:0:0:0:
472,265,42075,1,0,3:0:0:0:
472,265,42147,2,0,B|444:226|444:226|470:155,2,106.875004076958,10|0|0,0:0|0:0|3:0,0:0:0:0:
479,277,42868,5,0,3:0:0:0:
385,128,43012,2,0,L|355:205,1,71.2500027179719,2|0,3:0|0:0,0:0:0:0:
258,244,43301,2,0,P|208:234|146:268,2,106.875004076958,10|0|0,0:0|0:0|0:0,0:0:0:0:
322,336,43878,6,0,B|301:276|301:276|285:269|285:269|261:187,1,142.500005435944,6|2,3:0|0:0,0:0:0:0:
229,90,44310,1,0,3:0:0:0:
229,90,44382,1,0,3:0:0:0:
229,90,44455,2,0,P|172:88|119:145,2,106.875004076958,10|0|0,0:0|0:0|0:0,0:0:0:0:
413,20,45176,5,0,3:0:0:0:
413,20,45248,1,0,3:0:0:0:
413,20,45320,2,0,L|397:74,1,47.5,10|0,0:0|0:0,0:0:0:0:
511,167,45464,2,0,L|497:118,1,47.5,0|0,3:0|0:0,0:0:0:0:
322,77,45608,5,8,0:0:0:0:
322,77,45680,1,0,0:0:0:0:
322,77,45752,2,0,L|338:131,1,47.5,0|0,0:0|3:0,0:0:0:0:
422,201,45897,6,0,P|372:197|335:249,1,106.875004076958,10|0,0:0|0:0,0:0:0:0:
336,279,46185,6,0,L|183:242,1,142.500005435944,6|2,3:0|0:0,0:0:0:0:
58,218,46618,1,0,3:0:0:0:
58,218,46690,1,0,3:0:0:0:
58,218,46762,2,0,B|82:250|82:250|64:333,2,106.875004076958,10|0|0,0:0|0:0|3:0,0:0:0:0:
46,205,47483,5,0,3:0:0:0:
180,141,47628,2,0,L|161:63,1,71.2500027179719,2|0,3:0|0:0,0:0:0:0:
71,14,47916,2,0,P|24:26|-1:77,2,106.875004076958,10|0|0,0:0|0:0|0:0,0:0:0:0:
186,50,48493,6,0,B|224:65|224:65|328:29,1,142.500005435944,6|0,3:0|0:0,0:0:0:0:
410,2,48926,1,0,3:0:0:0:
410,2,48998,1,0,3:0:0:0:
410,2,49070,2,0,L|390:127,2,106.875004076958,10|0|0,0:0|0:0|3:0,0:0:0:0:
478,121,49791,5,0,3:0:0:0:
478,121,49863,1,0,3:0:0:0:
478,121,49935,1,2,3:0:0:0:
309,216,50224,2,0,B|289:196|289:196|301:138,1,71.2500027179719,10|0,0:0|3:0,0:0:0:0:
391,179,50512,2,0,B|411:199|411:199|399:257,1,71.2500027179719,10|0,0:0|3:0,0:0:0:0:
316,306,50801,6,0,L|174:336,1,142.500005435944,6|2,3:0|0:0,0:0:0:0:
55,237,51233,1,0,3:0:0:0:
55,237,51306,1,0,3:0:0:0:
55,237,51378,2,0,L|166:259,2,106.875004076958,10|0|0,0:0|0:0|0:0,0:0:0:0:
24,53,52099,5,0,3:0:0:0:
24,53,52171,1,0,3:0:0:0:
24,53,52243,2,0,P|53:81|69:140,1,95,10|0,0:0|3:0,0:0:0:0:
166,53,52531,1,8,0:0:0:0:
189,47,52603,1,0,0:0:0:0:
212,41,52675,1,0,0:0:0:0:
235,35,52747,1,0,3:0:0:0:
258,29,52819,1,10,0:0:0:0:
508,233,53108,5,6,3:0:0:0:
508,233,53253,1,0,3:0:0:0:
420,158,53397,2,0,B|380:180|380:180|363:269,1,113.999996520996,14|0,0:0|3:0,0:0:0:0:
243,285,53685,2,0,B|283:307|283:307|300:396,1,113.999996520996,10|0,0:0|3:0,0:0:0:0:
508,233,53974,5,10,0:0:0:0:
508,233,54119,1,10,0:0:0:0:
486,50,54262,2,0,B|473:64|473:64|488:68|488:68|476:81|476:81|489:82|489:82|484:97|484:97|528:125|507:194,1,170.999994781494,2|0,3:0|0:0,0:0:0:0:
508,233,54551,5,2,3:0:0:0:
508,233,54696,1,2,3:0:0:0:
420,158,54840,2,0,B|380:180|380:180|363:269,1,113.999996520996,14|0,0:0|3:0,0:0:0:0:
243,285,55056,1,0,3:0:0:0:
243,285,55128,2,0,B|283:307|283:307|300:396,1,113.999996520996,10|0,0:0|0:0,0:0:0:0:
508,233,55416,5,6,3:0:0:0:
508,233,55561,1,2,3:0:0:0:
452,315,55705,6,0,L|373:339,2,75.9999976806641
283,221,55993,2,0,L|210:198,2,75.9999976806641
508,233,56281,5,6,3:0:0:0:
508,233,56426,1,2,3:0:0:0:
367,247,56570,2,0,B|380:180|380:180|420:158,1,113.999996520996,10|0,0:0|3:0,0:0:0:0:
268,31,56858,2,0,L|302:157,1,113.999996520996,10|0,0:0|3:0,0:0:0:0:
508,233,57147,5,10,0:0:0:0:
508,233,57291,1,10,0:0:0:0:
392,332,57435,2,0,P|447:369|510:289,1,170.999994781494,2|0,3:0|0:0,0:0:0:0:
508,233,57724,5,2,3:0:0:0:
508,233,57868,1,2,3:0:0:0:
398,147,58012,2,0,L|279:160,1,113.999996520996,10|0,0:0|3:0,0:0:0:0:
208,245,58229,1,0,3:0:0:0:
208,245,58301,2,0,L|89:232,1,113.999996520996,10|0,0:0|3:0,0:0:0:0:
181,160,58589,6,0,B|191:126|191:126|172:74,2,75.9999976806641,8|8|8,0:0|0:0|0:0,0:0:0:0:
249,312,58878,2,0,B|259:346|259:346|240:398,2,75.9999976806641
336,134,59166,2,0,B|346:100|346:100|327:48,2,75.9999976806641
508,233,59455,6,0,L|385:201,1,113.999996520996,10|0,0:0|3:0,0:0:0:0:
272,364,59743,2,0,B|283:291|315:340|327:263,1,113.999996520996,8|0,0:0|3:0,0:0:0:0:
259,88,60031,2,0,B|247:160|215:111|203:188,1,113.999996520996,10|0,0:0|3:0,0:0:0:0:
508,233,60320,5,10,0:0:0:0:
508,233,60464,1,10,0:0:0:0:
272,246,60608,2,0,B|372:223|331:303|443:268,1,170.999994781494,2|0,3:0|0:0,0:0:0:0:
508,233,60897,5,8,0:0:0:0:
493,177,60969,1,8,0:0:0:0:
478,122,61041,1,0,3:0:0:0:
464,67,61113,1,0,3:0:0:0:
450,12,61185,5,0,0:0:0:0:
446,28,61257,1,0,0:0:0:0:
443,45,61329,1,0,3:0:0:0:
439,62,61401,1,0,3:0:0:0:
387,88,61474,5,0,0:0:0:0:
390,104,61546,1,0,0:0:0:0:
393,121,61618,1,0,3:0:0:0:
397,138,61690,1,0,3:0:0:0:
370,188,61762,5,10,3:0:0:0:
165,140,61906,1,10,3:0:0:0:
249,25,62051,6,0,P|261:61|253:100,2,75.9999976806641,6|0|2,3:0|3:0|3:0,0:0:0:0:
288,186,62339,2,0,P|276:222|284:261,2,75.9999976806641,8|8|8,0:0|0:0|0:0,0:0:0:0:
253,334,62628,5,6,3:2:0:0:
253,334,62772,1,6,3:2:0:0:
167,228,62916,2,0,L|27:250,1,113.999996520996,14|2,0:0|3:0,0:0:0:0:
8,369,63205,2,0,L|120:351,1,113.999996520996,14|2,0:3|3:0,0:0:0:0:
253,334,63493,5,10,3:0:0:0:
253,334,63637,1,0,3:0:0:0:
246,143,63781,2,0,B|251:182|251:182|283:198|283:198|301:233|279:307,1,170.999994781494,10|0,0:0|0:0,0:0:0:0:
253,334,64070,5,10,0:0:0:0:
253,334,64214,1,0,3:0:0:0:
358,341,64358,2,0,B|381:316|381:316|424:317|452:362,1,113.999996520996,14|0,0:0|3:0,0:0:0:0:
172,239,64647,2,0,B|149:264|149:264|106:263|78:218,1,113.999996520996,14|0,0:0|3:0,0:0:0:0:
242,17,64935,5,6,3:2:0:0:
261,90,65031,1,0,0:0:0:0:
281,163,65127,1,0,0:0:0:0:
135,125,65224,5,4,3:2:0:0:
188,71,65320,1,0,0:0:0:0:
242,17,65416,1,0,0:0:0:0:
281,163,65512,5,4,3:2:0:0:
207,144,65608,1,0,0:0:0:0:
135,125,65704,1,0,0:0:0:0:
63,109,65801,6,0,L|92:287,1,170.999994781494,6|0,3:0|0:0,0:0:0:0:
135,125,66089,6,0,L|164:303,1,142.5,6|0,3:0|0:0,0:0:0:0:
207,144,66378,6,0,L|227:266,1,114,6|0,3:0|0:0,0:0:0:0:
281,163,66666,6,0,L|295:250,1,85.4999973907472,12|0,0:0|0:0,0:0:0:0:
310,316,66955,5,6,3:0:0:0:
310,316,67099,1,0,3:0:0:0:
484,262,67243,2,0,B|466:289|466:289|374:268,1,113.999996520996,10|0,0:0|0:0,0:0:0:0:
424,133,67531,1,2,3:0:0:0:
424,133,67675,1,0,3:0:0:0:
250,79,67819,2,0,B|268:106|268:106|360:85,1,113.999996520996,10|0,0:0|0:0,0:0:0:0:
512,94,68108,6,0,P|483:118|480:194,1,113.999996520996,2|0,3:0|3:0,0:0:0:0:
416,384,68397,2,0,P|384:332|301:298,1,113.999996520996,10|0,0:0|0:0,0:0:0:0:
115,271,68685,2,0,B|139:303|139:303|237:278,1,113.999996520996,2|0,3:0|3:0,0:0:0:0:
99,139,68974,2,0,B|75:107|75:107|-23:132,1,113.999996520996,10|0,0:0|0:0,0:0:0:0:
176,206,69262,5,6,3:0:0:0:
176,206,69406,1,0,3:0:0:0:
248,52,69551,2,0,B|250:121|288:86|294:164,1,113.999996520996,10|0,0:0|0:0,0:0:0:0:
415,208,69839,1,2,3:0:0:0:
415,208,69983,1,0,3:0:0:0:
343,362,70128,2,0,B|341:293|303:328|297:250,1,113.999996520996,10|0,0:0|0:0,0:0:0:0:
395,120,70416,5,2,3:0:0:0:
298,261,70560,1,0,3:0:0:0:
242,64,70705,1,10,0:0:0:0:
98,148,70849,1,0,0:0:0:0:
91,169,70921,1,0,3:0:0:0:
84,191,70993,1,14,0:0:0:0:
52,292,71137,1,0,3:0:0:0:
30,91,71281,2,0,B|77:77|112:129|91:130|116:170|192:164,1,170.999994781494,10|0,0:0|0:0,0:0:0:0:
223,136,71570,5,6,3:0:0:0:
223,136,71714,1,0,3:0:0:0:
314,0,71858,2,0,B|289:40|289:40|304:115,1,113.999996520996,10|0,0:0|0:0,0:0:0:0:
146,233,72147,1,2,3:0:0:0:
146,233,72291,1,0,3:0:0:0:
237,369,72435,2,0,B|212:329|212:329|227:254,1,113.999996520996,10|0,0:0|0:0,0:0:0:0:
379,193,72724,6,0,L|402:308,1,113.999996520996,2|0,3:0|3:0,0:0:0:0:
512,66,73012,2,0,B|504:100|504:100|426:128,1,113.999996520996,10|0,0:0|0:0,0:0:0:0:
229,0,73301,2,0,B|303:26|303:26|311:60,1,113.999996520996,2|0,3:0|3:0,0:0:0:0:
191,216,73589,2,0,L|213:104,1,113.999996520996,10|0,0:0|0:0,0:0:0:0:
310,171,73878,5,6,3:0:0:0:
310,171,74022,1,0,3:0:0:0:
128,129,74166,2,0,P|172:161|183:252,1,113.999996520996,10|0,0:0|0:0,0:0:0:0:
104,320,74455,1,2,3:0:0:0:
104,320,74599,1,0,3:0:0:0:
286,278,74743,2,0,P|242:310|231:401,1,113.999996520996,10|0,0:0|0:0,0:0:0:0:
190,215,75031,5,10,0:0:0:0:
368,311,75176,1,0,0:0:0:0:
372,288,75248,1,0,3:0:0:0:
376,266,75320,1,10,0:0:0:0:
186,200,75464,1,0,0:0:0:0:
181,177,75536,1,0,3:0:0:0:
177,155,75608,1,10,0:0:0:0:
157,68,75753,1,0,0:0:0:0:
285,0,75897,2,0,L|265:194,1,170.999994781494,10|0,0:0|0:0,0:0:0:0:
256,225,76185,5,6,3:0:0:0:
440,157,76330,1,0,3:0:0:0:
440,157,76618,1,0,3:0:0:0:
418,336,76762,1,14,0:0:0:0:
418,336,77051,1,2,3:0:0:0:
509,298,77195,1,0,3:0:0:0:
509,298,77483,5,0,3:0:0:0:
351,212,77628,1,0,3:0:0:0:
351,212,77916,1,10,0:0:0:0:
509,126,78061,1,0,3:0:0:0:
509,126,78349,1,0,3:0:0:0:
424,31,78493,5,6,3:2:0:0:
351,212,78781,1,0,3:0:0:0:
351,212,78926,1,0,3:0:0:0:
462,267,79070,1,0,0:0:0:0:
417,381,79214,1,0,3:0:0:0:
417,381,79358,1,0,3:0:0:0:
78,248,79647,6,0,B|38:237|38:237|15:157,1,113.999996520996,6|0,3:2|3:0,0:0:0:0:
104,324,79935,2,0,L|-13:379,1,113.999996520996,0|0,0:0|3:0,0:0:0:0:
7,350,80152,1,0,3:0:0:0:
13,328,80224,1,10,0:0:0:0:
167,254,80368,1,0,3:0:0:0:
301,384,80512,2,0,P|242:350|233:303,1,113.999996520996,6|8,0:2|0:0,0:0:0:0:
286,222,80801,5,6,3:0:0:0:
245,53,80945,1,0,3:0:0:0:
245,53,81233,1,0,3:0:0:0:
104,149,81377,1,14,0:0:0:0:
104,149,81666,1,2,3:0:0:0:
197,169,81810,1,0,3:0:0:0:
197,169,82099,5,0,3:0:0:0:
92,313,82243,1,0,3:0:0:0:
92,313,82531,1,10,0:0:0:0:
0,185,82676,1,0,3:0:0:0:
0,185,82964,1,0,3:0:0:0:
117,127,83108,5,6,3:2:0:0:
200,347,83397,1,0,3:0:0:0:
200,347,83541,1,0,3:0:0:0:
294,257,83685,1,0,0:0:0:0:
415,316,83830,1,0,3:0:0:0:
415,316,83974,1,0,3:0:0:0:
114,27,84262,6,0,L|145:142,1,113.999996520996,6|0,3:2|3:0,0:0:0:0:
300,373,84551,2,0,L|329:262,1,113.999996520996,0|0,0:0|3:0,0:0:0:0:
336,241,84767,1,0,3:0:0:0:
344,219,84839,1,10,0:0:0:0:
423,323,84983,1,0,3:0:0:0:
254,159,85128,5,8,0:0:0:0:
309,147,85200,1,8,0:0:0:0:
365,135,85272,1,8,0:0:0:0:
421,123,85344,1,8,0:0:0:0:
477,111,85416,5,6,0:0:0:0:
256,192,85506,12,10,90870,0:0:0:0:
256,192,91234,5,6,3:0:0:0:
256,192,91325,12,2,94870,0:0:0:0:
258,147,95052,6,0,L|265:100,2,31.6666666666667,0|0|0,3:0|3:0|3:0,0:0:0:0:
256,192,95234,5,14,0:2:0:0:
256,192,95597,5,6,3:2:0:0:
256,192,95961,5,6,3:2:0:0:
371,265,96324,5,10,0:0:0:0:
206,306,96506,2,0,L|159:318,2,31.6666666666667,0|0|0,3:0|3:0|3:0,0:0:0:0:
311,370,96688,6,0,L|280:259,1,106.875004076958,10|0,0:0|0:0,0:0:0:0:
325,197,97052,6,0,L|336:150,3,47.5,6|2|10|2,3:0|3:0|0:0|3:0,0:0:0:0:
325,69,98506,2,0,L|336:22,3,47.5,2|2|10|2,3:0|3:0|0:0|3:0,0:0:0:0:
398,103,99961,6,0,L|444:114,1,47.5,6|6,3:0|3:0,0:0:0:0:
512,132,100688,1,10,0:0:0:0:
423,211,100870,1,0,3:0:0:0:
419,191,100961,1,0,3:0:0:0:
414,171,101052,1,10,0:0:0:0:
302,71,101233,1,0,3:0:0:0:
297,91,101324,1,0,3:0:0:0:
293,110,101415,2,0,L|246:98,1,47.5,6|6,3:0|3:0,0:0:0:0:
49,144,102142,2,0,P|82:165|126:155,1,83.125,14|0,0:0|0:0,0:0:0:0:
182,105,102870,5,6,3:0:0:0:
183,116,102960,1,0,3:0:0:0:
185,128,103051,1,0,3:0:0:0:
187,140,103142,1,0,3:0:0:0:
205,149,103233,5,2,3:0:0:0:
203,160,103325,1,0,3:0:0:0:
201,172,103416,1,0,3:0:0:0:
199,184,103506,1,0,3:0:0:0:
213,198,103597,6,0,L|268:192,1,47.5,10|2,0:0|3:0,0:0:0:0:
181,295,104324,6,0,L|133:278,1,47.5,2|2,3:0|3:0,0:0:0:0:
31,242,105052,1,10,0:0:0:0:
78,349,105233,1,0,3:0:0:0:
148,199,105415,1,10,0:0:0:0:
297,255,105597,1,0,3:0:0:0:
297,255,105688,1,0,3:0:0:0:
297,255,105779,6,0,P|317:236|324:216,1,47.5,6|2,3:0|3:0,0:0:0:0:
246,106,106506,1,10,0:0:0:0:
382,33,106688,1,0,3:0:0:0:
386,52,106779,1,0,3:0:0:0:
391,71,106870,1,10,0:0:0:0:
511,149,107052,1,0,3:0:0:0:
507,168,107143,1,0,3:0:0:0:
502,187,107233,6,0,L|512:222,1,35.625,14|0,0:0|3:0,0:0:0:0:
469,281,107597,2,0,L|459:287,5,7.91666666666667,8|0|0|0|0|0,0:0|0:0|3:0|3:0|3:0|3:0,0:0:0:0:
451,374,107961,2,0,P|430:349|381:327,1,83.125,14|0,0:0|0:0,0:0:0:0:
295,333,108688,6,0,L|241:348,3,47.5,6|2|10|2,3:0|0:0|0:0|3:0,0:0:0:0:
231,269,110143,2,0,L|177:284,3,47.5,2|2|10|2,3:0|3:0|0:0|3:0,0:0:0:0:
291,162,111597,2,0,L|345:177,1,47.5,6|6,3:0|3:0,0:0:0:0:
194,137,112324,1,10,0:0:0:0:
290,68,112506,1,0,3:0:0:0:
296,48,112597,1,0,3:0:0:0:
301,28,112688,1,10,0:0:0:0:
99,52,112870,1,0,3:0:0:0:
93,32,112961,1,0,3:0:0:0:
87,12,113052,6,0,L|72:63,1,47.5,6|6,3:0|3:0,0:0:0:0:
41,178,113779,1,14,0:0:0:0:
2,92,113961,2,0,P|27:121|34:142,1,59.375,0|0,3:0|0:0,0:0:0:0:
0,248,114506,5,6,3:0:0:0:
10,242,114596,1,0,3:0:0:0:
21,238,114687,1,0,3:0:0:0:
33,237,114778,1,0,3:0:0:0:
45,238,114869,1,2,3:0:0:0:
56,241,114960,1,0,3:0:0:0:
67,247,115051,1,0,3:0:0:0:
76,254,115142,1,0,3:0:0:0:
84,263,115233,5,10,0:0:0:0:
116,367,115597,1,2,3:0:0:0:
265,288,115961,2,0,L|209:298,1,47.5,2|2,3:0|3:0,0:0:0:0:
116,367,116688,1,10,0:0:0:0:
198,294,116870,1,0,3:0:0:0:
97,218,117052,2,0,L|103:192,1,23.75,10|0,0:0|3:0,0:0:0:0:
120,116,117324,1,0,3:0:0:0:
120,116,117415,6,0,P|142:122|165:145,1,47.5,6|6,3:0|3:0,0:0:0:0:
198,204,118142,1,10,0:0:0:0:
280,116,118324,1,0,3:0:0:0:
286,135,118415,1,0,3:0:0:0:
293,153,118506,1,10,0:0:0:0:
396,211,118688,1,0,3:0:0:0:
390,230,118779,1,0,3:0:0:0:
383,248,118870,5,6,3:0:0:0:
279,321,119052,1,0,3:0:0:0:
279,321,119142,1,0,3:0:0:0:
279,321,119234,2,0,L|250:327,3,17.4166671981812,8|0|0|0,0:0|0:0|0:0|3:0,0:0:0:0:
390,365,119597,2,0,L|419:372,3,17.4166671981812,8|8|8|0,0:0|0:0|0:0|3:0,0:0:0:0:
369,258,119961,5,8,0:0:0:0:
406,241,120051,1,8,0:0:0:0:
448,243,120142,1,8,0:0:0:0:
484,263,120233,1,8,0:0:0:0:
507,298,120324,1,14,0:0:0:0:
256,192,131597,5,6,0:2:0:0:
256,328,131961,1,4,3:2:0:0:
256,48,137052,5,4,0:2:0:0:
256,119,137415,1,2,2:0:0:0:
256,192,137779,1,4,0:2:0:0:
134,196,143597,6,0,P|84:196|52:152,1,104.500003189087,6|0,3:0|0:0,0:0:0:0:
196,114,144324,2,0,L|208:198,2,78.3750023918153,10|0|0,0:0|0:0|0:0,0:0:0:0:
292,24,145052,6,0,B|269:44|269:44|284:123,1,104.500003189087,6|0,3:0|0:0,0:0:0:0:
306,225,145597,1,0,3:0:0:0:
306,225,145688,1,0,3:0:0:0:
306,225,145779,1,10,0:0:0:0:
440,193,145961,2,0,P|411:201|380:293,1,130.625003986359,0|0,3:0|0:0,0:0:0:0:
378,331,146506,6,0,P|410:308|473:309,1,104.500003189087,6|0,3:0|0:0,0:0:0:0:
316,376,147052,1,0,3:0:0:0:
316,376,147142,1,0,3:0:0:0:
316,376,147233,2,0,L|299:300,2,78.3750023918153,10|2|0,0:0|0:0|3:0,0:0:0:0:
362,248,147961,6,0,P|371:225|397:206,2,52.2500015945435,2|0|2,0:0|3:0|3:0,0:0:0:0:
230,273,148688,1,10,0:0:0:0:
152,206,148870,1,2,3:0:0:0:
230,273,149052,1,10,0:0:0:0:
300,130,149415,6,0,P|296:85|274:22,1,104.500003189087,6|0,3:0|0:0,0:0:0:0:
161,53,149961,1,0,3:0:0:0:
161,53,150052,1,0,3:0:0:0:
161,53,150143,2,0,L|79:35,2,78.3750023918153,10|2|0,0:0|0:0|3:0,0:0:0:0:
173,73,151052,5,0,3:0:0:0:
108,153,151233,2,0,L|5:128,1,104.500003189087,6|10,3:0|0:0,0:0:0:0:
96,246,151779,1,0,3:0:0:0:
96,246,151870,1,0,3:0:0:0:
96,246,151961,2,0,P|120:231|178:228,1,78.3750023918153,10|0,0:0|0:0,0:0:0:0:
260,214,152324,6,0,L|247:324,1,104.500003189087,6|0,3:0|0:0,0:0:0:0:
333,382,152870,1,0,3:0:0:0:
333,382,152961,1,0,3:0:0:0:
333,382,153052,2,0,P|368:354|404:350,2,78.3750023918153,10|2|0,0:0|0:0|3:0,0:0:0:0:
321,364,153961,5,0,3:0:0:0:
389,277,154143,2,0,L|352:169,1,104.500003189087,2|14,3:0|0:0,0:0:0:0:
330,98,154688,1,0,3:0:0:0:
442,166,154870,1,6,3:2:0:0:
310,262,155052,1,6,0:2:0:0:
459,339,155233,6,0,P|464:307|514:256,1,104.500003189087,6|0,3:0|0:0,0:0:0:0:
442,166,155779,1,0,3:0:0:0:
442,166,155870,1,0,3:0:0:0:
442,166,155961,2,0,L|360:181,2,78.3750023918153,10|2|0,0:0|0:0|3:0,0:0:0:0:
452,149,156870,5,0,3:0:0:0:
377,89,157052,2,0,B|349:65|349:65|365:-1,1,104.500003189087,6|10,3:2|0:0,0:0:0:0:
377,7,157779,1,2,3:0:0:0:
281,94,158142,6,0,L|174:117,1,104.500003189087,6|2,3:0|0:0,0:0:0:0:
59,71,158688,1,0,3:0:0:0:
59,71,158779,1,0,3:0:0:0:
59,71,158870,2,0,P|102:88|120:120,2,78.3750023918153,14|2|0,0:0|0:0|3:0,0:0:0:0:
18,188,159779,5,0,3:0:0:0:
18,188,159870,1,0,3:0:0:0:
18,188,159961,1,2,3:0:0:0:
200,232,160324,1,10,0:0:0:0:
106,300,160506,1,0,3:0:0:0:
205,356,160688,2,0,L|293:345,1,78.3750023918153,14|0,0:0|0:0,0:0:0:0:
327,342,161052,6,0,P|315:298|334:233,1,104.500003189087,6|2,3:0|0:0,0:0:0:0:
405,170,161597,1,0,3:0:0:0:
405,170,161688,1,0,3:0:0:0:
405,170,161779,2,0,P|353:165|327:142,2,78.3750023918153,10|2|0,0:0|0:0|3:0,0:0:0:0:
414,163,162688,5,0,3:0:0:0:
292,210,162870,2,0,P|272:243|270:309,1,104.500003189087,6|10,3:0|0:0,0:0:0:0:
183,205,163415,1,0,3:0:0:0:
190,213,163506,1,0,3:0:0:0:
190,213,163597,1,10,0:0:0:0:
303,124,163779,1,2,3:0:0:0:
189,84,163961,5,8,0:0:0:0:
183,69,164051,1,8,0:0:0:0:
178,54,164142,1,0,3:0:0:0:
173,39,164233,1,0,3:0:0:0:
165,25,164324,5,8,0:0:0:0:
147,44,164416,1,8,0:0:0:0:
125,58,164505,1,8,0:0:0:0:
100,64,164596,1,8,0:0:0:0:
74,61,164687,5,0,3:0:0:0:
79,76,164779,1,0,3:0:0:0:
54,100,164870,5,8,0:0:0:0:
51,126,164960,1,8,0:0:0:0:
49,152,165051,1,8,0:0:0:0:
46,178,165142,1,8,0:0:0:0:
29,196,165233,5,0,3:0:0:0:
38,208,165324,1,0,3:0:0:0:
47,220,165415,5,8,0:0:0:0:
69,206,165505,1,8,0:0:0:0:
94,201,165596,1,0,3:0:0:0:
120,205,165687,1,0,3:0:0:0:
143,218,165780,5,0,0:0:0:0:
163,213,165870,1,0,0:0:0:0:
183,209,165961,1,0,0:0:0:0:
204,204,166052,1,0,0:0:0:0:
223,222,166142,5,0,3:0:0:0:
243,217,166234,1,0,3:0:0:0:
263,213,166325,1,0,3:0:0:0:
284,208,166416,1,0,3:0:0:0:
310,205,166506,6,0,L|300:294,1,78.3750023918153,10|0,0:0|0:0,0:0:0:0:
289,360,166870,5,6,3:0:0:0:
375,258,167052,1,0,3:0:0:0:
440,382,167233,1,6,3:0:0:0:
440,382,167597,1,10,0:0:0:0:
289,360,167961,5,2,3:0:0:0:
375,258,168143,1,0,3:0:0:0:
440,382,168324,1,2,3:0:0:0:
440,382,168688,5,10,0:0:0:0:
498,325,168870,1,0,3:0:0:0:
498,325,168961,1,0,3:0:0:0:
498,325,169052,1,12,0:0:0:0:
375,258,169233,1,0,3:0:0:0:
512,157,169415,2,0,L|420:179,1,78.3750023918153,14|0,0:2|0:0,0:0:0:0:
318,203,169779,5,6,3:0:0:0:
232,101,169961,1,0,3:0:0:0:
167,225,170142,1,6,3:0:0:0:
167,225,170506,1,10,0:0:0:0:
318,203,170870,5,2,3:0:0:0:
232,101,171052,1,0,3:0:0:0:
167,225,171233,1,2,3:0:0:0:
167,225,171597,5,10,0:0:0:0:
109,168,171779,1,0,3:0:0:0:
109,168,171870,1,0,3:0:0:0:
109,168,171961,1,12,0:0:0:0:
232,101,172142,1,0,3:0:0:0:
95,0,172324,2,0,L|187:22,1,78.3750023918153,14|0,0:2|0:0,0:0:0:0:
297,50,172688,5,6,3:0:0:0:
404,30,172870,1,0,3:0:0:0:
511,8,173052,1,6,3:0:0:0:
511,8,173415,1,10,0:0:0:0:
297,50,173779,5,2,3:0:0:0:
404,30,173961,1,0,3:0:0:0:
511,8,174143,5,2,3:0:0:0:
443,102,174324,1,0,0:0:0:0:
375,193,174506,1,10,0:0:0:0:
504,234,174688,1,0,3:0:0:0:
504,234,174779,1,0,3:0:0:0:
504,234,174870,1,12,0:0:0:0:
366,116,175052,1,0,3:0:0:0:
296,264,175233,2,0,L|322:354,1,78.3750023918153,14|0,0:2|0:0,0:0:0:0:
222,342,175597,5,6,3:0:0:0:
115,362,175779,1,0,3:0:0:0:
8,384,175961,1,6,3:0:0:0:
8,384,176324,1,10,0:0:0:0:
222,342,176688,5,2,3:0:0:0:
115,362,176870,1,0,3:0:0:0:
8,384,177052,5,2,3:0:0:0:
76,290,177233,1,0,0:0:0:0:
144,199,177415,1,10,0:0:0:0:
15,158,177597,1,0,3:0:0:0:
15,158,177688,1,0,3:0:0:0:
15,158,177779,1,12,0:0:0:0:
232,224,177961,1,0,3:0:0:0:
232,224,178052,1,0,3:0:0:0:
232,224,178142,5,8,0:2:0:0:
224,198,178234,1,8,0:0:0:0:
217,173,178325,1,8,0:0:0:0:
210,148,178416,1,8,0:0:0:0:
214,122,178506,5,6,3:0:0:0:
333,47,178688,1,0,3:0:0:0:
214,122,178870,1,6,3:0:0:0:
214,122,179233,1,10,0:0:0:0:
214,122,179597,5,2,3:0:0:0:
333,47,179779,1,0,3:0:0:0:
214,122,179961,5,2,3:0:0:0:
308,173,180142,1,0,0:0:0:0:
223,3,180324,1,10,0:0:0:0:
94,116,180506,1,0,3:0:0:0:
94,116,180597,1,0,3:0:0:0:
94,116,180688,1,12,0:0:0:0:
221,19,180870,1,0,3:0:0:0:
189,198,181052,2,0,L|175:292,1,78.3750023918153,14|0,0:2|0:0,0:0:0:0:
121,239,181415,5,6,3:0:0:0:
240,314,181597,1,0,3:0:0:0:
121,239,181779,1,6,3:0:0:0:
121,239,182142,1,10,0:0:0:0:
121,239,182506,5,2,3:0:0:0:
240,314,182688,1,0,3:0:0:0:
121,239,182870,5,2,3:0:0:0:
215,188,183051,1,0,0:0:0:0:
130,358,183233,1,10,0:0:0:0:
1,245,183415,1,0,3:0:0:0:
1,245,183506,1,0,3:0:0:0:
1,245,183597,1,12,0:0:0:0:
128,342,183779,1,0,3:0:0:0:
70,126,183961,1,14,0:2:0:0:
70,126,184142,1,10,0:0:0:0:
200,212,184324,5,6,3:0:0:0:
217,90,184506,1,0,3:0:0:0:
136,5,184688,1,6,3:0:0:0:
136,5,185052,1,10,0:0:0:0:
200,212,185415,5,2,3:0:0:0:
217,90,185597,1,0,3:0:0:0:
136,5,185779,5,2,3:0:0:0:
224,74,185961,1,0,0:0:0:0:
321,12,186142,1,10,0:0:0:0:
409,81,186324,1,0,3:0:0:0:
409,81,186415,1,0,3:0:0:0:
409,81,186506,1,12,0:0:0:0:
324,195,186688,1,0,3:0:0:0:
497,286,186870,2,0,L|456:201,1,78.3750023918153,14|0,0:2|0:0,0:0:0:0:
391,156,187233,5,6,3:0:0:0:
363,275,187415,1,2,3:0:0:0:
228,127,187597,1,8,0:0:0:0:
264,331,187779,1,0,0:0:0:0:
305,186,187961,5,14,0:0:0:0:
305,186,188142,1,10,0:0:0:0:
114,240,188324,1,2,3:0:0:0:
114,240,188506,1,0,3:0:0:0:
169,61,188688,5,14,0:0:0:0:
16,24,188870,1,0,3:0:0:0:
16,24,188961,1,0,3:0:0:0:
16,24,189052,5,0,0:0:0:0:
26,47,189142,1,0,0:0:0:0:
30,73,189233,1,0,0:0:0:0:
26,99,189324,1,0,0:0:0:0:
46,115,189415,5,0,0:0:0:0:
35,138,189505,1,0,0:0:0:0:
31,164,189596,1,0,0:0:0:0:
35,190,189687,1,0,0:0:0:0:
28,215,189779,5,8,0:0:0:0:
66,207,189869,1,8,0:0:0:0:
105,200,189960,1,8,0:0:0:0:
143,193,190051,1,8,0:0:0:0:
182,185,190142,5,6,3:0:0:0:
256,192,190325,12,0,200234,0:0:0:0:
