osu file format v14

[General]
AudioFilename: audio.mp3
AudioLeadIn: 0
PreviewTime: 36955
Countdown: 1
SampleSet: Soft
StackLeniency: 0.7
Mode: 0
LetterboxInBreaks: 0
WidescreenStoryboard: 1

[Editor]
DistanceSpacing: 0.5
BeatDivisor: 4
GridSize: 32
TimelineZoom: 2.3

[Metadata]
Title:Vanished truth
TitleUnicode:Vanished truth
Artist:Draw the Emotional feat. Meramipop
ArtistUnicode:Draw the Emotional feat. めらみぽっぷ
Creator:IsomirDiAngelo
Version:ShadowX's Light Insane
Source:東方星蓮船 ~ Undefined Fantastic Object.
Tags:seto kousuke shirahane suou hey lululu lu^3 shadowx yshadowxop_ itswinter silence player 平安のエイリアン Heian Alien 東方Project 締め切り前日のおまいら ゆよゆっぺ yuyoyuppe zun Touhou C78 Comiket 78 Collapse of the sky 封獣 ぬえ Houjuu Nue 上海アリス幻樂団 Team Shanghai Alice rock metal japanese video game
BeatmapID:2087238
BeatmapSetID:984365

[Difficulty]
HPDrainRate:4.5
CircleSize:3.5
OverallDifficulty:7
ApproachRate:8.5
SliderMultiplier:1.6
SliderTickRate:1

[Events]
//Background and Video events
0,0,"bg.jpg",0,0
//Break Periods
2,120524,131286
//Storyboard Layer 0 (Background)
//Storyboard Layer 1 (Fail)
//Storyboard Layer 2 (Pass)
//Storyboard Layer 3 (Foreground)
//Storyboard Layer 4 (Overlay)
//Storyboard Sound Samples

[TimingPoints]
32,288.461538461538,4,2,1,60,1,0
32,-200,4,2,1,60,0,0
320,-200,4,2,1,60,0,0
2339,-200,4,2,1,60,0,0
2628,-100,4,2,1,60,0,0
3493,-90.9090909090909,4,2,1,60,0,0
3709,-90.9090909090909,4,2,1,5,0,0
3781,-333.333333333334,4,2,1,60,0,0
3998,-333.333333333334,4,2,1,5,0,0
4070,-76.9230769230769,4,2,1,60,0,0
4214,-76.9230769230769,4,2,1,75,0,0
4286,-76.9230769230769,4,2,1,60,0,0
4647,-200,4,2,1,60,0,0
4935,-200,4,2,1,60,0,0
6955,-200,4,2,1,60,0,0
7531,-100,4,2,1,60,0,0
8685,-200,4,2,1,60,0,0
8974,-125,4,3,20,60,0,0
9262,-86.9565217391304,4,2,1,60,0,0
13589,-66.6666666666667,4,2,1,60,0,0
13805,-66.6666666666667,4,2,1,5,0,0
13878,-90.9090909090909,4,2,1,60,0,0
17339,-90.9090909090909,4,3,8,60,0,0
17483,-90.9090909090909,4,2,1,75,0,0
17628,-90.9090909090909,4,2,1,60,0,0
17988,-90.9090909090909,4,3,8,65,0,0
18060,-90.9090909090909,4,3,9,60,0,0
18132,-90.9090909090909,4,2,1,75,0,0
18205,-90.9090909090909,4,2,1,60,0,0
18493,-100,4,2,1,60,0,0
22531,-76.9230769230769,4,2,1,60,0,0
22748,-76.9230769230769,4,2,1,5,0,0
22820,-100,4,2,1,60,0,0
23108,-100,4,2,1,60,0,0
27147,-100,4,2,1,60,0,0
27435,-76.9230769230769,4,2,1,60,0,0
27652,-76.9230769230769,4,2,1,5,0,0
27724,-1000,4,2,1,60,0,0
27940,-1000,4,2,1,5,0,0
28012,-95.2380952380952,4,2,1,60,0,0
32339,-90.9090909090909,4,2,1,60,0,0
35512,-100,4,2,1,60,0,0
35801,-100,4,2,1,60,0,0
36522,-100,4,3,8,60,0,0
36666,-100,4,2,1,60,0,0
36955,-90.9090909090909,4,2,1,60,0,0
38540,-90.9090909090909,4,2,1,70,0,0
38685,-90.9090909090909,4,2,1,60,0,0
38902,-90.9090909090909,4,2,1,60,0,0
43156,-90.9090909090909,4,2,1,70,0,0
43301,-90.9090909090909,4,2,1,60,0,0
43517,-90.9090909090909,4,2,1,60,0,0
43590,-90.9090909090909,4,2,1,70,0,0
43733,-90.9090909090909,4,2,1,60,0,0
44959,-90.9090909090909,4,2,1,5,0,0
45032,-90.9090909090909,4,2,1,60,0,0
45680,-90.9090909090909,4,3,8,60,0,0
45681,-90.9090909090909,4,3,8,60,0,0
45752,-90.9090909090909,4,3,9,60,0,0
45753,-90.9090909090909,4,3,9,60,0,0
45824,-90.9090909090909,4,2,1,60,0,0
45825,-90.9090909090909,4,2,1,60,0,0
47771,-90.9090909090909,4,2,1,70,0,0
47916,-90.9090909090909,4,2,1,60,0,0
48132,-90.9090909090909,4,2,1,60,0,0
51594,-90.9090909090909,4,2,1,70,0,0
51955,-90.9090909090909,4,2,1,60,0,0
52603,-90.9090909090909,4,3,8,60,0,0
52604,-90.9090909090909,4,3,8,60,0,0
52675,-90.9090909090909,4,3,9,60,0,0
52676,-90.9090909090909,4,3,9,60,0,0
52747,-90.9090909090909,4,2,1,60,0,0
52748,-90.9090909090909,4,2,1,60,0,0
53108,-83.3333333333333,4,2,1,60,0,0
54262,-83.3333333333333,4,2,1,60,0,0
54479,-83.3333333333333,4,2,1,60,0,0
54551,-83.3333333333333,4,2,1,60,0,0
55705,-83.3333333333333,4,3,8,60,0,0
55993,-83.3333333333333,4,3,9,60,0,0
56281,-83.3333333333333,4,2,1,60,0,0
56570,-76.9230769230769,4,2,1,60,0,0
57147,-100,4,2,1,60,0,0
57652,-100,4,2,1,60,0,0
57724,-83.3333333333333,4,2,1,60,0,0
58878,-83.3333333333333,4,3,8,60,0,0
59166,-83.3333333333333,4,3,9,60,0,0
59455,-83.3333333333333,4,2,1,60,0,0
60608,-71.4285714285714,4,2,1,60,0,0
60825,-71.4285714285714,4,2,1,60,0,0
60897,-83.3333333333333,4,2,1,60,0,0
61185,-83.3333333333333,4,3,8,60,0,0
61329,-83.3333333333333,4,2,1,60,0,0
61330,-83.3333333333333,4,2,1,60,0,0
61474,-83.3333333333333,4,3,9,60,0,0
61618,-83.3333333333333,4,2,1,60,0,0
61619,-83.3333333333333,4,2,1,60,0,0
63781,-83.3333333333333,4,2,1,60,0,0
63998,-83.3333333333333,4,2,1,60,0,0
64070,-83.3333333333333,4,2,1,60,0,0
65224,-76.9230769230769,4,2,1,60,0,0
65512,-71.4285714285714,4,2,1,60,0,0
65801,-111.111111111111,4,2,1,60,0,0
66017,-111.111111111111,4,2,1,5,0,0
66089,-111.111111111111,4,2,1,60,0,0
66306,-111.111111111111,4,2,1,5,0,0
66378,-111.111111111111,4,2,1,60,0,0
66594,-111.111111111111,4,2,1,5,0,0
66666,-142.857142857143,4,2,1,60,0,0
66882,-142.857142857143,4,2,1,5,0,0
66955,-90.9090909090909,4,2,1,60,0,0
71281,-76.9230769230769,4,2,1,60,0,0
71497,-76.9230769230769,4,2,1,5,0,0
71570,-90.9090909090909,4,2,1,60,0,0
75031,-76.9230769230769,4,2,1,60,0,0
75608,-125,4,2,1,60,0,0
75824,-125,4,2,1,5,0,0
75897,-66.6666666666667,4,2,1,60,0,0
76113,-66.6666666666667,4,2,1,5,0,0
76185,-133.333333333333,4,2,1,60,0,0
79502,-133.333333333333,4,2,1,65,0,0
79575,-133.333333333333,4,2,1,5,0,0
79647,-100,4,2,1,60,0,0
79935,-100,4,2,1,65,0,0
80079,-100,4,2,1,60,0,0
80801,-133.333333333333,4,2,1,60,0,0
81594,-133.333333333333,4,2,1,5,0,0
81666,-133.333333333333,4,2,1,60,0,0
84118,-133.333333333333,4,2,1,65,0,0
84262,-133.333333333333,4,2,1,60,0,0
84551,-133.333333333333,4,2,1,65,0,0
84695,-133.333333333333,4,2,1,60,0,0
85128,-133.333333333333,4,2,1,60,0,0
85416,363.636363636364,4,2,1,60,1,0
85416,-166.666666666667,4,2,1,60,0,0
85417,-166.666666666667,4,2,1,60,0,0
85506,-166.666666666667,4,2,1,75,0,0
90870,-166.666666666667,4,2,1,60,0,0
91234,-166.666666666667,4,2,1,60,0,0
91961,-166.666666666667,4,2,1,60,0,0
95052,-166.666666666667,4,2,1,60,0,0
95234,-76.9230769230769,4,2,1,60,0,0
95597,-76.9230769230769,4,2,1,60,0,0
96324,-125,4,2,1,60,0,0
96961,-125,4,2,1,5,0,0
97052,-90.9090909090909,4,2,1,60,0,0
97233,-90.9090909090909,4,2,1,65,0,0
97325,-90.9090909090909,4,2,1,5,0,0
97415,-90.9090909090909,4,2,1,60,0,0
97416,-90.9090909090909,4,2,1,60,0,0
97597,-90.9090909090909,4,2,1,65,0,0
97688,-90.9090909090909,4,2,1,5,0,0
97779,-90.9090909090909,4,2,1,60,0,0
97960,-90.9090909090909,4,2,1,65,0,0
98052,-90.9090909090909,4,2,1,5,0,0
98142,-90.9090909090909,4,2,1,60,0,0
98143,-90.9090909090909,4,2,1,60,0,0
98324,-90.9090909090909,4,2,1,65,0,0
98416,-90.9090909090909,4,2,1,5,0,0
98506,-90.9090909090909,4,2,1,60,0,0
98507,-90.9090909090909,4,2,1,60,0,0
98687,-90.9090909090909,4,2,1,65,0,0
98779,-90.9090909090909,4,2,1,5,0,0
98870,-90.9090909090909,4,2,1,60,0,0
99051,-90.9090909090909,4,2,1,65,0,0
99143,-90.9090909090909,4,2,1,5,0,0
99233,-90.9090909090909,4,2,1,60,0,0
99234,-90.9090909090909,4,2,1,60,0,0
99415,-90.9090909090909,4,2,1,65,0,0
99506,-90.9090909090909,4,2,1,5,0,0
99597,-90.9090909090909,4,2,1,60,0,0
99778,-90.9090909090909,4,2,1,65,0,0
99870,-90.9090909090909,4,2,1,5,0,0
99961,-90.9090909090909,4,2,1,60,0,0
100234,-90.9090909090909,4,2,1,5,0,0
100325,-90.9090909090909,4,2,1,60,0,0
100597,-90.9090909090909,4,2,1,5,0,0
100688,-90.9090909090909,4,2,1,60,0,0
101596,-90.9090909090909,4,2,1,65,0,0
101688,-90.9090909090909,4,2,1,5,0,0
101779,-90.9090909090909,4,2,1,60,0,0
101960,-90.9090909090909,4,2,1,65,0,0
102052,-90.9090909090909,4,2,1,5,0,0
102142,-90.9090909090909,4,2,1,60,0,0
102143,-90.9090909090909,4,2,1,60,0,0
102505,-90.9090909090909,4,2,1,65,0,0
102778,-90.9090909090909,4,2,1,5,0,0
102870,-90.9090909090909,4,2,1,60,0,0
103778,-90.9090909090909,4,2,1,60,0,0
103870,-90.9090909090909,4,2,1,5,0,0
103961,-90.9090909090909,4,2,1,60,0,0
104142,-90.9090909090909,4,2,1,65,0,0
104234,-90.9090909090909,4,2,1,5,0,0
104324,-90.9090909090909,4,2,1,60,0,0
104325,-90.9090909090909,4,2,1,60,0,0
104505,-90.9090909090909,4,2,1,65,0,0
104597,-90.9090909090909,4,2,1,5,0,0
104688,-90.9090909090909,4,2,1,60,0,0
104869,-90.9090909090909,4,2,1,65,0,0
104961,-90.9090909090909,4,2,1,5,0,0
105052,-90.9090909090909,4,2,1,60,0,0
106052,-90.9090909090909,4,2,1,5,0,0
106143,-90.9090909090909,4,2,1,60,0,0
106416,-90.9090909090909,4,2,1,5,0,0
106507,-90.9090909090909,4,2,1,60,0,0
107657,-90.9090909090909,4,3,8,60,0,0
107658,-90.9090909090909,4,3,8,60,0,0
107687,-90.9090909090909,4,3,8,60,0,0
107718,-90.9090909090909,4,3,9,60,0,0
107778,-90.9090909090909,4,3,1,60,0,0
107779,-90.9090909090909,4,3,1,60,0,0
107869,-90.9090909090909,4,3,1,60,0,0
107900,-90.9090909090909,4,3,1,60,0,0
107961,-125,4,2,1,60,0,0
108506,-125,4,2,1,60,0,0
108597,-125,4,2,1,5,0,0
108688,-100,4,2,1,60,0,0
111870,-100,4,2,1,5,0,0
111961,-100,4,2,1,60,0,0
112234,-100,4,2,1,5,0,0
112325,-100,4,2,1,60,0,0
114415,-100,4,2,1,5,0,0
114506,-83.3333333333333,4,2,1,60,0,0
114870,-100,4,2,1,60,0,0
117688,-100,4,2,1,5,0,0
117779,-100,4,2,1,60,0,0
118052,-100,4,2,1,5,0,0
118143,-100,4,2,1,60,0,0
119234,-83.3333333333333,4,2,1,60,0,0
119294,-83.3333333333333,4,3,8,60,0,0
119355,-83.3333333333333,4,3,9,60,0,0
119415,-83.3333333333333,4,2,1,60,0,0
131597,-83.3333333333333,4,2,1,40,0,0
131961,-153.846153846154,4,3,20,60,0,0
133324,-153.846153846154,4,3,20,90,0,0
133506,-153.846153846154,4,3,20,60,0,0
134142,-153.846153846154,4,3,20,55,0,0
134506,-153.846153846154,4,2,1,60,0,0
134688,-153.846153846154,4,3,20,90,0,0
134961,-153.846153846154,4,3,20,60,0,0
139142,-153.846153846154,4,3,20,90,0,0
139234,-153.846153846154,4,3,20,60,0,0
140506,-153.846153846154,4,3,20,90,0,0
140688,-153.846153846154,4,3,20,60,0,0
140779,-153.846153846154,4,3,20,55,0,0
143233,-153.846153846154,4,2,1,60,0,0
143597,-153.846153846154,4,2,1,60,0,0
144142,-153.846153846154,4,2,1,10,0,0
144324,-153.846153846154,4,2,1,60,0,0
146051,-153.846153846154,4,2,1,55,0,0
146324,-153.846153846154,4,2,1,60,0,0
149233,-153.846153846154,4,2,1,10,0,0
149415,-153.846153846154,4,2,1,60,0,0
151415,-153.846153846154,4,2,1,10,0,0
151597,-153.846153846154,4,2,1,60,0,0
157233,-153.846153846154,4,2,1,10,0,0
157415,-153.846153846154,4,2,1,60,0,0
157688,-153.846153846154,4,2,1,60,0,0
157779,-153.846153846154,4,2,1,55,0,0
157961,-153.846153846154,4,2,1,60,0,0
160869,-153.846153846154,4,2,1,10,0,0
161052,-153.846153846154,4,2,1,60,0,0
163051,-153.846153846154,4,2,1,10,0,0
163233,-153.846153846154,4,2,1,60,0,0
163961,-100,4,2,1,60,0,0
165779,-100,4,3,8,60,0,0
165960,-100,4,3,9,60,0,0
165961,-100,4,3,9,60,0,0
166142,-100,4,2,1,60,0,0
166870,-83.3333333333333,4,2,1,60,0,1
169596,-83.3333333333333,4,2,1,10,0,1
169779,-83.3333333333333,4,2,1,60,0,1
172505,-83.3333333333333,4,2,1,10,0,1
172688,-83.3333333333333,4,2,1,60,0,1
175414,-83.3333333333333,4,2,1,10,0,1
175597,-83.3333333333333,4,2,1,60,0,1
178143,-83.3333333333333,4,2,1,60,0,1
178506,-83.3333333333333,4,2,1,60,0,1
181233,-83.3333333333333,4,2,1,10,0,1
181415,-83.3333333333333,4,2,1,60,0,1
189052,-83.3333333333333,4,3,8,80,0,1
189234,-83.3333333333333,4,3,8,80,0,1
189415,-83.3333333333333,4,3,9,80,0,1
189597,-83.3333333333333,4,3,9,80,0,1
189779,-83.3333333333333,4,2,1,60,0,1
189780,-83.3333333333333,4,2,1,60,0,1
190143,-500,4,2,1,60,0,0
190234,-500,4,2,1,30,0,0
191597,-500,4,2,1,26,0,0
193052,-500,4,2,1,22,0,0
194506,-500,4,2,1,17,0,0
195961,-500,4,2,1,12,0,0
197416,-500,4,2,1,7,0,0
199779,-500,4,2,1,5,0,0

[Colours]
Combo1 : 55,117,130
Combo2 : 234,21,21

[HitObjects]
222,259,32,6,0,P|208:224|211:175,3,80,14|2|0|2,3:0|0:0|0:0|0:0,0:0:0:0:
359,183,1185,2,0,P|327:203|279:211,3,80,0|2|0|2,0:0|0:0|0:0|0:0,0:0:0:0:
232,78,2339,2,0,P|265:94|296:133,3,80,6|2|0|2,3:0|0:0|0:0|0:0,0:0:0:0:
209,182,3493,5,6,3:0:0:0:
360,267,3781,1,6,3:0:0:0:
212,355,4070,2,0,L|92:334,1,103.999995239258,10|0,0:0|0:0,0:0:0:0:
94,335,4286,1,0,3:0:0:0:
78,331,4358,2,0,B|70:306|70:306|92:258,3,51.999997619629,8|8|8|8,2:0|2:0|2:0|2:0,0:0:0:0:
92,270,4647,5,6,3:0:0:0:
153,219,4935,1,2,0:0:0:0:
99,159,5224,1,0,0:0:0:0:
38,211,5512,1,2,0:0:0:0:
113,279,5801,5,0,0:0:0:0:
140,204,6089,1,2,0:0:0:0:
63,179,6378,1,0,0:0:0:0:
36,254,6666,1,2,0:0:0:0:
132,273,6955,5,6,3:0:0:0:
202,234,7243,1,2,0:0:0:0:
263,285,7531,2,0,L|243:370,1,80,0|0,0:0|3:0,0:0:0:0:
257,381,7748,1,0,3:0:0:0:
257,381,7820,5,10,0:0:0:0:
387,289,8108,5,6,3:0:0:0:
382,273,8397,1,6,3:0:0:0:
379,265,8685,6,0,P|383:242|390:213,2,40,8|0|2,0:0|0:0|2:3,0:0:0:0:
473,269,9262,6,0,B|372:249|406:328|283:304,1,184.000003509522,14|8,0:0|0:0,0:0:0:0:
219,370,9695,1,8,0:0:0:0:
219,370,9839,2,0,P|199:316|205:269,1,92.0000017547608,8|8,0:0|0:0,0:0:0:0:
154,192,10128,2,0,P|197:227|216:271,1,92.0000017547608,8|8,0:0|0:0,0:0:0:0:
111,322,10416,6,0,L|17:306,1,92.0000017547608,14|8,0:0|0:0,0:0:0:0:
116,339,10705,2,0,L|22:323,1,92.0000017547608,8|8,0:0|0:0,0:0:0:0:
213,258,10993,2,0,L|307:242,1,92.0000017547608,8|8,0:0|0:0,0:0:0:0:
208,275,11282,2,0,L|302:259,1,92.0000017547608,8|8,0:0|0:0,0:0:0:0:
118,118,11570,6,0,B|79:163|79:163|116:296,1,184.000003509522,14|8,0:3|0:0,0:0:0:0:
172,364,12003,1,8,0:0:0:0:
172,364,12147,2,0,L|266:348,1,92.0000017547608,8|8,0:0|0:0,0:0:0:0:
372,335,12435,2,0,L|278:319,1,92.0000017547608,8|8,0:0|0:0,0:0:0:0:
196,239,12724,6,0,P|183:187|195:145,1,92.0000017547608,14|0,0:0|3:0,0:0:0:0:
276,79,13012,2,0,P|237:116|195:126,1,92.0000017547608,14|0,0:0|3:0,0:0:0:0:
180,114,13229,1,0,3:0:0:0:
166,95,13301,2,0,L|179:13,3,46.0000008773804,8|8|0|0,0:0|0:0|3:0|3:0,0:0:0:0:
195,29,13589,5,14,0:0:0:0:
415,86,13878,6,0,L|510:71,1,88.000002685547,14|0,0:3|3:0,0:0:0:0:
381,180,14166,2,0,L|286:165,1,88.000002685547,10|0,0:0|3:0,0:0:0:0:
454,242,14455,2,0,P|474:194|467:148,1,88.000002685547,10|0,0:0|3:0,0:0:0:0:
366,299,14743,2,0,P|397:340|440:357,1,88.000002685547,10|0,0:0|3:0,0:0:0:0:
287,228,15031,6,0,P|240:250|214:289,1,88.000002685547,14|0,0:3|3:0,0:0:0:0:
127,384,15320,2,0,P|131:332|110:290,1,88.000002685547,10|0,0:0|3:0,0:0:0:0:
81,166,15608,2,0,P|123:195|170:198,1,88.000002685547,10|0,0:0|3:0,0:0:0:0:
255,103,15897,2,0,L|239:1,1,88.000002685547,10|0,0:0|3:0,0:0:0:0:
364,134,16185,6,0,L|355:185,4,44.0000013427735,8|8|8|8|0,0:0|0:0|0:0|0:0|3:0,0:0:0:0:
257,251,16618,2,0,L|248:200,4,44.0000013427735,8|8|8|8|0,0:0|0:0|0:0|0:0|3:0,0:0:0:0:
381,278,17051,2,0,L|372:329,2,44.0000013427735,8|8|0,0:0|0:0|3:0,0:0:0:0:
282,377,17339,5,0,0:0:0:0:
270,383,17628,2,0,L|261:332,2,44.0000013427735,8|8|0,0:0|0:0|3:0,0:0:0:0:
257,251,17916,1,8,0:0:0:0:
172,275,18060,1,0,0:0:0:0:
191,188,18205,1,14,0:0:0:0:
325,318,18493,5,6,0:3:0:0:
325,318,18637,2,0,B|391:311|391:311|410:288|410:288|486:278,1,160,2|0,3:0|3:0,0:0:0:0:
349,159,19070,2,0,B|331:195|331:195|344:236,1,80,10|0,0:0|0:0,0:0:0:0:
456,206,19358,6,0,L|393:198,4,40,0|0|0|0|2,3:0|3:0|3:0|3:0|3:2,0:0:0:0:
319,69,19935,6,0,L|382:61,3,40,0|0|0|0,3:0|3:0|3:0|3:0,0:0:0:0:
298,73,20224,6,0,B|325:109|325:109|303:209,2,120,10|0|0,0:0|3:0|3:0,0:0:0:0:
209,34,20801,5,2,0:0:0:0:
131,90,20945,1,0,3:0:0:0:
131,90,21089,2,0,L|33:72,1,80,0|0,3:0|0:0,0:0:0:0:
171,175,21378,2,0,L|269:157,1,80,10|0,0:0|0:0,0:0:0:0:
82,195,21666,6,0,L|20:204,4,40,0|0|0|0|2,3:0|3:0|3:0|3:0|3:2,0:0:0:0:
202,344,22243,6,0,L|140:335,3,40,0|0|0|0,3:0|3:0|3:0|3:0,0:0:0:0:
139,315,22531,2,0,B|220:323|220:323|244:352|244:352|338:364,1,207.999990478516,10|10,0:0|0:0,0:0:0:0:
332,363,23108,5,6,0:3:0:0:
332,363,23253,2,0,B|309:248|309:248|345:213,1,160,2|0,3:0|3:0,0:0:0:0:
480,289,23685,2,0,L|376:274,1,80,10|0,0:0|0:0,0:0:0:0:
273,159,23974,6,0,L|265:104,4,40,0|0|0|0|2,3:0|3:0|3:0|3:0|3:2,0:0:0:0:
446,75,24551,6,0,L|438:130,3,40,0|0|0|0,3:0|3:0|3:0|3:0,0:0:0:0:
434,54,24839,6,0,L|413:191,2,120,10|0|0,0:0|3:0|3:0,0:0:0:0:
348,8,25416,5,2,0:0:0:0:
278,74,25561,1,0,3:0:0:0:
278,74,25705,2,0,L|180:56,1,80,0|0,3:0|0:0,0:0:0:0:
334,145,25993,2,0,P|360:96|361:50,1,80,10|0,0:0|0:0,0:0:0:0:
242,163,26281,6,0,L|257:233,4,40,0|0|0|0|2,3:0|3:0|3:0|3:0|3:0,0:0:0:0:
349,361,26858,6,0,L|364:291,3,40,0|0|0|0,3:0|3:0|3:0|3:0,0:0:0:0:
391,290,27147,6,0,L|379:200,1,80,8|0,0:0|3:0,0:0:0:0:
436,151,27435,2,0,B|378:186|378:186|212:148,1,207.999990478516,8|0,0:0|3:0,0:0:0:0:
241,154,28012,5,14,0:3:0:0:
241,154,28301,6,0,P|232:110|244:63,2,83.9999974365235,2|0|10,3:0|3:0|0:3,0:0:0:0:
167,324,28878,2,0,P|133:353|86:366,2,83.9999974365235,2|0|10,3:0|3:0|0:3,0:0:0:0:
345,275,29455,2,0,P|387:289|422:323,2,83.9999974365235,2|0|10,3:0|3:0|0:3,0:0:0:0:
142,205,30031,6,0,L|23:231,2,83.9999974365235,2|0|10,3:0|3:0|0:3,0:0:0:0:
302,112,30608,2,0,L|421:138,2,83.9999974365235,2|0|10,3:0|3:0|0:3,0:0:0:0:
122,65,31185,6,0,L|132:0,3,41.9999987182618,0|0|0|0,3:0|3:0|3:0|3:0,0:0:0:0:
105,60,31474,1,10,0:0:0:0:
17,221,31762,6,0,L|27:286,3,41.9999987182618,0|0|0|0,3:0|3:0|3:0|3:0,0:0:0:0:
69,272,32051,2,0,L|59:337,3,41.9999987182618,8|8|8|8,2:0|2:0|2:0|2:0,0:0:0:0:
45,358,32339,6,0,L|138:344,1,88.000002685547,6|0,3:0|3:0,3:0:0:0:
176,340,32556,1,0,3:0:0:0:
176,340,32628,2,0,P|189:288|180:248,1,88.000002685547,10|0,3:0|3:0,3:0:0:0:
267,183,32916,2,0,P|248:139|247:94,1,88.000002685547,0|0,3:0|3:0,3:0:0:0:
257,57,33132,1,0,3:0:0:0:
257,57,33205,2,0,L|350:43,1,88.000002685547,10|0,3:0|3:0,3:0:0:0:
468,1,33493,6,0,L|478:99,1,88.000002685547,0|0,3:0|3:0,3:0:0:0:
483,132,33709,1,0,3:0:0:0:
483,132,33781,2,0,P|435:153|389:147,1,88.000002685547,10|0,3:0|3:0,0:0:0:0:
293,193,34070,2,0,L|303:291,1,88.000002685547,0|0,3:0|3:0,3:0:0:0:
304,324,34286,1,0,3:0:0:0:
304,324,34358,2,0,P|256:303|210:309,1,88.000002685547,10|0,3:0|3:0,0:0:0:0:
113,375,34647,6,0,L|99:260,1,88.000002685547,6|0,3:0|3:0,0:0:0:0:
71,256,34863,1,0,3:0:0:0:
71,256,34935,2,0,L|85:141,1,88.000002685547,10|0,3:0|3:0,0:0:0:0:
198,128,35224,2,0,L|184:13,1,88.000002685547,2|0,3:0|3:0,0:0:0:0:
179,0,35440,1,0,3:0:0:0:
179,0,35512,5,0,3:0:0:0:
79,80,35801,5,2,3:0:0:0:
198,128,36089,5,14,0:2:0:0:
21,189,36378,6,0,B|36:148|36:148|17:98,1,80,10|0,0:0|0:0,0:0:0:0:
15,104,36594,1,0,0:0:0:0:
0,85,36666,2,0,B|10:16,3,40,8|8|8|8,2:0|2:0|2:0|2:0,0:0:0:0:
15,104,36955,6,0,B|80:126|127:73|127:73|141:154|236:169,1,264.000008056641,6|0,3:0|3:0,0:0:0:0:
236,168,37459,1,0,3:0:0:0:
253,163,37531,2,0,B|267:144|264:118|264:118|237:72|257:27,2,132.00000402832,10|0|0,0:0|0:0|3:0,0:0:0:0:
338,67,38108,6,0,B|384:69|402:101|402:101|440:62|504:75|504:75|527:122|482:175,1,264.000008056641,2|0,0:0|0:0,0:0:0:0:
404,240,38685,2,0,B|376:181|376:181|411:89,2,132.00000402832,10|0|0,0:0|0:0|0:0,0:0:0:0:
325,324,39262,6,0,B|293:316|273:288|273:288|255:308|218:322|218:322|167:264|84:295,1,264.000008056641,6|0,3:0|3:0,0:0:0:0:
83,303,39767,1,0,3:0:0:0:
75,318,39839,2,0,B|58:275|58:275|72:245|72:245|46:178,2,132.00000402832,10|0|0,0:0|0:0|3:0,0:0:0:0:
147,380,40416,5,2,0:0:0:0:
270,286,40560,2,0,L|249:208,2,44.0000013427735,0|0|2,3:0|3:0|3:0,0:0:0:0:
195,88,40993,5,10,0:0:0:0:
109,68,41137,1,0,3:0:0:0:
27,48,41281,1,10,0:0:0:0:
5,43,41570,6,0,B|65:15|65:15|40:116|40:116|65:223,1,264.000008056641,6|0,3:0|3:0,0:0:0:0:
68,223,42075,1,0,3:0:0:0:
82,232,42147,2,0,B|124:239|124:239|150:233|150:233|170:247|170:247|227:256,2,132.00000402832,10|0|0,0:0|0:0|3:0,0:0:0:0:
2,318,42724,6,0,B|81:331|81:331|132:318|132:318|167:349|167:349|275:363,1,264.000008056641,2|0,0:0|0:0,0:0:0:0:
296,260,43301,5,10,0:0:0:0:
307,253,43517,5,0,0:0:0:0:
314,263,43733,5,0,0:0:0:0:
363,331,43878,6,0,B|345:235|328:156|328:156|381:119|424:159,1,264.000008056641,6|0,3:0|3:0,0:0:0:0:
512,248,44455,2,0,P|467:238|400:224,1,88.000002685547,10|0,0:0|3:0,0:0:0:0:
301,138,44743,6,0,B|248:133|248:133|189:183|189:183|112:177,1,176.000005371094,10|2,0:0|0:0,0:0:0:0:
272,316,45176,1,0,3:0:0:0:
272,316,45248,1,0,3:0:0:0:
272,316,45320,2,0,B|291:277|291:277|277:232,1,88.000002685547,10|0,0:0|3:0,0:0:0:0:
156,265,45608,6,0,L|224:273,4,44.0000013427735,8|0|0|0|10,0:0|0:0|0:0|3:0|0:0,0:0:0:0:
398,51,46185,6,0,B|363:12|363:12|381:49|373:72|373:72|361:101|336:119|336:119|328:163|357:213,1,264.000008056641,6|0,3:0|3:0,0:0:0:0:
360,220,46690,1,0,3:0:0:0:
368,235,46762,2,0,B|410:232|431:206|431:206|467:188|522:206,2,132.00000402832,10|0|0,0:0|0:0|3:0,0:0:0:0:
305,318,47339,6,0,B|258:328|215:281|215:281|192:316|157:331|157:331|129:298|70:305,1,264.000008056641,2|0,0:0|0:0,0:0:0:0:
98,167,47916,2,0,B|129:144|129:144|154:254,2,132.00000402832,10|0|0,0:0|0:0|0:0,0:0:0:0:
208,121,48493,6,0,B|250:308|250:308|308:266,1,264.000008056641,6|0,3:0|3:0,0:0:0:0:
320,253,48998,1,0,3:0:0:0:
332,240,49070,2,0,B|390:213|390:213|485:244,2,132.00000402832,10|0|0,0:0|0:0|3:0,0:0:0:0:
237,324,49647,5,2,0:0:0:0:
182,190,49791,2,0,L|194:143,2,44.0000013427735,0|0|2,3:0|3:0|3:0,0:0:0:0:
423,16,50224,5,10,0:0:0:0:
443,102,50368,1,0,3:0:0:0:
463,184,50512,1,10,0:0:0:0:
466,207,50801,6,0,B|468:172|494:147|494:147|438:154|402:128|402:128|359:183|291:163,1,264.000008056641,6|0,3:0|3:0,0:0:0:0:
296,154,51306,1,0,3:0:0:0:
282,144,51378,2,0,B|296:102|289:64|289:64|312:87|361:100,2,132.00000402832,10|0|0,0:0|0:0|0:0,0:0:0:0:
243,258,51955,5,2,0:0:0:0:
162,189,52099,1,0,3:0:0:0:
162,189,52171,1,0,3:0:0:0:
162,189,52243,2,0,L|65:205,1,88.000002685547,10|0,0:0|3:0,0:0:0:0:
152,321,52531,2,0,L|76:308,4,44.0000013427735,8|0|0|0|10,0:0|0:0|0:0|3:0|0:0,0:0:0:0:
354,45,53108,6,0,P|408:25|464:36,1,95.9999970703126,6|0,3:0|3:0,0:0:0:0:
272,90,53397,2,0,P|227:53|209:-1,1,95.9999970703126,14|0,0:0|3:0,0:0:0:0:
348,139,53685,2,0,L|326:275,1,95.9999970703126,10|0,0:0|3:0,0:0:0:0:
403,337,53974,1,10,0:0:0:0:
403,337,54118,1,10,0:0:0:0:
278,326,54262,6,0,B|235:334|203:314|203:314|167:333|163:373,1,143.999995605469,2|0,3:0|0:0,0:0:0:0:
151,378,54551,6,0,P|146:331|134:268,1,95.9999970703126,2|2,3:0|3:0,0:0:0:0:
249,192,54839,2,0,P|254:145|266:82,1,95.9999970703126,14|0,0:0|3:0,0:0:0:0:
262,77,55056,1,0,3:0:0:0:
262,57,55128,2,0,B|212:68|212:68|159:52,1,95.9999970703126,10|0,0:0|0:0,0:0:0:0:
340,115,55416,2,0,B|390:104|390:104|443:120,1,95.9999970703126,6|2,3:0|3:0,0:0:0:0:
512,224,55705,6,0,L|503:300,2,63.9999980468751
431,245,55993,6,0,L|422:321,2,63.9999980468751
350,264,56281,6,0,L|331:417,1,95.9999970703126,6|2,3:0|3:0,0:0:0:0:
283,188,56570,6,0,P|336:157|399:168,1,103.999995239258,10|0,0:0|3:0,0:0:0:0:
217,275,56858,2,0,L|112:250,1,103.999995239258,10|0,0:0|3:0,0:0:0:0:
245,380,57147,1,10,0:0:0:0:
245,380,57291,1,10,0:0:0:0:
338,359,57435,6,0,L|461:332,1,120,2|0,3:0|0:0,0:0:0:0:
473,335,57724,6,0,B|459:286|459:286|485:220,1,95.9999970703126,2|2,3:0|3:0,0:0:0:0:
356,186,58012,2,0,B|370:137|370:137|344:71,1,95.9999970703126,10|0,0:0|3:0,0:0:0:0:
345,78,58229,1,0,3:0:0:0:
337,60,58301,2,0,L|448:45,1,95.9999970703126,10|0,0:0|3:0,0:0:0:0:
222,63,58589,6,0,P|227:24|221:-16,2,63.9999980468751,8|8|8,0:0|0:0|0:0,0:0:0:0:
140,80,58878,6,0,P|106:62|66:54,2,63.9999980468751
129,163,59166,6,0,P|101:190|79:225,2,63.9999980468751
206,195,59455,6,0,P|228:245|264:291,1,95.9999970703126,10|0,0:0|3:0,0:0:0:0:
109,292,59743,2,0,P|89:340|56:381,1,95.9999970703126,8|0,0:0|3:0,0:0:0:0:
205,383,60031,2,0,L|315:367,1,95.9999970703126,10|0,0:0|3:0,0:0:0:0:
425,368,60320,1,10,0:0:0:0:
425,368,60464,1,10,0:0:0:0:
473,230,60608,6,0,B|488:105|488:105|429:124,1,167.999994873047,2|0,3:0|0:0,0:0:0:0:
434,129,60897,2,0,L|366:112,3,47.9999985351563,8|8|0|0,0:0|0:0|3:0|3:0,0:0:0:0:
358,98,61185,6,0,B|376:146|376:146|354:198,1,95.9999970703126,0|0,0:0|3:0,0:0:0:0:
333,359,61474,2,0,B|315:311|315:311|337:259,1,95.9999970703126,0|0,0:0|3:0,0:0:0:0:
473,230,61762,1,10,3:0:0:0:
473,230,61906,1,10,3:0:0:0:
274,208,62051,6,0,L|205:199,2,63.9999980468751,6|0|2,3:0|3:0|3:0,3:0:0:0:
254,127,62339,6,0,L|185:118,2,63.9999980468751,8|8|8,0:0|0:0|0:0,0:0:0:0:
233,45,62628,6,0,L|132:31,1,95.9999970703126,6|6,3:2|3:2,0:0:0:0:
303,106,62916,2,0,B|325:59|325:59|311:-3,1,95.9999970703126,14|2,0:0|3:0,0:0:0:0:
378,189,63205,2,0,L|501:171,1,95.9999970703126,14|2,0:3|3:0,0:0:0:0:
283,203,63493,1,10,3:0:0:0:
283,203,63637,1,0,3:0:0:0:
382,272,63781,6,0,B|359:369|359:369|293:334,1,143.999995605469,10|0,0:0|0:0,0:0:0:0:
312,329,64070,6,0,L|209:311,1,95.9999970703126,10|0,0:0|3:0,0:0:0:0:
180,155,64358,2,0,L|77:173,1,95.9999970703126,14|0,0:0|3:0,0:0:0:0:
68,181,64575,1,0,3:0:0:0:
54,194,64647,2,0,B|38:245|38:245|72:305,1,95.9999970703126,14|0,0:0|3:0,0:0:0:0:
73,291,64863,1,0,3:0:0:0:
89,302,64935,6,0,L|71:413,2,63.9999980468751,6|0|0,3:2|0:0|0:0,0:0:0:0:
164,262,65224,6,0,L|145:144,2,69.3333301595054,4|0|0,3:2|0:0|0:0,0:0:0:0:
244,307,65512,6,0,L|223:429,2,74.6666643880209,4|0|0,3:2|0:0|0:0,0:0:0:0:
305,235,65801,5,6,3:0:0:0:
316,226,66089,5,6,3:0:0:0:
324,237,66378,5,6,3:0:0:0:
315,244,66666,5,12,0:0:0:0:
305,235,66955,6,0,B|292:192|292:192|307:134,1,88.000002685547,6|0,3:0|3:0,0:0:0:0:
396,198,67243,1,10,0:0:0:0:
207,102,67531,6,0,B|220:59|220:59|205:1,1,88.000002685547,2|0,3:0|3:0,0:0:0:0:
116,65,67819,1,10,0:0:0:0:
325,53,68108,6,0,L|440:42,1,88.000002685547,2|0,3:0|3:0,0:0:0:0:
512,37,68397,1,10,0:0:0:0:
416,224,68685,6,0,L|301:213,1,88.000002685547,2|0,3:0|3:0,0:0:0:0:
229,208,68974,1,10,0:0:0:0:
307,383,69262,6,0,P|319:335|314:291,1,88.000002685547,6|0,3:0|3:0,0:0:0:0:
203,209,69551,1,10,0:0:0:0:
20,257,69839,6,0,P|64:278|108:282,1,88.000002685547,2|0,3:0|3:0,0:0:0:0:
211,191,70128,1,10,0:0:0:0:
208,343,70416,5,2,3:0:0:0:
279,258,70560,1,0,3:0:0:0:
191,197,70705,1,10,0:0:0:0:
276,135,70849,1,0,0:0:0:0:
276,135,70921,1,0,3:0:0:0:
276,135,70993,2,0,B|285:87|285:87|259:21,1,88.000002685547,14|0,0:0|3:0,0:0:0:0:
144,11,71281,5,10,0:0:0:0:
6,124,71570,6,0,L|101:111,1,88.000002685547,6|0,3:0|3:0,0:0:0:0:
197,99,71858,1,10,0:0:0:0:
280,293,72147,6,0,L|185:280,1,88.000002685547,2|0,3:0|3:0,0:0:0:0:
89,268,72435,1,10,0:0:0:0:
342,232,72724,6,0,P|368:287|365:318,1,88.000002685547,2|0,3:0|3:0,0:0:0:0:
286,380,73012,1,10,0:0:0:0:
278,168,73301,6,0,P|333:141|364:144,1,88.000002685547,2|0,3:0|3:0,0:0:0:0:
438,211,73589,1,10,0:0:0:0:
215,230,73878,6,0,P|188:174|191:143,1,88.000002685547,6|0,3:0|3:0,0:0:0:0:
257,68,74166,1,10,0:0:0:0:
467,102,74455,5,2,3:0:0:0:
366,134,74599,1,0,3:0:0:0:
394,27,74743,1,10,0:0:0:0:
492,197,74887,1,0,0:0:0:0:
492,197,74959,1,0,3:0:0:0:
492,197,75031,6,0,B|508:306|508:306|447:337,1,155.999992858887,10|0,0:0|3:0,0:0:0:0:
458,342,75320,2,0,B|397:332|397:332|378:312|378:312|293:300,1,155.999992858887,10|0,0:0|3:0,0:0:0:0:
290,318,75608,5,10,0:0:0:0:
294,333,75897,5,10,0:0:0:0:
301,352,76185,5,6,3:0:0:0:
301,352,76330,1,0,3:0:0:0:
368,221,76618,5,0,3:0:0:0:
368,221,76763,1,14,0:0:0:0:
236,163,77051,5,2,3:0:0:0:
236,163,77196,1,0,3:0:0:0:
190,298,77483,5,0,3:0:0:0:
190,298,77628,1,0,3:0:0:0:
320,357,77916,5,10,0:0:0:0:
320,357,78060,1,0,3:0:0:0:
428,261,78349,5,0,3:0:0:0:
428,261,78493,1,6,3:2:0:0:
359,134,78781,5,0,3:0:0:0:
359,134,78925,1,0,3:0:0:0:
443,90,79070,1,10,0:0:0:0:
326,5,79358,5,0,3:0:0:0:
326,5,79502,1,0,0:0:0:0:
252,65,79647,6,0,P|217:55|174:43,1,80,6|0,3:2|3:0,0:0:0:0:
272,158,79935,2,0,P|237:167|194:179,1,80,0|0,0:0|3:0,0:0:0:0:
179,185,80152,1,0,3:0:0:0:
165,194,80224,2,0,B|156:234|156:234|182:290,2,80,10|0|6,0:0|3:0|0:2,0:0:0:0:
112,113,80656,1,8,0:0:0:0:
35,180,80801,5,6,3:0:0:0:
35,180,80945,1,0,3:0:0:0:
9,38,81233,5,0,3:0:0:0:
9,38,81377,1,14,0:0:0:0:
152,26,81666,5,2,3:0:0:0:
152,26,81810,1,0,3:0:0:0:
171,168,82099,5,0,3:0:0:0:
171,168,82243,1,0,3:0:0:0:
311,136,82531,5,10,0:0:0:0:
311,136,82675,1,0,3:0:0:0:
341,276,82964,5,0,3:0:0:0:
341,276,83108,1,6,3:2:0:0:
207,330,83397,5,0,3:0:0:0:
207,330,83541,1,0,3:0:0:0:
239,226,83685,1,10,0:0:0:0:
377,369,83974,5,0,3:0:0:0:
377,369,84118,1,0,0:0:0:0:
431,293,84262,6,0,L|417:217,1,60.0000022888184,6|0,3:2|3:0,0:0:0:0:
331,142,84551,2,0,L|345:66,1,60.0000022888184,0|0,0:0|3:0,0:0:0:0:
347,69,84767,1,0,3:0:0:0:
353,59,84839,2,0,P|391:49|427:54,1,60.0000022888184,10|0,0:0|3:0,0:0:0:0:
494,145,85128,2,0,L|502:196,3,30.0000011444092,8|8|8|8,0:0|0:0|0:0|0:0,0:0:0:0:
480,149,85417,5,6,0:0:0:0:
256,192,85506,12,10,90870,0:0:0:0:
7,227,91234,6,0,B|42:237|78:217|78:217|92:239|92:239|123:275|197:262,1,191.999994140625,6|2,3:0|0:0,0:0:0:0:
176,264,92688,5,2,0:0:0:0:
185,247,93416,5,2,0:0:0:0:
174,230,94143,5,2,0:0:0:0:
186,215,94870,5,2,0:0:0:0:
125,155,95052,2,0,L|98:160,3,15.9999995117188,0|0|0|14,3:0|3:0|3:0|0:2,3:0:0:0:
342,64,95597,6,0,B|343:86|355:106|355:106|371:120|371:120|349:133|338:159|338:159|365:204|363:215|363:215|345:197|310:188,1,207.999990478516,6|6,3:2|3:2,0:0:0:0:
339,198,96324,5,10,0:0:0:0:
338,210,96688,5,10,0:0:0:0:
332,222,97052,6,0,B|296:207|296:207|225:231,1,88.000002685547,6|0,3:0|0:0,0:0:0:0:
133,331,97416,2,0,B|163:307|163:307|178:233,1,88.000002685547,2|0,3:0|0:0,0:0:0:0:
157,100,97779,6,0,B|172:141|172:141|171:155|171:155|184:194,1,88.000002685547,10|0,0:0|0:0,0:0:0:0:
279,60,98143,2,0,B|264:101|264:101|265:115|265:115|252:154,1,88.000002685547,2|0,3:0|0:0,0:0:0:0:
414,129,98506,6,0,B|348:116|348:116|376:154,1,88.000002685547,2|0,3:0|3:0,0:0:0:0:
324,288,98870,2,0,B|258:301|258:301|286:263,1,88.000002685547,2|0,3:0|3:0,0:0:0:0:
421,332,99234,6,0,B|437:286|437:286|418:244,1,88.000002685547,10|0,0:0|0:0,0:0:0:0:
271,163,99597,2,0,B|255:117|255:117|276:72,1,88.000002685547,2|0,3:0|0:0,0:0:0:0:
512,86,99961,6,0,B|445:92|445:92|421:113|421:113|331:124,2,176.000005371094,6|6|10,3:0|3:0|0:0,0:0:0:0:
481,194,100870,1,0,3:0:0:0:
483,190,100961,1,0,3:0:0:0:
484,185,101052,1,10,0:0:0:0:
340,30,101233,1,0,3:0:0:0:
338,34,101324,1,0,3:0:0:0:
335,37,101415,6,0,B|352:93|352:93|341:135,1,88.000002685547,6|0,3:0|0:0,0:0:0:0:
195,182,101779,2,0,B|234:139|234:139|276:127,1,88.000002685547,6|0,3:0|0:0,0:0:0:0:
464,273,102142,2,0,B|341:247|341:247|309:195,1,176.000005371094,14|0,0:0|0:0,0:0:0:0:
307,202,102870,5,6,3:0:0:0:
305,215,102961,1,0,3:0:0:0:
304,228,103052,1,0,3:0:0:0:
303,241,103143,1,0,3:0:0:0:
303,254,103234,2,0,B|280:251|280:251|269:253|269:253|237:245,3,44.0000013427735,2|0|0|0,3:0|3:0|3:0|3:0,0:0:0:0:
301,265,103597,6,0,B|333:260|333:260|344:255|344:255|357:258|357:258|391:255,1,88.000002685547,10|0,0:0|0:0,0:0:0:0:
497,363,103961,2,0,B|465:358|465:358|454:353|454:353|441:356|441:356|407:353,1,88.000002685547,2|0,3:0|0:0,0:0:0:0:
498,179,104324,6,0,B|478:198|478:198|470:219|486:259,1,88.000002685547,2|0,3:0|0:0,0:0:0:0:
376,140,104688,2,0,B|396:121|396:121|404:100|388:60,1,88.000002685547,2|0,3:0|0:0,0:0:0:0:
283,195,105052,5,10,0:0:0:0:
382,231,105233,1,0,3:0:0:0:
247,113,105415,1,10,0:0:0:0:
250,292,105597,1,0,3:0:0:0:
249,296,105688,1,0,3:0:0:0:
248,300,105779,6,0,B|195:315|116:277|116:277|142:301|141:325,2,176.000005371094,6|2|10,3:0|3:0|0:0,0:0:0:0:
192,130,106688,1,0,3:0:0:0:
189,126,106779,1,0,3:0:0:0:
185,123,106870,2,0,L|202:236,1,88.000002685547,10|0,0:0|3:0,0:0:0:0:
399,61,107234,6,0,B|376:42|376:42|249:68,1,132.00000402832,14|0,0:0|3:0,0:0:0:0:
261,83,107597,2,0,L|269:129,5,29.3333342285157,8|0|0|0|0|0,0:0|0:0|3:0|3:0|3:0|3:0,0:0:0:0:
182,115,107961,6,0,B|52:133|52:133|18:115|23:68,1,192,14|0,0:0|0:0,0:0:0:0:
22,83,108688,5,6,3:0:0:0:
106,36,109052,1,2,0:0:0:0:
164,111,109415,1,10,0:0:0:0:
90,172,109779,1,2,3:0:0:0:
138,254,110142,5,2,3:0:0:0:
227,288,110506,1,2,3:0:0:0:
295,220,110870,1,10,0:0:0:0:
271,127,111233,1,2,3:0:0:0:
346,67,111597,5,6,3:0:0:0:
428,116,111961,1,6,3:0:0:0:
409,209,112324,1,10,0:0:0:0:
312,254,112506,1,0,3:0:0:0:
312,254,112597,1,0,3:0:0:0:
312,254,112688,1,10,0:0:0:0:
441,348,112870,1,0,3:0:0:0:
441,348,112961,1,0,3:0:0:0:
441,348,113052,5,6,3:0:0:0:
497,270,113415,1,6,3:0:0:0:
412,217,113779,6,0,B|339:120|365:67|396:32|477:48|464:121,1,280,14|0,0:0|0:0,0:0:0:0:
456,126,114506,5,6,3:0:0:0:
448,135,114597,1,0,3:0:0:0:
437,138,114688,1,0,3:0:0:0:
426,138,114779,1,0,3:0:0:0:
417,134,114870,2,0,L|424:73,3,40,2|0|0|0,3:0|3:0|3:0|3:0,0:0:0:0:
408,130,115233,5,10,0:0:0:0:
312,119,115597,1,2,3:0:0:0:
330,24,115961,1,2,3:0:0:0:
424,39,116324,1,2,3:0:0:0:
408,130,116688,5,10,0:0:0:0:
231,97,116870,1,0,3:0:0:0:
375,261,117052,1,10,0:0:0:0:
214,246,117233,1,0,3:0:0:0:
214,246,117324,1,0,3:0:0:0:
214,246,117415,5,6,3:0:0:0:
289,185,117779,1,6,3:0:0:0:
295,280,118142,5,10,0:0:0:0:
121,207,118325,2,0,L|109:141,2,40,0|0|10,3:0|3:0|0:0,0:0:0:0:
198,325,118688,2,0,L|186:391,2,40,0|0|6,3:0|3:0|3:0,0:0:0:0:
223,158,119052,1,0,3:0:0:0:
223,158,119142,1,0,3:0:0:0:
223,158,119234,6,0,L|215:106,3,31.9999990234375,8|0|0|0,0:0|0:0|0:0|3:0,0:0:0:0:
318,237,119597,6,0,L|314:271,5,31.9999990234375,8|8|8|0|0|0,0:0|0:0|0:0|3:0|3:0|3:0,0:0:0:0:
330,236,119961,5,8,0:0:0:0:
341,233,120052,1,8,0:0:0:0:
352,232,120142,1,8,0:0:0:0:
363,229,120233,1,8,0:0:0:0:
374,226,120324,5,14,0:0:0:0:
182,29,131961,6,0,B|265:18|325:103|277:183|277:183|288:132|256:97,1,311.999985717774,4|0,3:2|0:0,0:0:0:0:
19,200,133324,5,0,0:0:0:0:
0,191,133415,2,0,B|98:178|98:178|107:169|107:169|212:154,1,207.999990478516,2|0,0:2|0:0,0:0:0:0:
202,156,134506,5,4,2:0:0:0:
267,238,134688,1,0,0:0:0:0:
267,238,134779,1,0,0:0:0:0:
267,238,134870,6,0,B|306:255|350:247|376:234|376:234|401:263|429:274|473:275|488:220|475:176|446:163|372:162|393:198|363:220|402:303,1,415.999980957032,0|2,0:0|0:2,0:0:0:0:
396,290,137052,5,4,0:2:0:0:
396,290,137779,6,0,B|403:245|379:218|379:218|392:212|392:212|341:163|348:103|402:78|444:109|457:147|428:179,1,311.999985717774,4|0,0:2|0:0,0:0:0:0:
312,274,139142,1,0,0:0:0:0:
297,282,139234,6,0,B|267:278|244:294|244:294|221:287|221:287|175:349|109:314|109:314|96:243|173:223,1,311.999985717774,2|2,0:2|0:2,0:0:0:0:
294,368,140506,1,0,0:0:0:0:
294,368,140597,1,0,0:0:0:0:
294,368,140688,5,8,0:0:0:0:
256,192,140779,12,10,143233,0:0:0:0:
79,55,143597,6,0,B|119:32|119:32|109:141,1,155.999992858887,6|0,3:0|0:0,0:0:0:0:
109,141,144324,2,0,L|21:128,2,77.9999964294435,10|0|0,0:0|0:0|0:0,0:0:0:0:
175,212,145052,6,0,B|247:201|247:201|255:193|255:193|341:182,1,155.999992858887,6|0,3:0|3:0,0:0:0:0:
336,186,145688,1,0,3:0:0:0:
344,192,145779,2,0,B|356:228|356:228|342:269,2,77.9999964294435,10|0|0,0:0|0:0|0:0,0:0:0:0:
264,285,146506,6,0,B|324:291|324:291|345:310|345:310|426:320,1,155.999992858887,6|0,3:0|3:0,0:0:0:0:
421,313,147142,1,0,3:0:0:0:
429,307,147233,2,0,L|418:215,2,77.9999964294435,10|2|0,0:0|0:0|3:0,0:0:0:0:
320,209,147961,5,2,0:0:0:0:
325,193,148324,5,2,3:0:0:0:
333,171,148688,6,0,P|331:141|321:104,1,51.999997619629,10|2,0:0|3:0,0:0:0:0:
212,42,149052,2,0,P|238:55|276:65,1,51.999997619629,10|0,0:0|0:0,0:0:0:0:
473,68,149415,6,0,P|434:29|334:42,1,155.999992858887,6|0,3:0|3:0,0:0:0:0:
331,45,150051,1,0,3:0:0:0:
323,52,150143,2,0,L|337:136,2,77.9999964294435,10|2|0,0:0|0:0|3:0,0:0:0:0:
396,186,150870,6,0,B|362:162|362:162|249:183,1,155.999992858887,6|0,0:2|0:0,0:0:0:0:
249,182,151597,1,10,0:0:0:0:
308,343,151779,1,0,3:0:0:0:
308,343,151870,1,0,3:0:0:0:
308,343,151961,1,10,0:0:0:0:
345,245,152142,1,2,0:0:0:0:
218,300,152324,6,0,B|184:324|184:324|71:303,1,155.999992858887,6|0,3:0|3:0,0:0:0:0:
65,294,152960,1,0,3:0:0:0:
59,284,153052,2,0,L|76:202,2,77.9999964294435,10|2|0,0:0|0:0|3:0,0:0:0:0:
159,133,153779,5,6,0:2:0:0:
157,118,154142,5,2,3:0:0:0:
155,99,154506,5,14,0:0:0:0:
262,71,154688,1,0,3:0:0:0:
122,19,154870,1,6,3:2:0:0:
162,187,155052,1,6,0:2:0:0:
262,71,155233,6,0,B|322:77|322:77|343:96|343:96|424:106,1,155.999992858887,6|0,3:0|3:0,0:0:0:0:
420,105,155870,1,0,3:0:0:0:
429,101,155961,2,0,B|439:59|439:59|418:15,2,77.9999964294435,10|2|0,0:0|0:0|3:0,0:0:0:0:
503,176,156688,6,0,B|477:287|477:287|501:321,1,155.999992858887,2|0,0:0|0:0,0:0:0:0:
501,321,157415,5,10,0:0:0:0:
429,352,157688,5,0,0:0:0:0:
353,373,157961,5,0,0:0:0:0:
335,381,158143,6,0,B|263:370|263:370|255:362|255:362|169:351,1,155.999992858887,6|0,3:0|3:0,0:0:0:0:
174,347,158779,1,0,3:0:0:0:
164,342,158870,2,0,B|150:305|150:305|165:261,2,77.9999964294435,14|2|0,0:0|0:0|3:0,0:0:0:0:
236,195,159597,5,4,0:2:0:0:
232,180,159961,5,2,3:0:0:0:
228,162,160324,6,0,L|218:88,1,51.999997619629,10|0,0:0|3:0,0:0:0:0:
323,239,160688,2,0,L|313:313,1,51.999997619629,14|0,0:0|0:0,0:0:0:0:
460,140,161052,6,0,B|426:116|426:116|313:137,1,155.999992858887,6|0,3:0|3:0,0:0:0:0:
303,148,161688,1,0,3:0:0:0:
295,161,161779,2,0,L|378:145,2,77.9999964294435,10|2|0,0:0|0:0|3:0,0:0:0:0:
223,258,162506,6,0,L|55:225,1,155.999992858887,2|0,0:0|0:0,0:0:0:0:
69,228,163233,1,10,0:0:0:0:
162,157,163415,1,0,3:0:0:0:
162,157,163506,1,0,3:0:0:0:
162,157,163597,1,10,0:0:0:0:
171,330,163779,1,2,3:0:0:0:
256,234,163961,6,0,L|249:190,3,40,8|8|0|0,0:0|0:0|3:0|3:0,0:0:0:0:
274,233,164324,1,8,0:0:0:0:
289,229,164415,1,8,0:0:0:0:
304,226,164506,1,8,0:0:0:0:
319,224,164597,1,8,0:0:0:0:
334,220,164688,1,0,3:0:0:0:
415,309,164870,1,8,0:0:0:0:
415,309,164961,1,8,0:0:0:0:
415,309,165052,2,0,L|408:353,3,40,8|8|0|0,0:0|0:0|3:0|3:0,0:0:0:0:
469,237,165416,5,8,0:0:0:0:
466,221,165506,1,8,0:0:0:0:
464,205,165597,1,0,3:0:0:0:
462,189,165688,1,0,3:0:0:0:
460,173,165779,2,0,L|405:185,3,40
342,116,166143,2,0,L|287:104,3,40,0|0|0|0,3:0|3:0|3:0|3:0,0:0:0:0:
233,184,166506,5,10,0:0:0:0:
469,237,166870,5,6,3:0:0:0:
423,141,167052,1,0,3:0:0:0:
340,291,167233,2,0,B|207:321|207:321|165:283,1,191.999994140625,6|10,3:0|0:0,0:0:0:0:
165,283,167961,5,2,3:0:0:0:
150,178,168143,1,0,3:0:0:0:
132,73,168324,1,2,3:0:0:0:
137,61,168688,5,10,0:0:0:0:
247,105,168870,1,0,3:0:0:0:
247,105,168961,1,0,3:0:0:0:
247,105,169052,2,0,L|232:-2,1,95.9999970703126,12|0,0:0|3:0,0:0:0:0:
374,140,169415,2,0,L|389:33,1,95.9999970703126,14|0,0:2|0:0,0:0:0:0:
382,254,169779,5,6,3:0:0:0:
289,202,169961,1,0,3:0:0:0:
374,140,170142,1,6,3:0:0:0:
382,155,170506,5,10,0:0:0:0:
390,171,170870,5,2,3:0:0:0:
289,202,171052,1,0,3:0:0:0:
341,292,171233,1,2,3:0:0:0:
357,287,171597,5,10,0:0:0:0:
249,342,171779,1,0,3:0:0:0:
249,342,171870,1,0,3:0:0:0:
249,342,171961,2,0,L|149:323,1,95.9999970703126,12|0,0:0|3:0,0:0:0:0:
24,187,172325,2,0,L|124:168,1,95.9999970703126,14|0,0:2|0:0,0:0:0:0:
60,381,172688,5,6,3:0:0:0:
0,293,172870,1,0,3:0:0:0:
118,169,173052,2,0,B|138:33|138:33|81:5,1,191.999994140625,6|10,3:0|0:0,0:0:0:0:
89,9,173779,5,2,3:0:0:0:
13,83,173961,1,0,3:0:0:0:
106,133,174143,1,2,3:0:0:0:
98,146,174506,5,10,0:0:0:0:
214,100,174688,1,0,3:0:0:0:
214,100,174779,1,0,3:0:0:0:
214,100,174870,2,0,L|195:-4,1,95.9999970703126,12|0,0:0|3:0,0:0:0:0:
339,134,175234,2,0,L|320:238,1,95.9999970703126,14|0,0:2|0:0,0:0:0:0:
318,30,175597,5,6,3:0:0:0:
418,63,175779,1,0,3:0:0:0:
339,134,175961,1,6,3:0:0:0:
329,124,176324,5,10,0:0:0:0:
320,114,176688,5,2,3:0:0:0:
410,172,176870,1,0,3:0:0:0:
324,234,177052,1,2,3:0:0:0:
312,221,177415,5,10,0:0:0:0:
388,319,177597,1,0,3:0:0:0:
388,319,177688,1,0,3:0:0:0:
388,319,177779,2,0,B|447:331|447:331|482:313,1,95.9999970703126,12|0,0:0|3:0,0:0:0:0:
487,297,178052,1,0,3:0:0:0:
493,284,178143,2,0,L|478:234,3,47.9999985351563,8|8|8|8,0:2|0:0|0:0|0:0,0:0:0:0:
463,226,178506,5,6,3:0:0:0:
478,121,178688,1,0,3:0:0:0:
495,18,178870,1,6,3:0:0:0:
498,34,179233,5,10,0:0:0:0:
501,48,179597,5,2,3:0:0:0:
414,108,179779,1,0,3:0:0:0:
397,3,179961,1,2,3:0:0:0:
409,16,180324,5,10,0:0:0:0:
301,79,180506,1,0,3:0:0:0:
301,79,180597,1,0,3:0:0:0:
301,79,180688,2,0,B|283:127|283:127|305:179,1,95.9999970703126,12|0,0:0|3:0,0:0:0:0:
326,340,181052,2,0,B|344:292|344:292|322:240,1,95.9999970703126,14|0,0:2|0:0,0:0:0:0:
38,246,181416,5,6,3:0:0:0:
142,227,181597,1,0,3:0:0:0:
246,209,181779,1,6,3:0:0:0:
238,224,182142,5,10,0:0:0:0:
231,235,182506,5,2,3:0:0:0:
264,335,182688,1,0,3:0:0:0:
364,366,182870,1,2,3:0:0:0:
354,376,183233,5,10,0:0:0:0:
427,274,183415,1,0,3:0:0:0:
427,274,183506,1,0,3:0:0:0:
427,274,183597,2,0,L|409:152,1,95.9999970703126,12|0,0:0|3:0,0:0:0:0:
262,10,183961,5,14,0:2:0:0:
211,123,184142,1,10,0:0:0:0:
331,91,184324,5,6,3:0:0:0:
253,19,184506,1,0,3:0:0:0:
222,120,184688,1,6,3:0:0:0:
236,107,185052,5,10,0:0:0:0:
239,88,185415,5,2,3:0:0:0:
256,191,185597,1,0,3:0:0:0:
275,294,185779,1,2,3:0:0:0:
289,288,186143,5,10,0:0:0:0:
183,246,186324,1,0,3:0:0:0:
183,246,186415,1,0,3:0:0:0:
183,246,186506,1,12,0:0:0:0:
334,174,186688,1,0,3:0:0:0:
314,374,186870,1,14,0:2:0:0:
319,361,187234,6,0,L|210:344,1,95.9999970703126,6|2,3:0|3:0,0:0:0:0:
381,223,187597,2,0,B|404:269|404:269|391:319,1,95.9999970703126,8|0,0:0|0:0,0:0:0:0:
256,229,187961,1,14,0:0:0:0:
338,109,188142,2,0,B|410:120|410:120|436:152|436:152|542:169,1,191.999994140625,10|0,0:0|3:0,0:0:0:0:
381,223,188688,5,14,0:0:0:0:
367,239,189052,6,0,L|310:227,3,47.9999985351563
267,320,189415,2,0,L|210:332,3,47.9999985351563
151,239,189780,5,8,0:0:0:0:
131,233,189871,1,8,0:0:0:0:
112,230,189961,1,8,0:0:0:0:
92,227,190052,1,8,0:0:0:0:
72,220,190143,6,0,B|41:191|21:156|35:117|61:85|92:81|138:90|153:120|157:157|157:157|199:166|218:117|216:92|209:77|198:63|193:44|193:44|242:98|276:96|307:104|335:97|382:79|397:27|335:-22|257:-16|217:36|261:80|274:124|341:177|423:111,1,888,6|0,3:0|0:0,0:0:0:0:
