osu file format v14

[General]
AudioFilename: audio.mp3
AudioLeadIn: 0
PreviewTime: 36955
Countdown: 1
SampleSet: Soft
StackLeniency: 0.4
Mode: 0
LetterboxInBreaks: 0
WidescreenStoryboard: 1

[Editor]
Bookmarks: 9262,13878,18493,27724,32339,36955,53108,62339,66955,76185,85416,97052,108688,120325,131961,143597,146506,163961,166870,190143
DistanceSpacing: 0.2
BeatDivisor: 4
GridSize: 4
TimelineZoom: 2.5

[Metadata]
Title:Vanished truth
TitleUnicode:Vanished truth
Artist:Draw the Emotional feat. Meramipop
ArtistUnicode:Draw the Emotional feat. めらみぽっぷ
Creator:IsomirDiAngelo
Version:Seto's Expert
Source:東方星蓮船 ~ Undefined Fantastic Object.
Tags:seto kousuke shirahane suou hey lululu lu^3 shadowx yshadowxop_ itswinter silence player 平安のエイリアン Heian Alien 東方Project 締め切り前日のおまいら ゆよゆっぺ yuyoyuppe zun Touhou C78 Comiket 78 Collapse of the sky 封獣 ぬえ Houjuu Nue 上海アリス幻樂団 Team Shanghai Alice rock metal japanese video game
BeatmapID:2187979
BeatmapSetID:984365

[Difficulty]
HPDrainRate:5
CircleSize:4
OverallDifficulty:8.5
ApproachRate:9.2
SliderMultiplier:1.9
SliderTickRate:1

[Events]
//Background and Video events
0,0,"bg.jpg",0,0
//Break Periods
2,85616,90300
2,120524,131027
//Storyboard Layer 0 (Background)
//Storyboard Layer 1 (Fail)
//Storyboard Layer 2 (Pass)
//Storyboard Layer 3 (Foreground)
//Storyboard Layer 4 (Overlay)
//Storyboard Sound Samples

[TimingPoints]
32,288.461538461538,4,2,1,60,1,0
320,-100,4,2,1,60,0,0
2339,-100,4,2,1,60,0,0
2627,-100,4,2,1,60,0,0
3493,-76.9230769230769,4,2,1,60,0,0
4070,-76.9230769230769,4,2,1,60,0,0
4214,-100,4,2,1,60,0,0
4286,-100,4,2,1,60,0,0
4935,-100,4,2,1,60,0,0
6955,-100,4,2,1,60,0,0
7820,-76.9230769230769,4,2,1,60,0,0
8036,-76.9230769230769,4,2,1,60,0,0
8108,-76.9230769230769,4,2,1,60,0,0
8324,-76.9230769230769,4,2,1,60,0,0
8397,-76.9230769230769,4,2,1,60,0,0
8613,-76.9230769230769,4,2,1,60,0,0
8685,-285.714285714284,4,2,1,60,0,0
8974,-125,4,3,20,60,0,0
9262,-83.3333333333333,4,2,1,60,0,0
13589,-285.714285714284,4,2,1,60,0,0
13805,-285.714285714284,4,2,1,5,0,0
13878,-90.9090909090909,4,2,1,60,0,0
15248,-90.9090909090909,4,2,1,75,0,0
15320,-90.9090909090909,4,2,1,60,0,0
17339,-90.9090909090909,4,3,8,60,0,0
17483,-90.9090909090909,4,2,1,60,0,0
17988,-90.9090909090909,4,3,8,60,0,0
18060,-90.9090909090909,4,3,9,60,0,0
18132,-90.9090909090909,4,2,1,60,0,0
18205,-76.9230769230769,4,2,1,60,0,0
18421,-76.9230769230769,4,2,1,60,0,0
18493,-133.333333333333,4,2,1,60,0,0
20224,-100,4,2,1,60,0,0
20801,-133.333333333333,4,2,1,60,0,0
22532,-133.333333333333,4,2,1,60,0,0
24839,-100,4,2,1,60,0,0
25416,-133.333333333333,4,2,1,60,0,0
27147,-133.333333333333,4,2,1,60,0,0
27724,-133.333333333333,4,2,1,60,0,0
28012,-100,4,2,1,60,0,0
32339,-100,4,2,1,60,0,0
35512,-100,4,2,1,60,0,0
35801,-100,4,2,1,60,0,0
36522,-100,4,3,8,60,0,0
36666,-100,4,2,1,60,0,0
36955,-90.9090909090909,4,2,1,60,0,1
37675,-90.9090909090909,4,2,1,60,0,1
37964,-90.9090909090909,4,2,1,60,0,1
38541,-90.9090909090909,4,2,1,60,0,1
38685,-90.9090909090909,4,2,1,60,0,1
40127,-90.9090909090909,4,2,1,60,0,1
40272,-90.9090909090909,4,2,1,60,0,1
42435,-90.9090909090909,4,2,1,60,0,1
42580,-90.9090909090909,4,2,1,60,0,1
45680,-90.9090909090909,4,3,8,60,0,1
45681,-90.9090909090909,4,3,8,60,0,1
45752,-90.9090909090909,4,3,9,60,0,1
45753,-90.9090909090909,4,3,9,60,0,1
45824,-90.9090909090909,4,2,1,60,0,1
45825,-90.9090909090909,4,2,1,60,0,1
45897,-142.857142857143,4,2,1,60,0,1
46113,-142.857142857143,4,2,1,60,0,1
46185,-90.9090909090909,4,2,1,60,0,1
46906,-90.9090909090909,4,2,1,60,0,1
47195,-90.9090909090909,4,2,1,60,0,1
47772,-90.9090909090909,4,2,1,70,0,1
47916,-90.9090909090909,4,2,1,60,0,1
49358,-90.9090909090909,4,2,1,70,0,1
49503,-90.9090909090909,4,2,1,60,0,1
51810,-90.9090909090909,4,2,1,70,0,1
51954,-90.9090909090909,4,2,1,60,0,1
51955,-90.9090909090909,4,2,1,60,0,1
52603,-90.9090909090909,4,3,8,60,0,1
52604,-90.9090909090909,4,3,8,60,0,1
52675,-90.9090909090909,4,3,9,60,0,1
52676,-90.9090909090909,4,3,9,60,0,1
52747,-90.9090909090909,4,2,1,60,0,1
52748,-90.9090909090909,4,2,1,60,0,1
53108,-90.9090909090909,4,2,1,60,0,0
53180,-90.9090909090909,4,2,1,5,0,0
53253,-90.9090909090909,4,2,1,60,0,0
53325,-90.9090909090909,4,2,1,5,0,0
53397,-90.9090909090909,4,2,1,60,0,0
53902,-90.9090909090909,4,2,1,60,0,0
53974,-90.9090909090909,4,2,1,60,0,0
54046,-90.9090909090909,4,2,1,5,0,0
54118,-90.9090909090909,4,2,1,60,0,0
54190,-90.9090909090909,4,2,1,5,0,0
54262,-181.818181818181,4,2,1,60,0,0
54478,-181.818181818181,4,2,1,60,0,0
54551,-90.9090909090909,4,2,1,60,0,0
54623,-90.9090909090909,4,2,1,5,0,0
54695,-90.9090909090909,4,2,1,60,0,0
54767,-90.9090909090909,4,2,1,5,0,0
54839,-90.9090909090909,4,2,1,60,0,0
55488,-90.9090909090909,4,2,1,5,0,0
55560,-90.9090909090909,4,2,1,60,0,0
55632,-90.9090909090909,4,2,1,5,0,0
55705,-90.9090909090909,4,3,8,60,0,0
55993,-90.9090909090909,4,3,9,60,0,0
56281,-90.9090909090909,4,2,1,60,0,0
56353,-90.9090909090909,4,2,1,5,0,0
56426,-90.9090909090909,4,2,1,60,0,0
56498,-90.9090909090909,4,2,1,5,0,0
56570,-90.9090909090909,4,2,1,60,0,0
58589,-90.9090909090909,4,2,1,60,0,0
58878,-90.9090909090909,4,3,8,60,0,0
59166,-90.9090909090909,4,3,9,60,0,0
59455,-90.9090909090909,4,2,1,60,0,0
60608,-181.818181818181,4,2,1,60,0,0
60824,-181.818181818181,4,2,1,60,0,0
60897,-90.9090909090909,4,2,1,60,0,0
61185,-90.9090909090909,4,3,8,60,0,0
61329,-90.9090909090909,4,2,1,60,0,0
61330,-90.9090909090909,4,2,1,60,0,0
61401,-90.9090909090909,4,2,1,60,0,0
61474,-90.9090909090909,4,3,9,60,0,0
61618,-90.9090909090909,4,2,1,60,0,0
63925,-90.9090909090909,4,2,1,75,0,0
64070,-90.9090909090909,4,2,1,60,0,0
64935,-71.4285714285714,4,2,1,60,0,0
65007,-71.4285714285714,4,2,1,60,0,0
65224,-90.9090909090909,4,2,1,60,0,0
65296,-90.9090909090909,4,2,1,60,0,0
65512,-142.857142857143,4,2,1,60,0,0
65584,-142.857142857143,4,2,1,60,0,0
65801,-666.666666666658,4,2,1,60,0,0
66955,-100,4,2,1,60,0,0
71281,-100,4,2,1,60,0,0
71570,-100,4,2,1,60,0,0
75897,-285.714285714284,4,2,1,60,0,0
76113,-285.714285714284,4,2,1,5,0,0
76185,-133.333333333333,4,2,1,60,0,0
77339,-133.333333333333,4,2,1,60,0,0
77483,-133.333333333333,4,2,1,60,0,0
79647,-76.9230769230769,4,2,1,60,0,0
79863,-76.9230769230769,4,2,1,60,0,0
80079,-76.9230769230769,4,2,1,60,0,0
80801,-133.333333333333,4,2,1,60,0,0
82387,-133.333333333333,4,2,1,60,0,0
82531,-133.333333333333,4,2,1,60,0,0
85128,-133.333333333333,4,2,1,60,0,0
85416,363.636363636364,4,2,1,60,1,0
91234,-399.999999999997,4,2,1,60,0,0
91961,-399.999999999997,4,2,1,60,0,0
95052,-100,4,2,1,60,0,0
95233,-100,4,2,1,60,0,0
96325,-100,4,2,1,60,0,0
97052,-133.333333333333,4,2,1,60,0,0
99961,-133.333333333333,4,2,1,60,0,0
100142,-133.333333333333,4,2,1,60,0,0
100325,-133.333333333333,4,2,1,60,0,0
100506,-133.333333333333,4,2,1,60,0,0
100688,-133.333333333333,4,2,1,60,0,0
101597,-133.333333333333,4,2,1,60,0,0
101779,-133.333333333333,4,2,1,60,0,0
101960,-133.333333333333,4,2,1,60,0,0
102143,-133.333333333333,4,2,1,60,0,0
102325,-133.333333333333,4,2,1,60,0,0
102779,-133.333333333333,4,2,1,5,0,0
102870,-133.333333333333,4,2,1,60,0,0
103960,-133.333333333333,4,2,1,60,0,0
105960,-133.333333333333,4,2,1,60,0,0
106143,-133.333333333333,4,2,1,60,0,0
106324,-133.333333333333,4,2,1,60,0,0
106506,-133.333333333333,4,2,1,60,0,0
107416,-133.333333333333,4,2,1,60,0,0
107507,-133.333333333333,4,2,1,60,0,0
107658,-133.333333333333,4,3,8,60,0,0
107718,-133.333333333333,4,3,9,60,0,0
107778,-133.333333333333,4,3,1,60,0,0
107961,-133.333333333333,4,2,1,60,0,0
108597,-133.333333333333,4,2,1,60,0,0
108688,-105.263157894737,4,2,1,60,0,0
108960,-105.263157894737,4,2,1,5,0,0
109052,-105.263157894737,4,2,1,60,0,0
109324,-105.263157894737,4,2,1,5,0,0
109416,-105.263157894737,4,2,1,60,0,0
109688,-105.263157894737,4,2,1,5,0,0
109779,-105.263157894737,4,2,1,60,0,0
110051,-105.263157894737,4,2,1,5,0,0
110143,-105.263157894737,4,2,1,60,0,0
110415,-105.263157894737,4,2,1,5,0,0
110506,-105.263157894737,4,2,1,60,0,0
110778,-105.263157894737,4,2,1,5,0,0
110870,-105.263157894737,4,2,1,60,0,0
111142,-105.263157894737,4,2,1,5,0,0
111234,-105.263157894737,4,2,1,60,0,0
111506,-105.263157894737,4,2,1,5,0,0
111597,-105.263157894737,4,2,1,60,0,0
113779,-153.846153846154,4,2,1,60,0,0
113961,-153.846153846154,4,2,1,60,0,0
114415,-153.846153846154,4,2,1,5,0,0
114506,-153.846153846154,4,2,1,60,0,0
115415,-153.846153846154,4,2,1,60,0,0
115597,-153.846153846154,4,2,1,60,0,0
117688,-153.846153846154,4,2,1,60,0,0
117779,-153.846153846154,4,2,1,60,0,0
118051,-153.846153846154,4,2,1,60,0,0
118143,-153.846153846154,4,2,1,60,0,0
119294,-153.846153846154,4,3,8,60,0,0
119355,-153.846153846154,4,3,9,60,0,0
119415,-153.846153846154,4,2,1,60,0,0
131597,-153.846153846154,4,2,1,60,0,0
131961,-153.846153846154,4,3,20,60,0,0
132324,-153.846153846154,4,3,20,55,0,0
133052,-153.846153846154,4,3,20,60,0,0
133233,-153.846153846154,4,3,20,55,0,0
133325,-153.846153846154,4,3,20,90,0,0
133506,-153.846153846154,4,3,20,60,0,0
133597,-153.846153846154,4,3,20,55,0,0
133961,-153.846153846154,4,3,20,60,0,0
134143,-153.846153846154,4,3,20,55,0,0
134506,-153.846153846154,4,2,1,60,0,0
134688,-153.846153846154,4,3,20,90,0,0
134961,-153.846153846154,4,3,20,60,0,0
135416,-153.846153846154,4,3,20,55,0,0
135961,-153.846153846154,4,3,20,60,0,0
136506,-153.846153846154,4,3,20,55,0,0
136870,-153.846153846154,4,3,20,60,0,0
137233,-153.846153846154,4,3,20,55,0,0
137416,-153.846153846154,4,3,20,60,0,0
139051,-153.846153846154,4,3,20,90,0,0
139234,-153.846153846154,4,3,20,60,0,0
139415,-153.846153846154,4,3,20,55,0,0
139779,-153.846153846154,4,3,20,60,0,0
140506,-153.846153846154,4,3,20,90,0,0
140688,-153.846153846154,4,3,20,60,0,0
141051,-153.846153846154,4,3,20,60,0,0
143233,-153.846153846154,4,2,1,60,0,0
143597,-222.222222222223,4,2,1,60,0,0
145961,-400.000000000002,4,2,1,60,0,0
146415,-400.000000000002,4,2,1,5,0,0
146506,-133.333333333333,4,2,1,60,0,0
147597,-133.333333333333,4,2,1,60,0,0
147779,-133.333333333333,4,2,1,60,0,0
148506,-133.333333333333,4,2,1,60,0,0
148688,-133.333333333333,4,2,1,60,0,0
150506,-133.333333333333,4,2,1,60,0,0
150688,-133.333333333333,4,2,1,60,0,0
151415,-133.333333333333,4,2,1,60,0,0
151597,-133.333333333333,4,2,1,60,0,0
153415,-133.333333333333,4,2,1,60,0,0
153597,-133.333333333333,4,2,1,60,0,0
154415,-133.333333333333,4,2,1,60,0,0
154506,-133.333333333333,4,2,1,60,0,0
154551,-133.333333333333,4,2,1,5,0,0
154688,-133.333333333333,4,2,1,60,0,0
154733,-133.333333333333,4,2,1,5,0,0
154870,-133.333333333333,4,2,1,60,0,0
154915,-133.333333333333,4,2,1,5,0,0
155052,-133.333333333333,4,2,1,60,0,0
155097,-133.333333333333,4,2,1,5,0,0
155234,-133.333333333333,4,2,1,60,0,0
156506,-133.333333333333,4,2,1,60,0,0
157233,-133.333333333333,4,2,1,60,0,0
157416,-133.333333333333,4,2,1,60,0,0
159233,-133.333333333333,4,2,1,60,0,0
159416,-133.333333333333,4,2,1,60,0,0
160143,-133.333333333333,4,2,1,60,0,0
160325,-133.333333333333,4,2,1,60,0,0
162142,-133.333333333333,4,2,1,60,0,0
162325,-133.333333333333,4,2,1,60,0,0
163051,-133.333333333333,4,2,1,60,0,0
163234,-133.333333333333,4,2,1,60,0,0
163961,-100,4,2,1,60,0,0
165779,-100,4,3,8,60,0,0
165961,-100,4,3,9,60,0,0
166143,-100,4,2,1,60,0,0
166506,-399.999999999997,4,2,1,60,0,0
166778,-399.999999999997,4,2,1,60,0,0
166870,-64.5161290322581,4,2,1,60,0,1
178143,-64.5161290322581,4,2,1,60,0,1
178506,-64.5161290322581,4,2,1,60,0,1
189052,-64.5161290322581,4,3,8,80,0,1
189233,-64.5161290322581,4,3,8,80,0,1
189415,-64.5161290322581,4,3,9,80,0,1
189597,-64.5161290322581,4,3,9,80,0,1
189779,-80,4,2,1,60,0,1
190143,-64.5161290322581,4,2,1,60,0,0
199597,-64.5161290322581,4,2,1,5,0,0

[Colours]
Combo1 : 55,117,130
Combo2 : 234,21,21

[HitObjects]
104,137,32,5,14,3:0:0:0:
394,77,320,1,2,0:0:0:0:
416,101,897,1,2,0:0:0:0:
394,125,1474,1,2,0:0:0:0:
416,149,2051,1,2,0:0:0:0:
250,356,2339,5,6,3:0:0:0:
229,60,2627,1,2,0:0:0:0:
256,43,3204,1,2,0:0:0:0:
462,262,3493,6,0,P|445:210|322:290,1,246.999988693238,6|6,3:0|3:0,0:0:0:0:
127,69,4070,1,10,0:0:0:0:
10,309,4214,1,0,0:0:0:0:
23,313,4286,1,0,3:0:0:0:
36,317,4358,5,8,2:0:0:0:
83,314,4430,1,8,2:0:0:0:
130,311,4502,1,8,2:0:0:0:
178,309,4574,1,8,2:0:0:0:
225,306,4646,5,6,3:0:0:0:
51,73,4935,1,2,0:0:0:0:
29,97,5512,1,2,0:0:0:0:
51,121,6089,1,2,0:0:0:0:
29,145,6666,1,2,0:0:0:0:
280,308,6955,5,6,3:0:0:0:
417,39,7243,1,2,0:0:0:0:
417,39,7676,1,0,3:0:0:0:
425,50,7748,1,0,3:0:0:0:
433,61,7820,6,0,B|431:98|444:129|444:129|422:164|422:164|444:202|435:292,1,185.249991519928,10|0,0:0|0:0,0:0:0:0:
234,255,8108,2,0,P|263:194|350:255,1,185.249991519928,6|0,3:0|0:0,0:0:0:0:
351,105,8397,2,0,P|260:97|181:142,1,185.249991519928,6|0,3:0|0:0,0:0:0:0:
56,274,8685,6,0,L|56:340,1,66.4999979705811,8|2,0:0|2:3,0:0:0:0:
56,340,9262,6,0,L|57:204,1,113.999996520996,14|8,0:0|0:0,0:0:0:0:
27,66,9551,1,8,0:0:0:0:
27,66,9695,1,8,0:0:0:0:
184,146,9839,1,8,0:0:0:0:
184,146,9983,1,8,0:0:0:0:
341,66,10128,1,8,0:0:0:0:
341,66,10272,1,8,0:0:0:0:
405,225,10416,5,14,0:0:0:0:
441,102,10560,1,8,0:0:0:0:
278,150,10705,1,8,0:0:0:0:
242,27,10849,1,8,0:0:0:0:
151,225,10993,1,8,0:0:0:0:
115,102,11137,1,8,0:0:0:0:
23,300,11281,1,8,0:0:0:0:
24,179,11425,1,8,0:0:0:0:
162,351,11570,6,0,B|208:360|208:360|286:347,1,113.999996520996,14|8,0:3|0:0,0:0:0:0:
349,207,11858,1,8,0:0:0:0:
349,207,12003,1,8,0:0:0:0:
435,347,12147,1,8,0:0:0:0:
435,347,12292,1,8,0:0:0:0:
512,204,12435,1,8,0:0:0:0:
512,204,12580,1,8,0:0:0:0:
430,68,12724,6,0,L|271:69,1,113.999996520996,14|0,0:0|3:0,0:0:0:0:
306,74,12940,1,0,3:0:0:0:
296,80,13012,2,0,L|290:213,1,113.999996520996,14|0,0:0|3:0,0:0:0:0:
297,203,13229,1,0,3:0:0:0:
303,212,13301,1,8,0:0:0:0:
270,166,13373,1,8,0:0:0:0:
216,149,13445,1,0,3:0:0:0:
163,168,13517,1,0,3:0:0:0:
132,214,13589,6,0,B|130:239|130:239|132:249|132:249|129:271,1,49.8749984779358,14|0,0:0|3:0,0:0:0:0:
123,275,13878,6,0,P|123:210|131:127,1,104.500003189087,14|0,0:3|3:0,0:0:0:0:
296,80,14166,1,10,0:0:0:0:
205,24,14310,1,0,3:0:0:0:
387,28,14455,1,10,0:0:0:0:
386,127,14599,1,0,3:0:0:0:
386,137,14671,1,0,3:0:0:0:
386,147,14743,1,10,0:0:0:0:
480,79,14887,1,0,3:0:0:0:
403,244,15031,6,0,L|397:358,1,104.500003189087,14|0,0:3|3:0,0:0:0:0:
402,357,15248,1,0,3:0:0:0:
406,366,15320,1,10,0:0:0:0:
498,262,15464,1,0,3:0:0:0:
302,246,15608,1,10,0:0:0:0:
417,140,15753,1,0,3:0:0:0:
412,149,15825,1,0,3:0:0:0:
407,158,15897,1,10,0:0:0:0:
237,98,16041,1,0,3:0:0:0:
242,107,16113,1,0,3:0:0:0:
247,116,16185,6,0,L|245:182,3,52.2500015945435,8|8|8|8,0:0|0:0|0:0|0:0,0:0:0:0:
132,256,16474,1,0,3:0:0:0:
137,247,16546,1,0,3:0:0:0:
142,238,16618,2,0,L|140:172,3,52.2500015945435,8|8|8|8,0:0|0:0|0:0|0:0,0:0:0:0:
29,93,16906,1,0,3:0:0:0:
24,102,16978,1,0,3:0:0:0:
19,111,17051,6,0,L|18:171,1,52.2500015945435,8|8,0:0|0:0,0:0:0:0:
135,91,17195,2,0,L|134:38,1,52.2500015945435,0|0,3:0|3:0,0:0:0:0:
19,178,17339,5,0,0:0:0:0:
18,204,17411,1,0,0:0:0:0:
17,230,17483,1,0,3:0:0:0:
16,256,17555,1,0,3:0:0:0:
54,258,17628,5,8,0:0:0:0:
53,284,17700,1,8,0:0:0:0:
52,310,17772,1,0,3:0:0:0:
51,336,17844,1,0,3:0:0:0:
14,363,17916,5,8,0:0:0:0:
39,318,17988,1,0,0:0:0:0:
87,301,18060,1,0,0:0:0:0:
135,319,18132,1,0,3:0:0:0:
160,363,18205,2,0,B|153:340|164:299|164:299|146:262|146:262|165:227|161:146,1,185.249991519928,14|0,0:0|0:0,0:0:0:0:
123,31,18493,5,6,0:3:0:0:
123,31,18637,2,0,P|189:49|280:29,1,142.500005435944,2|0,3:0|3:0,0:0:0:0:
507,56,19070,2,0,P|441:38|350:58,1,142.500005435944,10|0,0:0|3:0,0:0:0:0:
361,57,19431,1,0,3:0:0:0:
355,65,19503,1,0,3:0:0:0:
349,74,19575,1,0,3:0:0:0:
343,83,19647,6,0,L|343:183,1,71.2500027179719,2|0,3:2|0:0,0:0:0:0:
424,301,19935,1,0,3:0:0:0:
430,293,20008,1,0,3:0:0:0:
436,285,20080,1,0,3:0:0:0:
442,276,20152,1,0,3:0:0:0:
448,267,20224,6,0,B|457:224|457:224|439:188|439:188|448:107,2,142.5,10|0|0,0:0|3:0|3:0,0:0:0:0:
323,355,20801,5,2,0:0:0:0:
228,224,20945,1,0,3:0:0:0:
228,224,21089,2,0,L|130:222,1,71.2500027179719,0|0,3:0|0:0,0:0:0:0:
31,363,21378,1,10,0:0:0:0:
31,363,21666,5,0,3:0:0:0:
37,355,21739,1,0,3:0:0:0:
43,347,21811,1,0,3:0:0:0:
49,338,21883,1,0,3:0:0:0:
55,329,21955,1,2,3:2:0:0:
24,99,22243,1,0,3:0:0:0:
30,107,22316,1,0,3:0:0:0:
36,115,22388,1,0,3:0:0:0:
42,124,22460,1,0,3:0:0:0:
48,133,22532,5,10,0:0:0:0:
179,37,22676,1,0,0:0:0:0:
121,263,22820,1,10,0:0:0:0:
125,267,23108,5,6,0:3:0:0:
125,267,23253,2,0,P|137:192|125:113,1,142.500005435944,2|0,3:0|3:0,0:0:0:0:
388,126,23685,2,0,P|370:192|390:283,1,142.500005435944,10|0,0:0|3:0,0:0:0:0:
389,272,24046,1,0,3:0:0:0:
397,278,24118,1,0,3:0:0:0:
406,284,24190,1,0,3:0:0:0:
415,290,24262,6,0,L|515:290,1,71.2500027179719,2|0,3:2|0:0,0:0:0:0:
468,62,24551,1,0,3:0:0:0:
460,56,24624,1,0,3:0:0:0:
452,50,24696,1,0,3:0:0:0:
443,44,24768,1,0,3:0:0:0:
434,38,24840,6,0,B|398:31|398:31|357:43|357:43|287:35,2,142.5,10|0|0,0:0|3:0|3:0,0:0:0:0:
353,146,25416,6,0,L|250:130,1,71.2500027179719,2|0,0:0|3:0,0:0:0:0:
118,16,25705,1,0,3:0:0:0:
118,16,25993,2,0,L|114:98,1,71.2500027179719,10|0,0:0|0:0,0:0:0:0:
0,259,26281,5,0,3:0:0:0:
6,245,26353,1,0,3:0:0:0:
12,232,26425,1,0,3:0:0:0:
17,219,26497,1,0,3:0:0:0:
23,206,26569,1,2,3:0:0:0:
258,197,26858,1,0,3:0:0:0:
264,210,26930,1,0,3:0:0:0:
269,223,27002,1,0,3:0:0:0:
275,236,27075,1,0,3:0:0:0:
281,250,27147,1,8,0:0:0:0:
127,310,27291,5,0,3:0:0:0:
127,321,27363,1,0,3:0:0:0:
128,333,27435,1,8,0:0:0:0:
102,51,27724,5,0,3:0:0:0:
102,51,28012,6,0,P|200:30|294:54,1,190,14|2,0:3|3:0,0:0:0:0:
462,145,28445,1,0,3:0:0:0:
375,3,28589,2,0,B|408:97|341:97|373:188,1,190,10|2,0:3|3:0,0:0:0:0:
478,50,29022,1,0,3:0:0:0:
487,244,29166,2,0,P|404:268|373:187,1,190,10|2,0:3|3:0,0:0:0:0:
285,50,29599,1,0,3:0:0:0:
162,247,29743,2,0,P|245:270|276:190,1,190,10|2,0:3|3:0,0:0:0:0:
45,260,30176,1,0,3:0:0:0:
194,377,30320,6,0,B|269:377|269:377|312:350|312:350|393:351,1,190,10|2,0:3|3:0,0:0:0:0:
373,187,30753,1,0,3:0:0:0:
512,273,30897,2,0,L|393:273,1,95,10|0,0:3|0:0,0:0:0:0:
235,210,31185,5,0,3:0:0:0:
229,224,31257,1,0,3:0:0:0:
223,237,31329,1,0,3:0:0:0:
218,250,31401,1,0,3:0:0:0:
212,263,31473,1,10,0:0:0:0:
38,148,31762,1,0,3:0:0:0:
44,162,31834,1,0,3:0:0:0:
50,175,31906,1,0,3:0:0:0:
55,188,31978,1,0,3:0:0:0:
61,201,32051,2,0,L|54:274,3,47.5,8|8|8|8,2:0|2:0|2:0|2:0,0:0:0:0:
148,148,32339,5,6,3:0:0:0:
165,131,32411,1,0,3:0:0:0:
185,119,32483,1,0,3:0:0:0:
208,112,32555,1,0,3:0:0:0:
232,110,32627,1,10,3:0:0:0:
255,113,32699,1,0,3:0:0:0:
277,121,32771,1,0,3:0:0:0:
297,134,32843,1,0,3:0:0:0:
314,151,32916,1,0,3:0:0:0:
338,167,32988,1,0,3:0:0:0:
367,168,33060,1,0,3:0:0:0:
393,154,33132,1,0,3:0:0:0:
408,129,33204,1,10,3:0:0:0:
409,100,33276,1,0,3:0:0:0:
394,74,33348,1,0,3:0:0:0:
368,60,33420,1,0,3:0:0:0:
339,61,33493,6,0,L|293:73,3,47.5,0|0|0|0,3:0|3:0|3:0|3:0,0:0:0:0:
114,62,33781,2,0,L|160:74,3,47.5,10|0|0|0,3:0|3:0|3:0|3:0,0:0:0:0:
229,202,34070,2,0,L|217:248,3,47.5,0|0|0|0,3:0|3:0|3:0|3:0,0:0:0:0:
31,206,34358,2,0,L|43:252,3,47.5,10|0|0|0,3:0|3:0|3:0|3:0,0:0:0:0:
128,162,34647,5,6,3:0:0:0:
128,185,34719,1,0,3:0:0:0:
128,209,34791,1,0,3:0:0:0:
128,233,34863,1,0,3:0:0:0:
128,257,34935,1,10,3:0:0:0:
128,280,35007,1,0,3:0:0:0:
128,304,35079,1,0,3:0:0:0:
128,328,35151,1,0,3:0:0:0:
128,352,35224,6,0,L|64:354,1,47.5,2|0,3:0|3:0,0:0:0:0:
217,247,35368,2,0,L|264:245,1,47.5,0|0,3:0|3:0,0:0:0:0:
432,358,35512,5,0,3:0:0:0:
425,42,35801,5,2,3:0:0:0:
65,200,36089,5,14,0:2:0:0:
433,194,36378,5,10,0:0:0:0:
153,135,36522,6,0,P|192:141|232:137,1,47.5
182,40,36666,1,8,2:0:0:0:
150,23,36738,1,8,2:0:0:0:
115,22,36810,1,8,2:0:0:0:
83,36,36882,1,8,2:0:0:0:
60,62,36955,6,0,P|44:157|64:302,1,209.000006378174,6|2,3:0|0:0,0:0:0:0:
390,350,37387,1,0,3:0:0:0:
420,342,37459,1,0,3:0:0:0:
437,316,37531,2,0,P|446:256|428:200,1,104.500003189087,10|0,0:0|0:0,0:0:0:0:
199,140,37820,1,0,0:0:0:0:
144,260,37964,6,0,B|248:293|255:228|358:266,1,209.000006378174,0|0,3:0|3:0,0:0:0:0:
213,47,38397,2,0,P|187:87|204:146,1,104.500003189087,2|0,3:0|0:0,0:0:0:0:
467,103,38685,1,10,0:0:0:0:
30,348,38974,1,2,3:0:0:0:
50,362,39262,6,0,P|83:308|57:165,1,209.000006378174,6|0,3:0|0:0,0:0:0:0:
332,333,39695,1,0,3:0:0:0:
312,359,39767,1,0,3:0:0:0:
281,364,39839,2,0,P|248:310|274:167,1,209.000006378174,10|0,0:0|0:0,0:0:0:0:
7,95,40272,6,0,P|58:82|120:103,1,104.500003189087,0|2,3:0|0:0,0:0:0:0:
344,0,40560,1,0,3:0:0:0:
369,16,40632,1,0,3:0:0:0:
386,44,40705,2,0,P|396:88|371:160,1,104.500003189087,2|0,3:0|0:0,0:0:0:0:
156,276,40993,1,10,0:0:0:0:
230,40,41137,1,0,3:0:0:0:
395,272,41281,1,10,0:0:0:0:
362,275,41570,6,0,B|250:244|253:299|155:276,1,209.000006378174,6|2,3:0|0:0,0:0:0:0:
59,13,42003,1,0,3:0:0:0:
84,32,42075,1,0,3:0:0:0:
98,60,42147,2,0,P|107:110|85:176,1,104.500003189087,10|0,0:0|0:0,0:0:0:0:
64,367,42435,1,0,0:0:0:0:
156,276,42580,6,0,P|242:250|371:286,1,209.000006378174,0|0,3:0|3:0,0:0:0:0:
480,78,43012,1,2,3:0:0:0:
39,82,43301,1,10,0:0:0:0:
253,353,43589,1,2,3:0:0:0:
253,31,43878,6,0,B|288:140|202:148|251:246,1,209.000006378174,6|2,3:0|0:0,0:0:0:0:
469,306,44310,1,0,3:0:0:0:
496,291,44382,1,0,3:0:0:0:
512,265,44455,2,0,P|523:210|503:152,1,104.500003189087,10|0,0:0|3:0,0:0:0:0:
245,233,44743,6,0,B|322:242|322:242|367:207|367:207|479:220,1,209.000006378174,10|2,0:0|0:0,0:0:0:0:
302,83,45176,1,0,3:0:0:0:
293,113,45248,1,0,3:0:0:0:
285,143,45320,1,10,0:0:0:0:
415,109,45464,1,0,3:0:0:0:
188,83,45608,1,8,0:0:0:0:
177,120,45680,1,0,0:0:0:0:
166,158,45752,1,0,0:0:0:0:
156,196,45824,1,0,3:0:0:0:
145,233,45897,6,0,L|261:233,1,99.7499969558717,10|0,0:0|0:0,0:0:0:0:
244,233,46185,6,0,P|161:180|70:231,1,209.000006378174,6|2,3:0|0:0,0:0:0:0:
403,344,46618,1,0,3:0:0:0:
433,341,46690,1,0,3:0:0:0:
458,322,46762,2,0,P|482:262|469:199,1,104.500003189087,10|0,0:0|0:0,0:0:0:0:
273,134,47051,1,0,0:0:0:0:
378,41,47195,6,0,L|379:249,1,209.000006378174,0|0,3:0|3:0,0:0:0:0:
183,173,47628,2,0,P|167:124|195:82,1,104.500003189087,2|0,3:0|0:0,0:0:0:0:
484,129,47916,5,10,0:0:0:0:
38,28,48205,1,2,3:0:0:0:
24,54,48493,6,0,B|-11:154|54:149|19:266,1,209.000006378174,6|0,3:0|0:0,0:0:0:0:
279,356,48926,1,0,3:0:0:0:
246,349,48998,1,0,3:0:0:0:
228,323,49070,2,0,P|217:268|357:206,1,209.000006378174,10|0,0:0|0:0,0:0:0:0:
512,92,49503,2,0,P|462:119|409:104,1,104.500003189087,0|2,3:0|0:0,0:0:0:0:
128,6,49791,1,0,3:0:0:0:
158,11,49863,1,0,3:0:0:0:
182,30,49935,2,0,P|202:74|186:137,1,104.500003189087,2|0,3:0|0:0,0:0:0:0:
20,349,50224,5,10,0:0:0:0:
97,97,50368,1,0,3:0:0:0:
315,288,50512,1,10,0:0:0:0:
320,309,50801,6,0,P|248:282|113:328,1,209.000006378174,6|2,3:0|0:0,0:0:0:0:
74,46,51233,1,0,3:0:0:0:
81,73,51305,1,0,3:0:0:0:
97,97,51378,2,0,P|169:124|304:78,1,209.000006378174,10|2,0:0|0:0,0:0:0:0:
507,54,51810,6,0,P|457:39|391:64,1,104.500003189087,0|2,0:0|0:0,0:0:0:0:
442,283,52099,1,0,3:0:0:0:
472,291,52171,1,0,3:0:0:0:
502,284,52243,1,10,0:0:0:0:
412,194,52387,1,0,3:0:0:0:
231,298,52531,1,8,0:0:0:0:
245,332,52603,1,0,0:0:0:0:
281,346,52675,1,0,0:0:0:0:
316,331,52747,1,0,3:0:0:0:
331,296,52819,5,10,0:0:0:0:
331,296,53108,6,0,L|331:242,1,52.2500015945435,6|0,3:0|0:0,0:0:0:0:
231,245,53253,2,0,L|231:297,1,52.2500015945435,0|0,3:0|0:0,0:0:0:0:
281,155,53397,1,14,0:0:0:0:
133,238,53541,1,0,3:0:0:0:
281,155,53685,6,0,P|334:148|401:164,1,104.500003189087,10|0,0:0|3:0,0:0:0:0:
393,152,53902,1,0,3:0:0:0:
400,145,53974,6,0,P|375:133|340:131,1,52.2500015945435,10|0,0:0|0:0,0:0:0:0:
463,76,54118,2,0,P|479:97|488:122,1,52.2500015945435,10|0,0:0|0:0,0:0:0:0:
460,227,54262,6,0,B|462:241|455:262|455:262|462:272|462:272|455:292|458:302,1,78.3750023918153,2|0,3:0|0:0,0:0:0:0:
452,311,54551,6,0,P|414:311|385:320,1,52.2500015945435,2|0,3:0|0:0,0:0:0:0:
334,243,54695,2,0,P|307:269|292:296,1,52.2500015945435,2|0,3:0|0:0,0:0:0:0:
332,370,54839,1,14,0:0:0:0:
235,214,54983,1,0,3:0:0:0:
229,222,55056,1,0,3:0:0:0:
223,230,55128,2,0,P|211:276|225:335,1,104.500003189087,10|0,0:0|0:0,0:0:0:0:
269,139,55416,6,0,P|243:133|217:134,1,52.2500015945435,6|0,3:0|0:0,0:0:0:0:
161,58,55560,2,0,P|141:75|127:97,1,52.2500015945435,2|0,3:0|0:0,0:0:0:0:
12,237,55705,6,0,P|0:269|2:304,2,69.6666687927247
112,235,55993,2,0,P|124:267|121:301,2,69.6666687927247
52,144,56281,6,0,L|-3:138,1,52.2500015945435,6|0,3:0|0:0,0:0:0:0:
51,49,56426,2,0,L|0:44,1,52.2500015945435,2|0,3:0|0:0,0:0:0:0:
127,96,56570,1,10,0:0:0:0:
266,10,56714,1,0,3:0:0:0:
272,182,56858,1,10,0:0:0:0:
229,100,57003,1,0,3:0:0:0:
229,100,57075,1,0,3:0:0:0:
229,100,57147,5,10,0:0:0:0:
374,11,57291,1,10,0:0:0:0:
376,172,57435,1,2,3:0:0:0:
383,192,57724,5,2,3:0:0:0:
466,81,57868,1,2,3:0:0:0:
512,221,58012,2,0,P|502:275|451:305,1,104.500003189087,10|0,0:0|3:0,0:0:0:0:
453,303,58229,1,0,3:0:0:0:
442,304,58301,1,10,0:0:0:0:
341,289,58445,1,0,3:0:0:0:
340,299,58517,1,0,3:0:0:0:
339,309,58589,6,0,P|358:350|386:369,2,69.6666687927247,8|8|8,0:0|0:0|0:0,0:0:0:0:
243,304,58878,2,0,P|230:337|205:360,2,69.6666687927247
288,224,59166,2,0,P|290:188|278:143,1,69.6666687927247
205,91,59358,1,0,0:0:0:0:
281,29,59455,5,10,0:0:0:0:
281,29,59599,1,0,3:0:0:0:
183,106,59743,2,0,L|55:107,1,104.500003189087,8|0,0:0|3:0,0:0:0:0:
368,102,60031,2,0,L|496:103,1,104.500003189087,10|0,0:0|3:0,0:0:0:0:
477,272,60320,1,10,0:0:0:0:
477,272,60464,1,10,0:0:0:0:
394,210,60608,6,0,B|362:210|362:210|351:203|351:203|313:202,1,78.3750023918153,2|0,3:0|0:0,0:0:0:0:
306,205,60897,6,0,L|284:273,3,52.2500015945435,8|8|0|0,0:0|0:0|3:0|3:0,0:0:0:0:
193,303,61185,2,0,L|171:371,3,52.2500015945435,0|0|0|0,0:0|0:0|3:0|3:0,0:0:0:0:
42,340,61474,1,0,0:0:0:0:
33,315,61546,1,0,0:0:0:0:
25,290,61618,1,0,3:0:0:0:
17,265,61690,1,0,3:0:0:0:
9,240,61762,5,10,3:0:0:0:
136,210,61906,1,10,3:0:0:0:
59,107,62051,6,0,P|51:75|59:7,2,69.6666687927247,6|0|2,3:0|3:0|3:0,3:0:0:0:
151,105,62339,2,0,P|184:95|219:94,2,69.6666687927247,8|8|8,0:0|0:0|0:0,0:0:0:0:
291,26,62628,5,6,3:2:0:0:
291,26,62772,1,6,3:2:0:0:
368,94,62916,2,0,L|368:206,1,104.500003189087,14|2,0:0|3:0,0:0:0:0:
278,370,63205,2,0,L|278:265,1,104.500003189087,14|2,0:3|3:0,0:0:0:0:
473,228,63493,5,10,3:0:0:0:
473,228,63637,1,0,3:0:0:0:
268,160,63781,6,0,L|114:165,1,104.500003189087,10|0,0:0|3:0,0:0:0:0:
48,312,64070,2,0,L|202:307,1,104.500003189087,10|0,0:0|3:0,0:0:0:0:
393,326,64358,1,14,0:0:0:0:
278,265,64503,1,0,3:0:0:0:
406,344,64647,5,14,0:0:0:0:
413,186,64791,1,0,3:0:0:0:
408,195,64863,1,0,3:0:0:0:
402,207,64935,5,6,3:2:0:0:
349,135,65224,1,4,3:2:0:0:
370,49,65512,1,4,3:2:0:0:
494,37,65801,6,0,L|461:37,2,28.4999991302491,6|6|6,3:0|3:0|3:0,0:0:0:0:
48,30,66666,5,12,0:0:0:0:
56,38,66955,5,6,3:0:0:0:
56,38,67099,1,0,3:0:0:0:
55,209,67243,1,10,0:0:0:0:
192,102,67531,5,2,3:0:0:0:
192,102,67675,1,0,3:0:0:0:
191,273,67819,1,10,0:0:0:0:
331,42,68108,5,2,3:0:0:0:
331,42,68252,1,0,3:0:0:0:
332,213,68396,1,10,0:0:0:0:
467,106,68686,5,2,3:0:0:0:
467,106,68830,1,0,3:0:0:0:
466,277,68974,1,10,0:0:0:0:
56,38,69262,5,6,3:0:0:0:
56,38,69406,1,0,3:0:0:0:
55,209,69550,1,10,0:0:0:0:
192,102,69838,5,2,3:0:0:0:
192,102,69982,1,0,3:0:0:0:
191,273,70128,2,0,P|240:282|296:260,1,95,10|0,0:0|0:0,0:0:0:0:
317,78,70416,6,0,P|308:127|330:183,1,95,2|0,3:0|3:0,0:0:0:0:
499,239,70705,1,10,0:0:0:0:
408,109,70849,1,0,0:0:0:0:
406,118,70921,1,0,3:0:0:0:
404,127,70993,1,14,0:0:0:0:
489,60,71137,1,0,3:0:0:0:
390,255,71281,1,10,0:0:0:0:
390,255,71570,6,0,P|310:247|273:265,1,95,6|0,3:0|3:0,0:0:0:0:
135,353,71858,1,10,0:0:0:0:
135,353,72147,6,0,P|143:273|125:235,1,95,2|0,3:0|3:0,0:0:0:0:
37,98,72435,1,10,0:0:0:0:
37,98,72724,6,0,P|117:106|154:88,1,95,2|0,3:0|3:0,0:0:0:0:
292,0,73012,1,10,0:0:0:0:
292,0,73301,6,0,P|284:80|302:117,1,95,2|0,3:0|3:0,0:0:0:0:
390,255,73589,1,10,0:0:0:0:
390,255,73878,5,6,3:0:0:0:
489,165,74022,1,0,3:0:0:0:
256,185,74166,1,10,0:0:0:0:
256,185,74455,5,2,3:0:0:0:
375,124,74599,1,0,3:0:0:0:
257,314,74743,1,10,0:0:0:0:
390,255,74887,5,0,0:0:0:0:
390,255,74959,1,0,3:0:0:0:
390,255,75031,1,10,0:0:0:0:
165,176,75176,1,0,0:0:0:0:
165,176,75248,1,0,3:0:0:0:
165,176,75320,1,10,0:0:0:0:
300,38,75464,1,0,0:0:0:0:
300,38,75536,1,0,3:0:0:0:
300,38,75608,1,10,0:0:0:0:
75,360,75897,6,0,B|79:343|79:343|74:332|74:332|77:306,1,49.8749984779358,10|0,0:0|0:0,0:0:0:0:
77,187,76185,5,6,3:0:0:0:
13,258,76330,2,0,P|58:279|153:243,1,142.500005435944,0|0,3:0|3:0,0:0:0:0:
155,31,76762,1,14,0:0:0:0:
145,15,77051,1,2,3:0:0:0:
261,46,77195,1,0,3:0:0:0:
178,175,77339,6,0,P|168:140|181:107,1,71.2500027179719,4|0,0:2|3:0,0:0:0:0:
403,148,77628,2,0,B|328:172|330:126|254:150,1,142.500005435944,0|10,3:0|0:0,0:0:0:0:
207,342,78060,1,0,3:0:0:0:
194,366,78349,1,0,3:0:0:0:
155,268,78493,2,0,P|221:248|278:287,1,142.500005435944,6|0,3:2|3:0,0:0:0:0:
433,346,78926,1,0,3:0:0:0:
373,257,79070,1,10,0:0:0:0:
410,159,79214,2,0,L|495:156,1,71.2500027179719,0|0,3:0|3:0,0:0:0:0:
481,156,79647,6,0,P|465:87|347:77,1,185.249991519928,6|0,3:2|0:0,0:0:0:0:
301,150,79935,2,0,P|353:125|342:35,1,123.499994346619,0|0,0:0|3:0,0:0:0:0:
282,70,80152,1,0,3:0:0:0:
282,70,80224,1,10,0:0:0:0:
277,242,80368,1,0,3:0:0:0:
289,265,80656,1,8,0:0:0:0:
220,187,80801,1,6,3:0:0:0:
220,187,80945,6,0,P|146:168|71:190,1,142.500005435944,0|0,3:0|3:0,0:0:0:0:
81,347,81378,2,0,P|155:366|230:344,1,142.500005435944,14|2,0:0|3:0,0:0:0:0:
327,182,81810,1,0,3:0:0:0:
352,168,82099,1,0,3:0:0:0:
432,235,82243,2,0,P|434:275|425:328,1,71.2500027179719,0|0,3:0|0:0,0:0:0:0:
375,156,82531,1,10,0:0:0:0:
476,32,82676,1,0,3:0:0:0:
499,48,82964,1,0,3:0:0:0:
381,62,83108,6,0,P|304:69|217:52,1,142.500005435944,6|0,3:2|3:0,0:0:0:0:
94,63,83541,1,0,3:0:0:0:
167,130,83685,1,10,0:0:0:0:
92,201,83830,1,0,3:0:0:0:
93,37,83974,1,0,3:0:0:0:
92,6,84262,5,6,3:2:0:0:
263,151,84406,2,0,L|266:298,1,142.500005435944,0|0,3:0|3:0,0:0:0:0:
269,299,84767,1,0,3:0:0:0:
272,305,84839,1,10,0:0:0:0:
389,146,84983,1,0,3:0:0:0:
397,161,85056,1,0,3:0:0:0:
405,176,85128,6,0,L|399:239,1,35.625001358986,8|8,0:0|0:0,0:0:0:0:
493,138,85272,2,0,L|490:103,1,35.625001358986,8|8,0:0|0:0,0:0:0:0:
385,40,85416,5,6,0:0:0:0:
456,86,90870,5,10,0:0:0:0:
456,86,91234,6,0,P|409:77|356:87,1,95,6|2,3:0|0:0,0:0:0:0:
362,84,92688,2,0,P|315:93|262:83,1,95,2|2,0:0|0:0,0:0:0:0:
268,85,94143,2,0,P|277:132|267:185,1,95,2|2,0:0|0:0,0:0:0:0:
107,251,95052,6,0,L|48:250,3,31.6666666666667,0|0|0|14,3:0|3:0|3:0|0:2,3:0:0:0:
390,278,95597,1,6,3:2:0:0:
131,98,95961,1,6,3:2:0:0:
464,193,96325,1,10,0:0:0:0:
290,52,96506,1,0,3:0:0:0:
287,62,96566,1,0,3:0:0:0:
284,72,96627,1,0,3:0:0:0:
281,82,96687,1,10,0:0:0:0:
281,82,97052,6,0,P|274:163|277:251,2,142.500005435944,6|2|10,3:0|3:0|0:0,0:0:0:0:
426,333,98143,1,2,3:0:0:0:
426,333,98506,2,0,P|347:324|270:330,2,142.500005435944,2|2|10,3:0|3:0|0:0,0:0:0:0:
90,327,99597,1,2,3:0:0:0:
90,327,99961,6,0,P|96:276|92:247,1,71.2500027179719,6|0,3:0|0:0,0:0:0:0:
86,50,100325,2,0,P|83:85|89:120,1,71.2500027179719,6|0,3:0|0:0,0:0:0:0:
343,183,100688,1,10,0:0:0:0:
240,62,100870,1,0,3:0:0:0:
235,79,100961,1,0,3:0:0:0:
230,96,101052,1,10,0:0:0:0:
410,46,101234,1,0,3:0:0:0:
415,63,101325,1,0,3:0:0:0:
420,80,101416,6,0,L|421:160,1,71.2500027179719,6|0,3:0|0:0,0:0:0:0:
500,306,101779,2,0,L|500:235,1,71.2500027179719,6|0,3:0|0:0,0:0:0:0:
243,228,102143,1,14,0:0:0:0:
373,317,102325,2,0,B|286:290|284:365|194:321,1,178.12500679493,0|0,3:0|0:0,0:0:0:0:
152,242,102870,5,6,3:0:0:0:
152,228,102960,1,0,3:0:0:0:
152,215,103051,1,0,3:0:0:0:
153,201,103142,1,0,3:0:0:0:
153,188,103233,1,2,3:0:0:0:
154,175,103324,1,0,3:0:0:0:
154,161,103415,1,0,3:0:0:0:
155,148,103506,1,0,3:0:0:0:
155,135,103597,6,0,P|211:94|286:118,1,142.500005435944,10|2,0:0|3:0,0:0:0:0:
422,294,104325,1,2,3:0:0:0:
429,99,104688,1,2,3:0:0:0:
189,337,105052,5,10,0:0:0:0:
71,127,105234,1,0,3:0:0:0:
371,194,105416,1,10,0:0:0:0:
235,78,105597,1,0,3:0:0:0:
233,95,105688,1,0,3:0:0:0:
231,112,105779,6,0,L|226:191,1,71.2500027179719,6|0,3:0|0:0,0:0:0:0:
416,26,106143,2,0,L|421:105,1,71.2500027179719,2|0,3:0|0:0,0:0:0:0:
335,318,106506,1,10,0:0:0:0:
470,213,106688,1,0,3:0:0:0:
474,229,106779,1,0,3:0:0:0:
478,245,106870,1,10,0:0:0:0:
324,137,107052,1,0,3:0:0:0:
320,153,107143,1,0,3:0:0:0:
316,169,107234,5,14,0:0:0:0:
450,54,107416,1,0,3:0:0:0:
454,70,107507,1,0,3:0:0:0:
458,86,107597,2,0,L|454:115,5,23.7500009059906,8|0|0|0|0|0,0:0|0:0|3:0|3:0|3:0|3:0,0:0:0:0:
364,45,107961,6,0,B|350:46|320:34|320:34|292:49|292:49|225:11|164:42|164:42|203:44,1,249.375009512902,14|0,0:0|0:0,0:0:0:0:
209,52,108688,6,0,P|236:102|174:178,1,135.374996385098,6|0,3:0|0:0,0:0:0:0:
56,171,109052,2,0,P|23:114|50:55,1,135.374996385098,2|0,0:0|0:0,0:0:0:0:
131,113,109416,2,0,L|131:262,1,135.374996385098,10|0,0:0|0:0,0:0:0:0:
76,332,109779,2,0,B|114:315|130:287|130:287|145:315|186:340,1,135.374996385098,2|0,3:0|0:0,0:0:0:0:
270,186,110143,2,0,P|215:213|245:272,1,135.374996385098,2|0,3:0|0:0,0:0:0:0:
294,336,110506,2,0,B|312:328|323:307|323:307|371:300|411:331,1,135.374996385098,2|0,3:0|0:0,0:0:0:0:
453,235,110870,2,0,P|388:227|352:157,1,135.374996385098,10|0,0:0|0:0,0:0:0:0:
443,19,111234,2,0,L|433:178,1,135.374996385098,2|0,3:0|0:0,0:0:0:0:
489,304,111597,5,6,3:0:0:0:
268,43,111962,1,6,3:0:0:0:
95,337,112326,1,10,0:0:0:0:
276,200,112506,1,0,3:0:0:0:
277,222,112597,1,0,3:0:0:0:
278,244,112688,1,10,0:0:0:0:
84,178,112870,1,0,3:0:0:0:
83,200,112961,1,0,3:0:0:0:
82,222,113052,5,6,3:0:0:0:
463,86,113416,1,6,3:0:0:0:
11,97,113779,5,14,0:0:0:0:
11,97,113961,2,0,P|94:67|166:104,1,154.374992933274,0|0,3:0|0:0,0:0:0:0:
234,160,114506,5,6,3:0:0:0:
250,168,114596,1,0,3:0:0:0:
268,172,114687,1,0,3:0:0:0:
286,172,114778,1,0,3:0:0:0:
304,168,114869,1,2,3:0:0:0:
321,159,114960,1,0,3:0:0:0:
335,147,115051,1,0,3:0:0:0:
345,132,115142,1,0,3:0:0:0:
352,114,115234,6,0,L|350:26,1,61.7499971733095,10|0,0:0|0:0,0:0:0:0:
501,207,115597,2,0,L|503:295,1,61.7499971733095,2|0,3:0|0:0,0:0:0:0:
289,351,115961,2,0,L|290:289,1,61.7499971733095,2|0,3:0|0:0,0:0:0:0:
100,173,116325,2,0,L|102:261,1,61.7499971733095,2|0,3:0|0:0,0:0:0:0:
263,67,116688,5,10,0:0:0:0:
52,44,116871,1,0,3:0:0:0:
192,265,117053,1,10,0:0:0:0:
265,82,117235,1,0,3:0:0:0:
267,97,117326,1,0,3:0:0:0:
270,111,117416,6,0,B|268:179|268:179|246:217,1,92.6249957599642,6|0,3:0|0:0,0:0:0:0:
468,197,117779,2,0,B|455:175|455:175|453:107,1,92.6249957599642,6|0,3:0|0:0,0:0:0:0:
359,283,118143,1,10,0:0:0:0:
361,39,118325,1,0,3:0:0:0:
362,54,118416,1,0,3:0:0:0:
363,69,118506,1,10,0:0:0:0:
164,189,118688,1,0,3:0:0:0:
163,174,118779,1,0,3:0:0:0:
162,159,118869,5,6,3:0:0:0:
359,283,119052,1,0,3:0:0:0:
360,298,119143,1,0,3:0:0:0:
361,313,119234,6,0,L|364:347,2,20.5833323911032,8|0|0,0:0|0:0|0:0,0:0:0:0:
478,302,119416,2,0,L|481:336,2,20.5833323911032,0|0|0,3:0|3:0|3:0,0:0:0:0:
400,158,119597,1,8,0:0:0:0:
400,147,119657,1,8,0:0:0:0:
400,136,119718,1,8,0:0:0:0:
400,125,119779,2,0,L|403:91,2,20.5833323911032,0|0|0,3:0|3:0|3:0,3:0:0:0:
492,197,119961,5,8,0:0:0:0:
451,233,120051,1,8,0:0:0:0:
399,245,120142,1,8,0:0:0:0:
347,232,120233,1,8,0:0:0:0:
308,196,120324,1,14,0:0:0:0:
53,323,131597,5,6,0:2:0:0:
53,323,131961,6,0,P|106:317|187:327,1,123.499994346619,4|0,3:2|0:0,0:0:0:0:
265,366,132506,1,0,0:0:0:0:
265,366,132870,1,0,0:0:0:0:
325,309,133052,2,0,P|325:273|325:226,1,61.7499971733095
330,239,133325,1,0,0:0:0:0:
335,231,133416,6,0,P|335:181|321:148,1,61.7499971733095,2|0,0:2|0:0,0:0:0:0:
309,144,133961,1,2,3:0:0:0:
376,14,134143,1,0,0:0:0:0:
396,41,134506,1,4,2:0:0:0:
492,27,134688,1,0,0:0:0:0:
488,35,134779,1,0,0:0:0:0:
484,43,134870,6,0,L|490:188,1,123.499994346619
493,268,135416,1,0,0:0:0:0:
493,268,135779,1,0,0:0:0:0:
431,326,135961,2,0,P|377:327|360:322,1,61.7499971733095,0|2,0:0|2:0,0:0:0:0:
361,320,136234,1,2,2:0:0:0:
352,315,136325,5,2,0:2:0:0:
300,232,136506,1,0,0:0:0:0:
300,232,136870,1,0,0:0:0:0:
233,311,137052,2,0,L|171:310,1,61.7499971733095,4|0,0:2|0:0,0:0:0:0:
27,224,137416,1,2,2:0:0:0:
27,224,137779,6,0,P|51:185|49:99,1,123.499994346619,4|0,0:2|0:0,0:0:0:0:
13,32,138325,1,0,0:0:0:0:
13,32,138688,1,0,0:0:0:0:
97,42,138870,2,0,P|135:47|173:39,1,61.7499971733095
166,40,139143,1,0,0:0:0:0:
174,37,139234,6,0,L|178:123,1,61.7499971733095,2|0,0:2|0:0,0:0:0:0:
191,129,139779,1,2,0:0:0:0:
337,51,139961,1,0,0:0:0:0:
367,45,140325,1,2,0:2:0:0:
281,121,140506,1,0,0:0:0:0:
280,130,140597,1,0,0:0:0:0:
279,139,140688,6,0,P|288:208|316:259,1,123.499994346619,8|0,0:0|0:0,0:0:0:0:
399,299,141234,1,0,0:0:0:0:
399,299,141597,1,0,0:0:0:0:
462,226,141779,2,0,P|466:194|462:139,1,61.7499971733095
404,55,142143,1,0,0:0:0:0:
256,192,142234,12,10,143234,0:0:0:0:
87,97,143597,6,0,B|171:117|166:67|261:87,1,170.999994781494,6|10,3:0|0:0,0:0:0:0:
412,27,144597,1,0,0:0:0:0:
494,226,144870,1,0,0:0:0:0:
250,258,145052,2,0,P|241:207|316:188,1,128.249996086121,6|0,3:0|3:0,0:0:0:0:
309,184,145688,1,0,3:0:0:0:
315,189,145779,1,10,0:0:0:0:
133,355,145961,6,0,P|96:352|72:330,1,59.375,0|0,3:0|0:0,0:0:0:0:
44,343,146506,6,0,B|35:282|35:282|56:232|56:232|30:173|64:127,1,213.750008153916,6|0,3:0|3:0,0:0:0:0:
158,104,147143,1,0,3:0:0:0:
185,112,147234,2,0,P|214:147|144:186,1,142.500005435944,10|0,0:0|0:0,0:0:0:0:
111,32,147779,2,0,P|178:23|200:32,1,71.2500027179719,0|2,3:0|0:0,0:0:0:0:
390,49,148143,1,0,3:0:0:0:
313,195,148325,2,0,P|297:163|319:100,1,71.2500027179719,2|0,3:0|0:0,0:0:0:0:
395,149,148688,5,10,0:0:0:0:
285,22,148870,1,2,3:0:0:0:
227,258,149052,1,10,0:0:0:0:
202,279,149416,6,0,P|278:268|351:293,1,142.500005435944,6|0,3:0|0:0,0:0:0:0:
512,135,149961,1,0,3:0:0:0:
492,155,150052,1,0,3:0:0:0:
466,167,150143,2,0,P|390:178|317:153,1,142.500005435944,10|0,0:0|0:0,0:0:0:0:
86,188,150688,2,0,P|143:160|119:83,1,142.500005435944,0|0,3:0|3:0,0:0:0:0:
271,15,151234,2,0,P|263:79|280:108,1,71.2500027179719,6|0,3:0|0:0,0:0:0:0:
395,298,151597,5,10,0:0:0:0:
427,41,151779,1,0,3:0:0:0:
415,67,151870,1,0,3:0:0:0:
403,93,151961,1,10,0:0:0:0:
403,93,152325,6,0,B|356:197|447:198|396:298,1,213.750008153916,6|0,3:0|3:0,0:0:0:0:
302,331,152961,1,0,3:0:0:0:
273,331,153052,2,0,P|241:291|319:262,1,142.500005435944,10|0,0:0|0:0,0:0:0:0:
67,326,153597,2,0,P|99:286|21:257,1,142.500005435944,0|0,3:0|3:0,0:0:0:0:
179,21,154143,2,0,P|164:73|183:150,1,106.875004076958,2|0,3:0|0:0,0:0:0:0:
189,145,154506,6,0,L|214:145,1,17.812500679493,14|0,0:0|0:0,0:0:0:0:
293,33,154688,2,0,L|268:33,1,17.812500679493,0|0,3:0|0:0,0:0:0:0:
311,176,154870,2,0,L|336:176,1,17.812500679493,6|0,3:2|0:0,0:0:0:0:
408,81,155052,2,0,L|383:81,1,17.812500679493,6|0,0:2|0:0,0:0:0:0:
485,225,155234,6,0,B|502:264|460:299|460:299|398:273|333:301,1,213.750008153916,6|0,3:0|3:0,0:0:0:0:
263,249,155870,1,0,3:0:0:0:
246,272,155961,2,0,P|235:316|300:384,1,142.500005435944,10|0,0:0|0:0,0:0:0:0:
338,181,156506,2,0,P|289:158|249:163,1,71.2500027179719,0|2,3:0|0:0,0:0:0:0:
98,203,156870,1,0,3:0:0:0:
177,50,157052,2,0,L|173:145,1,71.2500027179719,6|0,3:2|0:0,0:0:0:0:
164,346,157416,5,10,0:0:0:0:
361,18,157779,1,2,3:0:0:0:
372,46,158143,6,0,P|295:12|174:51,1,213.750008153916,6|0,3:0|3:0,0:0:0:0:
84,21,158779,1,0,3:0:0:0:
68,45,158870,2,0,P|65:77|146:152,1,142.500005435944,14|0,0:0|0:0,0:0:0:0:
356,154,159416,2,0,P|321:163|299:193,1,71.2500027179719,0|4,3:0|0:2,0:0:0:0:
126,285,159779,1,0,3:0:0:0:
132,312,159870,1,0,3:0:0:0:
150,333,159961,1,2,3:0:0:0:
266,353,160143,1,0,0:0:0:0:
377,237,160325,5,10,0:0:0:0:
135,151,160506,1,0,3:0:0:0:
361,18,160688,1,14,0:0:0:0:
388,27,161052,6,0,B|414:127|348:124|377:240,1,213.750008153916,6|0,3:0|3:0,0:0:0:0:
457,295,161688,1,0,3:0:0:0:
492,288,161779,2,0,P|521:242|455:197,1,142.500005435944,10|0,0:0|0:0,0:0:0:0:
278,134,162325,2,0,P|269:169|280:228,1,71.2500027179719,0|2,3:0|0:0,0:0:0:0:
308,366,162688,1,0,3:0:0:0:
169,277,162870,2,0,P|134:270|86:277,1,71.2500027179719,6|0,3:0|0:0,0:0:0:0:
369,182,163234,5,10,0:0:0:0:
169,76,163416,1,0,3:0:0:0:
151,98,163506,1,0,3:0:0:0:
135,121,163597,1,10,0:0:0:0:
309,42,163779,1,2,3:0:0:0:
466,183,163961,5,8,0:0:0:0:
462,235,164051,1,8,0:0:0:0:
425,270,164143,2,0,L|345:272,1,47.5,0|0,3:0|3:0,0:0:0:0:
250,144,164325,5,8,0:0:0:0:
250,158,164416,1,8,0:0:0:0:
250,172,164506,1,8,0:0:0:0:
250,186,164597,1,8,0:0:0:0:
250,200,164688,2,0,L|256:272,1,47.5,0|0,3:0|3:0,0:0:0:0:
145,357,164870,5,8,0:0:0:0:
93,353,164960,1,8,0:0:0:0:
58,316,165052,1,8,0:0:0:0:
55,269,165142,1,8,0:0:0:0:
81,228,165234,2,0,L|124:190,1,47.5,0|0,3:0|3:0,0:0:0:0:
352,94,165416,5,8,0:0:0:0:
307,132,165506,1,8,0:0:0:0:
250,144,165597,1,0,3:0:0:0:
194,127,165688,1,0,3:0:0:0:
154,84,165779,2,0,L|158:7,1,47.5
354,46,165961,2,0,L|350:123,1,47.5
234,284,166143,5,0,3:0:0:0:
265,222,166234,1,0,3:0:0:0:
331,200,166325,1,0,3:0:0:0:
395,229,166416,1,0,3:0:0:0:
420,293,166506,6,0,L|419:335,1,35.625,10|0,0:0|0:0,0:0:0:0:
397,358,166870,5,6,3:0:0:0:
351,93,167052,1,0,3:0:0:0:
53,192,167234,2,0,P|164:151|219:309,1,294.500002246857,6|10,3:0|0:0,0:0:0:0:
221,316,167961,1,2,3:0:0:0:
208,55,168143,1,0,3:0:0:0:
479,183,168325,5,2,3:0:0:0:
45,62,168688,1,10,0:0:0:0:
348,141,168870,1,0,3:0:0:0:
343,169,168961,1,0,3:0:0:0:
338,197,169052,5,12,0:0:0:0:
142,117,169234,1,0,3:0:0:0:
456,29,169416,1,14,0:2:0:0:
476,58,169779,5,6,3:0:0:0:
209,194,169961,1,0,3:0:0:0:
471,333,170143,2,0,P|496:244|329:209,1,294.500002246857,6|10,3:0|0:0,0:0:0:0:
318,226,170870,1,2,3:0:0:0:
391,47,171052,1,0,3:0:0:0:
79,48,171234,5,2,3:0:0:0:
410,265,171597,1,10,0:0:0:0:
228,85,171779,1,0,3:0:0:0:
226,114,171870,1,0,3:0:0:0:
224,143,171961,5,12,0:0:0:0:
66,28,172143,1,0,3:0:0:0:
66,315,172325,1,14,0:2:0:0:
41,334,172688,5,6,3:0:0:0:
236,334,172870,1,0,3:0:0:0:
430,334,173052,2,0,P|356:245|235:343,1,294.500002246857,6|10,3:0|0:0,0:0:0:0:
234,369,173779,5,2,3:0:0:0:
234,188,173961,1,0,3:0:0:0:
234,7,174143,1,2,3:0:0:0:
9,287,174506,5,10,0:0:0:0:
133,66,174688,1,0,3:0:0:0:
130,94,174779,1,0,3:0:0:0:
127,122,174870,5,12,0:0:0:0:
336,19,175052,1,0,3:0:0:0:
464,255,175234,1,14,0:2:0:0:
456,285,175597,5,6,3:0:0:0:
459,53,175779,1,0,3:0:0:0:
221,227,175961,2,0,P|122:187|250:92,1,294.500002246857,6|10,3:0|0:0,0:0:0:0:
243,73,176688,1,2,3:0:0:0:
31,194,176870,1,0,3:0:0:0:
358,281,177052,5,2,3:0:0:0:
38,83,177416,1,10,0:0:0:0:
329,126,177597,1,0,3:0:0:0:
319,154,177688,1,0,3:0:0:0:
310,182,177779,1,12,0:0:0:0:
48,230,177961,2,0,P|81:242|98:274,1,73.6250005617142,0|0,3:0|3:0,0:0:0:0:
25,305,178143,5,8,0:2:0:0:
28,249,178233,1,8,0:0:0:0:
31,194,178324,1,8,0:0:0:0:
33,139,178415,1,8,0:0:0:0:
37,84,178506,5,6,3:0:0:0:
310,182,178688,1,0,3:0:0:0:
96,355,178870,2,0,P|178:276|319:372,1,294.500002246857,6|10,3:0|0:0,0:0:0:0:
321,383,179597,1,2,3:0:0:0:
466,194,179779,1,0,3:0:0:0:
135,197,179961,5,2,3:0:0:0:
470,41,180325,1,10,0:0:0:0:
204,79,180506,1,0,3:0:0:0:
202,108,180597,1,0,3:0:0:0:
200,136,180688,5,12,0:0:0:0:
32,40,180870,1,0,3:0:0:0:
388,116,181052,1,14,0:2:0:0:
404,148,181416,5,6,3:0:0:0:
156,34,181597,1,0,3:0:0:0:
64,291,181779,2,0,P|139:356|128:209,1,294.500002246857,6|10,3:0|0:0,0:0:0:0:
149,209,182506,1,2,3:0:0:0:
404,148,182688,1,0,3:0:0:0:
101,61,182870,5,2,3:0:0:0:
457,59,183234,1,10,0:0:0:0:
223,70,183416,1,0,3:0:0:0:
214,99,183507,1,0,3:0:0:0:
206,127,183597,5,12,0:0:0:0:
2,82,183779,1,0,3:0:0:0:
158,310,183961,1,14,0:2:0:0:
322,107,184143,1,10,0:0:0:0:
484,299,184325,5,6,3:0:0:0:
468,45,184506,1,0,3:0:0:0:
226,179,184688,2,0,P|298:261|420:155,1,294.500002246857,6|10,3:0|0:0,0:0:0:0:
421,134,185416,1,2,3:0:0:0:
332,356,185597,1,0,3:0:0:0:
324,76,185779,5,2,3:0:0:0:
96,340,186143,1,10,0:0:0:0:
33,148,186325,1,0,3:0:0:0:
40,176,186416,1,0,3:0:0:0:
47,204,186506,5,12,0:0:0:0:
104,41,186688,1,0,3:0:0:0:
273,247,186870,1,14,0:2:0:0:
250,274,187234,5,6,3:0:0:0:
335,84,187416,1,2,3:0:0:0:
104,41,187597,1,8,0:0:0:0:
356,90,187779,1,0,0:0:0:0:
111,214,187961,5,14,0:0:0:0:
111,214,188143,1,10,0:0:0:0:
224,127,188325,1,2,3:0:0:0:
104,41,188506,1,0,3:0:0:0:
105,239,188688,5,14,0:0:0:0:
227,69,188870,1,0,3:0:0:0:
225,98,188961,1,0,3:0:0:0:
224,127,189052,5,0,0:0:0:0:
270,115,189142,1,0,0:0:0:0:
314,136,189233,1,0,0:0:0:0:
334,180,189324,1,0,0:0:0:0:
322,226,189415,1,0,0:0:0:0:
283,255,189506,1,0,0:0:0:0:
235,252,189597,1,0,0:0:0:0:
225,240,189688,1,0,0:0:0:0:
215,228,189779,6,0,L|217:165,1,59.375,8|8,0:0|0:0,0:0:0:0:
438,56,189961,2,0,L|439:115,1,59.375,8|8,0:0|0:0,0:0:0:0:
405,317,190143,1,6,3:0:0:0:
256,192,190234,12,0,200234,0:0:0:0:
