osu file format v14

[General]
AudioFilename: audio.mp3
AudioLeadIn: 0
PreviewTime: 36955
Countdown: 1
SampleSet: Soft
StackLeniency: 0.7
Mode: 0
LetterboxInBreaks: 0
WidescreenStoryboard: 1

[Editor]
Bookmarks: 9262,27724,36955,53108,66955,76185,85416,97052,108688,120314,131951,143597,166870,190142
DistanceSpacing: 1
BeatDivisor: 4
GridSize: 8
TimelineZoom: 1.3

[Metadata]
Title:Vanished truth
TitleUnicode:Vanished truth
Artist:Draw the Emotional feat. Meramipop
ArtistUnicode:Draw the Emotional feat. めらみぽっぷ
Creator:IsomirDiAngelo
Version:Normal
Source:東方星蓮船 ~ Undefined Fantastic Object.
Tags:seto kousuke shirahane suou hey lululu lu^3 shadowx yshadowxop_ itswinter silence player 平安のエイリアン Heian Alien 東方Project 締め切り前日のおまいら ゆよゆっぺ yuyoyuppe zun Touhou C78 Comiket 78 Collapse of the sky 封獣 ぬえ Houjuu Nue 上海アリス幻樂団 Team Shanghai Alice rock metal japanese video game
BeatmapID:2080266
BeatmapSetID:984365

[Difficulty]
HPDrainRate:3
CircleSize:3
OverallDifficulty:4
ApproachRate:6
SliderMultiplier:1
SliderTickRate:1

[Events]
//Background and Video events
0,0,"bg.jpg",0,0
//Break Periods
2,85616,89779
2,120524,130761
//Storyboard Layer 0 (Background)
//Storyboard Layer 1 (Fail)
//Storyboard Layer 2 (Pass)
//Storyboard Layer 3 (Foreground)
//Storyboard Layer 4 (Overlay)
//Storyboard Sound Samples

[TimingPoints]
32,288.461538461538,4,2,1,60,1,0
320,-100,4,2,1,60,0,0
2339,-100,4,2,1,60,0,0
2627,-100,4,2,1,60,0,0
3493,-100,4,2,1,60,0,0
4070,-100,4,2,1,60,0,0
4935,-100,4,2,1,60,0,0
6955,-100,4,2,1,60,0,0
9262,-100,4,2,1,60,0,1
13589,-100,4,2,1,60,0,0
13878,-100,4,2,1,60,0,1
18493,-100,4,2,1,60,0,0
20512,-100,4,2,1,65,0,0
20801,-100,4,2,1,60,0,0
22675,-100,4,2,1,65,0,0
22819,-100,4,2,1,60,0,0
25127,-100,4,2,1,65,0,0
25416,-100,4,2,1,60,0,0
27147,-100,4,2,1,60,0,0
27723,-100,4,2,1,60,0,0
28012,-100,4,2,1,60,0,0
32339,-100,4,2,1,60,0,1
35512,-100,4,2,1,60,0,1
35800,-100,4,2,1,60,0,1
36089,-100,4,2,1,60,0,0
36955,-100,4,2,1,60,0,0
45752,-100,4,3,9,60,0,0
45897,-100,4,2,1,60,0,0
51810,-100,4,2,1,70,0,0
51955,-100,4,2,1,60,0,0
52675,-100,4,3,9,60,0,0
52820,-100,4,2,1,60,0,0
53108,-100,4,2,1,60,0,1
54262,-100,4,2,1,60,0,1
54551,-100,4,2,1,60,0,1
55705,-100,4,3,8,60,0,1
55993,-100,4,3,9,60,0,1
56281,-100,4,2,1,60,0,1
58878,-100,4,3,8,60,0,1
59166,-100,4,3,9,60,0,1
59454,-100,4,2,1,60,0,1
61185,-100,4,3,8,60,0,1
61329,-100,4,2,1,60,0,1
61474,-100,4,3,9,60,0,1
61618,-100,4,2,1,60,0,1
65801,-100,4,2,1,60,0,0
66955,-100,4,2,1,60,0,0
71281,-100,4,2,1,60,0,0
71570,-100,4,2,1,60,0,0
84551,-100,4,2,1,65,0,0
84839,-100,4,2,1,60,0,0
85128,-100,4,2,1,60,0,0
85416,363.636363636364,4,2,1,60,1,0
91234,-100,4,2,1,60,0,0
95234,-100,4,2,1,60,0,0
96324,-100,4,2,1,60,0,0
99961,-100,4,2,1,60,0,0
100688,-100,4,2,1,60,0,0
102870,-100,4,2,1,60,0,0
103960,-100,4,2,1,60,0,0
107778,-100,4,3,1,60,0,0
107961,-100,4,2,1,60,0,0
108688,-100,4,2,1,60,0,0
119415,-100,4,2,1,60,0,0
131961,-100,4,3,20,60,0,0
133415,-100,4,3,20,90,0,0
137779,-100,4,3,20,60,0,0
140870,-100,4,3,20,55,0,0
143597,-100,4,2,1,60,0,0
146142,-100,4,2,1,55,0,0
146506,-100,4,2,1,60,0,0
165779,-100,4,3,8,60,0,0
165960,-100,4,3,9,60,0,0
166142,-100,4,2,1,60,0,0
166143,-100,4,2,1,60,0,0
166687,-100,4,2,1,65,0,0
166870,-100,4,2,1,60,0,0
178143,-100,4,2,1,60,0,0
178506,-100,4,2,1,60,0,0
189052,-100,4,3,8,80,0,0
189415,-100,4,3,9,80,0,0
189779,-100,4,2,1,60,0,0
190324,-100,4,2,1,70,0,0
199597,-100,4,2,1,5,0,0

[Colours]
Combo1 : 55,117,130
Combo2 : 234,21,21

[HitObjects]
83,34,32,6,0,L|72:133,1,100,14|2,3:0|0:0,0:0:0:0:
55,328,897,1,2,0:0:0:0:
236,244,1474,1,2,0:0:0:0:
435,259,2051,1,2,0:0:0:0:
341,217,2339,6,0,L|327:347,1,100,6|2,3:0|0:0,0:0:0:0:
139,376,3205,1,2,0:0:0:0:
204,300,3493,6,0,B|154:296|154:296|140:286|140:286|65:277,1,100,6|6,3:0|3:0,0:0:0:0:
27,342,4070,2,0,B|14:305|14:305|30:231|30:231|17:188,1,150,10|8,0:0|2:0,0:0:0:0:
4,149,4647,6,0,P|56:169|132:138,1,100,6|2,3:0|0:0,0:0:0:0:
247,28,5512,1,2,0:0:0:0:
372,182,6089,1,2,0:0:0:0:
275,356,6666,1,2,0:0:0:0:
322,267,6955,6,0,B|351:284|351:284|438:271,1,100,6|2,3:0|0:0,0:0:0:0:
485,202,7531,2,0,L|491:104,1,50,0|0,0:0|3:0,0:0:0:0:
494,102,7820,5,10,0:0:0:0:
395,102,8108,1,6,3:0:0:0:
333,180,8397,1,6,3:0:0:0:
234,178,8685,1,8,0:0:0:0:
453,66,9262,6,0,L|327:46,1,100,14|8,0:0|0:0,0:0:0:0:
257,74,9839,2,0,L|131:54,1,100,8|8,0:0|0:0,0:0:0:0:
100,139,10416,5,14,0:0:0:0:
80,238,10705,1,8,0:0:0:0:
180,257,10993,1,8,0:0:0:0:
198,159,11281,1,8,0:0:0:0:
278,218,11570,6,0,P|328:258|320:334,1,100,14|8,0:3|0:0,0:0:0:0:
435,295,12147,2,0,P|450:248|492:222,1,100,8|8,0:0|0:0,0:0:0:0:
510,123,12724,5,14,0:0:0:0:
447,44,13012,1,14,0:0:0:0:
387,124,13301,2,0,L|385:181,2,50,8|0|14,0:0|3:0|0:0,0:0:0:0:
326,44,13878,6,0,L|196:41,1,100,14|10,0:3|0:0,0:0:0:0:
125,40,14455,1,10,0:0:0:0:
25,37,14743,1,10,0:0:0:0:
24,136,15031,6,0,L|123:138,1,100,14|10,0:3|0:0,0:0:0:0:
224,138,15608,1,10,0:0:0:0:
324,140,15897,1,10,0:0:0:0:
321,239,16185,5,8,0:0:0:0:
256,192,16330,12,8,17916,0:0:0:0:
255,192,18493,5,6,0:3:0:0:
255,192,18637,2,0,B|290:238|290:238|278:344,1,150,2|10,3:0|0:0,0:0:0:0:
377,350,19358,2,0,L|390:274,1,50,0|0,3:0|3:0,0:0:0:0:
425,270,19647,1,2,3:2:0:0:
488,193,19935,2,0,L|501:117,1,50,0|0,3:0|3:0,0:0:0:0:
471,100,20224,2,0,P|410:104|371:62,1,100,10|0,0:0|0:0,0:0:0:0:
298,26,20801,6,0,L|289:102,1,50,2|0,0:0|3:0,0:0:0:0:
249,100,21089,2,0,L|235:221,2,100,0|10|0,3:0|0:0|3:0,0:0:0:0:
168,39,21955,2,0,B|131:51|131:51|52:39,1,100,2|0,3:2|3:0,0:0:0:0:
8,123,22531,2,0,L|1:185,2,50,10|0|10,0:0|0:0|0:0,0:0:0:0:
108,141,23108,5,6,0:3:0:0:
108,141,23253,2,0,P|170:166|161:259,1,150,2|10,3:0|0:0,0:0:0:0:
81,276,23974,2,0,L|6:262,1,50,0|0,3:0|3:0,0:0:0:0:
1,309,24262,1,2,3:2:0:0:
78,372,24551,2,0,L|151:383,1,50,0|0,3:0|3:0,0:0:0:0:
167,350,24839,2,0,B|208:354|208:354|307:337,1,100,10|0,0:0|0:0,0:0:0:0:
363,368,25416,6,0,L|364:282,1,50,2|0,0:0|3:0,0:0:0:0:
340,273,25705,2,0,L|339:133,2,100,0|10|0,3:0|0:0|3:0,0:0:0:0:
438,292,26570,5,2,3:0:0:0:
457,194,26858,2,0,L|456:109,1,50,0|0,3:0|3:0,0:0:0:0:
431,100,27147,1,8,0:0:0:0:
432,0,27435,2,0,P|363:23|337:69,1,100,8|0,0:0|3:0,0:0:0:0:
319,138,28012,5,14,0:3:0:0:
219,126,28301,2,0,B|196:90|196:90|200:0,1,100,2|10,3:0|0:3,0:0:0:0:
98,28,28878,2,0,B|100:85|100:85|77:121,1,100,2|10,3:0|0:3,0:0:0:0:
48,217,29455,6,0,L|47:337,1,100,2|10,3:0|0:3,0:0:0:0:
145,297,30031,2,0,L|145:197,1,100,2|10,3:0|0:3,0:0:0:0:
244,215,30608,2,0,L|243:335,1,100,2|10,3:0|0:3,0:0:0:0:
335,353,31185,6,0,P|367:344|384:324,1,50,0|0,3:0|3:0,0:0:0:0:
427,343,31474,1,10,0:0:0:0:
472,254,31762,6,0,P|440:245|423:225,1,50,0|0,3:0|3:0,0:0:0:0:
382,212,32051,2,0,L|382:142,1,50,8|8,2:0|2:0,0:0:0:0:
403,116,32339,6,0,P|426:69|387:12,1,100,6|10,3:0|3:0,0:0:0:0:
309,23,32916,2,0,P|286:70|325:127,1,100,0|10,3:0|3:0,0:0:0:0:
267,205,33493,6,0,L|260:282,1,50,0|0,3:0|3:0,0:0:0:0:
278,302,33781,1,10,3:0:0:0:
179,319,34070,6,0,L|186:242,1,50,0|0,3:0|3:0,0:0:0:0:
168,222,34358,1,10,3:0:0:0:
71,195,34647,5,6,3:0:0:0:
22,107,34935,1,10,3:0:0:0:
69,18,35224,1,2,3:0:0:0:
168,6,35512,6,0,B|203:26|203:26|279:10,1,100,0|2,3:0|3:0,0:0:0:0:
332,84,36089,2,0,B|367:104|367:104|443:88,1,100,14|10,0:2|0:0,0:0:0:0:
490,15,36666,2,0,L|517:95,1,50,8|8,2:0|2:0,0:0:0:0:
510,112,36955,5,6,3:0:0:0:
501,311,37531,2,0,L|305:296,1,150,10|0,0:0|3:0,0:0:0:0:
305,320,38108,2,0,L|238:315,2,50,2|0|2,0:0|3:0|3:0,0:0:0:0:
286,221,38685,6,0,B|294:160|294:160|287:128|287:128|296:58,1,150,10|0,0:0|0:0,0:0:0:0:
272,27,39262,1,6,3:0:0:0:
86,102,39839,6,0,B|78:163|78:163|85:195|85:195|76:265,1,150,10|0,0:0|3:0,0:0:0:0:
45,288,40416,2,0,L|147:295,1,100,2|2,0:0|3:0,0:0:0:0:
194,208,40993,1,10,0:0:0:0:
293,215,41281,1,10,0:0:0:0:
301,115,41570,6,0,B|399:120|399:120|450:81,1,150,6|0,3:0|3:0,0:0:0:0:
463,43,42147,2,0,L|454:213,1,150,10|0,0:0|3:0,0:0:0:0:
482,234,42724,2,0,L|479:298,2,50,2|0|2,0:0|3:0|3:0,0:0:0:0:
387,267,43301,2,0,L|382:375,1,100,10|2,0:0|3:0,0:0:0:0:
291,323,43878,6,0,P|290:215|368:149,1,200,6|10,3:0|0:0,0:0:0:0:
287,78,44743,2,0,L|170:72,1,100,10|2,0:0|0:0,0:0:0:0:
103,17,45320,5,10,0:0:0:0:
39,94,45608,2,0,L|35:157,1,50,8|0,0:0|0:0,0:0:0:0:
74,176,45897,2,0,L|73:232,1,50,10|0,0:0|3:0,0:0:0:0:
41,264,46185,5,6,3:0:0:0:
203,380,46762,2,0,B|205:273|205:273|158:238,1,150,10|0,0:0|3:0,0:0:0:0:
175,197,47339,2,0,L|179:133,2,50,2|0|2,0:0|3:0|3:0,0:0:0:0:
275,200,47916,6,0,L|434:204,1,150,10|0,0:0|0:0,0:0:0:0:
461,238,48493,1,6,3:0:0:0:
430,40,49070,6,0,L|271:36,1,150,10|0,0:0|3:0,0:0:0:0:
244,3,49647,2,0,P|270:46|252:96,1,100,2|2,0:0|3:0,0:0:0:0:
174,148,50224,1,10,0:0:0:0:
83,106,50512,1,10,0:0:0:0:
39,196,50801,6,0,B|18:241|18:241|34:359,1,150,6|0,3:0|3:0,0:0:0:0:
66,376,51378,2,0,L|217:357,1,150,10|0,0:0|0:0,0:0:0:0:
260,377,51955,1,2,0:0:0:0:
359,365,52243,1,10,0:0:0:0:
429,293,52531,6,0,L|414:240,1,50,8|0,0:0|0:0,0:0:0:0:
439,201,52820,1,10,0:0:0:0:
414,104,53108,5,6,3:0:0:0:
315,84,53397,2,0,L|172:52,1,100,14|10,0:0|0:0,0:0:0:0:
127,107,53974,6,0,L|78:93,1,50,10|10,0:0|0:0,0:0:0:0:
30,107,54262,1,2,3:0:0:0:
32,207,54551,5,2,3:0:0:0:
131,209,54839,2,0,P|151:259|124:318,1,100,14|10,0:0|0:0,0:0:0:0:
224,352,55416,5,6,3:0:0:0:
312,305,55705,2,0,P|299:257|319:212,2,100,0|0|6,0:0|0:0|3:0,0:0:0:0:
398,354,56570,6,0,L|510:362,1,100,10|10,0:0|0:0,0:0:0:0:
471,264,57147,2,0,L|482:193,1,50,10|10,0:0|0:0,0:0:0:0:
457,169,57435,1,2,3:0:0:0:
467,69,57724,5,2,3:0:0:0:
367,56,58012,2,0,L|223:40,1,100,10|10,0:0|0:0,0:0:0:0:
185,102,58589,5,8,0:0:0:0:
85,93,58878,2,0,P|49:56|59:-17,2,100,0|0|10,0:0|0:0|0:0,0:0:0:0:
125,184,59743,6,0,L|114:315,1,100,8|10,0:0|0:0,0:0:0:0:
204,332,60320,2,0,L|212:257,1,50,10|10,0:0|0:0,0:0:0:0:
241,243,60608,1,2,3:0:0:0:
340,252,60897,6,0,P|350:279|382:300,1,50,8|0,0:0|3:0,0:0:0:0:
415,296,61185,2,0,P|442:286|463:254,1,50,0|0,0:0|3:0,0:0:0:0:
459,221,61474,2,0,P|449:194|417:173,1,50,0|0,0:0|3:0,0:0:0:0:
384,175,61762,5,10,3:0:0:0:
390,75,62051,2,0,B|433:61|433:61|528:71,2,100,6|8|6,3:0|0:0|3:2,3:0:0:0:
298,114,62916,5,14,0:0:0:0:
198,100,63205,1,14,0:3:0:0:
99,81,63493,6,0,L|90:144,1,50,10|0,3:0|3:0,0:0:0:0:
58,167,63781,1,10,0:0:0:0:
80,264,64070,5,10,0:0:0:0:
178,280,64358,1,14,0:0:0:0:
277,295,64647,1,14,0:0:0:0:
364,247,64935,6,0,P|426:232|452:175,2,100,6|4|4,3:2|3:2|3:2,0:0:0:0:
290,178,65801,6,0,L|310:69,2,100,6|6|6,3:0|3:0|3:0,0:0:0:0:
199,135,66666,1,12,0:0:0:0:
130,61,66955,6,0,L|3:44,1,100,6|10,3:0|0:0,0:0:0:0:
39,147,67531,2,0,L|138:160,1,100,2|10,3:0|0:0,0:0:0:0:
238,130,68108,6,0,L|111:113,1,100,2|10,3:0|0:0,0:0:0:0:
147,216,68685,2,0,L|246:229,1,100,2|10,3:0|0:0,0:0:0:0:
337,186,69262,6,0,P|344:242|294:306,1,100,6|10,3:0|0:0,0:0:0:0:
227,274,69839,2,0,P|219:330|269:394,1,100,2|10,3:0|0:0,0:0:0:0:
336,373,70416,5,2,3:0:0:0:
435,358,70705,2,0,L|450:274,1,50,10|0,0:0|0:0,0:0:0:0:
417,266,70993,2,0,P|414:234|454:192,1,50,14|0,0:0|3:0,0:0:0:0:
466,199,71281,1,10,0:0:0:0:
411,115,71570,6,0,L|290:99,1,100,6|10,3:0|0:0,0:0:0:0:
232,40,72147,2,0,L|111:24,1,100,2|10,3:0|0:0,0:0:0:0:
45,75,72724,6,0,P|26:118|42:197,1,100,2|10,3:0|0:0,0:0:0:0:
105,235,73301,2,0,P|124:278|108:357,1,100,2|10,3:0|0:0,0:0:0:0:
221,331,73878,6,0,P|217:281|237:236,1,100,6|10,3:0|0:0,0:0:0:0:
309,166,74455,2,0,P|312:116|292:71,1,100,2|10,3:0|0:0,0:0:0:0:
203,26,75031,5,10,0:0:0:0:
116,76,75320,1,10,0:0:0:0:
201,127,75608,1,10,0:0:0:0:
373,26,76185,5,6,3:0:0:0:
373,26,76330,2,0,L|492:34,1,100,0|0,3:0|3:0,0:0:0:0:
499,74,76762,1,14,0:0:0:0:
484,173,77051,2,0,L|475:233,1,50,2|0,3:0|3:0,0:0:0:0:
459,320,77483,5,0,3:0:0:0:
459,320,77628,1,0,3:0:0:0:
359,308,77916,2,0,L|266:298,1,50,10|0,0:0|3:0,0:0:0:0:
209,294,78349,1,0,3:0:0:0:
209,294,78493,1,6,3:2:0:0:
176,199,78781,6,0,L|187:128,1,50,0|0,3:0|3:0,0:0:0:0:
159,105,79070,2,0,P|71:113|43:140,1,100,10|0,0:0|3:0,0:0:0:0:
36,214,79647,6,0,L|40:289,1,50,6|0,3:2|3:0,0:0:0:0:
108,335,80080,1,0,3:0:0:0:
108,335,80224,2,0,L|208:335,1,100,10|6,0:0|0:2,0:0:0:0:
285,271,80801,5,6,3:0:0:0:
285,271,80945,2,0,L|387:267,1,100,0|0,3:0|3:0,0:0:0:0:
405,221,81378,1,14,0:0:0:0:
460,137,81666,2,0,L|470:68,1,50,2|0,3:0|3:0,0:0:0:0:
369,79,82099,2,0,L|359:10,1,50,0|0,3:0|3:0,0:0:0:0:
263,15,82531,1,10,0:0:0:0:
263,15,82676,1,0,3:0:0:0:
170,52,82964,2,0,L|161:128,1,50,0|6,3:0|3:2,0:0:0:0:
64,137,83397,6,0,P|44:182|56:230,1,100,0|10,3:0|0:0,0:0:0:0:
94,261,83830,1,0,3:0:0:0:
94,261,83974,2,0,P|113:306|101:353,1,100,0|6,3:0|3:2,0:0:0:0:
198,335,84551,1,0,0:0:0:0:
294,362,84839,1,10,0:0:0:0:
387,326,85128,6,0,L|385:260,1,50,8|8,0:0|0:0,0:0:0:0:
411,246,85416,1,6,0:0:0:0:
253,192,90870,5,10,0:0:0:0:
256,192,91234,12,14,95234,0:2:0:0:
66,31,96324,6,0,B|61:71|61:71|69:97|69:97|63:158,1,100,10|10,0:0|0:0,0:0:0:0:
27,221,97052,6,0,L|23:333,1,100,6|2,3:0|3:0,0:0:0:0:
123,326,97779,2,0,L|119:226,1,100,10|2,0:0|3:0,0:0:0:0:
118,125,98506,2,0,P|170:145|235:125,1,100,2|2,3:0|3:0,0:0:0:0:
277,62,99233,2,0,P|326:56|371:75,1,100,10|2,0:0|3:0,0:0:0:0:
460,122,99961,6,0,L|453:-9,2,100,6|6|10,3:0|3:0|0:0,0:0:0:0:
492,216,101052,1,10,0:0:0:0:
392,211,101415,1,6,3:0:0:0:
386,310,101779,1,6,3:0:0:0:
488,314,102142,1,14,0:0:0:0:
323,200,102870,6,0,P|329:231|323:262,1,50,6|0,3:0|3:0,0:0:0:0:
293,285,103234,2,0,P|287:316|293:347,1,50,2|0,3:0|3:0,0:0:0:0:
241,351,103597,2,0,L|97:344,1,100,10|2,0:0|3:0,0:0:0:0:
47,343,104324,6,0,P|66:286|25:230,1,100,2|2,3:0|3:0,0:0:0:0:
107,168,105052,2,0,P|88:111|129:55,1,100,10|10,0:0|0:0,0:0:0:0:
189,28,105779,6,0,L|67:30,2,100,6|2|10,3:0|3:0|0:0,0:0:0:0:
288,32,106870,1,10,0:0:0:0:
387,34,107233,5,14,0:0:0:0:
443,116,107597,2,0,L|443:185,1,50,8|0,0:0|3:0,0:0:0:0:
419,210,107961,1,14,0:0:0:0:
292,364,108688,6,0,L|297:243,1,100,6|2,3:0|0:0,0:0:0:0:
218,201,109415,2,0,L|213:80,1,100,10|2,0:0|3:0,0:0:0:0:
270,18,110142,2,0,P|320:37|381:23,1,100,2|2,3:0|3:0,0:0:0:0:
462,54,110870,1,10,0:0:0:0:
508,142,111233,1,2,3:0:0:0:
460,230,111597,6,0,L|455:357,1,100,6|6,3:0|3:0,0:0:0:0:
356,333,112324,2,0,L|352:233,1,100,10|10,0:0|0:0,0:0:0:0:
390,140,113052,5,6,3:0:0:0:
290,130,113415,1,6,3:0:0:0:
212,66,113779,1,14,0:0:0:0:
35,176,114506,6,0,L|104:170,1,50,6|0,3:0|3:0,0:0:0:0:
121,137,114870,2,0,L|198:135,1,50,2|0,3:0|3:0,0:0:0:0:
215,158,115233,2,0,P|198:99|236:44,1,100,10|2,0:0|3:0,0:0:0:0:
302,21,115961,6,0,P|316:67|298:113,2,100,2|2|10,3:0|3:0|0:0,0:0:0:0:
401,34,117052,1,10,0:0:0:0:
458,115,117415,6,0,L|448:250,1,100,6|6,3:0|3:0,0:0:0:0:
364,261,118142,2,0,L|374:396,1,100,10|10,0:0|0:0,0:0:0:0:
271,370,118870,6,0,L|199:367,1,50,6|0,3:0|3:0,0:0:0:0:
176,344,119234,2,0,L|117:342,1,50,8|0,0:0|3:0,0:0:0:0:
82,368,119597,1,8,0:0:0:0:
49,273,119961,2,0,L|45:198,1,50,8|8,0:0|0:0,0:0:0:0:
80,186,120324,5,14,0:0:0:0:
254,73,131961,5,4,3:2:0:0:
354,245,133415,5,2,0:2:0:0:
154,250,134870,5,0,0:0:0:0:
254,73,137779,5,4,0:2:0:0:
354,245,139233,5,2,0:2:0:0:
154,250,140688,5,8,0:0:0:0:
256,192,140870,12,0,142870,0:0:0:0:
465,23,143597,5,6,3:0:0:0:
444,221,144324,2,0,L|290:199,1,150,10|0,0:0|0:0,0:0:0:0:
255,230,145052,5,6,3:0:0:0:
273,81,145597,1,0,3:0:0:0:
273,81,145779,2,0,P|211:90|171:66,1,100,10|0,0:0|0:0,0:0:0:0:
99,14,146506,5,6,3:0:0:0:
9,134,147052,1,0,3:0:0:0:
9,134,147233,2,0,B|31:178|31:178|19:325,1,150,10|0,0:0|3:0,0:0:0:0:
45,323,147961,6,0,L|41:391,2,50,2|0|2,0:0|3:0|3:0,0:0:0:0:
142,273,148688,1,10,0:0:0:0:
242,273,149052,1,10,0:0:0:0:
312,344,149415,5,6,3:0:0:0:
452,292,149961,1,0,3:0:0:0:
452,292,150142,2,0,P|483:224|438:149,1,150,10|0,0:0|3:0,0:0:0:0:
408,136,150870,6,0,L|333:135,2,50,6|0|6,0:2|3:0|3:0,0:0:0:0:
380,39,151597,2,0,L|312:40,1,50,10|0,0:0|3:0,0:0:0:0:
285,62,151961,1,10,0:0:0:0:
198,11,152324,5,6,3:0:0:0:
104,128,152870,1,0,3:0:0:0:
104,128,153052,2,0,B|169:130|169:130|197:111|197:111|268:114,1,150,10|0,0:0|3:0,0:0:0:0:
282,149,153779,6,0,L|287:220,2,50,6|0|2,0:2|3:0|3:0,0:0:0:0:
204,211,154506,2,0,L|210:289,1,50,14|0,0:0|3:0,0:0:0:0:
181,303,154870,2,0,L|186:373,1,50,6|6,3:2|0:2,0:0:0:0:
226,380,155233,5,6,3:0:0:0:
376,373,155779,1,0,3:0:0:0:
376,373,155961,2,0,P|449:329|422:235,1,150,10|0,0:0|3:0,0:0:0:0:
458,221,156688,6,0,L|512:208,2,50,2|0|6,0:0|3:0|3:2,0:0:0:0:
371,171,157415,2,0,L|358:48,1,100,10|2,0:0|3:0,0:0:0:0:
263,47,158142,6,0,P|163:66|112:19,1,150,6|0,3:0|3:0,0:0:0:0:
81,23,158870,2,0,L|82:185,1,150,14|0,0:0|3:0,0:0:0:0:
66,220,159597,5,4,0:2:0:0:
66,320,159961,1,2,3:0:0:0:
165,322,160324,6,0,L|163:249,1,50,10|0,0:0|3:0,0:0:0:0:
200,237,160688,1,14,0:0:0:0:
200,136,161052,5,6,3:0:0:0:
286,13,161597,1,0,3:0:0:0:
286,13,161779,2,0,B|330:53|330:53|337:182,1,150,10|0,0:0|3:0,0:0:0:0:
356,188,162506,6,0,L|414:184,2,50,2|0|6,0:0|3:0|3:0,0:0:0:0:
312,278,163234,6,0,L|216:276,1,50,10|0,0:0|3:0,0:0:0:0:
220,305,163597,1,10,0:0:0:0:
145,237,163961,6,0,B|145:179,1,50,8|0,0:0|3:0,0:0:0:0:
103,159,164324,2,0,B|103:101,1,50,8|8,0:0|0:0,0:0:0:0:
141,76,164688,2,0,L|292:69,1,150,0|0,3:0|3:0,0:0:0:0:
324,105,165415,5,8,0:0:0:0:
421,82,165779,2,0,P|437:118|433:164,1,50
470,166,166143,2,0,P|461:207|433:236,1,50,0|0,3:0|3:0,0:0:0:0:
461,263,166506,2,0,P|428:284|390:290,1,50,10|0,0:0|0:0,0:0:0:0:
373,262,166870,6,0,L|252:256,1,100,6|6,3:0|3:0,0:0:0:0:
173,251,167597,1,10,0:0:0:0:
167,151,167961,2,0,L|288:145,1,100,2|2,3:0|3:0,0:0:0:0:
366,146,168688,2,0,L|434:139,1,50,10|0,0:0|3:0,0:0:0:0:
459,166,169052,1,12,0:0:0:0:
483,69,169415,1,14,0:2:0:0:
398,15,169779,6,0,P|343:11|281:57,1,100,6|6,3:0|3:0,0:0:0:0:
257,119,170506,1,10,0:0:0:0:
201,35,170870,2,0,P|155:14|106:19,1,100,2|2,3:0|3:0,0:0:0:0:
44,98,171597,2,0,L|52:170,1,50,10|0,0:0|3:0,0:0:0:0:
76,190,171961,1,12,0:0:0:0:
60,288,172324,1,14,0:2:0:0:
155,318,172688,6,0,B|168:273|168:273|166:193,1,100,6|6,3:0|3:0,0:0:0:0:
229,141,173415,1,10,0:0:0:0:
287,221,173779,2,0,B|288:267|288:267|315:343,1,100,2|2,3:0|3:0,0:0:0:0:
405,327,174506,2,0,L|407:265,1,50,10|0,0:0|3:0,0:0:0:0:
439,238,174870,1,12,0:0:0:0:
371,164,175233,1,14,0:2:0:0:
374,63,175597,6,0,P|418:38|502:54,1,100,6|6,3:0|3:0,0:0:0:0:
469,137,176324,1,10,0:0:0:0:
371,164,176688,2,0,P|323:151|287:116,1,100,2|2,3:0|3:0,0:0:0:0:
199,69,177415,2,0,L|189:132,1,50,10|0,0:0|3:0,0:0:0:0:
212,163,177779,1,12,0:0:0:0:
117,195,178143,2,0,L|110:268,1,50,8|8,0:2|0:0,0:0:0:0:
81,284,178506,6,0,P|131:266|219:292,1,100,6|6,3:0|3:0,0:0:0:0:
242,345,179233,1,10,0:0:0:0:
273,251,179597,2,0,P|323:233|411:259,1,100,2|2,3:0|3:0,0:0:0:0:
458,192,180324,2,0,P|471:235|470:266,1,50,10|0,0:0|3:0,0:0:0:0:
451,286,180688,1,12,0:0:0:0:
368,236,181052,1,14,0:2:0:0:
375,136,181415,6,0,B|339:95|339:95|285:87,1,100,6|6,3:0|3:0,0:0:0:0:
194,81,182142,1,10,0:0:0:0:
115,19,182506,2,0,B|70:25|70:25|34:66,1,100,2|2,3:0|3:0,0:0:0:0:
34,166,183234,2,0,L|103:153,1,50,10|0,0:0|3:0,0:0:0:0:
131,173,183597,1,12,0:0:0:0:
180,260,183961,2,0,L|177:314,1,50,14|10,0:2|0:0,0:0:0:0:
149,351,184324,6,0,P|203:367|260:332,1,100,6|6,3:0|3:0,0:0:0:0:
293,265,185052,1,10,0:0:0:0:
357,340,185415,2,0,P|411:356|468:321,1,100,2|2,3:0|3:0,0:0:0:0:
463,241,186143,2,0,L|455:180,1,50,10|0,0:0|3:0,0:0:0:0:
424,152,186506,1,12,0:0:0:0:
439,53,186870,1,14,0:2:0:0:
340,35,187234,6,0,L|269:49,1,50,6|2,3:0|3:0,0:0:0:0:
244,25,187597,1,8,0:0:0:0:
162,82,187961,2,0,L|178:153,1,50,14|10,0:0|0:0,0:0:0:0:
158,178,188324,1,2,3:0:0:0:
187,273,188688,5,14,0:0:0:0:
284,296,189052,1,0,0:0:0:0:
357,228,189415,1,0,0:0:0:0:
347,128,189779,2,0,L|286:139,1,50,8|8,0:0|0:0,0:0:0:0:
256,109,190142,5,6,3:0:0:0:
256,192,190324,12,0,200234,0:0:0:0:
