osu file format v14

[General]
AudioFilename: audio.mp3
AudioLeadIn: 0
PreviewTime: 36955
Countdown: 1
SampleSet: Soft
StackLeniency: 0.4
Mode: 0
LetterboxInBreaks: 0
WidescreenStoryboard: 0

[Editor]
Bookmarks: 9262,27724,36955,53108,66955,76185,85416,97052,108688,120314,131951,143597,166870,190142
DistanceSpacing: 1
BeatDivisor: 4
GridSize: 8
TimelineZoom: 2.4

[Metadata]
Title:Vanished truth
TitleUnicode:Vanished truth
Artist:Draw the Emotional feat. Meramipop
ArtistUnicode:Draw the Emotional feat. めらみぽっぷ
Creator:IsomirDiAngelo
Version:Nightmare
Source:東方星蓮船 ~ Undefined Fantastic Object.
Tags:seto kousuke shirahane suou hey lululu lu^3 shadowx yshadowxop_ itswinter silence player 平安のエイリアン Heian Alien 東方Project 締め切り前日のおまいら ゆよゆっぺ yuyoyuppe zun Touhou C78 Comiket 78 Collapse of the sky 封獣 ぬえ Houjuu Nue 上海アリス幻樂団 Team Shanghai Alice rock metal japanese video game
BeatmapID:2164713
BeatmapSetID:984365

[Difficulty]
HPDrainRate:6
CircleSize:4.5
OverallDifficulty:9.2
ApproachRate:9.7
SliderMultiplier:2.1
SliderTickRate:1

[Events]
//Background and Video events
0,0,"bg.jpg",0,0
//Break Periods
2,85616,90375
2,120524,131102
//Storyboard Layer 0 (Background)
//Storyboard Layer 1 (Fail)
//Storyboard Layer 2 (Pass)
//Storyboard Layer 3 (Foreground)
//Storyboard Layer 4 (Overlay)
//Storyboard Sound Samples

[TimingPoints]
32,288.461538461538,4,2,1,60,1,0
320,-200,4,2,1,60,0,0
2339,-200,4,2,1,60,0,0
2628,-200,4,2,1,60,0,0
3493,-90.9090909090909,4,2,1,60,0,0
3709,-66.6666666666667,4,2,1,5,0,0
3781,-333.333333333334,4,2,1,60,0,0
3998,-66.6666666666667,4,2,1,5,0,0
4070,-62.5,4,2,1,60,0,1
4647,-200,4,2,1,60,0,0
4935,-200,4,2,1,60,0,0
6955,-200,4,2,1,60,0,0
8974,-200,4,3,20,60,0,0
9262,-76.9230769230769,4,2,1,60,0,1
13589,-66.6666666666667,4,2,1,60,0,0
13805,-66.6666666666667,4,2,1,5,0,0
13878,-76.9230769230769,4,2,1,60,0,1
15248,-76.9230769230769,4,2,1,75,0,1
15320,-76.9230769230769,4,2,1,60,0,1
17339,-76.9230769230769,4,3,8,60,0,1
17483,-76.9230769230769,4,2,1,60,0,1
17988,-76.9230769230769,4,3,8,60,0,1
18060,-76.9230769230769,4,3,9,60,0,1
18132,-76.9230769230769,4,2,1,60,0,1
18493,-100,4,2,1,60,0,0
22531,-66.6666666666667,4,2,1,60,0,0
22748,-66.6666666666667,4,2,1,5,0,0
22820,-100,4,2,1,60,0,0
27147,-52.6315789473684,4,2,1,60,0,0
27435,-62.5,4,2,1,60,0,0
27652,-62.5,4,2,1,60,0,0
27724,-1000,4,2,1,60,0,0
27940,-66.6666666666667,4,2,1,60,0,0
28012,-90.9090909090909,4,2,1,60,0,0
32339,-100,4,2,1,60,0,1
35512,-100,4,2,1,60,0,0
35801,-100,4,2,1,60,0,0
36522,-100,4,3,8,60,0,0
36666,-100,4,2,1,60,0,0
36955,-90.9090909090909,4,2,1,60,0,0
43878,-90.9090909090909,4,2,1,60,0,1
44959,-90.9090909090909,4,2,1,5,0,1
45032,-90.9090909090909,4,2,1,60,0,1
45681,-90.9090909090909,4,3,8,60,0,1
45753,-90.9090909090909,4,3,9,60,0,1
45825,-90.9090909090909,4,2,1,60,0,1
46185,-90.9090909090909,4,2,1,60,0,0
51594,-90.9090909090909,4,2,1,70,0,0
51955,-90.9090909090909,4,2,1,60,0,0
52604,-90.9090909090909,4,3,8,60,0,0
52676,-90.9090909090909,4,3,9,60,0,0
52748,-90.9090909090909,4,2,1,60,0,0
52964,-90.9090909090909,4,2,1,60,0,0
53108,-83.3333333333333,4,2,1,60,0,1
54262,-333.333333333333,4,2,1,60,0,1
54479,-333.333333333333,4,2,1,5,0,1
54551,-83.3333333333333,4,2,1,60,0,1
55705,-83.3333333333333,4,3,8,60,0,1
55993,-83.3333333333333,4,3,9,60,0,1
56281,-83.3333333333333,4,2,1,60,0,1
56858,-71.4285714285714,4,2,1,60,0,1
57147,-125,4,2,1,60,0,1
57652,-125,4,2,1,5,0,1
57724,-83.3333333333333,4,2,1,60,0,1
58878,-83.3333333333333,4,3,8,60,0,1
59166,-83.3333333333333,4,3,9,60,0,1
59455,-83.3333333333333,4,2,1,60,0,1
60608,-71.4285714285714,4,2,1,60,0,1
60825,-71.4285714285714,4,2,1,5,0,1
60897,-83.3333333333333,4,2,1,60,0,1
61185,-83.3333333333333,4,3,8,60,0,1
61330,-83.3333333333333,4,2,1,60,0,1
61474,-83.3333333333333,4,3,9,60,0,1
61619,-83.3333333333333,4,2,1,60,0,1
63781,-71.4285714285714,4,2,1,60,0,1
63998,-71.4285714285714,4,2,1,5,0,1
64070,-83.3333333333333,4,2,1,60,0,1
65224,-66.6666666666667,4,2,1,60,0,1
65512,-55.5555555555556,4,2,1,60,0,1
65801,-333.333333333333,4,2,1,60,0,1
66017,-333.333333333333,4,2,1,5,0,1
66089,-333.333333333333,4,2,1,60,0,1
66306,-333.333333333333,4,2,1,5,0,1
66378,-333.333333333333,4,2,1,60,0,1
66594,-333.333333333333,4,2,1,5,0,1
66666,-142.857142857143,4,2,1,60,0,1
66882,-333.333333333333,4,2,1,5,0,1
66955,-90.9090909090909,4,2,1,60,0,0
71281,-76.9230769230769,4,2,1,60,0,0
71497,-76.9230769230769,4,2,1,5,0,0
71570,-90.9090909090909,4,2,1,60,0,0
74743,-76.9230769230769,4,2,1,60,0,0
75608,-125,4,2,1,60,0,0
75824,-125,4,2,1,5,0,0
75897,-66.6666666666667,4,2,1,60,0,0
76113,-66.6666666666667,4,2,1,5,0,0
76185,-250,4,2,1,60,0,0
76979,-250,4,2,1,5,0,0
77051,-250,4,2,1,60,0,0
79575,-66.6666666666667,4,2,1,5,0,0
79647,-250,4,2,1,60,0,0
81594,-66.6666666666667,4,2,1,5,0,0
81666,-250,4,2,1,60,0,0
84118,-250,4,2,1,65,0,0
84262,-250,4,2,1,60,0,0
84551,-250,4,2,1,65,0,0
84695,-250,4,2,1,60,0,0
85128,-250,4,2,1,60,0,0
85416,363.636363636364,4,2,1,60,1,0
85416,-166.666666666667,4,2,1,60,0,0
91234,-166.666666666667,4,2,1,60,0,0
91961,-166.666666666667,4,2,1,60,0,0
95052,-166.666666666667,4,2,1,60,0,0
95234,-100,4,2,1,60,0,0
96324,-125,4,2,1,60,0,0
96961,-100,4,2,1,5,0,0
97052,-100,4,2,1,60,0,0
97325,-100,4,2,1,5,0,0
97416,-100,4,2,1,60,0,0
97688,-100,4,2,1,5,0,0
97779,-100,4,2,1,60,0,0
98052,-100,4,2,1,5,0,0
98143,-100,4,2,1,60,0,0
98416,-100,4,2,1,5,0,0
98507,-100,4,2,1,60,0,0
98779,-100,4,2,1,5,0,0
98870,-100,4,2,1,60,0,0
99143,-100,4,2,1,5,0,0
99234,-100,4,2,1,60,0,0
99506,-100,4,2,1,5,0,0
99597,-100,4,2,1,60,0,0
99870,-100,4,2,1,5,0,0
99961,-100,4,2,1,60,0,0
100234,-100,4,2,1,5,0,0
100325,-100,4,2,1,60,0,0
100597,-100,4,2,1,5,0,0
100688,-100,4,2,1,60,0,0
101688,-100,4,2,1,5,0,0
101779,-100,4,2,1,60,0,0
102052,-100,4,2,1,5,0,0
102143,-100,4,2,1,60,0,0
102778,-100,4,2,1,5,0,0
102870,-100,4,2,1,60,0,0
103870,-100,4,2,1,5,0,0
103961,-100,4,2,1,60,0,0
104234,-100,4,2,1,5,0,0
104325,-100,4,2,1,60,0,0
104597,-100,4,2,1,5,0,0
104688,-100,4,2,1,60,0,0
104961,-100,4,2,1,5,0,0
105052,-100,4,2,1,60,0,0
106052,-100,4,2,1,5,0,0
106143,-100,4,2,1,60,0,0
106416,-100,4,2,1,5,0,0
106507,-100,4,2,1,60,0,0
107658,-100,4,3,8,60,0,0
107718,-100,4,3,9,60,0,0
107779,-100,4,3,1,60,0,0
107961,-125,4,2,1,60,0,0
108597,-100,4,2,1,5,0,0
108688,-100,4,2,1,60,0,0
111870,-100,4,2,1,5,0,0
111961,-100,4,2,1,60,0,0
112234,-100,4,2,1,5,0,0
112325,-100,4,2,1,60,0,0
114415,-100,4,2,1,5,0,0
114506,-100,4,2,1,60,0,0
117688,-100,4,2,1,5,0,0
117779,-100,4,2,1,60,0,0
118052,-100,4,2,1,5,0,0
118143,-100,4,2,1,60,0,0
119294,-100,4,3,8,60,0,0
119355,-100,4,3,9,60,0,0
119415,-100,4,2,1,60,0,0
131597,-100,4,2,1,60,0,0
131961,-142.857142857143,4,3,20,60,0,0
133324,-142.857142857143,4,3,20,90,0,0
133506,-142.857142857143,4,3,20,60,0,0
134506,-142.857142857143,4,2,1,60,0,0
134688,-142.857142857143,4,3,20,90,0,0
134961,-142.857142857143,4,3,20,60,0,0
136324,-142.857142857143,4,3,20,60,0,0
139051,-142.857142857143,4,3,20,90,0,0
139233,-142.857142857143,4,3,20,60,0,0
140506,-142.857142857143,4,3,20,90,0,0
140688,-142.857142857143,4,3,20,60,0,0
143233,-142.857142857143,4,2,1,60,0,0
143597,-166.666666666667,4,2,1,60,0,0
157688,-166.666666666667,4,2,1,60,0,0
157779,-166.666666666667,4,2,1,60,0,0
165779,-166.666666666667,4,3,8,60,0,0
165961,-166.666666666667,4,3,9,60,0,0
166142,-166.666666666667,4,2,1,60,0,0
166870,-166.666666666667,4,2,1,60,0,0
178143,-166.666666666667,4,2,1,60,0,0
178506,-166.666666666667,4,2,1,60,0,0
189052,-166.666666666667,4,3,8,80,0,0
189234,-166.666666666667,4,3,8,80,0,0
189415,-166.666666666667,4,3,9,80,0,0
189597,-166.666666666667,4,3,9,80,0,0
189779,-166.666666666667,4,2,1,60,0,0
199597,-166.666666666667,4,2,1,5,0,0

[Colours]
Combo1 : 55,117,130
Combo2 : 234,21,21

[HitObjects]
87,28,32,5,14,3:0:0:0:
67,120,320,1,2,0:0:0:0:
110,202,608,1,0,0:0:0:0:
89,291,897,1,2,0:0:0:0:
196,259,1185,5,0,0:0:0:0:
165,367,1474,1,2,0:0:0:0:
193,263,1762,1,0,0:0:0:0:
162,372,2051,1,2,0:0:0:0:
177,94,2339,5,6,3:0:0:0:
204,0,2628,1,2,0:0:0:0:
274,115,2916,1,0,0:0:0:0:
300,19,3205,1,2,0:0:0:0:
488,260,3493,6,0,B|436:276|403:240|403:240|388:247|388:247|338:221|290:266,1,173.250005287171,6|0,3:0|0:0,0:0:0:0:
340,373,3781,6,0,L|352:322,1,47.2499985580445,6|0,3:0|0:0,0:0:0:0:
275,170,4070,6,0,B|249:187|238:221|238:221|234:220|234:220|236:226|236:226|232:301|255:269|259:324|251:349|251:349|252:353|252:353|249:354|249:354|232:393|198:410,1,252,10|0,0:0|3:0,0:0:0:0:
107,355,4358,5,8,2:0:0:0:
57,308,4431,1,8,2:0:0:0:
86,245,4503,1,8,2:0:0:0:
152,251,4575,1,8,2:0:0:0:
166,317,4647,5,6,3:0:0:0:
237,247,4935,1,2,0:0:0:0:
179,159,5224,1,0,0:0:0:0:
240,66,5512,1,2,0:0:0:0:
294,176,5801,5,0,0:0:0:0:
363,86,6089,1,2,0:0:0:0:
298,181,6378,1,0,0:0:0:0:
364,92,6666,1,2,0:0:0:0:
83,70,6955,5,6,3:0:0:0:
46,199,7243,1,2,0:0:0:0:
166,169,7531,1,0,0:0:0:0:
102,149,7676,1,0,3:0:0:0:
102,149,7748,1,0,3:0:0:0:
102,149,7820,5,10,0:0:0:0:
447,56,8108,1,6,3:0:0:0:
356,372,8397,1,6,3:0:0:0:
317,186,8685,2,0,P|332:167|334:191,2,52.5,8|0|2,0:0|0:0|2:3,0:0:0:0:
225,280,9262,5,14,0:0:0:0:
213,87,9406,1,8,0:0:0:0:
408,73,9551,1,8,0:0:0:0:
421,269,9695,1,8,0:0:0:0:
199,277,9839,5,8,0:0:0:0:
218,62,9983,1,8,0:0:0:0:
433,83,10128,1,8,0:0:0:0:
414,296,10272,1,8,0:0:0:0:
162,145,10416,5,14,0:0:0:0:
302,127,10560,1,8,0:0:0:0:
329,265,10705,1,8,0:0:0:0:
469,243,10849,1,8,0:0:0:0:
288,384,10993,5,8,0:0:0:0:
164,383,11137,1,8,0:0:0:0:
140,270,11281,1,8,0:0:0:0:
16,292,11426,1,8,0:0:0:0:
263,98,11570,5,14,0:3:0:0:
36,66,11714,1,8,0:0:0:0:
16,292,11858,1,8,0:0:0:0:
242,323,12002,1,8,0:0:0:0:
251,71,12147,5,8,0:0:0:0:
11,84,12291,1,8,0:0:0:0:
31,322,12435,1,8,0:0:0:0:
271,305,12579,1,8,0:0:0:0:
125,18,12724,6,0,B|114:74|114:74|152:88|194:156,1,136.499993751526,14|0,0:0|3:0,0:0:0:0:
319,116,12940,1,0,3:0:0:0:
338,125,13012,6,0,B|360:88|398:74|398:74|387:18,1,136.499993751526,14|0,0:0|3:0,0:0:0:0:
245,215,13229,1,0,3:0:0:0:
239,233,13301,5,8,0:0:0:0:
185,221,13373,1,8,0:0:0:0:
131,209,13445,5,0,3:0:0:0:
134,226,13517,1,0,3:0:0:0:
137,244,13589,6,0,B|102:233|73:253|95:260|66:279|32:275|-4:276|-29:239|-17:227|-17:194|39:159|58:212,1,236.250009012223,14|0,0:0|3:0,0:0:0:0:
128,323,13878,5,14,0:3:0:0:
97,100,14022,1,0,3:0:0:0:
336,245,14166,5,10,0:0:0:0:
359,26,14310,1,0,3:0:0:0:
250,384,14455,5,10,0:0:0:0:
246,140,14599,1,0,3:0:0:0:
246,140,14671,1,0,3:0:0:0:
246,140,14743,5,10,0:0:0:0:
476,219,14887,1,0,3:0:0:0:
174,281,15031,5,14,0:3:0:0:
397,141,15176,1,0,3:0:0:0:
397,141,15248,1,0,3:0:0:0:
397,141,15320,5,10,0:0:0:0:
162,13,15464,1,0,3:0:0:0:
326,294,15608,5,10,0:0:0:0:
265,59,15753,2,0,B|269:22|269:22|292:-3,1,68.2499968757631,0|0,3:0|3:0,0:0:0:0:
98,209,15897,5,10,0:0:0:0:
397,141,16041,2,0,B|434:142|434:142|462:124,1,68.2499968757631,0|0,3:0|3:0,0:0:0:0:
162,13,16185,5,8,0:0:0:0:
107,9,16257,1,8,0:0:0:0:
56,32,16330,1,8,0:0:0:0:
36,82,16402,1,8,0:0:0:0:
44,135,16474,5,0,3:0:0:0:
59,131,16546,1,0,3:0:0:0:
74,127,16618,5,8,0:0:0:0:
127,132,16689,1,8,0:0:0:0:
173,162,16762,1,8,0:0:0:0:
185,215,16834,1,8,0:0:0:0:
173,268,16906,5,0,3:0:0:0:
158,273,16979,1,0,3:0:0:0:
146,277,17051,5,8,0:0:0:0:
198,286,17123,1,8,0:0:0:0:
243,294,17195,1,0,3:0:0:0:
282,302,17267,1,0,3:0:0:0:
322,327,17339,5,0,0:0:0:0:
319,306,17411,1,0,0:0:0:0:
317,285,17483,1,0,3:0:0:0:
315,261,17556,1,0,3:0:0:0:
341,220,17628,5,8,0:0:0:0:
348,262,17700,1,8,0:0:0:0:
357,305,17772,1,0,3:0:0:0:
364,347,17844,1,0,3:0:0:0:
413,364,17916,5,8,0:0:0:0:
401,304,17988,1,0,0:0:0:0:
392,244,18060,1,0,0:0:0:0:
381,186,18132,1,0,3:0:0:0:
409,130,18205,5,14,0:0:0:0:
118,35,18493,5,6,0:3:0:0:
49,153,18637,2,0,L|165:135,1,105,2|0,3:0|0:0,0:0:0:0:
95,23,18926,1,0,3:0:0:0:
150,264,19070,2,0,L|34:246,1,105,10|0,0:0|0:0,0:0:0:0:
154,364,19358,1,0,3:0:0:0:
195,359,19431,1,0,3:0:0:0:
227,332,19503,1,0,3:0:0:0:
248,295,19575,1,0,3:0:0:0:
251,252,19647,6,0,P|241:200|267:135,1,105,2|0,3:2|0:0,0:0:0:0:
468,225,19935,1,0,3:0:0:0:
425,220,20008,1,0,3:0:0:0:
383,215,20080,2,0,L|311:205,1,52.5,0|0,3:0|3:0,3:0:0:0:
218,66,20224,6,0,B|256:53|256:53|334:88|334:88|381:73,2,157.5,10|0|0,0:0|3:0|3:0,0:0:0:0:
49,153,20801,5,2,0:0:0:0:
49,153,20945,1,0,3:0:0:0:
119,11,21089,2,0,B|139:48|139:48|114:129,1,105,0|0,3:0|0:0,0:0:0:0:
68,322,21378,2,0,B|49:261|49:261|69:224,1,105,10|0,0:0|0:0,0:0:0:0:
203,131,21666,1,0,3:0:0:0:
243,143,21738,1,0,3:0:0:0:
283,154,21810,1,0,3:0:0:0:
323,167,21882,1,0,3:0:0:0:
352,198,21955,6,0,B|310:219|310:219|236:202,1,105,2|0,3:2|0:0,0:0:0:0:
271,22,22243,1,0,3:0:0:0:
312,16,22315,1,0,3:0:0:0:
351,28,22387,2,0,L|361:107,1,52.5,0|0,3:0|3:0,3:0:0:0:
452,292,22531,6,0,B|450:267|470:244|472:260|488:230|481:203|481:203|444:203|411:178|405:119|466:104|503:136,1,236.250009012223,10|0,0:0|0:0,0:0:0:0:
467,122,22820,1,10,0:0:0:0:
384,373,23108,5,6,0:3:0:0:
261,333,23253,2,0,P|206:332|171:382,1,105,2|0,3:0|0:0,0:0:0:0:
369,351,23541,1,0,3:0:0:0:
182,197,23685,2,0,P|217:233|268:230,1,105,10|0,0:0|0:0,0:0:0:0:
321,24,23974,1,0,3:0:0:0:
279,30,24046,1,0,3:0:0:0:
237,37,24118,1,0,3:0:0:0:
195,43,24190,1,0,3:0:0:0:
154,53,24262,6,0,B|100:39|100:39|88:30|88:30|30:15,1,105,2|0,3:2|0:0,0:0:0:0:
87,208,24551,1,0,3:0:0:0:
127,197,24623,1,0,3:0:0:0:
166,183,24695,2,0,L|219:164,1,52.5,0|0,3:0|3:0,0:0:0:0:
91,294,24839,6,0,B|69:230|69:230|43:213|43:213|22:145,2,157.5,10|0|0,0:0|3:0|3:0,0:0:0:0:
231,372,25416,5,2,0:0:0:0:
231,372,25560,1,0,3:0:0:0:
324,256,25705,2,0,P|338:305|316:351,1,105,0|0,3:0|0:0,0:0:0:0:
266,113,25993,2,0,P|301:75|352:71,1,105,10|0,0:0|0:0,0:0:0:0:
175,227,26281,1,0,3:0:0:0:
132,221,26354,1,0,3:0:0:0:
100,193,26426,1,0,3:0:0:0:
92,151,26498,1,0,3:0:0:0:
106,111,26570,6,0,B|129:142|129:142|120:228,1,105,2|0,3:0|0:0,0:0:0:0:
38,32,26858,1,0,3:0:0:0:
79,24,26931,1,0,3:0:0:0:
120,19,27003,2,0,L|184:43,1,52.5,0|0,3:0|3:0,0:0:0:0:
337,152,27147,6,0,B|301:175|272:146|299:102|334:131,1,99.7499973363877,8|0,0:0|0:0,0:0:0:0:
382,42,27291,1,0,3:0:0:0:
382,42,27363,1,0,3:0:0:0:
382,42,27435,6,0,B|420:82|471:59|471:59|447:82|438:147|471:107|477:169|438:224,1,252,8|0,0:0|0:0,0:0:0:0:
362,254,27724,6,0,L|365:237,1,15.75,0|0,3:0|0:0,0:0:0:0:
421,295,28012,6,0,L|285:279,1,115.50000352478,14|0,0:3|0:0,0:0:0:0:
157,227,28301,1,2,3:0:0:0:
165,376,28445,1,0,3:0:0:0:
411,315,28589,6,0,L|275:299,1,115.50000352478,10|0,0:3|0:0,0:0:0:0:
135,210,28878,1,2,3:0:0:0:
142,377,29022,1,0,3:0:0:0:
299,157,29166,6,0,L|294:42,1,115.50000352478,10|0,0:3|0:0,0:0:0:0:
114,196,29455,1,2,3:0:0:0:
118,49,29599,1,0,3:0:0:0:
315,174,29743,6,0,L|310:59,1,115.50000352478,10|0,0:3|0:0,0:0:0:0:
101,181,30031,1,2,3:0:0:0:
105,34,30175,1,0,3:0:0:0:
315,174,30320,6,0,P|254:194|215:145,1,115.50000352478,10|0,0:3|0:0,0:0:0:0:
315,22,30608,1,2,3:0:0:0:
467,34,30753,1,0,3:0:0:0:
313,195,30897,6,0,P|262:217|217:184,1,115.50000352478,10|0,0:3|0:0,0:0:0:0:
315,324,31185,1,0,3:0:0:0:
320,333,31257,1,0,3:0:0:0:
324,341,31329,1,0,3:0:0:0:
327,349,31402,1,0,3:0:0:0:
332,356,31474,6,0,B|410:346|410:346|367:331,1,115.50000352478,10|0,0:0|0:0,0:0:0:0:
175,257,31762,1,0,3:0:0:0:
170,266,31834,1,0,3:0:0:0:
166,274,31906,1,0,3:0:0:0:
163,282,31979,1,0,3:0:0:0:
158,290,32051,5,8,2:0:0:0:
146,240,32123,1,8,2:0:0:0:
138,187,32195,1,8,2:0:0:0:
131,134,32267,1,8,2:0:0:0:
125,80,32339,5,6,3:0:0:0:
155,98,32411,1,0,3:0:0:0:
192,100,32483,1,0,3:0:0:0:
225,86,32556,1,0,3:0:0:0:
244,56,32628,1,10,3:0:0:0:
270,31,32700,1,0,3:0:0:0:
306,25,32772,1,0,3:0:0:0:
341,34,32844,1,0,3:0:0:0:
369,56,32916,1,0,3:0:0:0:
382,90,32988,1,0,3:0:0:0:
378,125,33060,1,0,3:0:0:0:
359,155,33132,1,0,3:0:0:0:
336,184,33205,1,10,3:0:0:0:
328,219,33277,1,0,3:0:0:0:
335,255,33349,1,0,3:0:0:0:
361,278,33421,1,0,3:0:0:0:
397,286,33493,1,0,3:0:0:0:
429,271,33565,1,0,3:0:0:0:
444,236,33637,1,0,3:0:0:0:
438,200,33709,1,0,3:0:0:0:
409,176,33781,1,10,3:0:0:0:
372,167,33854,1,0,3:0:0:0:
336,184,33926,1,0,3:0:0:0:
311,209,33998,1,0,3:0:0:0:
280,228,34070,1,0,3:0:0:0:
243,233,34142,1,0,3:0:0:0:
209,220,34214,1,0,3:0:0:0:
184,192,34286,1,0,3:0:0:0:
183,155,34358,1,10,3:0:0:0:
197,121,34431,1,0,3:0:0:0:
207,86,34503,1,0,3:0:0:0:
201,49,34575,1,0,3:0:0:0:
181,17,34647,5,6,3:0:0:0:
149,52,34719,1,0,3:0:0:0:
157,98,34791,1,0,3:0:0:0:
197,121,34863,1,0,3:0:0:0:
244,120,34935,1,10,3:0:0:0:
285,138,35007,1,0,3:0:0:0:
301,181,35080,1,0,3:0:0:0:
288,226,35152,1,0,3:0:0:0:
249,252,35224,1,2,3:0:0:0:
201,245,35296,1,0,3:0:0:0:
168,213,35368,1,0,3:0:0:0:
122,207,35440,1,0,3:0:0:0:
83,234,35512,5,0,3:0:0:0:
357,19,35801,1,2,3:0:0:0:
375,373,36089,1,14,0:2:0:0:
512,135,36378,5,10,0:0:0:0:
469,282,36522,1,0,0:0:0:0:
304,100,36666,1,8,2:0:0:0:
312,140,36738,1,8,2:0:0:0:
318,180,36810,1,8,2:0:0:0:
326,221,36882,1,8,2:0:0:0:
333,262,36955,6,0,B|286:303|231:313|184:283|178:223|213:204|268:200|278:235,1,231.000007049561,6|2,3:0|0:0,0:0:0:0:
146,309,37387,1,0,3:0:0:0:
146,309,37459,1,0,3:0:0:0:
146,309,37531,2,0,P|128:254|203:142,2,173.250005287171,10|0|0,0:0|0:0|3:0,0:0:0:0:
0,348,38108,5,2,0:0:0:0:
199,384,38253,1,0,3:0:0:0:
199,384,38397,1,2,3:0:0:0:
0,18,38685,6,0,B|26:54|11:108|-1:86|-16:133|22:197,1,173.250005287171,10|0,0:0|0:0,0:0:0:0:
16,184,38974,2,0,L|132:160,1,115.50000352478,2|0,3:0|0:0,0:0:0:0:
209,46,39262,6,0,P|159:137|126:55,1,231.000007049561,6|0,3:0|0:0,0:0:0:0:
323,75,39695,1,0,3:0:0:0:
323,75,39767,1,0,3:0:0:0:
323,75,39839,2,0,B|387:85|387:85|504:12,2,173.250005287171,10|0|0,0:0|0:0|3:0,0:0:0:0:
224,232,40416,5,2,0:0:0:0:
399,187,40560,1,0,3:0:0:0:
399,187,40632,1,0,3:0:0:0:
399,187,40705,2,0,L|364:312,1,115.50000352478,2|0,3:0|0:0,0:0:0:0:
112,273,40993,5,10,0:0:0:0:
327,384,41137,1,0,3:0:0:0:
128,384,41281,5,10,0:0:0:0:
314,363,41426,1,0,3:0:0:0:
22,333,41570,6,0,B|-7:329|-20:310|-25:279|-25:279|6:258|78:261|96:288|128:344,1,231.000007049561,6|2,3:0|0:0,0:0:0:0:
187,154,42003,1,0,3:0:0:0:
187,154,42075,1,0,3:0:0:0:
187,154,42147,2,0,P|128:159|74:74,1,115.50000352478,10|0,0:0|0:0,0:0:0:0:
115,19,42363,2,0,P|174:14|228:99,1,115.50000352478
207,162,42580,1,0,3:0:0:0:
331,12,42724,5,2,0:0:0:0:
153,88,42868,1,0,3:0:0:0:
153,88,43012,1,2,3:0:0:0:
497,10,43301,6,0,B|464:46|464:46|493:167,1,173.250005287171,10|0,0:0|0:0,0:0:0:0:
441,251,43589,1,2,3:0:0:0:
388,88,43733,1,0,0:0:0:0:
309,274,43878,6,0,B|247:249|197:281|197:281|153:260|153:260|119:278|49:270,1,231.000007049561,6|2,3:0|0:0,0:0:0:0:
267,97,44310,1,0,3:0:0:0:
274,120,44382,1,0,3:0:0:0:
282,144,44455,1,10,0:0:0:0:
186,232,44599,1,0,3:0:0:0:
125,50,44743,2,0,B|177:57|177:57|213:21|213:21|302:-2,1,173.250005287171,10|0,0:0|0:0,0:0:0:0:
373,12,45031,5,2,0:0:0:0:
251,127,45176,1,0,3:0:0:0:
274,120,45248,1,0,3:0:0:0:
297,114,45321,1,10,0:0:0:0:
413,172,45464,1,0,3:0:0:0:
279,346,45608,5,8,0:0:0:0:
287,299,45681,1,0,0:0:0:0:
325,273,45753,1,0,0:0:0:0:
372,274,45825,1,0,3:0:0:0:
408,305,45897,1,10,0:0:0:0:
301,196,46041,1,0,3:0:0:0:
136,360,46185,6,0,B|91:328|78:258|151:215|151:215|150:258|192:279,1,231.000007049561,6|2,3:0|0:0,0:0:0:0:
61,168,46618,1,0,3:0:0:0:
61,168,46690,1,0,3:0:0:0:
61,168,46762,2,0,P|142:175|238:89,2,173.250005287171,10|0|0,0:0|0:0|3:0,0:0:0:0:
111,27,47339,5,2,0:0:0:0:
154,213,47483,1,0,3:0:0:0:
154,213,47628,1,2,3:0:0:0:
340,20,47916,6,0,B|297:63|297:63|319:202,1,173.250005287171,10|0,0:0|0:0,0:0:0:0:
318,177,48205,2,0,L|441:153,1,115.50000352478,2|0,3:0|0:0,0:0:0:0:
509,304,48493,6,0,P|477:194|375:229,1,231.000007049561,6|0,3:0|0:0,0:0:0:0:
348,367,48926,1,0,3:0:0:0:
348,367,48998,1,0,3:0:0:0:
348,367,49070,2,0,B|237:331|237:331|174:355,2,173.250005287171,10|0|0,0:0|0:0|3:0,0:0:0:0:
384,214,49647,1,2,0:0:0:0:
231,112,49791,1,0,3:0:0:0:
231,112,49863,1,0,3:0:0:0:
231,112,49935,2,0,L|243:245,1,115.50000352478,2|0,3:0|0:0,0:0:0:0:
337,41,50224,5,10,0:0:0:0:
113,139,50368,1,0,3:0:0:0:
341,135,50512,5,10,0:0:0:0:
125,121,50656,1,0,3:0:0:0:
321,260,50801,6,0,B|360:218|343:125|323:162|298:96|340:36,1,231.000007049561,6|2,3:0|0:0,0:0:0:0:
498,71,51233,1,0,3:0:0:0:
498,71,51306,1,0,3:0:0:0:
498,71,51378,2,0,L|473:214,1,115.50000352478,10|0,0:0|3:0,0:0:0:0:
423,251,51594,2,0,L|448:394,1,115.50000352478
367,384,51810,1,0,0:0:0:0:
248,195,51955,5,2,0:0:0:0:
199,327,52099,1,0,3:0:0:0:
201,333,52171,1,0,3:0:0:0:
202,338,52243,1,10,0:0:0:0:
344,383,52387,1,0,3:0:0:0:
125,232,52531,5,8,0:0:0:0:
121,185,52604,1,0,0:0:0:0:
135,141,52676,1,0,0:0:0:0:
164,105,52748,1,0,3:0:0:0:
206,86,52820,2,0,P|233:102|257:122,1,57.7500017623902,10|0,0:0|0:0,0:0:0:0:
423,39,52964,2,0,P|396:23|372:3,1,57.7500017623902,0|0,3:0|0:0,0:0:0:0:
259,277,53108,5,6,3:0:0:0:
259,277,53253,1,0,3:0:0:0:
465,249,53397,6,0,B|484:201|484:201|457:68,1,125.999996154785,14|0,0:0|3:0,0:0:0:0:
51,256,53685,2,0,B|32:304|32:304|58:437,1,125.999996154785,10|0,0:0|3:0,0:0:0:0:
390,362,53974,5,10,0:0:0:0:
130,117,54118,1,10,0:0:0:0:
255,236,54262,6,0,B|255:283,1,47.2499985580445,2|0,3:0|0:0,0:0:0:0:
257,149,54551,5,2,3:0:0:0:
257,149,54695,1,2,3:0:0:0:
61,212,54839,6,0,B|104:182|104:182|226:210,1,125.999996154785,14|0,0:0|3:0,0:0:0:0:
329,187,55056,1,0,3:0:0:0:
364,199,55128,2,0,B|435:182|435:182|478:212,1,125.999996154785,10|0,0:0|0:0,0:0:0:0:
255,287,55416,5,6,3:0:0:0:
255,287,55560,1,2,3:0:0:0:
301,55,55705,5,0,0:0:0:0:
253,34,55801,1,0,0:0:0:0:
207,54,55897,1,0,0:0:0:0:
204,133,55993,5,0,0:0:0:0:
252,155,56089,1,0,0:0:0:0:
302,135,56185,1,0,0:0:0:0:
255,97,56281,5,6,3:0:0:0:
255,97,56426,1,2,3:0:0:0:
455,7,56570,6,0,B|452:59|452:59|440:77|440:77|435:165,1,125.999996154785,10|0,0:0|3:0,0:0:0:0:
43,5,56858,2,0,B|49:35|46:59|46:59|72:84|72:84|67:112|79:160,1,146.999995513916,10|0,0:0|3:0,0:0:0:0:
258,345,57147,5,10,0:0:0:0:
255,15,57291,1,10,0:0:0:0:
256,191,57435,6,0,B|296:203|296:203|295:249|295:249|248:265,1,126,2|0,3:0|0:0,0:0:0:0:
258,345,57724,5,2,3:0:0:0:
258,345,57868,1,2,3:0:0:0:
51,126,58012,6,0,B|58:161|58:161|192:118,1,125.999996154785,10|0,0:0|3:0,0:0:0:0:
345,113,58229,1,0,3:0:0:0:
368,133,58301,2,0,B|454:161|454:161|461:126,1,125.999996154785,10|0,0:0|3:0,0:0:0:0:
357,377,58589,5,8,0:0:0:0:
322,316,58685,1,8,0:0:0:0:
331,246,58781,1,8,0:0:0:0:
243,179,58878,5,0,0:0:0:0:
255,213,58974,1,0,0:0:0:0:
249,250,59070,1,0,0:0:0:0:
180,284,59166,5,0,0:0:0:0:
172,312,59262,1,0,0:0:0:0:
179,341,59358,1,0,0:0:0:0:
257,380,59455,5,10,0:0:0:0:
257,380,59599,1,0,3:0:0:0:
96,199,59743,5,8,0:0:0:0:
96,199,59887,1,0,3:0:0:0:
407,200,60031,2,0,B|412:251|412:251|429:268|429:268|436:319,1,125.999996154785,10|0,0:0|3:0,0:0:0:0:
255,35,60320,5,10,0:0:0:0:
257,380,60464,1,10,0:0:0:0:
82,10,60608,6,0,B|48:5|34:25|34:25|106:72|67:131|3:145|-11:106,1,220.499993270874,2|0,3:0|0:0,0:0:0:0:
1,219,60897,5,8,0:0:0:0:
47,236,60969,1,8,0:0:0:0:
98,238,61041,1,0,3:0:0:0:
145,223,61113,1,0,3:0:0:0:
191,230,61185,5,0,0:0:0:0:
176,202,61257,1,0,0:0:0:0:
172,171,61330,1,0,3:0:0:0:
179,141,61402,1,0,3:0:0:0:
218,120,61474,5,0,0:0:0:0:
227,103,61546,1,0,0:0:0:0:
230,84,61619,1,0,3:0:0:0:
226,66,61691,1,0,3:0:0:0:
255,35,61762,5,10,3:0:0:0:
257,380,61906,1,10,3:0:0:0:
481,139,62051,6,0,B|450:105|450:105|387:118,2,83.9999974365235,6|0|2,3:0|3:0|3:0,3:0:0:0:
485,230,62339,5,8,0:0:0:0:
410,215,62435,1,8,0:0:0:0:
337,199,62531,1,8,0:0:0:0:
256,218,62628,5,6,3:2:0:0:
256,218,62772,1,6,3:2:0:0:
416,28,62916,5,14,0:0:0:0:
485,230,63060,1,2,3:0:0:0:
91,28,63205,5,14,0:3:0:0:
22,230,63349,1,2,3:0:0:0:
256,218,63493,5,10,3:0:0:0:
256,218,63637,1,0,3:0:0:0:
3,335,63781,6,0,B|51:332|71:380|71:380|164:393|183:307,1,220.499993270874,10|0,0:0|0:0,0:0:0:0:
257,303,64070,5,10,0:0:0:0:
257,303,64214,1,0,3:0:0:0:
29,101,64358,5,14,0:0:0:0:
257,15,64503,2,0,L|256:100,1,62.9999980773926,0|0,3:0|3:0,0:0:0:0:
479,218,64647,5,14,0:0:0:0:
257,154,64791,2,0,L|256:239,1,62.9999980773926,0|0,3:0|3:0,3:0:0:0:
114,222,64935,5,6,3:2:0:0:
102,235,65031,2,0,B|106:257|128:270|128:270|155:262|192:230,1,83.9999974365235
280,32,65224,5,4,3:2:0:0:
279,16,65320,2,0,B|262:0|224:-4|224:-4|216:24|231:75,1,105.000004005432
380,264,65512,5,4,3:2:0:0:
395,275,65608,2,0,B|421:269|437:224|437:224|394:201|355:224,1,125.999996154785
256,165,65801,6,0,L|255:223,1,47.2499985580445,6|0,3:0|0:0,0:0:0:0:
255,225,66089,6,0,L|255:177,1,47.2499985580445,6|0,3:0|0:0,0:0:0:0:
257,166,66378,6,0,L|255:223,1,47.2499985580445,6|0,3:0|0:0,0:0:0:0:
200,125,66666,6,0,P|245:144|320:109,1,110.249996635437,12|0,0:0|0:0,0:0:0:0:
357,63,66955,5,6,3:0:0:0:
358,202,67099,1,0,3:0:0:0:
212,10,67243,2,0,L|199:129,1,115.50000352478,10|0,0:0|0:0,0:0:0:0:
340,47,67531,5,2,3:0:0:0:
341,187,67675,1,0,3:0:0:0:
197,0,67820,2,0,L|184:119,1,115.50000352478,10|0,0:0|0:0,0:0:0:0:
24,228,68108,5,2,3:0:0:0:
175,234,68253,1,0,3:0:0:0:
0,82,68397,1,10,0:0:0:0:
0,82,68541,1,0,0:0:0:0:
40,244,68685,5,2,3:0:0:0:
188,249,68830,1,0,3:0:0:0:
18,95,68974,1,10,0:0:0:0:
18,95,69118,1,0,0:0:0:0:
113,174,69262,5,6,3:0:0:0:
109,326,69406,1,0,3:0:0:0:
281,188,69551,2,0,P|290:120|260:56,1,115.50000352478,10|0,0:0|0:0,0:0:0:0:
124,192,69839,5,2,3:0:0:0:
120,344,69983,1,0,3:0:0:0:
292,206,70128,2,0,P|301:138|272:75,1,115.50000352478,10|0,0:0|0:0,0:0:0:0:
470,232,70416,5,2,3:0:0:0:
387,378,70560,1,0,3:0:0:0:
124,192,70705,5,10,0:0:0:0:
209,323,70849,1,0,0:0:0:0:
209,306,70921,1,0,3:0:0:0:
227,276,70993,5,14,0:0:0:0:
327,85,71137,1,0,3:0:0:0:
398,198,71281,6,0,B|387:227|395:268|465:285|499:220|472:160|428:123,1,204.749990627289,10|0,0:0|0:0,0:0:0:0:
407,79,71570,5,6,3:0:0:0:
366,224,71714,1,0,3:0:0:0:
211,73,71858,2,0,L|83:52,1,115.50000352478,10|0,0:0|0:0,0:0:0:0:
397,67,72147,5,2,3:0:0:0:
356,212,72291,1,0,3:0:0:0:
201,61,72435,2,0,L|73:40,1,115.50000352478,10|0,0:0|0:0,0:0:0:0:
170,222,72724,5,2,3:0:0:0:
292,139,72868,1,0,3:0:0:0:
226,346,73012,1,10,0:0:0:0:
226,346,73156,1,0,0:0:0:0:
165,202,73301,5,2,3:0:0:0:
287,119,73445,1,0,3:0:0:0:
221,326,73589,1,10,0:0:0:0:
221,326,73733,1,0,0:0:0:0:
19,191,73878,5,6,3:0:0:0:
165,202,74022,1,0,3:0:0:0:
60,1,74166,2,0,L|73:148,1,115.50000352478,10|0,0:0|0:0,0:0:0:0:
182,217,74455,5,2,3:0:0:0:
30,204,74599,1,0,3:0:0:0:
287,119,74743,6,0,P|217:89|166:171,1,136.499993751526,10|0,0:0|0:0,0:0:0:0:
319,200,74959,1,0,3:0:0:0:
398,228,75031,6,0,P|458:182|413:97,1,136.499993751526,10|0,0:0|0:0,0:0:0:0:
319,200,75248,1,0,3:0:0:0:
255,254,75320,6,0,P|264:329|360:332,1,136.499993751526,10|0,0:0|0:0,0:0:0:0:
319,200,75536,1,0,3:0:0:0:
324,181,75608,6,0,L|178:164,1,126,10|0,0:0|0:0,0:0:0:0:
104,95,75897,6,0,B|135:141|93:173|93:173|62:238|122:277|175:271|187:215,1,236.250009012223,10|0,0:0|0:0,0:0:0:0:
173,348,76185,5,6,3:0:0:0:
74,333,76330,1,0,3:0:0:0:
74,333,76618,5,0,3:0:0:0:
286,301,76762,2,0,L|295:379,1,63,14|0,0:0|0:0,0:0:0:0:
374,384,77051,5,2,3:0:0:0:
465,360,77195,1,0,3:0:0:0:
348,237,77483,5,0,3:0:0:0:
272,215,77627,1,0,3:0:0:0:
494,0,77916,5,10,0:0:0:0:
469,174,78060,1,0,3:0:0:0:
469,174,78349,5,0,3:0:0:0:
469,174,78493,1,6,3:2:0:0:
154,122,78781,5,0,3:0:0:0:
144,40,78926,1,0,3:0:0:0:
238,163,79070,1,10,0:0:0:0:
238,163,79214,1,0,3:0:0:0:
308,111,79358,2,0,L|311:30,1,63,0|0,3:0|0:0,0:0:0:0:
404,20,79647,5,6,3:2:0:0:
404,20,79791,1,0,3:0:0:0:
218,258,80080,1,0,3:0:0:0:
196,257,80152,1,0,3:0:0:0:
162,274,80224,5,10,0:0:0:0:
106,350,80368,1,0,3:0:0:0:
310,294,80512,1,6,0:2:0:0:
196,257,80656,1,8,0:0:0:0:
381,378,80801,5,6,3:0:0:0:
410,255,80945,1,0,3:0:0:0:
410,255,81233,5,0,3:0:0:0:
297,78,81378,2,0,L|376:74,1,63,14|0,0:0|0:0,0:0:0:0:
454,27,81666,5,2,3:0:0:0:
442,114,81810,1,0,3:0:0:0:
212,72,82099,5,0,3:0:0:0:
241,146,82243,1,0,3:0:0:0:
0,320,82531,5,10,0:0:0:0:
202,291,82676,1,0,3:0:0:0:
202,291,82964,5,0,3:0:0:0:
202,291,83108,1,6,3:2:0:0:
130,137,83397,5,0,3:0:0:0:
297,65,83541,1,0,3:0:0:0:
294,270,83685,5,10,0:0:0:0:
294,270,83830,1,0,3:0:0:0:
66,190,83974,5,0,3:0:0:0:
137,220,84118,1,0,0:0:0:0:
353,127,84262,5,6,3:2:0:0:
277,147,84406,1,0,3:0:0:0:
423,255,84551,5,0,0:0:0:0:
434,100,84695,1,0,3:0:0:0:
436,84,84767,1,0,3:0:0:0:
433,44,84839,5,10,0:0:0:0:
427,177,84983,1,0,3:0:0:0:
197,59,85128,1,8,0:0:0:0:
192,106,85200,1,8,0:0:0:0:
185,154,85272,1,8,0:0:0:0:
181,199,85344,1,8,0:0:0:0:
202,268,85416,5,6,0:0:0:0:
72,142,90870,5,10,0:0:0:0:
72,142,91234,6,0,B|77:96|129:81|129:81|173:149|122:240,5,251.999992309571,6|2|2|2|2|2,3:0|0:0|0:0|0:0|0:0|0:0,0:0:0:0:
83,319,95052,6,0,B|76:312|72:308|69:305|65:301|62:298|61:292|61:296|34:293,2,20.9999993591309,0|0|0,3:0|3:0|3:0,3:0:0:0:
80,335,95234,6,0,B|141:286|192:322|188:328|183:333|244:374|304:309,1,210,14|6,0:2|3:2,0:0:0:0:
369,263,95961,1,6,3:2:0:0:
216,31,96324,6,0,B|200:64|200:64|209:142,1,84,10|0,0:0|3:0,0:0:0:0:
183,195,96567,1,0,3:0:0:0:
183,195,96627,1,0,3:0:0:0:
183,195,96688,6,0,P|240:194|280:113,1,126,10|0,0:0|0:0,0:0:0:0:
344,34,97052,6,0,P|322:84|385:168,1,157.5,6|0,3:0|0:0,0:0:0:0:
447,208,97415,2,0,P|469:258|406:342,1,157.5,2|0,3:0|0:0,0:0:0:0:
288,384,97779,6,0,L|274:196,1,157.5,10|0,0:0|0:0,0:0:0:0:
183,195,98143,2,0,L|197:7,1,157.5,2|0,3:0|0:0,0:0:0:0:
92,46,98506,6,0,P|150:70|81:113,1,157.5,2|0,3:0|0:0,0:0:0:0:
75,210,98870,2,0,P|17:234|86:277,1,157.5,2|0,3:0|0:0,0:0:0:0:
216,382,99233,6,0,B|201:326|144:307|144:307|141:350|95:355,1,157.5,10|0,0:0|0:0,0:0:0:0:
198,300,99597,2,0,B|213:244|270:225|270:225|273:268|319:273,1,157.5,2|0,3:0|0:0,0:0:0:0:
346,339,99961,6,0,L|327:180,1,157.5,6|0,3:0|0:0,0:0:0:0:
254,108,100324,2,0,L|413:89,1,157.5,6|0,3:0|0:0,0:0:0:0:
154,6,100688,5,10,0:0:0:0:
135,185,100870,1,0,3:0:0:0:
125,178,100961,1,0,3:0:0:0:
68,139,101052,5,10,0:0:0:0:
51,327,101233,1,0,3:0:0:0:
84,314,101324,1,0,3:0:0:0:
84,314,101415,6,0,P|121:265|212:325,1,157.5,6|0,3:0|0:0,0:0:0:0:
151,369,101779,2,0,P|114:320|23:380,1,157.5,6|0,3:0|0:0,0:0:0:0:
250,230,102142,6,0,B|287:240|336:222|345:168|345:168|344:163|344:163|346:159|346:159|349:104|303:52|220:67|220:67|261:100|234:153,1,367.5,14|0,0:0|0:0,0:0:0:0:
163,134,102870,5,6,3:0:0:0:
143,140,102961,1,0,3:0:0:0:
122,143,103052,1,0,3:0:0:0:
101,144,103142,1,0,3:0:0:0:
62,205,103233,5,2,3:0:0:0:
42,211,103324,1,0,3:0:0:0:
21,214,103415,1,0,3:0:0:0:
0,215,103505,1,0,3:0:0:0:
40,96,103597,6,0,B|17:206|17:206|46:244,1,157.5,10|0,0:0|0:0,0:0:0:0:
133,223,103961,2,0,B|156:333|156:333|127:371,1,157.5,2|0,3:0|0:0,0:0:0:0:
46,357,104324,6,0,P|88:332|202:355,1,157.5,2|0,3:0|0:0,0:0:0:0:
260,262,104688,2,0,P|302:287|416:264,1,157.5,2|0,3:0|0:0,0:0:0:0:
368,79,105052,5,10,0:0:0:0:
405,272,105233,1,0,3:0:0:0:
157,117,105415,5,10,0:0:0:0:
368,79,105597,1,0,3:0:0:0:
397,75,105688,1,0,3:0:0:0:
397,75,105779,6,0,P|363:-10|293:36,1,157.5,6|0,3:0|0:0,0:0:0:0:
239,94,106143,2,0,P|180:22|127:89,1,157.5,2|0,3:0|0:0,0:0:0:0:
0,183,106506,6,0,L|125:160,1,105,10|0,0:0|3:0,0:0:0:0:
207,198,106779,1,0,3:0:0:0:
171,266,106870,2,0,L|296:243,1,105,10|0,0:0|3:0,0:0:0:0:
367,249,107142,1,0,3:0:0:0:
343,324,107233,6,0,B|286:282|286:282|298:175,1,157.5,14|0,0:0|3:0,0:0:0:0:
333,65,107597,5,8,0:0:0:0:
336,66,107658,1,0,0:0:0:0:
340,67,107718,1,0,3:0:0:0:
343,67,107779,1,0,3:0:0:0:
348,67,107840,1,0,3:0:0:0:
351,69,107900,1,0,3:0:0:0:
389,47,107961,6,0,B|378:93|376:148|376:148|444:216|444:216|444:273|434:336,1,294,14|0,0:0|0:0,0:0:0:0:
437,311,108688,6,0,L|333:287,1,105,6|0,3:0|0:0,0:0:0:0:
130,346,109052,2,0,L|255:311,1,105,2|0,0:0|0:0,0:0:0:0:
19,228,109415,1,10,0:0:0:0:
19,228,109597,1,0,0:0:0:0:
250,220,109779,2,0,P|251:285|197:339,1,105,2|0,3:0|0:0,0:0:0:0:
198,31,110143,6,0,L|340:22,1,105,2|0,3:0|0:0,0:0:0:0:
463,17,110506,2,0,L|472:159,1,105,2|0,3:0|0:0,0:0:0:0:
194,159,110870,2,0,L|200:263,1,105,10|0,0:0|0:0,0:0:0:0:
366,265,111234,2,0,L|470:258,1,105,2|0,3:0|0:0,0:0:0:0:
69,337,111597,6,0,B|122:344|148:300|130:303|157:249|241:265,1,157.5,6|0,3:0|0:0,0:0:0:0:
68,190,111961,2,0,B|107:191|138:229|119:226|146:270|198:263,1,157.5,6|0,3:0|0:0,0:0:0:0:
365,367,112324,5,10,0:0:0:0:
327,175,112506,1,0,3:0:0:0:
329,158,112597,1,0,3:0:0:0:
347,92,112688,5,10,0:0:0:0:
126,117,112870,1,0,3:0:0:0:
119,70,112961,1,0,3:0:0:0:
119,70,113052,6,0,P|58:54|24:114,1,105,6|0,3:0|0:0,0:0:0:0:
40,307,113415,2,0,P|101:323|135:263,1,105,6|0,3:0|0:0,0:0:0:0:
451,298,113779,6,0,B|423:330|361:330|361:330|394:239|315:179|192:237|259:360|318:358,1,367.5,14|0,0:0|0:0,0:0:0:0:
433,215,114506,5,6,3:0:0:0:
442,173,114597,1,0,3:0:0:0:
434,131,114688,1,0,3:0:0:0:
403,102,114779,1,0,3:0:0:0:
327,111,114870,5,2,3:0:0:0:
283,81,114961,1,0,3:0:0:0:
230,79,115052,1,0,3:0:0:0:
182,102,115143,1,0,3:0:0:0:
141,197,115233,6,0,B|75:234|75:234|102:61,1,210,10|2,0:0|3:0,0:0:0:0:
62,341,115779,1,0,0:0:0:0:
346,214,115961,6,0,L|326:110,1,105,2|0,3:0|0:0,0:0:0:0:
111,129,116324,2,0,L|131:25,1,105,2|0,3:0|0:0,0:0:0:0:
386,13,116688,5,10,0:0:0:0:
460,243,116870,1,0,3:0:0:0:
205,113,117052,5,10,0:0:0:0:
462,45,117233,1,0,3:0:0:0:
471,74,117324,1,0,3:0:0:0:
471,74,117415,6,0,B|397:49|397:49|342:134,1,157.5,6|0,3:0|0:0,0:0:0:0:
220,211,117779,2,0,B|294:186|294:186|349:271,1,157.5,6|0,3:0|0:0,0:0:0:0:
500,332,118142,5,10,0:0:0:0:
316,353,118324,1,0,3:0:0:0:
298,349,118415,1,0,3:0:0:0:
223,373,118506,5,10,0:0:0:0:
14,263,118688,1,0,3:0:0:0:
60,255,118779,1,0,3:0:0:0:
60,255,118870,5,6,3:0:0:0:
304,296,119052,2,0,L|295:365,1,52.5,0|0,3:0|3:0,0:0:0:0:
108,169,119234,5,8,0:0:0:0:
108,165,119294,1,0,0:0:0:0:
108,161,119355,1,0,0:0:0:0:
108,157,119416,1,0,3:0:0:0:
107,153,119476,2,0,L|110:200,1,35,0|0,3:0|3:0,0:0:0:0:
301,106,119597,5,8,0:0:0:0:
301,93,119658,1,8,0:0:0:0:
300,81,119718,1,8,0:0:0:0:
275,57,119779,6,0,L|274:10,2,35,0|0|0,3:0|3:0|3:0,3:0:0:0:
214,201,119961,5,8,0:0:0:0:
284,200,120052,1,8,0:0:0:0:
355,199,120142,1,8,0:0:0:0:
425,198,120233,1,8,0:0:0:0:
477,142,120324,5,14,0:0:0:0:
491,355,131597,5,6,0:2:0:0:
491,355,131961,6,0,B|491:297|517:266|517:266|450:228|396:255|414:258|341:302|293:266|281:126|433:144|416:237,1,440.999986541749,4|0,3:2|0:0,0:0:0:0:
301,354,133324,1,0,0:0:0:0:
291,349,133415,6,0,B|248:375|213:340|234:336|197:297|137:335,1,146.999995513916,2|0,0:2|0:0,0:0:0:0:
112,384,133961,2,0,L|130:156,1,220.499993270874,2|4,3:0|2:0,0:0:0:0:
71,58,134688,1,0,0:0:0:0:
70,73,134779,1,0,0:0:0:0:
79,91,134870,6,0,P|127:74|183:95,1,110.249996635437
207,76,135233,2,0,B|254:65|254:65|459:108|459:108|500:96,1,293.999991027832
469,32,136143,1,2,2:0:0:0:
469,32,136234,1,2,2:0:0:0:
469,32,136324,6,0,L|448:274,1,220.499993270874,2|0,0:2|0:0,0:0:0:0:
365,185,137052,2,0,B|380:208|380:208|365:345,1,146.999995513916,4|2,0:2|2:0,0:0:0:0:
292,371,137597,1,0,0:0:0:0:
148,314,137779,6,0,P|135:274|218:200,1,146.999995513916,4|0,0:2|0:0,0:0:0:0:
212,273,138324,2,0,L|61:254,1,146.999995513916
31,174,138870,2,0,L|117:184,1,73.4999977569581
162,137,139142,1,0,0:0:0:0:
151,125,139233,6,0,P|228:97|215:17,1,146.999995513916,2|0,0:2|0:0,0:0:0:0:
307,20,139779,1,2,0:0:0:0:
358,76,139961,2,0,L|527:69,1,146.999995513916,0|2,0:0|0:2,0:0:0:0:
477,186,140506,1,0,0:0:0:0:
476,207,140597,1,0,0:0:0:0:
475,228,140688,5,8,0:0:0:0:
256,192,140748,12,10,143233,0:0:0:0:
38,362,143597,6,0,P|49:306|48:236,1,125.999996154785,6|0,3:0|0:0,0:0:0:0:
49,238,144324,1,10,0:0:0:0:
38,136,144597,1,0,0:0:0:0:
29,32,144870,1,0,0:0:0:0:
131,185,145052,6,0,B|168:208|168:208|263:190,1,125.999996154785,6|0,3:0|0:0,0:0:0:0:
474,85,145597,1,0,3:0:0:0:
451,84,145688,1,0,3:0:0:0:
413,62,145779,5,10,0:0:0:0:
342,117,145961,2,0,L|337:262,1,125.999996154785,0|0,3:0|0:0,0:0:0:0:
490,173,146506,6,0,P|491:102|424:91,1,125.999996154785,6|0,3:0|0:0,0:0:0:0:
368,72,147052,2,0,L|377:117,1,31.4999990386963,0|0,3:0|3:0,3:0:0:0:
307,149,147233,5,10,0:0:0:0:
196,122,147506,1,2,0:0:0:0:
87,90,147779,1,0,3:0:0:0:
218,210,147961,5,2,0:0:0:0:
132,189,148142,1,0,3:0:0:0:
132,189,148324,1,2,3:0:0:0:
132,189,148688,5,10,0:0:0:0:
221,305,148870,1,2,3:0:0:0:
494,160,149052,5,10,0:0:0:0:
494,160,149415,6,0,P|406:157|385:120,1,125.999996154785,6|0,3:0|0:0,0:0:0:0:
238,149,149961,1,0,3:0:0:0:
260,144,150052,1,0,3:0:0:0:
299,119,150142,5,10,0:0:0:0:
170,117,150415,1,2,0:0:0:0:
245,223,150688,1,0,3:0:0:0:
235,53,150870,5,6,0:2:0:0:
300,0,151052,1,0,3:0:0:0:
300,0,151233,1,6,3:0:0:0:
300,0,151597,5,10,0:0:0:0:
164,121,151779,1,0,3:0:0:0:
145,116,151870,1,0,3:0:0:0:
110,81,151961,5,10,0:0:0:0:
245,223,152142,1,2,0:0:0:0:
133,206,152324,6,0,L|274:197,1,125.999996154785,6|0,3:0|0:0,0:0:0:0:
349,306,152870,1,0,3:0:0:0:
331,304,152961,1,0,3:0:0:0:
299,286,153052,5,10,0:0:0:0:
316,122,153324,1,2,0:0:0:0:
299,286,153597,1,0,3:0:0:0:
462,223,153779,5,6,0:2:0:0:
367,215,153961,1,0,3:0:0:0:
367,215,154142,1,2,3:0:0:0:
13,367,154506,5,14,0:0:0:0:
67,314,154688,1,0,3:0:0:0:
67,314,154870,1,6,3:2:0:0:
67,314,155052,1,6,0:2:0:0:
178,363,155233,6,0,P|84:350|58:380,1,125.999996154785,6|0,3:0|0:0,0:0:0:0:
0,237,155779,1,0,3:0:0:0:
21,236,155870,1,0,3:0:0:0:
51,221,155961,5,10,0:0:0:0:
157,199,156233,1,2,0:0:0:0:
259,234,156506,1,0,3:0:0:0:
232,140,156688,5,2,0:0:0:0:
139,99,156870,1,0,3:0:0:0:
139,99,157052,1,6,3:2:0:0:
139,99,157415,6,0,P|152:146|128:216,1,94.499997116089,10|0,0:0|0:0,0:0:0:0:
143,190,157779,2,0,L|213:186,1,62.9999980773926,2|0,3:0|0:0,0:0:0:0:
320,49,158142,6,0,L|452:55,1,125.999996154785,6|2,3:0|0:0,0:0:0:0:
447,232,158688,1,0,3:0:0:0:
446,211,158779,1,0,3:0:0:0:
457,174,158870,5,14,0:0:0:0:
445,54,159142,1,2,0:0:0:0:
351,131,159415,1,0,3:0:0:0:
365,224,159597,5,4,0:2:0:0:
375,312,159779,1,0,3:0:0:0:
375,312,159870,1,0,3:0:0:0:
375,312,159961,1,2,3:0:0:0:
118,362,160324,5,10,0:0:0:0:
4,265,160506,1,0,3:0:0:0:
151,4,160688,5,14,0:0:0:0:
7,137,161052,6,0,B|64:123|64:123|89:137|89:137|140:137,1,125.999996154785,6|2,3:0|0:0,0:0:0:0:
282,123,161597,1,0,3:0:0:0:
262,122,161688,1,0,3:0:0:0:
221,134,161779,5,10,0:0:0:0:
310,44,162052,1,2,0:0:0:0:
356,174,162324,1,0,3:0:0:0:
263,225,162506,5,2,0:0:0:0:
166,209,162688,1,0,3:0:0:0:
166,209,162870,1,6,3:0:0:0:
461,13,163233,5,10,0:0:0:0:
451,204,163415,1,0,3:0:0:0:
452,188,163506,1,0,3:0:0:0:
467,158,163597,5,10,0:0:0:0:
457,348,163779,1,2,3:0:0:0:
373,136,163961,5,8,0:0:0:0:
367,95,164052,1,8,0:0:0:0:
361,108,164142,1,0,3:0:0:0:
355,120,164233,1,0,3:0:0:0:
347,171,164324,5,8,0:0:0:0:
296,152,164415,1,8,0:0:0:0:
245,134,164506,1,8,0:0:0:0:
194,115,164597,1,8,0:0:0:0:
154,66,164688,5,0,3:0:0:0:
154,79,164779,1,0,3:0:0:0:
119,120,164870,1,8,0:0:0:0:
116,173,164961,1,8,0:0:0:0:
143,219,165052,5,8,0:0:0:0:
187,190,165142,1,8,0:0:0:0:
172,189,165233,1,0,3:0:0:0:
159,189,165324,1,0,3:0:0:0:
136,237,165415,5,8,0:0:0:0:
160,283,165505,1,8,0:0:0:0:
175,282,165596,1,0,3:0:0:0:
188,282,165687,1,0,3:0:0:0:
232,343,165779,5,0,0:0:0:0:
261,348,165870,1,0,0:0:0:0:
296,351,165961,1,0,0:0:0:0:
331,355,166052,1,0,0:0:0:0:
377,288,166142,5,0,3:0:0:0:
395,286,166233,1,0,3:0:0:0:
414,285,166324,1,0,3:0:0:0:
432,283,166415,1,0,3:0:0:0:
484,354,166506,5,10,0:0:0:0:
385,43,166870,5,6,3:0:0:0:
312,41,167052,1,0,3:0:0:0:
240,37,167233,1,6,3:0:0:0:
459,45,167597,1,10,0:0:0:0:
198,112,167961,5,2,3:0:0:0:
271,110,168143,1,0,3:0:0:0:
343,106,168324,1,2,3:0:0:0:
122,115,168688,1,10,0:0:0:0:
117,193,168870,1,0,3:0:0:0:
117,193,168961,1,0,3:0:0:0:
115,210,169052,5,12,0:0:0:0:
111,284,169233,1,0,3:0:0:0:
122,115,169415,1,14,0:2:0:0:
274,293,169779,5,6,3:0:0:0:
272,220,169961,1,0,3:0:0:0:
268,148,170142,1,6,3:0:0:0:
276,367,170506,1,10,0:0:0:0:
343,106,170870,5,2,3:0:0:0:
341,179,171052,1,0,3:0:0:0:
337,251,171233,1,2,3:0:0:0:
346,30,171597,1,10,0:0:0:0:
272,36,171779,1,0,3:0:0:0:
272,36,171870,1,0,3:0:0:0:
245,37,171961,5,12,0:0:0:0:
167,46,172142,1,0,3:0:0:0:
346,30,172324,1,14,0:2:0:0:
89,53,172688,5,6,3:0:0:0:
39,115,172870,1,0,3:0:0:0:
117,128,173052,1,6,3:0:0:0:
12,39,173415,1,10,0:0:0:0:
89,331,173779,5,2,3:0:0:0:
39,269,173961,1,0,3:0:0:0:
117,256,174143,1,2,3:0:0:0:
12,345,174506,1,10,0:0:0:0:
89,331,174688,2,0,L|125:341,1,31.4999990386963,0|0,3:0|3:0,3:0:0:0:
197,362,174870,5,12,0:0:0:0:
197,362,175052,1,0,3:0:0:0:
12,345,175233,1,14,0:2:0:0:
423,331,175597,5,6,3:0:0:0:
473,269,175779,1,0,3:0:0:0:
395,256,175961,1,6,3:0:0:0:
500,345,176324,1,10,0:0:0:0:
423,53,176688,5,2,3:0:0:0:
473,115,176870,1,0,3:0:0:0:
395,128,177052,1,2,3:0:0:0:
500,39,177415,1,10,0:0:0:0:
423,53,177597,2,0,L|387:43,1,31.4999990386963,0|0,3:0|3:0,3:0:0:0:
315,22,177779,5,12,0:0:0:0:
235,49,177961,1,0,3:0:0:0:
232,64,178052,1,0,3:0:0:0:
259,103,178142,5,8,0:2:0:0:
205,99,178233,1,8,0:0:0:0:
152,95,178324,1,8,0:0:0:0:
99,88,178415,1,8,0:0:0:0:
86,48,178506,5,6,3:0:0:0:
24,99,178688,1,0,3:0:0:0:
21,177,178870,1,6,3:0:0:0:
166,51,179233,1,10,0:0:0:0:
154,247,179597,5,2,3:0:0:0:
219,201,179779,1,0,3:0:0:0:
222,123,179961,1,2,3:0:0:0:
77,249,180324,1,10,0:0:0:0:
54,310,180506,1,0,3:0:0:0:
46,329,180597,1,0,3:0:0:0:
58,357,180688,5,12,0:0:0:0:
135,382,180870,1,0,3:0:0:0:
102,243,181052,1,14,0:2:0:0:
397,335,181415,5,6,3:0:0:0:
462,289,181597,1,0,3:0:0:0:
465,211,181779,1,6,3:0:0:0:
320,337,182142,1,10,0:0:0:0:
333,143,182506,5,2,3:0:0:0:
268,189,182688,1,0,3:0:0:0:
265,267,182870,1,2,3:0:0:0:
410,141,183233,1,10,0:0:0:0:
458,74,183415,1,0,3:0:0:0:
466,55,183506,1,0,3:0:0:0:
454,27,183597,5,12,0:0:0:0:
377,2,183779,1,0,3:0:0:0:
410,141,183961,1,14,0:2:0:0:
377,2,184142,1,10,0:0:0:0:
336,78,184324,5,6,3:0:0:0:
255,85,184506,1,0,3:0:0:0:
172,92,184688,1,6,3:0:0:0:
423,66,185052,1,10,0:0:0:0:
216,172,185415,5,2,3:0:0:0:
135,179,185597,1,0,3:0:0:0:
52,186,185779,1,2,3:0:0:0:
303,162,186143,1,10,0:0:0:0:
319,242,186325,2,0,L|326:280,1,31.4999990386963,0|0,3:0|3:0,3:0:0:0:
344,353,186506,5,12,0:0:0:0:
344,353,186688,1,0,3:0:0:0:
303,162,186870,1,14,0:2:0:0:
44,288,187233,5,6,3:0:0:0:
47,210,187415,1,2,3:0:0:0:
106,349,187597,5,8,0:0:0:0:
106,349,187779,1,0,0:0:0:0:
120,166,187961,1,14,0:0:0:0:
106,349,188142,1,10,0:0:0:0:
183,301,188324,5,2,3:0:0:0:
188,222,188506,1,0,3:0:0:0:
42,123,188688,5,14,0:0:0:0:
46,40,188870,1,0,3:0:0:0:
52,36,188961,1,0,3:0:0:0:
62,13,189052,5,0,0:0:0:0:
80,38,189142,1,0,0:0:0:0:
109,50,189233,1,0,0:0:0:0:
140,50,189324,1,0,0:0:0:0:
166,22,189415,5,0,0:0:0:0:
187,26,189506,1,0,0:0:0:0:
207,33,189597,1,0,0:0:0:0:
225,44,189688,1,0,0:0:0:0:
268,29,189779,5,8,0:0:0:0:
262,81,189870,1,8,0:0:0:0:
255,132,189961,1,8,0:0:0:0:
248,183,190052,1,8,0:0:0:0:
255,201,190142,5,6,3:0:0:0:
256,192,190233,12,0,200234,0:0:0:0:
