osu file format v14

[General]
AudioFilename: audio.mp3
AudioLeadIn: 0
PreviewTime: 36955
Countdown: 1
SampleSet: Soft
StackLeniency: 0.7
Mode: 0
LetterboxInBreaks: 0
WidescreenStoryboard: 1

[Editor]
Bookmarks: 9262,27724,36955,53108,66955,76185,85416,97052,108688,120314,131951,143597,166870,190142
DistanceSpacing: 1
BeatDivisor: 4
GridSize: 8
TimelineZoom: 3.199999

[Metadata]
Title:Vanished truth
TitleUnicode:Vanished truth
Artist:Draw the Emotional feat. Meramipop
ArtistUnicode:Draw the Emotional feat. めらみぽっぷ
Creator:IsomirDiAngelo
Version:Insane
Source:東方星蓮船 ~ Undefined Fantastic Object.
Tags:seto kousuke shirahane suou hey lululu lu^3 shadowx yshadowxop_ itswinter silence player 平安のエイリアン Heian Alien 東方Project 締め切り前日のおまいら ゆよゆっぺ yuyoyuppe zun Touhou C78 Comiket 78 Collapse of the sky 封獣 ぬえ Houjuu Nue 上海アリス幻樂団 Team Shanghai Alice rock metal japanese video game
BeatmapID:2069006
BeatmapSetID:984365

[Difficulty]
HPDrainRate:5
CircleSize:4
OverallDifficulty:8
ApproachRate:9
SliderMultiplier:1.6
SliderTickRate:1

[Events]
//Background and Video events
0,0,"bg.jpg",0,0
//Break Periods
2,85616,90270
2,120524,131361
//Storyboard Layer 0 (Background)
//Storyboard Layer 1 (Fail)
//Storyboard Layer 2 (Pass)
//Storyboard Layer 3 (Foreground)
//Storyboard Layer 4 (Overlay)
//Storyboard Sound Samples

[TimingPoints]
32,288.461538461538,4,2,1,60,1,0
32,-125,4,2,1,60,0,0
320,-125,4,2,1,60,0,0
2339,-125,4,2,1,60,0,0
2628,-125,4,2,1,60,0,0
3493,-125,4,2,1,60,0,0
4070,-76.9230769230769,4,2,1,60,0,0
4647,-125,4,2,1,60,0,0
4935,-125,4,2,1,60,0,0
6955,-125,4,2,1,60,0,0
8974,-125,4,3,20,60,0,0
9262,-83.3333333333333,4,2,1,60,0,1
12724,-83.3333333333333,4,2,1,60,0,0
13589,-83.3333333333333,4,2,1,60,0,0
13878,-83.3333333333333,4,2,1,60,0,1
17339,-83.3333333333333,4,3,8,60,0,1
17483,-83.3333333333333,4,2,1,60,0,1
17988,-83.3333333333333,4,3,8,60,0,1
18060,-83.3333333333333,4,3,9,60,0,1
18132,-83.3333333333333,4,2,1,60,0,1
18205,-83.3333333333333,4,2,1,60,0,0
18493,-100,4,2,1,60,0,0
22531,-83.3333333333333,4,2,1,60,0,0
22820,-100,4,2,1,60,0,0
27147,-83.3333333333333,4,2,1,60,0,0
27723,-83.3333333333333,4,2,1,60,0,0
28012,-100,4,2,1,60,0,0
32339,-100,4,2,1,60,0,1
35512,-100,4,2,1,60,0,0
35801,-100,4,2,1,60,0,0
36522,-100,4,3,8,60,0,0
36666,-100,4,2,1,60,0,0
36955,-90.9090909090909,4,2,1,60,0,0
45681,-90.9090909090909,4,3,8,60,0,0
45753,-90.9090909090909,4,3,9,60,0,0
45825,-90.9090909090909,4,2,1,60,0,0
51594,-90.9090909090909,4,2,1,70,0,0
51955,-90.9090909090909,4,2,1,60,0,0
52604,-90.9090909090909,4,3,8,60,0,0
52676,-90.9090909090909,4,3,9,60,0,0
52748,-90.9090909090909,4,2,1,60,0,0
53036,-90.9090909090909,4,2,1,5,0,0
53108,-100,4,2,1,60,0,1
53397,-83.3333333333333,4,2,1,60,0,1
54262,-111.111111111111,4,2,1,60,0,1
54478,-111.111111111111,4,2,1,5,0,1
54551,-100,4,2,1,60,0,1
54839,-83.3333333333333,4,2,1,60,0,1
55416,-100,4,2,1,60,0,1
55705,-83.3333333333333,4,3,8,60,0,1
55993,-83.3333333333333,4,3,9,60,0,1
56281,-100,4,2,1,60,0,1
56570,-83.3333333333333,4,2,1,60,0,1
57435,-76.9230769230769,4,2,1,60,0,1
57651,-76.9230769230769,4,2,1,5,0,1
57724,-100,4,2,1,60,0,1
58012,-83.3333333333333,4,2,1,60,0,1
58878,-83.3333333333333,4,3,8,60,0,1
59166,-83.3333333333333,4,3,9,60,0,1
59455,-100,4,2,1,60,0,1
59743,-83.3333333333333,4,2,1,60,0,1
60608,-71.4285714285714,4,2,1,60,0,1
60824,-71.4285714285714,4,2,1,5,0,1
60897,-83.3333333333333,4,2,1,60,0,1
61185,-83.3333333333333,4,3,8,60,0,1
61329,-83.3333333333333,4,2,1,60,0,1
61474,-83.3333333333333,4,3,9,60,0,1
61618,-83.3333333333333,4,2,1,60,0,1
62628,-100,4,2,1,60,0,1
62916,-83.3333333333333,4,2,1,60,0,1
63493,-100,4,2,1,60,0,1
63781,-76.9230769230769,4,2,1,60,0,1
63997,-76.9230769230769,4,2,1,5,0,1
64070,-100,4,2,1,60,0,1
64358,-83.3333333333333,4,2,1,60,0,1
65801,-111.111111111111,4,2,1,60,0,1
66955,-100,4,2,1,60,0,0
71281,-100,4,2,1,60,0,0
71497,-100,4,2,1,5,0,0
71570,-100,4,2,1,60,0,0
75897,-100,4,2,1,60,0,0
76113,-100,4,2,1,5,0,0
76185,-166.666666666667,4,2,1,60,0,0
76906,-166.666666666667,4,2,1,65,0,0
77051,-166.666666666667,4,2,1,60,0,0
78204,-166.666666666667,4,2,1,65,0,0
78349,-166.666666666667,4,2,1,60,0,0
79574,-166.666666666667,4,2,1,5,0,0
79647,-166.666666666667,4,2,1,60,0,0
81522,-166.666666666667,4,2,1,65,0,0
81666,-166.666666666667,4,2,1,60,0,0
82820,-166.666666666667,4,2,1,65,0,0
82964,-166.666666666667,4,2,1,60,0,0
84190,-166.666666666667,4,2,1,5,0,0
84262,-166.666666666667,4,2,1,60,0,0
84551,-166.666666666667,4,2,1,65,0,0
84695,-166.666666666667,4,2,1,60,0,0
85128,-166.666666666667,4,2,1,60,0,0
85416,363.636363636364,4,2,1,60,1,0
91234,-100,4,2,1,60,0,0
91597,-100,4,2,1,70,0,0
91961,-100,4,2,1,60,0,0
95052,-100,4,2,1,60,0,0
95233,-100,4,2,1,60,0,0
95597,-100,4,2,1,60,0,0
96324,-83.3333333333333,4,2,1,60,0,0
96960,-83.3333333333333,4,2,1,5,0,0
97052,-100,4,2,1,60,0,0
97233,-100,4,2,1,30,0,0
97415,-100,4,2,1,60,0,0
97596,-100,4,2,1,30,0,0
97779,-83.3333333333333,4,2,1,60,0,0
98051,-83.3333333333333,4,2,1,5,0,0
98143,-100,4,2,1,60,0,0
98324,-100,4,2,1,30,0,0
98506,-100,4,2,1,60,0,0
98687,-100,4,2,1,30,0,0
98870,-100,4,2,1,60,0,0
99051,-100,4,2,1,30,0,0
99233,-83.3333333333333,4,2,1,60,0,0
99505,-83.3333333333333,4,2,1,5,0,0
99597,-100,4,2,1,60,0,0
99778,-100,4,2,1,30,0,0
99961,-100,4,2,1,60,0,0
100688,-100,4,2,1,60,0,0
101687,-100,4,2,1,5,0,0
101779,-100,4,2,1,60,0,0
102051,-100,4,2,1,5,0,0
102142,-125,4,2,1,60,0,0
102687,-125,4,2,1,35,0,0
102870,-100,4,2,1,60,0,0
103597,-76.9230769230769,4,2,1,60,0,0
103869,-76.9230769230769,4,2,1,5,0,0
103961,-90.9090909090909,4,2,1,60,0,0
104142,-90.9090909090909,4,2,1,30,0,0
104324,-90.9090909090909,4,2,1,60,0,0
104505,-90.9090909090909,4,2,1,30,0,0
104688,-90.9090909090909,4,2,1,60,0,0
104869,-90.9090909090909,4,2,1,30,0,0
105052,-90.9090909090909,4,2,1,60,0,0
107143,-90.9090909090909,4,2,1,5,0,0
107233,-76.9230769230769,4,2,1,60,0,0
107506,-76.9230769230769,4,2,1,5,0,0
107597,-76.9230769230769,4,2,1,60,0,0
107657,-76.9230769230769,4,3,8,60,0,0
107718,-76.9230769230769,4,3,9,60,0,0
107961,-125,4,2,1,60,0,0
108688,-125,4,2,1,60,0,0
114324,-125,4,2,1,30,0,0
114506,-125,4,2,1,60,0,0
115233,-100,4,2,1,60,0,0
115961,-125,4,2,1,60,0,0
119294,-125,4,3,8,60,0,0
119355,-125,4,3,9,60,0,0
119415,-125,4,2,1,60,0,0
119597,-100,4,2,1,60,0,0
131961,-166.666666666667,4,3,20,60,0,0
133324,-166.666666666667,4,3,20,90,0,0
133506,-166.666666666667,4,3,20,60,0,0
134142,-166.666666666667,4,3,20,55,0,0
134506,-166.666666666667,4,2,1,60,0,0
134687,-166.666666666667,4,3,20,90,0,0
134961,-166.666666666667,4,3,20,60,0,0
139142,-166.666666666667,4,3,20,90,0,0
139234,-166.666666666667,4,3,20,60,0,0
140506,-166.666666666667,4,3,20,90,0,0
140688,-166.666666666667,4,3,20,60,0,0
140779,-166.666666666667,4,3,20,55,0,0
143233,-166.666666666667,4,2,1,60,0,0
143597,-166.666666666667,4,2,1,60,0,0
149233,-166.666666666667,4,2,1,55,0,0
149415,-166.666666666667,4,2,1,60,0,0
160869,-166.666666666667,4,2,1,55,0,0
161052,-166.666666666667,4,2,1,60,0,0
165779,-166.666666666667,4,3,8,60,0,0
165960,-166.666666666667,4,3,9,60,0,0
166143,-166.666666666667,4,2,1,60,0,0
166870,-166.666666666667,4,2,1,60,0,0
178142,-166.666666666667,4,2,1,60,0,0
178506,-166.666666666667,4,2,1,60,0,0
189052,-166.666666666667,4,3,8,80,0,0
189233,-166.666666666667,4,3,8,80,0,0
189415,-166.666666666667,4,3,9,80,0,0
189596,-166.666666666667,4,3,9,80,0,0
189779,-166.666666666667,4,2,1,60,0,0
199597,-166.666666666667,4,2,1,5,0,0

[Colours]
Combo1 : 55,117,130
Combo2 : 234,21,21

[HitObjects]
34,24,32,5,14,3:0:0:0:
34,24,320,2,0,L|23:168,1,128,2|0,0:0|0:0,0:0:0:0:
24,151,897,2,0,L|13:295,1,128,2|0,0:0|0:0,0:0:0:0:
15,277,1474,6,0,P|72:291|107:213,1,128,2|0,0:0|0:0,0:0:0:0:
111,242,2051,1,2,0:0:0:0:
110,116,2339,5,6,3:0:0:0:
110,116,2628,2,0,B|120:144|120:144|108:272,1,128,2|0,0:0|0:0,0:0:0:0:
111,241,3205,1,2,0:0:0:0:
216,205,3493,5,6,3:0:0:0:
222,108,3781,1,6,3:0:0:0:
212,304,4070,6,0,B|245:282|288:301|267:313|311:344|361:312,1,155.999992858887,10|0,0:0|3:0,0:0:0:0:
392,333,4358,5,8,2:0:0:0:
391,326,4431,1,8,2:0:0:0:
391,320,4503,1,8,2:0:0:0:
390,314,4575,1,8,2:0:0:0:
390,310,4647,6,0,L|388:168,2,128,6|2|0,3:0|0:0|0:0,0:0:0:0:
388,182,5512,2,0,L|385:39,1,128,2|0,0:0|0:0,0:0:0:0:
385,54,6089,6,0,B|302:34|302:34|249:62,1,128,2|0,0:0|0:0,0:0:0:0:
264,53,6666,1,2,0:0:0:0:
142,52,6955,5,6,3:0:0:0:
143,52,7244,2,0,B|180:32|180:32|263:52,1,128,2|0,0:0|0:0,0:0:0:0:
206,142,7676,1,0,3:0:0:0:
206,142,7748,1,0,3:0:0:0:
206,142,7820,5,10,0:0:0:0:
174,250,8108,1,6,3:0:0:0:
141,361,8397,1,6,3:0:0:0:
214,136,8685,6,0,B|206:171|206:171|210:193|210:193|195:209|195:209|179:259,1,128,8|2,0:0|2:3,0:0:0:0:
440,360,9262,6,0,L|320:337,1,95.9999970703126,14|8,0:0|0:0,0:0:0:0:
305,203,9551,2,0,L|399:221,1,95.9999970703126,8|8,0:0|0:0,0:0:0:0:
489,102,9839,5,8,0:0:0:0:
410,49,9983,1,8,0:0:0:0:
333,101,10128,1,8,0:0:0:0:
333,101,10272,1,8,0:0:0:0:
399,221,10416,6,0,B|435:203|435:203|515:210,1,95.9999970703126,14|8,0:0|0:0,0:0:0:0:
345,341,10705,2,0,B|309:359|309:359|229:352,1,95.9999970703126,8|8,0:0|0:0,0:0:0:0:
213,216,10993,6,0,B|249:198|249:198|329:205,1,95.9999970703126,8|8,0:0|0:0,0:0:0:0:
159,336,11282,2,0,B|123:354|123:354|43:347,1,95.9999970703126,8|8,0:0|0:0,0:0:0:0:
26,243,11570,5,14,0:3:0:0:
121,247,11714,1,8,0:0:0:0:
128,149,11858,1,8,0:0:0:0:
30,144,12003,1,8,0:0:0:0:
9,226,12147,5,8,0:0:0:0:
107,263,12291,1,8,0:0:0:0:
145,168,12435,1,8,0:0:0:0:
48,128,12580,1,8,0:0:0:0:
232,97,12724,6,0,P|262:42|240:-25,1,95.9999970703126,14|0,0:0|3:0,0:0:0:0:
433,11,13012,2,0,P|434:58|460:97,1,95.9999970703126,14|0,0:0|3:0,0:0:0:0:
345,183,13301,6,0,L|348:266,2,47.9999985351563,8|8|0,0:0|0:0|3:0,0:0:0:0:
339,92,13589,5,14,0:0:0:0:
161,28,13878,6,0,B|94:40|94:40|66:-1,1,95.9999970703126,14|0,0:3|3:0,0:0:0:0:
0,150,14166,2,0,B|67:162|67:162|95:121,1,95.9999970703126,10|0,0:0|3:0,0:0:0:0:
185,249,14455,5,10,0:0:0:0:
261,116,14599,1,0,3:0:0:0:
261,116,14671,1,0,3:0:0:0:
261,116,14743,2,0,L|272:211,1,95.9999970703126,10|0,0:0|3:0,0:0:0:0:
401,98,15031,6,0,L|389:2,1,95.9999970703126,14|0,0:3|3:0,0:0:0:0:
493,122,15320,1,10,0:0:0:0:
425,190,15464,1,0,3:0:0:0:
488,321,15608,5,10,0:0:0:0:
351,286,15753,1,0,3:0:0:0:
351,286,15825,1,0,3:0:0:0:
351,286,15897,2,0,P|324:330|351:388,1,95.9999970703126,10|0,0:0|3:0,0:0:0:0:
174,365,16185,5,8,0:0:0:0:
169,364,16257,1,8,0:0:0:0:
164,364,16330,2,0,L|95:357,2,47.9999985351563,8|8|0,0:0|0:0|3:0,0:0:0:0:
170,212,16618,5,8,0:0:0:0:
165,214,16690,1,8,0:0:0:0:
160,214,16763,2,0,L|91:220,2,47.9999985351563,8|8|0,0:0|0:0|3:0,0:0:0:0:
262,293,17051,2,0,L|194:292,2,47.9999985351563,8|8|0,0:0|0:0|3:0,0:0:0:0:
346,221,17339,5,0,0:0:0:0:
261,145,17483,1,0,3:0:0:0:
407,135,17628,5,8,0:0:0:0:
412,134,17700,1,8,0:0:0:0:
417,133,17772,2,0,L|489:124,1,47.9999985351563,0|0,3:0|3:0,0:0:0:0:
342,53,17916,5,8,0:0:0:0:
337,54,17988,1,0,0:0:0:0:
332,55,18060,2,0,L|260:64,1,47.9999985351563,0|0,0:0|3:0,0:0:0:0:
251,162,18205,5,14,0:0:0:0:
39,288,18493,5,6,0:3:0:0:
39,288,18637,2,0,L|200:270,1,160,2|0,3:0|3:0,0:0:0:0:
77,368,19070,1,10,0:0:0:0:
268,325,19358,6,0,L|275:370,4,40,0|0|0|0|2,3:0|3:0|3:0|3:0|3:2,0:0:0:0:
450,323,19935,2,0,L|443:368,3,40,0|0|0|0,3:0|3:0|3:0|3:0,0:0:0:0:
452,309,20224,6,0,P|395:280|334:319,2,120,10|0|0,0:0|3:0|3:0,0:0:0:0:
512,240,20801,5,2,0:0:0:0:
475,157,20945,1,0,3:0:0:0:
475,157,21089,2,0,L|473:52,1,80,0|0,3:0|0:0,0:0:0:0:
387,185,21378,5,10,0:0:0:0:
305,51,21666,2,0,L|317:3,4,40,0|0|0|0|2,3:0|3:0|3:0|3:0|3:2,0:0:0:0:
138,47,22243,2,0,L|127:-7,3,40,0|0|0|0,3:0|3:0|3:0|3:0,0:0:0:0:
140,60,22531,6,0,B|101:54|101:54|86:58|86:58|37:49,1,95.9999970703126,10|0,0:0|0:0,0:0:0:0:
176,142,22820,1,10,0:0:0:0:
14,309,23108,5,6,0:3:0:0:
14,309,23253,2,0,B|53:356|53:356|168:301,1,160,2|0,3:0|3:0,0:0:0:0:
46,228,23685,1,10,0:0:0:0:
223,278,23974,5,0,3:0:0:0:
223,278,24046,1,0,3:0:0:0:
223,278,24118,2,0,L|217:223,2,40,0|0|2,3:0|3:0|3:2,0:0:0:0:
341,370,24551,1,0,3:0:0:0:
341,370,24623,1,0,3:0:0:0:
341,370,24695,2,0,L|344:309,1,40,0|0,3:0|3:0,0:0:0:0:
341,317,24839,6,0,P|404:334|447:289,2,120,10|0|0,0:0|3:0|3:0,0:0:0:0:
313,229,25416,5,2,0:0:0:0:
383,166,25560,1,0,3:0:0:0:
383,166,25705,2,0,B|415:153|415:153|494:176,1,80,0|0,3:0|0:0,0:0:0:0:
313,98,25993,5,10,0:0:0:0:
164,25,26281,1,0,3:0:0:0:
164,25,26353,1,0,3:0:0:0:
164,25,26425,2,0,L|108:31,2,40,0|0|2,3:0|3:0|3:0,0:0:0:0:
170,186,26858,1,0,3:0:0:0:
170,186,26931,1,0,3:0:0:0:
170,186,27003,1,0,3:0:0:0:
170,186,27075,1,0,3:0:0:0:
170,186,27147,6,0,P|138:215|128:173,1,95.9999970703126,8|0,0:0|3:0,0:0:0:0:
41,143,27435,6,0,B|76:143|104:125|104:125|159:144|159:144|192:118|237:126,1,191.999994140625,8|0,0:0|3:0,0:0:0:0:
499,220,28012,5,14,0:3:0:0:
475,381,28301,2,0,L|487:297,1,80,2|0,3:0|3:0,0:0:0:0:
499,220,28589,1,10,0:3:0:0:
432,47,28878,6,0,L|420:131,1,80,2|0,3:0|3:0,0:0:0:0:
408,208,29166,1,10,0:3:0:0:
298,360,29455,6,0,L|310:276,1,80,2|0,3:0|3:0,0:0:0:0:
322,199,29743,1,10,0:3:0:0:
163,71,30031,5,2,3:0:0:0:
163,71,30176,1,0,3:0:0:0:
280,93,30320,1,10,0:3:0:0:
86,158,30608,5,2,3:0:0:0:
86,158,30753,1,0,3:0:0:0:
203,180,30897,1,10,0:3:0:0:
13,249,31185,6,0,L|23:309,3,40,0|0|0|0,3:0|3:0|3:0|3:0,0:0:0:0:
28,243,31474,1,10,0:0:0:0:
53,72,31762,2,0,L|47:18,3,40,0|0|0|0,3:0|3:0|3:0|3:0,0:0:0:0:
70,88,32051,5,8,2:0:0:0:
73,88,32123,1,8,2:0:0:0:
76,87,32195,1,8,2:0:0:0:
79,86,32267,1,8,2:0:0:0:
82,85,32339,6,0,L|144:85,2,40,6|0|0,3:0|3:0|3:0,0:0:0:0:
176,17,32628,2,0,L|238:17,2,40,10|0|0,3:0|3:0|3:0,0:0:0:0:
281,82,32916,1,0,3:0:0:0:
284,82,32988,1,0,3:0:0:0:
287,82,33060,1,0,3:0:0:0:
364,20,33205,1,10,3:0:0:0:
367,20,33277,1,0,3:0:0:0:
370,20,33349,1,0,3:0:0:0:
449,89,33493,6,0,L|448:144,2,40,0|0|0,3:0|3:0|3:0,0:0:0:0:
368,178,33781,2,0,L|369:233,2,40,10|0|0,3:0|3:0|3:0,0:0:0:0:
444,284,34070,1,0,3:0:0:0:
444,287,34142,1,0,3:0:0:0:
444,290,34214,1,0,3:0:0:0:
366,355,34358,2,0,L|277:347,1,80,10|0,3:0|3:0,0:0:0:0:
163,359,34647,6,0,L|120:356,2,40,6|0|0,3:0|3:0|3:0,0:0:0:0:
219,282,34935,5,10,3:0:0:0:
221,274,35008,1,0,3:0:0:0:
223,266,35080,1,0,3:0:0:0:
225,258,35152,1,0,3:0:0:0:
221,239,35224,5,2,3:0:0:0:
223,231,35297,1,0,3:0:0:0:
225,223,35369,1,0,3:0:0:0:
227,215,35441,1,0,3:0:0:0:
222,193,35512,5,0,3:0:0:0:
268,57,35801,1,2,3:0:0:0:
172,341,36089,1,14,0:2:0:0:
59,226,36378,6,0,L|85:140,1,80,10|0,0:0|0:0,0:0:0:0:
53,56,36666,1,8,2:0:0:0:
53,56,36738,1,8,2:0:0:0:
53,56,36810,1,8,2:0:0:0:
53,56,36882,1,8,2:0:0:0:
53,56,36955,6,0,P|129:77|174:-19,1,176.000005371094,6|2,3:0|0:0,0:0:0:0:
273,41,37387,1,0,3:0:0:0:
273,41,37459,1,0,3:0:0:0:
273,41,37531,6,0,L|415:33,2,132.00000402832,10|0|0,0:0|0:0|3:0,0:0:0:0:
392,120,38108,6,0,L|382:214,2,88.000002685547,2|0|2,0:0|3:0|3:0,0:0:0:0:
451,350,38685,6,0,B|367:323|367:323|388:373,1,132.00000402832,10|0,0:0|0:0,0:0:0:0:
377,381,38974,2,0,L|395:276,1,88.000002685547,2|0,3:0|0:0,0:0:0:0:
244,246,39262,6,0,P|227:333|302:381,1,176.000005371094,6|0,3:0|0:0,0:0:0:0:
132,338,39695,1,0,3:0:0:0:
132,338,39767,1,0,3:0:0:0:
132,338,39839,6,0,L|-38:360,2,132.00000402832,10|0|0,0:0|0:0|3:0,0:0:0:0:
100,248,40416,5,2,0:0:0:0:
192,268,40560,2,0,L|238:262,2,44.0000013427735,0|0|2,3:0|3:0|3:0,0:0:0:0:
71,159,40993,5,10,0:0:0:0:
72,73,41137,1,0,3:0:0:0:
164,170,41281,6,0,L|276:161,1,88.000002685547,10|0,0:0|3:0,0:0:0:0:
171,79,41570,6,0,L|361:65,1,176.000005371094,6|2,3:0|0:0,0:0:0:0:
442,12,42003,1,0,3:0:0:0:
442,12,42075,1,0,3:0:0:0:
442,12,42147,6,0,L|424:186,2,132.00000402832,10|0|0,0:0|0:0|3:0,0:0:0:0:
469,223,42724,6,0,P|500:193|512:152,2,88.000002685547,2|0|2,0:0|3:0|3:0,0:0:0:0:
250,215,43301,6,0,B|283:182|283:182|405:209,1,132.00000402832,10|0,0:0|0:0,0:0:0:0:
380,231,43589,2,0,L|393:121,1,88.000002685547,2|0,3:0|0:0,0:0:0:0:
407,320,43878,6,0,B|360:342|310:312|337:307|275:271|220:326,1,176.000005371094,6|2,3:0|0:0,0:0:0:0:
146,341,44310,2,0,L|142:385,2,44.0000013427735,0|0|10,3:0|3:0|0:0,0:0:0:0:
51,302,44599,1,0,3:0:0:0:
169,206,44743,6,0,B|146:221|115:229|115:229|55:197|55:197|24:205|5:222,1,176.000005371094,10|2,0:0|0:0,0:0:0:0:
119,117,45176,1,0,3:0:0:0:
119,117,45248,1,0,3:0:0:0:
119,117,45320,6,0,P|158:98|217:79,1,88.000002685547,10|0,0:0|3:0,0:0:0:0:
337,17,45608,5,8,0:0:0:0:
337,17,45681,1,0,0:0:0:0:
337,17,45753,1,0,0:0:0:0:
337,17,45825,1,0,3:0:0:0:
337,17,45897,1,10,0:0:0:0:
459,151,46185,6,0,P|357:124|363:169,1,176.000005371094,6|2,3:0|0:0,0:0:0:0:
290,205,46618,1,0,3:0:0:0:
290,205,46690,1,0,3:0:0:0:
290,205,46762,6,0,B|259:42,2,132.00000402832,10|0|0,0:0|0:0|3:0,0:0:0:0:
377,307,47339,6,0,B|408:315|408:315|476:291,2,88.000002685547,2|0|2,0:0|3:0|3:0,0:0:0:0:
119,349,47916,6,0,L|290:359,1,132.00000402832,10|0,0:0|0:0,0:0:0:0:
265,377,48205,2,0,P|289:331|273:275,1,88.000002685547,2|0,3:0|0:0,0:0:0:0:
147,264,48493,6,0,P|122:218|163:87,1,176.000005371094,6|0,3:0|0:0,0:0:0:0:
131,18,48926,1,0,3:0:0:0:
131,18,48998,1,0,3:0:0:0:
131,18,49070,6,0,L|-25:6,2,132.00000402832,10|0|0,0:0|0:0|3:0,0:0:0:0:
264,0,49647,5,2,0:0:0:0:
228,93,49791,2,0,L|212:136,2,44.0000013427735,0|0|2,3:0|3:0|3:0,0:0:0:0:
461,75,50224,5,10,0:0:0:0:
364,40,50368,1,0,3:0:0:0:
424,171,50512,6,0,L|393:266,1,88.000002685547,10|0,0:0|3:0,0:0:0:0:
332,139,50801,6,0,L|272:335,1,176.000005371094,6|2,3:0|0:0,0:0:0:0:
168,360,51233,1,0,3:0:0:0:
168,360,51306,1,0,3:0:0:0:
168,360,51378,6,0,P|102:370|55:323,2,132.00000402832,10|0|0,0:0|0:0|0:0,0:0:0:0:
89,250,51955,5,2,0:0:0:0:
103,151,52099,1,0,3:0:0:0:
104,140,52171,1,0,3:0:0:0:
106,132,52243,2,0,L|122:35,1,88.000002685547,10|0,0:0|3:0,0:0:0:0:
302,12,52531,5,8,0:0:0:0:
316,23,52604,1,0,0:0:0:0:
327,35,52676,1,0,0:0:0:0:
330,52,52748,1,0,3:0:0:0:
329,71,52820,6,0,B|369:87|399:62|399:62|477:60,1,132.00000402832,10|0,0:0|0:0,0:0:0:0:
455,80,53108,6,0,L|464:-6,1,80,6|0,3:0|3:0,0:0:0:0:
464,183,53397,6,0,L|472:311,1,95.9999970703126,14|0,0:0|3:0,0:0:0:0:
304,181,53685,2,0,L|296:309,1,95.9999970703126,10|0,0:0|3:0,0:0:0:0:
386,371,53974,5,10,0:0:0:0:
386,371,54118,1,10,0:0:0:0:
258,355,54262,6,0,B|203:348|203:348|211:284,1,107.999996704102,2|0,3:0|0:0,0:0:0:0:
202,283,54551,6,0,L|192:367,1,80,2|2,3:0|3:0,0:0:0:0:
60,230,54839,5,14,0:0:0:0:
212,157,54983,1,0,3:0:0:0:
212,157,55056,1,0,3:0:0:0:
212,157,55128,2,0,P|218:102|155:62,1,95.9999970703126,10|0,0:0|0:0,0:0:0:0:
192,173,55416,6,0,L|301:165,1,80,6|2,3:0|3:0,0:0:0:0:
355,91,55705,6,0,B|345:62|345:62|353:0,2,63.9999980468751
446,68,55993,6,0,B|436:39|436:39|444:-23,2,63.9999980468751
488,148,56281,6,0,L|485:245,1,80,6|2,3:0|3:0,0:0:0:0:
317,357,56570,6,0,P|291:318|306:274,1,95.9999970703126,10|0,0:0|3:0,0:0:0:0:
470,351,56858,2,0,P|495:312|480:268,1,95.9999970703126,10|0,0:0|3:0,0:0:0:0:
386,181,57147,5,10,0:0:0:0:
386,181,57291,1,10,0:0:0:0:
305,274,57435,6,0,B|276:251|236:267|236:267|214:248|214:248|182:260|142:243,1,155.999992858887,2|0,3:0|0:0,0:0:0:0:
160,249,57724,6,0,L|143:343,1,80,2|2,3:0|3:0,0:0:0:0:
39,153,58012,5,10,0:0:0:0:
124,39,58229,1,0,3:0:0:0:
124,39,58301,2,0,L|235:28,1,95.9999970703126,10|0,0:0|3:0,0:0:0:0:
265,154,58589,5,8,0:0:0:0:
241,136,58685,2,0,P|206:142|153:121,1,63.9999980468751,8|8,0:0|0:0,0:0:0:0:
303,64,58878,6,0,L|321:-4,2,63.9999980468751
379,112,59166,6,0,L|409:48,2,63.9999980468751
405,202,59455,6,0,L|500:217,1,80,10|0,0:0|3:0,0:0:0:0:
468,370,59743,5,8,0:0:0:0:
468,370,59887,1,0,3:0:0:0:
359,282,60031,2,0,B|338:307|338:307|351:386,1,95.9999970703126,10|0,0:0|3:0,0:0:0:0:
171,365,60320,5,10,0:0:0:0:
171,365,60464,1,10,0:0:0:0:
130,228,60608,6,0,B|150:189|210:196|210:196|228:226|258:231|258:231|303:220,1,167.999994873047,2|0,3:0|0:0,0:0:0:0:
286,205,60897,5,8,0:0:0:0:
286,195,60969,1,8,0:0:0:0:
286,185,61041,1,0,3:0:0:0:
286,175,61113,1,0,3:0:0:0:
297,164,61185,6,0,L|354:170,3,47.9999985351563,0|0|0|0,0:0|0:0|3:0|3:0,0:0:0:0:
258,101,61474,2,0,L|201:107,3,47.9999985351563,0|0|0|0,0:0|0:0|3:0|3:0,0:0:0:0:
302,35,61762,5,10,3:0:0:0:
302,35,61906,1,10,3:0:0:0:
190,34,62051,6,0,L|200:97,2,63.9999980468751,6|0|2,3:0|3:0|3:0,3:0:0:0:
88,35,62339,5,8,0:0:0:0:
83,58,62435,1,8,0:0:0:0:
79,81,62531,1,8,0:0:0:0:
103,103,62628,6,0,L|86:214,1,80,6|6,3:2|3:2,0:0:0:0:
217,347,62916,5,14,0:0:0:0:
197,224,63060,1,2,3:0:0:0:
56,305,63205,5,14,0:3:0:0:
90,182,63349,1,2,3:0:0:0:
197,224,63493,6,0,L|290:208,1,80,10|0,3:0|3:0,0:0:0:0:
364,327,63781,6,0,B|329:279|357:229|357:229|383:222|416:237|403:286,1,155.999992858887,10|0,0:0|0:0,0:0:0:0:
432,258,64070,6,0,L|446:162,1,80,10|0,0:0|3:0,0:0:0:0:
287,45,64358,5,14,0:0:0:0:
430,70,64503,1,0,3:0:0:0:
426,79,64575,1,0,3:0:0:0:
422,90,64647,5,14,0:0:0:0:
354,140,64791,1,0,3:0:0:0:
351,146,64863,1,0,3:0:0:0:
348,152,64935,5,6,3:2:0:0:
208,197,65224,1,4,3:2:0:0:
24,262,65512,1,4,3:2:0:0:
138,113,65801,6,0,B|102:126|102:126|28:105|28:105|-14:117,3,143.999995605469,6|6|6|12,3:0|3:0|3:0|0:0,0:0:0:0:
1,113,66955,6,0,L|24:227,1,80,6|0,3:0|3:0,0:0:0:0:
36,276,67243,1,10,0:0:0:0:
229,175,67531,6,0,L|206:61,1,80,2|0,3:0|3:0,0:0:0:0:
194,12,67819,1,10,0:0:0:0:
22,130,68108,6,0,L|45:244,1,80,2|0,3:0|3:0,0:0:0:0:
57,293,68396,1,10,0:0:0:0:
250,192,68685,6,0,L|227:78,1,80,2|0,3:0|3:0,0:0:0:0:
215,29,68974,1,10,0:0:0:0:
157,247,69262,5,6,3:0:0:0:
157,247,69406,1,0,3:0:0:0:
250,192,69551,1,10,0:0:0:0:
465,169,69839,5,2,3:0:0:0:
465,169,69983,1,0,3:0:0:0:
372,224,70128,1,10,0:0:0:0:
387,24,70416,5,2,3:0:0:0:
368,121,70560,1,0,3:0:0:0:
245,15,70705,5,10,0:0:0:0:
265,118,70849,1,0,0:0:0:0:
265,118,70921,1,0,3:0:0:0:
265,118,70993,2,0,L|165:101,1,80,14|0,0:0|3:0,0:0:0:0:
101,71,71281,6,0,P|151:112|137:197,1,120,10|0,0:0|0:0,0:0:0:0:
149,174,71570,6,0,B|92:158|92:158|68:184,1,80,6|0,3:0|3:0,0:0:0:0:
25,247,71858,1,10,0:0:0:0:
229,227,72147,6,0,B|286:211|286:211|310:237,1,80,2|0,3:0|3:0,0:0:0:0:
353,300,72435,1,10,0:0:0:0:
128,357,72724,5,2,3:0:0:0:
128,357,72868,1,0,3:0:0:0:
233,333,73012,1,10,0:0:0:0:
334,203,73301,5,2,3:0:0:0:
334,203,73445,1,0,3:0:0:0:
229,227,73589,1,10,0:0:0:0:
433,266,73878,5,6,3:0:0:0:
432,169,74022,1,0,3:0:0:0:
451,277,74166,2,0,B|451:309|451:309|457:324|457:324|457:379,1,80,10|0,0:0|0:0,0:0:0:0:
459,163,74455,5,2,3:0:0:0:
459,163,74599,1,0,3:0:0:0:
334,203,74743,5,10,0:0:0:0:
333,75,74887,1,0,0:0:0:0:
333,75,74959,1,0,3:0:0:0:
333,75,75031,6,0,B|374:51|374:51|456:84,1,120,10|0,0:0|3:0,0:0:0:0:
449,90,75320,6,0,P|485:48|454:3,1,120,10|0,0:0|3:0,0:0:0:0:
440,0,75608,5,10,0:0:0:0:
255,7,75897,6,0,L|255:138,1,120,10|0,0:0|0:0,0:0:0:0:
257,145,76185,6,0,L|199:131,1,47.9999985351563,6|0,3:0|3:0,0:0:0:0:
50,95,76618,5,0,3:0:0:0:
124,113,76762,2,0,L|66:99,1,47.9999985351563,14|0,0:0|0:0,0:0:0:0:
26,179,77051,6,0,B|32:209|32:209|16:242,1,47.9999985351563,2|0,3:0|3:0,0:0:0:0:
78,370,77483,2,0,B|72:340|72:340|79:324,1,47.9999985351563,0|0,3:0|3:0,0:0:0:0:
215,251,77916,5,10,0:0:0:0:
126,242,78060,2,0,P|147:232|170:239,1,47.9999985351563,0|0,3:0|0:0,0:0:0:0:
252,292,78349,6,0,P|277:296|315:287,1,47.9999985351563,0|6,3:0|3:2,0:0:0:0:
426,333,78781,6,0,L|417:269,1,47.9999985351563,0|0,3:0|3:0,0:0:0:0:
483,206,79070,1,10,0:0:0:0:
483,206,79214,1,0,3:0:0:0:
458,215,79358,6,0,L|461:128,1,71.9999978027344,0|0,3:0|0:0,0:0:0:0:
468,137,79647,6,0,L|465:79,1,47.9999985351563,6|0,3:2|3:0,0:0:0:0:
313,11,80080,1,0,3:0:0:0:
313,11,80152,1,0,3:0:0:0:
313,11,80224,2,0,L|310:63,2,47.9999985351563,10|0|6,0:0|3:0|0:2,0:0:0:0:
224,57,80656,1,8,0:0:0:0:
211,44,80801,6,0,B|191:49|191:49|146:33,1,47.9999985351563,6|0,3:0|3:0,0:0:0:0:
1,71,81233,5,0,3:0:0:0:
79,83,81378,2,0,B|59:88|59:88|33:78,1,47.9999985351563,14|0,0:0|0:0,0:0:0:0:
13,162,81666,6,0,L|17:213,1,47.9999985351563,2|0,3:0|3:0,0:0:0:0:
126,305,82099,2,0,L|122:356,1,47.9999985351563,0|0,3:0|3:0,0:0:0:0:
242,209,82531,5,10,0:0:0:0:
248,287,82676,2,0,L|244:239,1,47.9999985351563,0|0,3:0|0:0,0:0:0:0:
319,182,82964,6,0,L|322:118,1,47.9999985351563,0|6,3:0|3:2,0:0:0:0:
413,22,83397,6,0,P|432:11|469:18,1,47.9999985351563,0|0,3:0|3:0,0:0:0:0:
501,93,83685,1,10,0:0:0:0:
501,93,83830,1,0,3:0:0:0:
474,109,83974,6,0,P|466:135|483:192,1,71.9999978027344,0|0,3:0|0:0,0:0:0:0:
485,201,84262,6,0,P|493:227|483:265,1,47.9999985351563,6|0,3:2|3:0,0:0:0:0:
475,333,84551,1,0,0:0:0:0:
346,309,84695,1,0,3:0:0:0:
346,309,84767,1,0,3:0:0:0:
346,309,84839,2,0,L|336:244,1,47.9999985351563,10|0,0:0|3:0,0:0:0:0:
274,189,85128,5,8,0:0:0:0:
272,178,85200,1,8,0:0:0:0:
270,168,85272,1,8,0:0:0:0:
268,158,85344,1,8,0:0:0:0:
265,144,85416,1,6,0:0:0:0:
61,42,90870,5,10,0:0:0:0:
61,42,91234,2,0,L|51:223,1,160,6|0,3:0|0:0,0:0:0:0:
114,288,91961,5,2,0:0:0:0:
133,298,92688,1,2,0:0:0:0:
152,307,93416,1,2,0:0:0:0:
170,316,94143,1,2,0:0:0:0:
192,326,94870,1,2,0:0:0:0:
259,278,95052,6,0,L|286:283,3,26.6666666666667,0|0|0|14,3:0|3:0|3:0|0:2,3:0:0:0:
251,130,95597,2,0,B|250:135|261:157|261:157|276:177|272:209|272:209|253:232|253:232|242:254|261:281,1,160,6|6,3:2|3:2,0:0:0:0:
170,83,96324,6,0,B|189:52|189:52|216:38|269:49,1,95.9999970703126,10|0,0:0|3:0,0:0:0:0:
349,130,96688,6,0,L|514:117,1,143.999995605469,10|0,0:0|0:0,0:0:0:0:
493,107,97052,6,0,B|507:140|507:140|497:177|474:188,1,80,6|0,3:0|0:0,0:0:0:0:
470,271,97415,2,0,B|456:304|456:304|466:341|489:352,1,80,2|0,3:0|0:0,0:0:0:0:
311,382,97779,6,0,B|315:340|340:323|383:329|383:329|380:348|404:366,1,143.999995605469,10|0,0:0|0:0,0:0:0:0:
390,356,98143,2,0,B|389:337|389:337|380:311|380:311|384:277,1,80,2|0,3:0|0:0,0:0:0:0:
389,173,98506,6,0,B|329:179|329:179|316:192|316:208,1,80,2|0,3:0|0:0,0:0:0:0:
241,244,98870,2,0,B|181:238|181:238|168:225|168:209,1,80,2|0,3:0|0:0,0:0:0:0:
71,84,99233,6,0,B|95:99|98:124|98:124|70:159|70:188|85:237,1,143.999995605469,10|0,0:0|0:0,0:0:0:0:
91,232,99597,2,0,B|86:279|86:279|88:290|88:290|80:330,1,80,2|0,3:0|0:0,0:0:0:0:
242,360,99961,5,6,3:0:0:0:
242,360,100324,1,6,3:0:0:0:
318,195,100688,5,10,0:0:0:0:
267,113,100870,1,0,3:0:0:0:
267,99,100961,1,0,3:0:0:0:
267,88,101052,1,10,0:0:0:0:
332,20,101233,1,0,3:0:0:0:
332,27,101324,1,0,3:0:0:0:
332,34,101415,6,0,B|346:49|371:52|371:52|401:19|479:34,1,120,6|0,3:0|0:0,0:0:0:0:
452,17,101779,2,0,B|472:0|514:5|515:45|510:81|499:97|470:108,1,120,6|0,3:0|0:0,0:0:0:0:
454,167,102142,6,0,B|432:182|429:216|429:216|457:363,1,192,14|0,0:0|0:0,0:0:0:0:
325,341,102870,5,6,3:0:0:0:
313,336,102961,1,0,3:0:0:0:
302,331,103052,1,0,3:0:0:0:
290,326,103142,1,0,3:0:0:0:
263,332,103234,6,0,L|213:310,3,40,2|0|0|0,3:0|3:0|3:0|3:0,0:0:0:0:
276,242,103597,6,0,B|252:211|255:174|280:152|314:145|314:145|284:124|301:75,1,155.999992858887,10|0,0:0|0:0,0:0:0:0:
304,108,103961,2,0,B|283:93|284:70|284:70|300:46|294:18,1,88.000002685547,2|0,3:0|0:0,0:0:0:0:
189,68,104324,6,0,B|146:77|116:55|116:55|101:68|106:83,1,88.000002685547,2|0,3:0|0:0,0:0:0:0:
80,157,104688,2,0,B|37:166|7:144|7:144|-8:157|-3:172,1,88.000002685547,2|0,3:0|0:0,0:0:0:0:
148,249,105052,5,10,0:0:0:0:
145,323,105233,1,0,3:0:0:0:
253,376,105415,5,10,0:0:0:0:
255,300,105597,1,0,3:0:0:0:
262,295,105688,1,0,3:0:0:0:
269,289,105779,5,6,3:0:0:0:
452,293,106142,1,2,3:0:0:0:
265,200,106506,5,10,0:0:0:0:
353,200,106688,1,0,3:0:0:0:
360,196,106779,1,0,3:0:0:0:
367,191,106870,6,0,B|335:173|329:144|341:116|341:116|366:111|376:81,1,132.00000402832,10|0,0:0|3:0,0:0:0:0:
383,73,107233,2,0,B|332:44|294:54|294:54|268:78|254:82|234:72,1,155.999992858887,14|0,0:0|3:0,0:0:0:0:
231,53,107597,6,0,L|228:11,2,34.6666650797527,8|0|0,0:0|0:0|3:0,0:0:0:0:
123,34,107961,6,0,L|150:252,1,192,14|0,0:0|0:0,0:0:0:0:
45,317,108688,6,0,B|71:300|71:300|117:302|182:321,1,128,6|2,3:0|0:0,0:0:0:0:
224,162,109415,2,0,B|250:179|250:179|296:177|361:158,1,128,10|2,0:0|3:0,0:0:0:0:
419,72,110142,5,2,3:0:0:0:
458,180,110506,1,2,3:0:0:0:
416,366,110870,1,10,0:0:0:0:
370,257,111233,1,2,3:0:0:0:
242,378,111597,5,6,3:0:0:0:
242,378,111961,1,6,3:0:0:0:
60,296,112324,5,10,0:0:0:0:
137,266,112506,1,0,3:0:0:0:
139,256,112597,1,0,3:0:0:0:
141,246,112688,1,10,0:0:0:0:
84,180,112870,1,0,3:0:0:0:
85,175,112961,1,0,3:0:0:0:
86,170,113052,5,6,3:0:0:0:
111,59,113415,1,6,3:0:0:0:
187,147,113779,6,0,B|185:193|234:199|256:173|270:136|210:65,1,192,14|0,0:0|0:0,0:0:0:0:
316,51,114506,5,6,3:0:0:0:
325,48,114597,1,0,3:0:0:0:
334,49,114688,1,0,3:0:0:0:
343,51,114779,1,0,3:0:0:0:
358,63,114870,5,2,3:0:0:0:
366,67,114961,1,0,3:0:0:0:
375,69,115052,1,0,3:0:0:0:
384,69,115142,1,0,3:0:0:0:
401,57,115233,6,0,B|419:60|445:43|445:43|456:99|430:160,1,160,10|2,0:0|3:0,0:0:0:0:
411,249,115961,2,0,B|394:249|377:233|377:233|369:265|402:343,1,128,2|2,3:0|3:0,0:0:0:0:
246,207,116688,5,10,0:0:0:0:
258,285,116870,1,0,3:0:0:0:
167,172,117052,5,10,0:0:0:0:
174,248,117233,1,0,3:0:0:0:
164,249,117324,1,0,3:0:0:0:
154,250,117415,5,6,3:0:0:0:
237,124,117779,1,6,3:0:0:0:
40,180,118142,5,10,0:0:0:0:
69,258,118324,1,0,3:0:0:0:
68,267,118415,1,0,3:0:0:0:
67,276,118506,5,10,0:0:0:0:
134,336,118688,1,0,3:0:0:0:
134,341,118779,1,0,3:0:0:0:
135,347,118870,5,6,3:0:0:0:
223,361,119052,2,0,L|228:330,1,32,0|0,3:0|3:0,0:0:0:0:
243,251,119234,6,0,L|212:246,3,21.3333333333333,8|0|0|0,0:0|0:0|0:0|3:0,0:0:0:0:
247,128,119597,6,0,L|281:124,5,26.6666666666667,8|8|8|0|0|0,0:0|0:0|0:0|3:0|3:0|3:0,0:0:0:0:
220,120,119961,5,8,0:0:0:0:
208,117,120052,1,8,0:0:0:0:
196,116,120142,1,8,0:0:0:0:
184,117,120233,1,8,0:0:0:0:
169,109,120324,5,14,0:0:0:0:
472,98,131961,6,0,B|453:55|393:58|393:58|423:259,1,287.999991210938,4|0,3:2|0:0,0:0:0:0:
297,364,133324,1,0,0:0:0:0:
306,349,133415,6,0,B|294:257|294:257|286:248|286:248|272:150,1,191.999994140625,2|0,0:2|0:0,0:0:0:0:
273,161,134506,2,0,L|265:98,1,47.9999985351563,4|0,2:0|0:0,0:0:0:0:
284,85,134779,1,0,0:0:0:0:
290,71,134870,6,0,B|216:93|177:68|200:74|157:14|105:8|54:37|43:94|65:120,1,287.999991210938
74,193,136142,1,2,2:0:0:0:
77,205,136233,1,2,2:0:0:0:
80,217,136324,5,2,0:2:0:0:
210,358,137052,1,4,0:2:0:0:
344,215,137779,6,0,B|376:175|374:128|374:128|450:183|427:259|384:309,1,287.999991210938,4|0,0:2|0:0,0:0:0:0:
240,220,139142,1,0,0:0:0:0:
230,233,139234,6,0,L|72:222,2,143.999995605469,2|2|2,0:2|0:0|0:2,0:0:0:0:
286,151,140506,1,0,0:0:0:0:
304,148,140597,1,0,0:0:0:0:
323,146,140688,5,8,0:0:0:0:
256,192,140779,12,10,143233,0:0:0:0:
24,111,143597,6,0,P|83:106|224:83,1,191.999994140625,6|10,3:0|0:0,0:0:0:0:
214,85,144597,1,0,0:0:0:0:
214,85,144870,1,0,0:0:0:0:
264,24,145052,6,0,L|256:176,1,143.999995605469,6|0,3:0|3:0,0:0:0:0:
265,181,145688,1,0,3:0:0:0:
266,196,145779,1,10,0:0:0:0:
364,199,145961,6,0,P|387:173|340:147,1,95.9999970703126,0|0,3:0|0:0,0:0:0:0:
376,216,146506,6,0,L|366:329,1,95.9999970703126,6|0,3:0|0:0,0:0:0:0:
290,369,147052,1,0,3:0:0:0:
277,362,147142,1,0,3:0:0:0:
266,350,147233,6,0,L|261:269,1,71.9999978027344,10|2,0:0|0:0,0:0:0:0:
261,278,147779,1,0,3:0:0:0:
171,319,147961,6,0,L|105:308,2,47.9999985351563,2|0|2,0:0|3:0|3:0,0:0:0:0:
30,253,148688,6,0,L|39:201,1,47.9999985351563,10|2,0:0|3:0,0:0:0:0:
114,165,149052,2,0,L|106:115,1,47.9999985351563,10|0,0:0|0:0,0:0:0:0:
45,44,149415,6,0,P|96:62|152:41,1,95.9999970703126,6|0,3:0|0:0,0:0:0:0:
219,6,149961,1,0,3:0:0:0:
226,19,150051,1,0,3:0:0:0:
238,30,150143,6,0,L|319:35,1,71.9999978027344,10|2,0:0|0:0,0:0:0:0:
309,34,150688,1,0,3:0:0:0:
411,16,150870,6,0,L|413:63,2,47.9999985351563,6|0|6,0:2|3:0|3:0,0:0:0:0:
334,163,151597,5,10,0:0:0:0:
306,239,151779,1,0,3:0:0:0:
306,249,151870,1,0,3:0:0:0:
307,260,151961,6,0,L|310:326,1,47.9999985351563,10|2,0:0|0:0,0:0:0:0:
388,371,152324,6,0,P|357:315|320:319,1,95.9999970703126,6|0,3:0|0:0,0:0:0:0:
252,339,152870,1,0,3:0:0:0:
245,352,152960,1,0,3:0:0:0:
233,363,153052,6,0,L|152:368,1,71.9999978027344,10|2,0:0|0:0,0:0:0:0:
161,367,153597,1,0,3:0:0:0:
59,367,153779,6,0,L|45:301,2,47.9999985351563,6|0|2,0:2|3:0|3:0,0:0:0:0:
63,209,154506,6,0,B|40:208|40:208|29:213|29:213|-3:212,3,47.9999985351563,14|0|6|6,0:0|3:0|3:2|0:2,0:0:0:0:
37,128,155233,6,0,P|95:115|110:80,1,95.9999970703126,6|0,3:0|0:0,0:0:0:0:
160,19,155779,2,0,L|192:18,1,23.9999992675781,0|0,3:0|3:0,0:0:0:0:
269,88,155961,5,10,0:0:0:0:
269,88,156233,1,2,0:0:0:0:
269,88,156506,1,0,3:0:0:0:
350,71,156688,6,0,L|347:23,2,47.9999985351563,2|0|6,0:0|3:0|3:2,0:0:0:0:
479,128,157415,5,10,0:0:0:0:
479,128,157688,1,0,0:0:0:0:
479,128,157961,1,0,0:0:0:0:
419,189,158142,6,0,P|424:251|432:300,1,95.9999970703126,6|2,3:0|0:0,0:0:0:0:
475,362,158688,2,0,L|437:359,1,23.9999992675781,0|0,3:0|3:0,0:0:0:0:
354,382,158870,5,14,0:0:0:0:
354,382,159142,1,2,0:0:0:0:
354,382,159415,1,0,3:0:0:0:
298,315,159597,5,4,0:2:0:0:
226,349,159779,1,0,3:0:0:0:
217,353,159870,1,0,3:0:0:0:
208,357,159961,1,2,3:0:0:0:
43,286,160324,6,0,L|36:217,1,47.9999985351563,10|0,0:0|3:0,0:0:0:0:
140,198,160688,2,0,L|131:262,1,47.9999985351563,14|0,0:0|0:0,0:0:0:0:
218,263,161052,6,0,P|266:250|285:202,1,95.9999970703126,6|2,3:0|0:0,0:0:0:0:
270,128,161597,2,0,L|267:97,1,23.9999992675781,0|0,3:0|3:0,0:0:0:0:
343,30,161779,5,10,0:0:0:0:
343,30,162052,1,2,0:0:0:0:
343,30,162324,1,0,3:0:0:0:
238,20,162506,6,0,P|201:15|177:7,2,47.9999985351563,2|0|6,0:0|3:0|3:0,0:0:0:0:
179,97,163233,5,10,0:0:0:0:
105,144,163415,2,0,L|109:170,1,23.9999992675781,0|0,3:0|3:0,0:0:0:0:
136,271,163597,5,10,0:0:0:0:
54,311,163779,1,2,3:0:0:0:
199,330,163961,6,0,L|206:368,3,23.9999992675781,8|8|0|0,0:0|0:0|3:0|3:0,0:0:0:0:
265,284,164324,1,8,0:0:0:0:
274,282,164415,1,8,0:0:0:0:
283,280,164506,1,8,0:0:0:0:
292,278,164597,1,8,0:0:0:0:
317,285,164688,6,0,L|319:320,1,23.9999992675781,0|0,3:0|3:0,0:0:0:0:
407,331,164870,1,8,0:0:0:0:
407,331,164961,1,8,0:0:0:0:
407,331,165052,2,0,L|417:293,1,23.9999992675781,8|8,0:0|0:0,0:0:0:0:
512,316,165234,2,0,L|502:278,1,23.9999992675781,0|0,3:0|3:0,0:0:0:0:
472,200,165415,5,8,0:0:0:0:
463,191,165506,1,8,0:0:0:0:
452,184,165597,1,0,3:0:0:0:
440,180,165688,1,0,3:0:0:0:
425,179,165779,6,0,L|426:138,3,23.9999992675781
348,156,166143,2,0,L|358:115,3,23.9999992675781,0|0|0|0,3:0|3:0|3:0|3:0,0:0:0:0:
279,122,166506,5,10,0:0:0:0:
70,62,166870,6,0,L|15:66,2,47.9999985351563,6|0|6,3:0|3:0|3:0,0:0:0:0:
194,46,167597,1,10,0:0:0:0:
71,151,167961,6,0,L|16:155,2,47.9999985351563,2|0|2,3:0|3:0|3:0,0:0:0:0:
195,135,168688,1,10,0:0:0:0:
143,199,168870,1,0,3:0:0:0:
142,211,168961,1,0,3:0:0:0:
141,221,169052,6,0,L|152:282,1,47.9999985351563,12|0,0:0|3:0,0:0:0:0:
113,354,169415,1,14,0:2:0:0:
372,329,169779,6,0,L|427:325,2,47.9999985351563,6|0|6,3:0|3:0|3:0,0:0:0:0:
248,345,170506,1,10,0:0:0:0:
371,240,170870,6,0,L|426:236,2,47.9999985351563,2|0|2,3:0|3:0|3:0,0:0:0:0:
247,256,171597,1,10,0:0:0:0:
299,192,171779,1,0,3:0:0:0:
300,180,171870,1,0,3:0:0:0:
301,170,171961,6,0,L|290:109,1,47.9999985351563,12|0,0:0|3:0,0:0:0:0:
329,37,172324,1,14,0:2:0:0:
94,70,172688,6,0,P|96:46|107:25,2,47.9999985351563,6|0|6,3:0|3:0|3:0,0:0:0:0:
120,200,173415,1,10,0:0:0:0:
204,55,173779,6,0,P|206:31|217:10,2,47.9999985351563,2|0|2,3:0|3:0|3:0,0:0:0:0:
230,185,174506,1,10,0:0:0:0:
286,124,174688,1,0,3:0:0:0:
296,121,174779,1,0,3:0:0:0:
306,122,174870,6,0,L|299:187,1,47.9999985351563,12|0,0:0|3:0,0:0:0:0:
358,236,175233,1,14,0:2:0:0:
94,330,175597,6,0,P|96:353|107:374,2,47.9999985351563,6|0|6,3:0|3:0|3:0,0:0:0:0:
120,200,176324,1,10,0:0:0:0:
204,315,176688,6,0,P|206:338|217:359,2,47.9999985351563,2|0|2,3:0|3:0|3:0,0:0:0:0:
230,185,177415,1,10,0:0:0:0:
286,246,177597,1,0,3:0:0:0:
296,249,177688,1,0,3:0:0:0:
307,249,177779,5,12,0:0:0:0:
395,240,177961,2,0,L|388:211,1,23.9999992675781,0|0,3:0|3:0,0:0:0:0:
455,152,178142,1,8,0:2:0:0:
455,152,178233,1,8,0:0:0:0:
455,152,178324,1,8,0:0:0:0:
455,152,178415,1,8,0:0:0:0:
455,152,178506,6,0,L|506:147,2,47.9999985351563,6|0|6,3:0|3:0|3:0,0:0:0:0:
376,48,179233,1,10,0:0:0:0:
318,168,179597,6,0,L|369:163,2,47.9999985351563,2|0|2,3:0|3:0|3:0,0:0:0:0:
239,64,180324,1,10,0:0:0:0:
227,151,180506,1,0,3:0:0:0:
217,157,180597,1,0,3:0:0:0:
207,162,180688,5,12,0:0:0:0:
128,123,180870,1,0,3:0:0:0:
93,219,181052,1,14,0:2:0:0:
136,375,181415,6,0,L|85:384,2,47.9999985351563,6|0|6,3:0|3:0|3:0,0:0:0:0:
183,253,182142,1,10,0:0:0:0:
272,352,182506,6,0,L|221:361,2,47.9999985351563,2|0|2,3:0|3:0|3:0,0:0:0:0:
319,230,183233,1,10,0:0:0:0:
354,311,183415,1,0,3:0:0:0:
366,314,183506,1,0,3:0:0:0:
377,316,183597,5,12,0:0:0:0:
442,256,183779,1,0,3:0:0:0:
454,374,183961,1,14,0:2:0:0:
454,374,184142,1,10,0:0:0:0:
453,292,184324,6,0,L|464:233,2,47.9999985351563,6|0|6,3:0|3:0|3:0,0:0:0:0:
481,141,185052,1,10,0:0:0:0:
337,240,185415,6,0,L|348:181,2,47.9999985351563,2|0|2,3:0|3:0|3:0,0:0:0:0:
365,89,186143,1,10,0:0:0:0:
292,32,186324,1,0,3:0:0:0:
278,30,186415,1,0,3:0:0:0:
265,35,186506,5,12,0:0:0:0:
212,99,186688,1,0,3:0:0:0:
105,51,186870,1,14,0:2:0:0:
60,210,187234,6,0,L|50:266,1,47.9999985351563,6|2,3:0|3:0,0:0:0:0:
132,356,187597,2,0,B|143:327|143:327|131:296,1,47.9999985351563,8|0,0:0|0:0,0:0:0:0:
158,178,187961,1,14,0:0:0:0:
158,178,188143,2,0,L|217:171,2,47.9999985351563,10|2|0,0:0|3:0|3:0,0:0:0:0:
209,262,188688,6,0,L|277:274,1,47.9999985351563,14|0,0:0|3:0,0:0:0:0:
353,311,189052,5,0,0:0:0:0:
349,299,189142,1,0,0:0:0:0:
346,287,189233,1,0,0:0:0:0:
342,275,189324,1,0,0:0:0:0:
347,254,189415,2,0,L|377:245,3,23.9999992675781
312,175,189779,5,8,0:0:0:0:
312,175,189870,1,8,0:0:0:0:
312,175,189961,1,8,0:0:0:0:
312,175,190052,1,8,0:0:0:0:
312,175,190143,5,6,3:0:0:0:
256,192,190234,12,0,200234,0:0:0:0:
