osu file format v14

[General]
AudioFilename: audio.mp3
AudioLeadIn: 0
PreviewTime: 36955
Countdown: 1
SampleSet: Soft
StackLeniency: 0.4
Mode: 0
LetterboxInBreaks: 0
WidescreenStoryboard: 1

[Editor]
Bookmarks: 9262,27724,36955,53108,66955,76185,85416,97052,108688,120314,131961,143597,166870,190142
DistanceSpacing: 1
BeatDivisor: 4
GridSize: 8
TimelineZoom: 1.3

[Metadata]
Title:Vanished truth
TitleUnicode:Vanished truth
Artist:Draw the Emotional feat. Meramipop
ArtistUnicode:Draw the Emotional feat. めらみぽっぷ
Creator:IsomirDiAngelo
Version:Extra
Source:東方星蓮船 ~ Undefined Fantastic Object.
Tags:seto kousuke shirahane suou hey lululu lu^3 shadowx yshadowxop_ itswinter silence player 平安のエイリアン Heian Alien 東方Project 締め切り前日のおまいら ゆよゆっぺ yuyoyuppe zun Touhou C78 Comiket 78 Collapse of the sky 封獣 ぬえ Houjuu Nue 上海アリス幻樂団 Team Shanghai Alice rock metal japanese video game
BeatmapID:2078042
BeatmapSetID:984365

[Difficulty]
HPDrainRate:5.5
CircleSize:4.2
OverallDifficulty:8.7
ApproachRate:9.3
SliderMultiplier:1.8
SliderTickRate:1

[Events]
//Background and Video events
0,0,"bg.jpg",0,0
//Break Periods
2,85616,90316
2,120525,131043
//Storyboard Layer 0 (Background)
//Storyboard Layer 1 (Fail)
//Storyboard Layer 2 (Pass)
//Storyboard Layer 3 (Foreground)
//Storyboard Layer 4 (Overlay)
//Storyboard Sound Samples

[TimingPoints]
32,288.461538461538,4,2,1,60,1,0
32,-125,4,2,1,60,0,0
320,-125,4,2,1,60,0,0
2339,-125,4,2,1,60,0,0
2628,-125,4,2,1,60,0,0
3493,-125,4,2,1,60,0,0
3637,-125,4,2,1,60,0,0
3781,-125,4,2,1,60,0,0
3925,-125,4,2,1,60,0,0
4070,-76.9230769230769,4,2,1,60,0,0
4648,-125,4,2,1,60,0,0
4935,-125,4,2,1,60,0,0
6955,-125,4,2,1,60,0,0
8685,-250,4,2,1,60,0,0
8974,-125,4,3,20,60,0,0
9262,-83.3333333333333,4,2,1,60,0,1
12724,-83.3333333333333,4,2,1,60,0,0
13589,-111.111111111111,4,2,1,60,0,0
13805,-111.111111111111,4,2,1,5,0,0
13878,-83.3333333333333,4,2,1,60,0,1
15248,-83.3333333333333,4,2,1,75,0,1
15320,-83.3333333333333,4,2,1,60,0,1
17339,-83.3333333333333,4,3,8,60,0,1
17483,-83.3333333333333,4,2,1,60,0,1
17988,-83.3333333333333,4,3,8,60,0,1
18060,-83.3333333333333,4,3,9,60,0,1
18132,-83.3333333333333,4,2,1,60,0,1
18205,-83.3333333333333,4,2,1,60,0,0
18493,-100,4,2,1,60,0,0
22531,-83.3333333333333,4,2,1,60,0,0
22820,-100,4,2,1,60,0,0
27147,-83.3333333333333,4,2,1,60,0,0
27363,-83.3333333333333,4,2,1,5,0,0
27435,-83.3333333333333,4,2,1,60,0,0
27724,-100,4,2,1,60,0,0
28012,-76.9230769230769,4,2,1,60,0,0
28228,-76.9230769230769,4,2,1,5,0,0
28301,-100,4,2,1,60,0,0
32339,-100,4,2,1,60,0,1
35512,-100,4,2,1,60,0,0
35800,-100,4,2,1,60,0,0
36522,-100,4,3,8,60,0,0
36666,-100,4,2,1,60,0,0
36955,-90.9090909090909,4,2,1,60,0,0
38901,-90.9090909090909,4,2,1,60,0,0
38974,-90.9090909090909,4,2,1,60,0,0
43517,-90.9090909090909,4,2,1,60,0,0
43589,-90.9090909090909,4,2,1,60,0,0
43878,-83.3333333333333,4,2,1,60,0,0
44455,-100,4,2,1,60,0,0
44743,-83.3333333333333,4,2,1,60,0,0
45680,-83.3333333333333,4,3,8,60,0,0
45752,-83.3333333333333,4,3,9,60,0,0
45824,-83.3333333333333,4,2,1,60,0,0
46185,-90.9090909090909,4,2,1,60,0,0
48131,-90.9090909090909,4,2,1,60,0,0
48204,-90.9090909090909,4,2,1,60,0,0
51593,-90.9090909090909,4,2,1,70,0,0
51954,-90.9090909090909,4,2,1,60,0,0
52604,-90.9090909090909,4,3,8,60,0,0
52676,-90.9090909090909,4,3,9,60,0,0
52748,-90.9090909090909,4,2,1,60,0,0
53108,-76.9230769230769,4,2,1,60,0,1
53902,-76.9230769230769,4,2,1,60,0,1
53974,-76.9230769230769,4,2,1,60,0,1
54262,-125,4,2,1,60,0,1
54478,-125,4,2,1,5,0,1
54551,-76.9230769230769,4,2,1,60,0,1
55705,-76.9230769230769,4,3,8,60,0,1
55993,-76.9230769230769,4,3,9,60,0,1
56281,-76.9230769230769,4,2,1,60,0,1
56858,-66.6666666666667,4,2,1,60,0,1
57075,-66.6666666666667,4,2,1,60,0,1
57147,-76.9230769230769,4,2,1,60,0,1
57435,-100,4,2,1,60,0,1
57651,-100,4,2,1,5,0,1
57724,-76.9230769230769,4,2,1,60,0,1
58878,-76.9230769230769,4,3,8,60,0,1
59166,-76.9230769230769,4,3,9,60,0,1
59455,-76.9230769230769,4,2,1,60,0,1
60031,-71.4285714285714,4,2,1,60,0,1
60320,-76.9230769230769,4,2,1,60,0,1
60608,-62.5,4,2,1,60,0,1
60824,-62.5,4,2,1,5,0,1
60897,-76.9230769230769,4,2,1,60,0,1
61185,-76.9230769230769,4,3,8,60,0,1
61330,-76.9230769230769,4,2,1,60,0,1
61474,-76.9230769230769,4,3,9,60,0,1
61619,-76.9230769230769,4,2,1,60,0,1
62339,-66.6666666666667,4,2,1,60,0,1
62628,-76.9230769230769,4,2,1,60,0,1
63781,-66.6666666666667,4,2,1,60,0,1
63997,-66.6666666666667,4,2,1,5,0,1
64070,-76.9230769230769,4,2,1,60,0,1
65801,-111.111111111111,4,2,1,60,0,1
66955,-100,4,2,1,60,0,0
71281,-100,4,2,1,60,0,0
71570,-100,4,2,1,60,0,0
74166,-90.9090909090909,4,2,1,60,0,0
74455,-83.3333333333333,4,2,1,60,0,0
74743,-71.4285714285714,4,2,1,60,0,0
75897,-71.4285714285714,4,2,1,60,0,0
76113,-71.4285714285714,4,2,1,5,0,0
76185,-166.666666666667,4,2,1,60,0,0
84190,-166.666666666667,4,2,1,5,0,0
84262,-166.666666666667,4,2,1,60,0,0
84550,-166.666666666667,4,2,1,65,0,0
84695,-166.666666666667,4,2,1,60,0,0
85055,-166.666666666667,4,2,1,60,0,0
85128,-166.666666666667,4,2,1,60,0,0
85416,363.636363636364,4,2,1,60,1,0
91234,-100,4,2,1,60,0,0
91597,-100,4,2,1,60,0,0
91961,-100,4,2,1,60,0,0
95052,-100,4,2,1,60,0,0
95234,-100,4,2,1,60,0,0
96324,-83.3333333333333,4,2,1,60,0,0
96325,-83.3333333333333,4,2,1,60,0,0
96960,-83.3333333333333,4,2,1,5,0,0
97052,-100,4,2,1,60,0,0
97324,-100,4,2,1,5,0,0
97416,-100,4,2,1,60,0,0
97688,-100,4,2,1,5,0,0
97779,-100,4,2,1,60,0,0
98143,-125,4,2,1,60,0,0
98415,-125,4,2,1,5,0,0
98506,-100,4,2,1,60,0,0
98778,-100,4,2,1,5,0,0
98870,-100,4,2,1,60,0,0
99142,-100,4,2,1,5,0,0
99234,-100,4,2,1,60,0,0
99597,-125,4,2,1,60,0,0
99869,-125,4,2,1,5,0,0
99961,-90.9090909090909,4,2,1,60,0,0
100233,-90.9090909090909,4,2,1,5,0,0
100325,-90.9090909090909,4,2,1,60,0,0
100597,-90.9090909090909,4,2,1,5,0,0
100688,-100,4,2,1,60,0,0
102779,-100,4,2,1,5,0,0
102870,-100,4,2,1,60,0,0
103961,-125,4,2,1,60,0,0
104233,-125,4,2,1,5,0,0
104325,-100,4,2,1,60,0,0
104597,-100,4,2,1,5,0,0
104688,-100,4,2,1,60,0,0
104960,-100,4,2,1,5,0,0
105052,-100,4,2,1,60,0,0
105779,-90.9090909090909,4,2,1,60,0,0
106051,-90.9090909090909,4,2,1,5,0,0
106143,-90.9090909090909,4,2,1,60,0,0
106415,-90.9090909090909,4,2,1,5,0,0
106506,-100,4,2,1,60,0,0
107657,-100,4,3,8,60,0,0
107718,-100,4,3,9,60,0,0
107778,-100,4,3,1,60,0,0
107961,-100,4,2,1,60,0,0
108597,-100,4,2,1,5,0,0
108688,-100,4,2,1,60,0,0
111597,-90.9090909090909,4,2,1,60,0,0
111869,-90.9090909090909,4,2,1,5,0,0
111961,-90.9090909090909,4,2,1,60,0,0
112233,-90.9090909090909,4,2,1,5,0,0
112325,-100,4,2,1,60,0,0
114415,-100,4,2,1,5,0,0
114506,-100,4,2,1,60,0,0
117416,-90.9090909090909,4,2,1,60,0,0
117688,-90.9090909090909,4,2,1,5,0,0
117779,-90.9090909090909,4,2,1,60,0,0
118051,-90.9090909090909,4,2,1,5,0,0
118143,-100,4,2,1,60,0,0
119294,-100,4,3,8,60,0,0
119355,-100,4,3,9,60,0,0
119415,-100,4,2,1,60,0,0
119597,-83.3333333333333,4,2,1,60,0,0
119961,-100,4,2,1,60,0,0
131597,-100,4,2,1,60,0,0
131961,-200,4,3,20,60,0,0
133325,-200,4,3,20,90,0,0
133506,-200,4,3,20,60,0,0
134506,-200,4,2,1,60,0,0
134688,-200,4,3,20,90,0,0
134961,-200,4,3,20,60,0,0
139143,-200,4,3,20,90,0,0
139234,-200,4,3,20,60,0,0
140506,-200,4,3,20,90,0,0
140688,-200,4,3,20,60,0,0
141051,-200,4,2,20,60,0,0
143234,-200,4,2,1,60,0,0
143597,-200,4,2,1,60,0,0
157597,-200,4,2,1,60,0,0
157779,-200,4,2,1,60,0,0
163961,-142.857142857143,4,2,1,60,0,0
165779,-142.857142857143,4,3,8,60,0,0
165961,-142.857142857143,4,3,9,60,0,0
166143,-142.857142857143,4,2,1,60,0,0
166870,-142.857142857143,4,2,1,60,0,0
178143,-142.857142857143,4,2,1,60,0,0
178506,-142.857142857143,4,2,1,60,0,0
189052,-142.857142857143,4,3,8,80,0,0
189234,-142.857142857143,4,3,8,80,0,0
189416,-142.857142857143,4,3,9,80,0,0
189597,-142.857142857143,4,3,9,80,0,0
189779,-142.857142857143,4,2,1,60,0,0
199597,-142.857142857143,4,2,1,5,0,0

[Colours]
Combo1 : 55,117,130
Combo2 : 234,21,21

[HitObjects]
13,64,32,5,14,3:0:0:0:
106,24,320,1,2,0:0:0:0:
112,38,897,1,2,0:0:0:0:
97,46,1474,1,2,0:0:0:0:
91,32,2051,1,2,0:0:0:0:
23,153,2339,5,6,3:0:0:0:
170,96,2628,1,2,0:0:0:0:
176,111,3205,1,2,0:0:0:0:
34,167,3493,6,0,B|50:198|50:198|50:211|50:211|78:277,1,72,6|0,3:0|0:0,0:0:0:0:
150,44,3781,2,0,B|166:75|166:75|166:88|166:88|194:154,1,72,6|0,3:0|0:0,0:0:0:0:
339,205,4070,6,0,B|337:153|294:133|249:141|249:141|230:190|174:187,1,175.499991966248,10|0,0:0|3:0,0:0:0:0:
132,200,4358,5,8,2:0:0:0:
146,238,4431,1,8,2:0:0:0:
161,276,4503,1,8,2:0:0:0:
176,314,4576,1,8,2:0:0:0:
190,352,4648,5,6,3:0:0:0:
299,305,4935,1,2,0:0:0:0:
305,319,5512,1,2,0:0:0:0:
290,327,6089,1,2,0:0:0:0:
284,313,6666,1,2,0:0:0:0:
429,360,6955,5,6,3:0:0:0:
399,215,7243,1,2,0:0:0:0:
399,215,7676,1,0,3:0:0:0:
399,215,7748,1,0,3:0:0:0:
399,215,7820,5,10,0:0:0:0:
276,193,8108,1,6,3:0:0:0:
165,120,8397,1,6,3:0:0:0:
37,98,8685,6,0,L|75:106,2,36,8|0|2,0:0|0:0|2:3,0:0:0:0:
65,383,9262,5,14,0:0:0:0:
76,236,9406,1,8,0:0:0:0:
243,306,9551,1,8,0:0:0:0:
217,153,9695,1,8,0:0:0:0:
462,272,9839,5,8,0:0:0:0:
306,229,9983,1,8,0:0:0:0:
489,249,10128,1,8,0:0:0:0:
284,256,10272,1,8,0:0:0:0:
418,95,10416,6,0,P|463:130|467:200,1,107.999996704102,14|8,0:0|0:0,0:0:0:0:
285,316,10705,2,0,P|239:280|235:210,1,107.999996704102,8|8,0:0|0:0,0:0:0:0:
462,272,10993,2,0,P|426:317|356:321,1,107.999996704102,8|8,0:0|0:0,0:0:0:0:
241,139,11281,2,0,P|276:93|346:89,1,107.999996704102,8|8,0:0|0:0,0:0:0:0:
118,222,11570,5,14,0:3:0:0:
320,180,11714,1,8,0:0:0:0:
114,31,11858,1,8,0:0:0:0:
371,61,12003,1,8,0:0:0:0:
223,299,12147,5,8,0:0:0:0:
488,222,12291,1,8,0:0:0:0:
197,273,12435,1,8,0:0:0:0:
512,250,12580,1,8,0:0:0:0:
235,150,12724,6,0,B|217:78|217:78|235:23,1,107.999996704102,14|0,0:0|3:0,0:0:0:0:
440,280,13012,2,0,B|422:352|422:352|440:407,1,107.999996704102,14|0,0:0|3:0,0:0:0:0:
209,379,13301,1,8,0:0:0:0:
185,347,13373,1,8,0:0:0:0:
179,307,13445,1,0,3:0:0:0:
192,269,13517,1,0,3:0:0:0:
221,240,13589,6,0,L|364:279,1,121.499996292114,14|0,0:0|3:0,0:0:0:0:
357,247,13878,5,14,0:3:0:0:
237,127,14022,1,0,3:0:0:0:
118,244,14166,5,10,0:0:0:0:
313,171,14310,1,0,3:0:0:0:
132,28,14455,5,10,0:0:0:0:
241,223,14599,1,0,3:0:0:0:
241,223,14671,1,0,3:0:0:0:
241,223,14743,1,10,0:0:0:0:
312,80,14887,1,0,3:0:0:0:
47,86,15031,5,14,0:3:0:0:
313,171,15176,1,0,3:0:0:0:
313,171,15248,1,0,3:0:0:0:
313,171,15320,1,10,0:0:0:0:
235,32,15464,1,0,3:0:0:0:
118,244,15608,6,0,B|71:237|71:237|56:226|56:226|-4:217,1,107.999996704102,10|0,0:0|3:0,0:0:0:0:
321,378,15897,2,0,B|367:371|367:371|383:360|383:360|443:351,1,107.999996704102,10|0,0:0|3:0,0:0:0:0:
128,108,16185,5,8,0:0:0:0:
98,135,16257,1,8,0:0:0:0:
88,173,16329,1,8,0:0:0:0:
93,213,16401,1,8,0:0:0:0:
118,244,16474,2,0,P|154:253|184:244,1,53.9999983520508,0|0,3:0|3:0,0:0:0:0:
348,242,16618,5,8,0:0:0:0:
377,214,16690,1,8,0:0:0:0:
389,176,16762,1,8,0:0:0:0:
382,136,16834,1,8,0:0:0:0:
357,105,16907,2,0,P|321:96|291:105,1,53.9999983520508,0|0,3:0|3:0,0:0:0:0:
262,300,17051,6,0,B|252:325|252:325|262:365,3,53.9999983520508,8|8|0|0,0:0|0:0|3:0|3:0,0:0:0:0:
205,160,17339,1,0,0:0:0:0:
219,160,17411,2,0,B|229:135|229:135|218:94,2,53.9999983520508,0|0|0,0:0|3:0|3:0,0:0:0:0:
141,296,17628,5,8,0:0:0:0:
168,291,17700,1,8,0:0:0:0:
195,287,17772,1,0,3:0:0:0:
222,283,17844,1,0,3:0:0:0:
262,300,17916,5,8,0:0:0:0:
294,295,17988,1,0,0:0:0:0:
326,291,18060,1,0,0:0:0:0:
358,286,18132,1,0,3:0:0:0:
397,309,18205,5,14,0:0:0:0:
54,90,18493,5,6,0:3:0:0:
54,90,18637,2,0,L|31:212,1,90,2|0,3:0|0:0,0:0:0:0:
37,178,18926,1,0,3:0:0:0:
73,3,19070,1,10,0:0:0:0:
29,271,19358,5,0,3:0:0:0:
42,275,19431,1,0,3:0:0:0:
54,278,19503,1,0,3:0:0:0:
67,281,19575,1,0,3:0:0:0:
80,284,19647,1,2,3:2:0:0:
198,31,19935,1,0,3:0:0:0:
185,29,20008,1,0,3:0:0:0:
173,26,20080,1,0,3:0:0:0:
160,23,20152,1,0,3:0:0:0:
136,46,20224,6,0,B|188:53|188:53|216:66|216:66|266:75,2,135,10|0|0,0:0|3:0|3:0,0:0:0:0:
266,75,20801,5,2,0:0:0:0:
345,131,20945,1,0,3:0:0:0:
345,131,21089,2,0,P|361:96|343:31,1,90,0|0,3:0|0:0,0:0:0:0:
257,170,21378,1,10,0:0:0:0:
483,271,21666,5,0,3:0:0:0:
470,275,21739,1,0,3:0:0:0:
458,278,21811,1,0,3:0:0:0:
445,281,21883,1,0,3:0:0:0:
432,284,21955,1,2,3:2:0:0:
206,158,22243,1,0,3:0:0:0:
219,161,22316,1,0,3:0:0:0:
231,164,22388,1,0,3:0:0:0:
244,167,22460,1,0,3:0:0:0:
257,170,22531,6,0,B|262:96|262:96|230:127,1,107.999996704102,10|0,0:0|0:0,0:0:0:0:
257,253,22820,1,10,0:0:0:0:
96,56,23108,5,6,0:3:0:0:
96,56,23253,2,0,L|202:38,1,90,2|0,3:0|0:0,0:0:0:0:
184,40,23541,1,0,3:0:0:0:
7,68,23685,1,10,0:0:0:0:
265,99,23974,5,0,3:0:0:0:
278,101,24046,1,0,3:0:0:0:
291,104,24118,1,0,3:0:0:0:
304,107,24190,1,0,3:0:0:0:
316,110,24262,1,2,3:2:0:0:
471,27,24551,1,0,3:0:0:0:
458,29,24623,1,0,3:0:0:0:
445,32,24695,1,0,3:0:0:0:
432,35,24767,1,0,3:0:0:0:
410,24,24839,6,0,B|369:33|369:33|366:99|417:118,2,135,10|0|0,0:0|3:0|3:0,0:0:0:0:
493,110,25416,5,2,0:0:0:0:
462,197,25560,1,0,3:0:0:0:
462,197,25705,2,0,L|479:305,1,90,0|0,3:0|0:0,0:0:0:0:
493,110,25993,1,10,0:0:0:0:
297,338,26281,5,0,3:0:0:0:
295,324,26354,1,0,3:0:0:0:
293,310,26426,1,0,3:0:0:0:
291,296,26498,1,0,3:0:0:0:
289,282,26570,1,2,3:0:0:0:
107,140,26858,1,0,3:0:0:0:
109,126,26931,1,0,3:0:0:0:
111,112,27003,1,0,3:0:0:0:
113,98,27075,1,0,3:0:0:0:
87,70,27147,6,0,B|100:51|122:41|122:41|160:67|160:67|196:46|263:86,1,161.999995056153,8|0,0:0|3:0,0:0:0:0:
309,33,27435,1,8,0:0:0:0:
289,282,27724,5,0,3:0:0:0:
307,125,28012,6,0,B|325:138|333:179|321:211|321:211|278:234|290:301,1,175.499991966248,14|0,0:3|0:0,0:0:0:0:
376,280,28301,6,0,L|465:274,1,90,2|0,3:0|3:0,0:0:0:0:
269,368,28589,2,0,P|216:333|212:277,1,90,10|0,0:3|0:0,0:0:0:0:
384,269,28878,6,0,L|473:263,1,90,2|0,3:0|3:0,0:0:0:0:
258,376,29166,2,0,P|205:341|201:285,1,90,10|0,0:3|0:0,0:0:0:0:
392,256,29455,6,0,L|481:250,1,90,2|0,3:0|3:0,0:0:0:0:
247,384,29743,2,0,P|194:349|190:293,1,90,10|0,0:3|0:0,0:0:0:0:
203,143,30031,5,2,3:0:0:0:
203,143,30176,1,0,3:0:0:0:
21,150,30320,2,0,B|33:103|33:103|95:109,1,90,10|0,0:3|0:0,0:0:0:0:
6,267,30608,5,2,3:0:0:0:
6,267,30753,1,0,3:0:0:0:
189,261,30897,2,0,B|176:309|176:309|115:298,1,90,10|0,0:3|0:0,0:0:0:0:
113,132,31185,5,0,3:0:0:0:
123,100,31257,1,0,3:0:0:0:
145,74,31329,1,0,3:0:0:0:
175,60,31401,1,0,3:0:0:0:
209,59,31473,1,10,0:0:0:0:
285,334,31762,5,0,3:0:0:0:
275,302,31834,1,0,3:0:0:0:
253,276,31906,1,0,3:0:0:0:
223,262,31978,1,0,3:0:0:0:
179,267,32051,5,8,2:0:0:0:
223,262,32123,1,8,2:0:0:0:
267,256,32195,1,8,2:0:0:0:
312,252,32267,1,8,2:0:0:0:
356,247,32339,6,0,B|361:272|361:272|341:305,3,45,6|0|0|0,3:0|3:0|3:0|3:0,0:0:0:0:
252,154,32628,2,0,B|226:159|226:159|193:139,3,45,10|0|0|0,3:0|3:0|3:0|3:0,0:0:0:0:
345,49,32916,2,0,B|339:23|339:23|359:-9,3,45,0|0|0|0,3:0|3:0|3:0|3:0,0:0:0:0:
450,142,33205,2,0,B|475:136|475:136|508:156,3,45,10|0|0|0,3:0|3:0|3:0|3:0,0:0:0:0:
345,163,33493,5,0,3:0:0:0:
327,165,33565,1,0,3:0:0:0:
310,171,33637,1,0,3:0:0:0:
295,180,33709,1,0,3:0:0:0:
282,193,33781,1,10,3:0:0:0:
273,208,33853,1,0,3:0:0:0:
267,225,33925,1,0,3:0:0:0:
265,243,33997,1,0,3:0:0:0:
266,258,34070,6,0,L|258:321,3,45,0|0|0|0,3:0|3:0|3:0|3:0,0:0:0:0:
157,254,34358,2,0,L|152:299,3,45,10|0|0|0,3:0|3:0|3:0|3:0,0:0:0:0:
68,178,34647,6,0,L|63:133,3,45,6|0|0|0,3:0|3:0|3:0|3:0,0:0:0:0:
137,31,34935,1,10,3:0:0:0:
167,16,35007,1,0,3:0:0:0:
199,13,35079,1,0,3:0:0:0:
232,19,35151,1,0,3:0:0:0:
261,36,35223,1,2,3:0:0:0:
282,60,35295,1,0,3:0:0:0:
298,89,35367,1,0,3:0:0:0:
304,121,35439,1,0,3:0:0:0:
301,153,35512,6,0,B|368:135|368:135|428:141|428:141|482:126,1,180,0|2,3:0|3:0,0:0:0:0:
137,31,36089,1,14,0:2:0:0:
117,215,36378,5,10,0:0:0:0:
140,127,36522,1,0,0:0:0:0:
202,240,36666,2,0,L|189:289,3,45,8|8|8|8,2:0|2:0|2:0|2:0,0:0:0:0:
209,261,36955,6,0,B|276:284|276:284|415:244,1,198.000006042481,6|2,3:0|0:0,0:0:0:0:
444,341,37387,1,0,3:0:0:0:
444,341,37459,1,0,3:0:0:0:
444,341,37531,2,0,P|457:269|373:265,2,148.50000453186,10|0|0,0:0|0:0|3:0,0:0:0:0:
397,248,38108,1,2,0:0:0:0:
342,323,38253,1,0,3:0:0:0:
342,323,38397,1,2,3:0:0:0:
481,77,38685,6,0,B|449:102|399:81|426:74|379:44|322:83,1,148.50000453186,10|0,0:0|0:0,0:0:0:0:
314,105,38974,2,0,L|324:-6,1,99.0000030212403,2|0,3:0|0:0,0:0:0:0:
446,4,39262,1,6,3:0:0:0:
83,33,39695,1,0,3:0:0:0:
83,33,39767,1,0,3:0:0:0:
83,33,39839,6,0,B|151:42|151:42|160:29|160:29|245:38,2,148.50000453186,10|0|0,0:0|0:0|3:0,0:0:0:0:
33,117,40416,1,2,0:0:0:0:
50,211,40560,1,0,3:0:0:0:
50,211,40632,1,0,3:0:0:0:
50,211,40705,1,2,3:0:0:0:
304,244,40993,5,10,0:0:0:0:
177,228,41137,1,0,3:0:0:0:
50,211,41281,1,10,0:0:0:0:
348,336,41570,6,0,P|401:287|369:162,1,198.000006042481,6|2,3:0|0:0,0:0:0:0:
324,90,42003,1,0,3:0:0:0:
324,90,42075,1,0,3:0:0:0:
324,90,42147,2,0,L|484:79,2,148.50000453186,10|0|0,0:0|0:0|3:0,0:0:0:0:
228,133,42724,1,2,0:0:0:0:
230,36,42868,1,0,3:0:0:0:
230,36,43012,1,2,3:0:0:0:
138,270,43301,6,0,B|112:252|112:223|112:223|130:117,1,148.50000453186,10|0,0:0|0:0,0:0:0:0:
127,132,43589,1,2,3:0:0:0:
126,36,43733,1,0,0:0:0:0:
59,252,43878,6,0,B|79:201|105:181|152:176|186:191|212:218|221:263|221:263|279:244|319:278,1,323.999990112305,6|0,3:0|3:0,0:0:0:0:
260,349,44382,1,0,3:0:0:0:
260,349,44455,2,0,L|149:335,1,90,10|0,0:0|3:0,0:0:0:0:
383,228,44743,6,0,B|375:258|396:293|396:293|449:247|448:188|401:120,1,215.999993408203,10|2,0:0|0:0,0:0:0:0:
237,136,45176,1,0,3:0:0:0:
237,136,45248,1,0,3:0:0:0:
237,136,45320,1,10,0:0:0:0:
398,49,45464,1,0,3:0:0:0:
423,159,45608,5,8,0:0:0:0:
387,137,45680,1,0,0:0:0:0:
346,126,45752,1,0,0:0:0:0:
318,95,45824,1,0,3:0:0:0:
283,75,45896,1,10,0:0:0:0:
158,275,46185,6,0,B|135:208|135:208|175:69,1,198.000006042481,6|2,3:0|0:0,0:0:0:0:
78,40,46617,1,0,3:0:0:0:
78,40,46689,1,0,3:0:0:0:
78,40,46762,2,0,P|146:28|154:111,2,148.50000453186,10|0|0,0:0|0:0|3:0,0:0:0:0:
9,116,47338,1,2,0:0:0:0:
33,215,47483,1,0,3:0:0:0:
33,215,47627,1,2,3:0:0:0:
294,209,47915,6,0,B|269:241|290:291|297:264|327:311|288:368,1,148.50000453186,10|0,0:0|0:0,0:0:0:0:
266,376,48204,2,0,L|377:366,1,99.0000030212403,2|0,3:0|0:0,0:0:0:0:
434,304,48492,1,6,3:0:0:0:
318,34,48925,1,0,3:0:0:0:
318,34,48997,1,0,3:0:0:0:
318,34,49070,6,0,B|386:43|386:43|395:30|395:30|476:39,2,148.50000453186,10|0|0,0:0|0:0|3:0,0:0:0:0:
209,2,49646,1,2,0:0:0:0:
226,96,49790,1,0,3:0:0:0:
226,96,49862,1,0,3:0:0:0:
226,96,49935,1,2,3:0:0:0:
259,350,50223,5,10,0:0:0:0:
287,218,50367,1,0,3:0:0:0:
226,96,50511,1,10,0:0:0:0:
95,316,50800,6,0,P|144:369|269:337,1,198.000006042481,6|2,3:0|0:0,0:0:0:0:
192,267,51233,1,0,3:0:0:0:
192,267,51305,1,0,3:0:0:0:
192,267,51377,2,0,L|181:107,2,148.50000453186,10|0|0,0:0|0:0|0:0,0:0:0:0:
295,224,51954,1,2,0:0:0:0:
407,335,52099,1,0,3:0:0:0:
407,335,52171,1,0,3:0:0:0:
407,335,52243,1,10,0:0:0:0:
296,331,52387,1,0,3:0:0:0:
366,162,52531,5,8,0:0:0:0:
333,138,52604,1,0,0:0:0:0:
294,130,52676,1,0,0:0:0:0:
256,141,52748,1,0,3:0:0:0:
223,164,52820,1,10,0:0:0:0:
103,327,52964,1,0,3:0:0:0:
19,113,53108,5,6,3:0:0:0:
19,113,53253,1,0,3:0:0:0:
204,246,53397,6,0,L|195:380,1,116.999994644165,14|0,0:0|3:0,0:0:0:0:
19,113,53685,2,0,L|26:229,1,116.999994644165,10|0,0:0|3:0,0:0:0:0:
75,305,53902,1,0,3:0:0:0:
76,327,53974,5,10,0:0:0:0:
223,153,54118,1,10,0:0:0:0:
116,104,54262,6,0,B|101:100|82:111|82:111|60:95|60:95|36:99|9:120,1,108,2|0,3:0|0:0,0:0:0:0:
18,112,54551,5,2,3:0:0:0:
18,112,54695,1,2,3:0:0:0:
170,232,54839,6,0,P|220:250|295:203,1,116.999994644165,14|0,0:0|3:0,0:0:0:0:
300,71,55056,1,0,3:0:0:0:
279,80,55128,2,0,P|229:62|154:109,1,116.999994644165,10|0,0:0|0:0,0:0:0:0:
365,256,55416,5,6,3:0:0:0:
365,256,55560,1,2,3:0:0:0:
487,130,55705,5,0,0:0:0:0:
503,142,55801,2,0,L|495:223,1,77.9999964294435
399,296,55993,6,0,L|406:218,2,77.9999964294435
323,378,56281,5,6,3:0:0:0:
323,378,56426,1,2,3:0:0:0:
120,271,56570,6,0,L|97:110,1,116.999994644165,10|0,0:0|3:0,0:0:0:0:
308,11,56858,2,0,B|297:64|297:64|299:99|299:99|284:186,1,135.000005149842,10|0,0:0|3:0,0:0:0:0:
217,196,57075,1,0,3:0:0:0:
214,222,57147,5,10,0:0:0:0:
14,88,57291,1,10,0:0:0:0:
108,31,57435,6,0,L|129:195,1,135,2|0,3:0|0:0,0:0:0:0:
120,271,57724,5,2,3:0:0:0:
120,271,57868,1,2,3:0:0:0:
214,82,58012,6,0,P|275:58|349:82,1,116.999994644165,10|0,0:0|3:0,0:0:0:0:
425,182,58229,1,0,3:0:0:0:
415,198,58301,2,0,P|354:174|280:198,1,116.999994644165,10|0,0:0|3:0,0:0:0:0:
259,335,58589,5,8,0:0:0:0:
306,327,58685,1,8,0:0:0:0:
354,317,58781,1,8,0:0:0:0:
386,281,58878,5,0,0:0:0:0:
402,287,58974,2,0,B|416:332|416:332|397:375,1,77.9999964294435
503,272,59166,2,0,B|490:231|490:231|496:193,2,77.9999964294435
498,372,59455,5,10,0:0:0:0:
498,372,59599,1,0,3:0:0:0:
316,157,59743,5,8,0:0:0:0:
297,289,59887,1,0,3:0:0:0:
84,65,60031,2,0,L|114:243,1,125.999996154785,10|0,0:0|3:0,0:0:0:0:
385,258,60320,5,10,0:0:0:0:
115,288,60464,1,10,0:0:0:0:
407,127,60608,6,0,B|412:112|432:100|432:100|459:147|395:192|395:192|373:237|393:289,1,216,2|0,3:0|0:0,0:0:0:0:
306,367,60897,5,8,0:0:0:0:
265,366,60969,1,8,0:0:0:0:
231,342,61041,1,0,3:0:0:0:
217,303,61113,1,0,3:0:0:0:
222,262,61185,5,0,0:0:0:0:
200,269,61257,1,0,0:0:0:0:
177,275,61330,1,0,3:0:0:0:
155,283,61402,1,0,3:0:0:0:
131,278,61474,1,0,0:0:0:0:
109,285,61546,1,0,0:0:0:0:
86,291,61619,1,0,3:0:0:0:
64,299,61691,1,0,3:0:0:0:
42,291,61762,5,10,3:0:0:0:
0,138,61906,1,10,3:0:0:0:
209,176,62051,6,0,L|304:186,1,77.9999964294435,6|0,3:0|3:0,3:0:0:0:
149,60,62243,1,2,3:0:0:0:
126,47,62339,6,0,B|105:94|105:94|125:171,2,90.0000034332277,8|8|8,0:0|0:0|0:0,0:0:0:0:
276,73,62628,5,6,3:2:0:0:
276,73,62772,1,6,3:2:0:0:
365,256,62916,5,14,0:0:0:0:
421,92,63060,1,2,3:0:0:0:
256,280,63205,5,14,0:3:0:0:
440,347,63349,1,2,3:0:0:0:
283,177,63493,5,10,3:0:0:0:
283,177,63637,1,0,3:0:0:0:
91,331,63781,6,0,B|50:289|50:289|41:223|60:158|107:109,1,202.500007724762,10|0,0:0|0:0,0:0:0:0:
59,47,64070,5,10,0:0:0:0:
59,47,64214,1,0,3:0:0:0:
143,243,64358,5,14,0:0:0:0:
181,31,64503,2,0,L|167:111,1,58.4999973220826,0|0,3:0|3:0,0:0:0:0:
225,297,64647,5,14,0:0:0:0:
277,22,64791,2,0,L|263:102,1,58.4999973220826,0|0,3:0|3:0,3:0:0:0:
307,344,64935,6,0,P|352:331|404:330,2,77.9999964294435,6|0|0,3:2|0:0|0:0,0:0:0:0:
429,186,65224,2,0,P|395:153|368:108,2,77.9999964294435,4|0|0,3:2|0:0|0:0,0:0:0:0:
231,159,65512,2,0,P|219:204|194:250,2,77.9999964294435,4|0|0,3:2|0:0|0:0,0:0:0:0:
322,230,65801,5,6,3:0:0:0:
322,230,66089,1,6,3:0:0:0:
322,230,66378,1,6,3:0:0:0:
465,98,66666,5,12,0:0:0:0:
322,230,66955,5,6,3:0:0:0:
224,203,67099,1,0,3:0:0:0:
392,164,67243,2,0,P|417:209|395:283,1,90,10|0,0:0|0:0,0:0:0:0:
322,230,67531,1,2,3:0:0:0:
295,134,67676,1,0,3:0:0:0:
341,324,67820,2,0,P|296:325|257:304,1,90,10|0,0:0|0:0,0:0:0:0:
59,287,68108,5,2,3:0:0:0:
43,192,68253,1,0,3:0:0:0:
158,280,68397,2,0,L|143:398,1,90,10|0,0:0|0:0,0:0:0:0:
54,295,68685,1,2,3:0:0:0:
38,200,68830,1,0,3:0:0:0:
153,288,68974,2,0,L|138:406,1,90,10|0,0:0|0:0,0:0:0:0:
145,186,69262,5,6,3:0:0:0:
38,200,69406,1,0,3:0:0:0:
195,92,69551,2,0,L|309:111,1,90,10|0,0:0|0:0,0:0:0:0:
113,23,69839,2,0,L|-1:42,1,90,2|0,3:0|3:0,0:0:0:0:
243,186,70128,2,0,L|357:205,1,90,10|0,0:0|0:0,0:0:0:0:
488,107,70416,5,2,3:0:0:0:
354,116,70560,1,0,3:0:0:0:
505,224,70705,5,10,0:0:0:0:
331,200,70849,2,0,L|388:209,1,45,0|0,0:0|3:0,0:0:0:0:
502,353,70993,5,14,0:0:0:0:
319,285,71137,1,0,3:0:0:0:
502,353,71281,1,10,0:0:0:0:
144,349,71570,5,6,3:0:0:0:
210,279,71714,1,0,3:0:0:0:
52,327,71858,2,0,P|15:291|15:226,1,90,10|0,0:0|0:0,0:0:0:0:
82,88,72147,1,2,3:0:0:0:
16,158,72291,1,0,3:0:0:0:
174,110,72435,2,0,P|211:146|211:211,1,90,10|0,0:0|0:0,0:0:0:0:
416,194,72724,5,2,3:0:0:0:
325,146,72868,1,0,3:0:0:0:
492,132,73012,2,0,L|504:27,1,90,10|0,0:0|0:0,0:0:0:0:
411,197,73301,1,2,3:0:0:0:
320,149,73445,1,0,3:0:0:0:
487,135,73589,2,0,L|499:30,1,90,10|0,0:0|0:0,0:0:0:0:
317,152,73878,5,6,3:0:0:0:
321,257,74022,1,0,3:0:0:0:
129,122,74166,2,0,P|189:96|252:116,1,99.0000030212403,10|0,0:0|0:0,0:0:0:0:
321,257,74455,2,0,P|261:231|194:252,1,107.999996704102,2|0,3:0|3:0,0:0:0:0:
24,79,74743,6,0,L|50:234,1,125.999996154785,10|0,0:0|0:0,0:0:0:0:
34,316,74959,1,0,3:0:0:0:
39,332,75031,5,10,0:0:0:0:
250,321,75176,1,0,0:0:0:0:
257,342,75248,1,0,3:0:0:0:
263,364,75320,1,10,0:0:0:0:
467,321,75464,1,0,0:0:0:0:
476,351,75536,1,0,3:0:0:0:
484,380,75608,1,10,0:0:0:0:
484,380,75897,6,0,B|452:355|442:318|459:283|459:283|498:260|500:218|479:186,1,188.999994232178,10|0,0:0|0:0,0:0:0:0:
492,121,76185,5,6,3:0:0:0:
407,76,76330,1,0,3:0:0:0:
407,76,76618,1,0,3:0:0:0:
217,129,76762,1,14,0:0:0:0:
217,129,77051,1,2,3:0:0:0:
298,68,77195,1,0,3:0:0:0:
298,68,77483,1,0,3:0:0:0:
313,170,77628,1,0,3:0:0:0:
16,20,77916,1,10,0:0:0:0:
34,116,78060,1,0,3:0:0:0:
34,116,78349,1,0,3:0:0:0:
17,215,78493,5,6,3:2:0:0:
17,215,78781,1,0,3:0:0:0:
123,188,78926,1,0,3:0:0:0:
268,318,79070,5,10,0:0:0:0:
157,296,79214,1,0,3:0:0:0:
237,204,79358,1,0,3:0:0:0:
237,204,79647,5,6,3:2:0:0:
352,222,79791,1,0,3:0:0:0:
475,27,80080,1,0,3:0:0:0:
475,27,80152,1,0,3:0:0:0:
475,27,80224,1,10,0:0:0:0:
450,159,80368,1,0,3:0:0:0:
316,122,80512,1,6,0:2:0:0:
475,27,80656,1,8,0:0:0:0:
343,0,80801,5,6,3:0:0:0:
238,36,80945,1,0,3:0:0:0:
238,36,81233,1,0,3:0:0:0:
45,89,81378,1,14,0:0:0:0:
45,89,81666,1,2,3:0:0:0:
139,62,81810,1,0,3:0:0:0:
139,62,82099,5,0,3:0:0:0:
119,161,82243,1,0,3:0:0:0:
225,360,82531,1,10,0:0:0:0:
270,264,82676,1,0,3:0:0:0:
270,264,82964,1,0,3:0:0:0:
229,170,83108,5,6,3:2:0:0:
229,170,83397,1,0,3:0:0:0:
333,184,83541,1,0,3:0:0:0:
497,99,83685,5,10,0:0:0:0:
402,109,83830,1,0,3:0:0:0:
392,274,83974,6,0,L|402:376,1,80.9999975280763,0|0,3:0|0:0,0:0:0:0:
399,354,84262,1,6,3:2:0:0:
302,346,84406,2,0,L|229:362,1,53.9999983520508,0|0,3:0|0:0,0:0:0:0:
53,352,84695,1,0,3:0:0:0:
53,352,84767,1,0,3:0:0:0:
53,352,84839,5,10,0:0:0:0:
153,310,84983,2,0,L|147:361,1,26.9999991760254,0|0,3:0|3:0,0:0:0:0:
26,217,85128,5,8,0:0:0:0:
44,212,85200,1,8,0:0:0:0:
62,207,85272,1,8,0:0:0:0:
80,201,85344,1,8,0:0:0:0:
97,196,85416,1,6,0:0:0:0:
452,40,90870,5,10,0:0:0:0:
452,40,91234,6,0,L|442:243,1,180,6|0,3:0|0:0,0:0:0:0:
443,219,91961,1,2,0:0:0:0:
381,279,92688,1,2,0:0:0:0:
295,270,93416,1,2,0:0:0:0:
111,140,94143,5,2,0:0:0:0:
191,93,94870,1,2,0:0:0:0:
58,64,95052,2,0,L|8:48,2,30,0|0|0,3:0|3:0|3:0,3:0:0:0:
58,64,95234,6,0,L|41:245,1,180,14|6,0:2|3:2,0:0:0:0:
41,243,95961,1,6,3:2:0:0:
426,367,96325,6,0,P|357:360|327:308,1,107.999996704102,10|0,0:0|3:0,0:0:0:0:
251,311,96567,1,0,3:0:0:0:
251,311,96628,1,0,3:0:0:0:
251,311,96688,2,0,L|268:120,1,161.999995056153,10|0,0:0|0:0,0:0:0:0:
293,196,97052,6,0,P|360:198|405:131,1,135,6|0,3:0|0:0,0:0:0:0:
475,131,97416,2,0,P|408:133|363:66,1,135,2|0,3:0|0:0,0:0:0:0:
291,50,97779,5,10,0:0:0:0:
290,56,98143,2,0,L|169:35,1,108,2|0,3:0|0:0,0:0:0:0:
109,10,98506,6,0,P|147:61|125:153,1,135,2|0,3:0|0:0,0:0:0:0:
58,117,98870,2,0,P|20:168|42:260,1,135,2|0,3:0|0:0,0:0:0:0:
95,297,99234,5,10,0:0:0:0:
95,297,99597,2,0,L|107:176,1,108,2|0,3:0|0:0,0:0:0:0:
148,235,99961,6,0,L|329:223,1,148.50000453186,6|0,3:0|0:0,0:0:0:0:
303,305,100325,2,0,L|477:296,1,148.50000453186,6|0,3:0|0:0,0:0:0:0:
481,220,100688,5,10,0:0:0:0:
327,144,100870,1,0,3:0:0:0:
324,116,100961,1,0,3:0:0:0:
321,89,101052,1,10,0:0:0:0:
490,86,101234,1,0,3:0:0:0:
489,94,101325,1,0,3:0:0:0:
488,101,101416,5,6,3:0:0:0:
420,157,101779,1,6,3:0:0:0:
152,10,102143,6,0,B|94:-13|26:21|23:98|51:119|87:130|102:189|57:242|1:229,1,315,14|0,0:0|0:0,0:0:0:0:
43,320,102870,5,6,3:0:0:0:
64,318,102961,1,0,3:0:0:0:
86,314,103052,2,0,L|133:306,1,45,0|0,3:0|3:0,0:0:0:0:
155,217,103234,1,2,3:0:0:0:
176,219,103325,1,0,3:0:0:0:
198,223,103416,2,0,L|245:231,1,45,0|0,3:0|3:0,0:0:0:0:
338,379,103597,5,10,0:0:0:0:
338,379,103961,2,0,P|311:335|331:272,1,108,2|0,3:0|0:0,0:0:0:0:
312,185,104325,6,0,L|483:162,1,135,2|0,3:0|0:0,0:0:0:0:
391,133,104688,2,0,L|220:110,1,135,2|0,3:0|0:0,0:0:0:0:
348,49,105052,5,10,0:0:0:0:
312,185,105234,1,0,3:0:0:0:
251,25,105416,6,0,L|257:126,1,90,10|0,0:0|3:0,0:0:0:0:
239,129,105688,1,0,3:0:0:0:
225,144,105779,6,0,P|117:123|104:59,1,148.50000453186,6|0,3:0|0:0,0:0:0:0:
62,33,106143,2,0,P|97:137|48:180,1,148.50000453186,2|0,3:0|0:0,0:0:0:0:
20,220,106506,5,10,0:0:0:0:
139,371,106688,1,0,3:0:0:0:
166,370,106779,1,0,3:0:0:0:
193,368,106870,1,10,0:0:0:0:
82,301,107052,1,0,3:0:0:0:
72,302,107143,1,0,3:0:0:0:
61,305,107234,5,14,0:0:0:0:
254,294,107416,1,0,3:0:0:0:
292,288,107506,1,0,3:0:0:0:
326,282,107597,6,0,L|330:229,3,30,8|0|0|0,0:0|0:0|3:0|3:0,0:0:0:0:
430,350,107961,6,0,B|490:329|519:258|485:193|457:168|390:159|390:159|425:133|425:92,1,315,14|0,0:0|0:0,0:0:0:0:
336,81,108688,6,0,P|276:75|210:62,1,90,6|0,3:0|0:0,0:0:0:0:
172,149,109052,2,0,P|103:155|46:168,1,90,2|0,0:0|0:0,0:0:0:0:
7,7,109416,2,0,P|6:56|21:114,1,90,10|0,0:0|0:0,0:0:0:0:
82,158,109779,2,0,P|83:207|68:265,1,90,2|0,3:0|0:0,0:0:0:0:
23,329,110143,5,2,3:0:0:0:
114,356,110506,1,2,3:0:0:0:
295,328,110870,1,10,0:0:0:0:
204,301,111233,1,2,3:0:0:0:
480,323,111597,6,0,P|421:354|390:290,1,148.50000453186,6|0,3:0|0:0,0:0:0:0:
471,326,111961,2,0,P|412:357|381:293,1,148.50000453186,6|0,3:0|0:0,0:0:0:0:
310,239,112325,5,10,0:0:0:0:
452,139,112506,1,0,3:0:0:0:
485,137,112597,1,0,3:0:0:0:
509,161,112688,1,10,0:0:0:0:
348,63,112870,1,0,3:0:0:0:
329,58,112961,1,0,3:0:0:0:
311,65,113052,5,6,3:0:0:0:
357,152,113416,1,6,3:0:0:0:
61,100,113779,6,0,B|22:85|9:45|12:-12|107:-33|151:22|123:45|100:80|145:124|212:120|247:84,1,315,14|0,0:0|0:0,0:0:0:0:
311,65,114506,5,6,3:0:0:0:
341,71,114597,1,0,3:0:0:0:
362,94,114688,1,0,3:0:0:0:
372,123,114779,1,0,3:0:0:0:
368,154,114870,1,2,3:0:0:0:
368,185,114961,1,0,3:0:0:0:
380,213,115052,1,0,3:0:0:0:
405,231,115143,1,0,3:0:0:0:
451,220,115234,5,10,0:0:0:0:
435,313,115597,1,2,3:0:0:0:
257,317,115961,5,2,3:0:0:0:
346,358,116325,1,2,3:0:0:0:
160,318,116688,1,10,0:0:0:0:
177,190,116870,1,0,3:0:0:0:
70,361,117052,1,10,0:0:0:0:
24,216,117234,1,0,3:0:0:0:
26,221,117325,1,0,3:0:0:0:
28,226,117416,6,0,L|202:218,1,148.50000453186,6|0,3:0|0:0,0:0:0:0:
34,214,117779,2,0,L|208:206,1,148.50000453186,6|0,3:0|0:0,0:0:0:0:
261,164,118143,5,10,0:0:0:0:
122,114,118325,1,0,3:0:0:0:
94,93,118416,1,0,3:0:0:0:
83,63,118506,1,10,0:0:0:0:
229,116,118688,1,0,3:0:0:0:
254,134,118779,1,0,3:0:0:0:
261,164,118870,5,6,3:0:0:0:
405,129,119052,1,0,3:0:0:0:
497,240,119234,6,0,L|493:297,4,30,8|0|0|0|0,0:0|0:0|0:0|3:0|3:0,0:0:0:0:
337,289,119597,6,0,L|348:355,3,35.9999989013672,8|8|8|0,0:0|0:0|0:0|3:0,0:0:0:0:
166,326,119961,5,8,0:0:0:0:
168,280,120052,1,8,0:0:0:0:
170,232,120143,1,8,0:0:0:0:
172,185,120234,1,8,0:0:0:0:
167,137,120325,5,14,0:0:0:0:
57,45,131597,5,6,0:2:0:0:
57,45,131961,6,0,P|155:50|237:192,1,270,4|0,3:2|0:0,0:0:0:0:
170,247,133325,1,0,0:0:0:0:
177,250,133416,6,0,B|264:228|264:228|322:233,2,135,2|2|4,0:2|3:0|2:0,0:0:0:0:
84,209,134688,1,0,0:0:0:0:
71,203,134779,1,0,0:0:0:0:
58,198,134870,6,0,L|68:302,1,90
417,359,136143,5,2,2:0:0:0:
417,359,136234,1,2,2:0:0:0:
417,359,136325,6,0,L|429:168,1,180,2|4,0:2|0:2,0:0:0:0:
428,177,137416,2,0,L|431:126,1,45,2|0,2:0|0:0,0:0:0:0:
474,53,137779,6,0,B|406:92|332:121|273:53|317:-14|366:-13|390:6,1,270,4|0,0:2|0:0,0:0:0:0:
245,74,139143,1,0,0:0:0:0:
238,64,139234,6,0,L|134:73,1,90,2|0,0:2|0:0,0:0:0:0:
70,32,139779,1,2,0:0:0:0:
28,271,140325,1,2,0:2:0:0:
92,220,140506,1,0,0:0:0:0:
101,225,140597,1,0,0:0:0:0:
109,229,140688,6,0,L|117:337,1,90,8|0,0:0|0:0,0:0:0:0:
256,192,141143,12,10,143234,0:0:0:0:
185,138,143597,5,6,3:0:0:0:
185,138,144325,2,0,L|327:127,1,135,10|0,0:0|0:0,0:0:0:0:
407,69,145052,6,0,P|365:125|380:203,1,135,6|0,3:0|3:0,0:0:0:0:
385,193,145688,1,0,3:0:0:0:
403,192,145779,5,10,0:0:0:0:
467,248,145961,2,0,L|460:350,1,90,0|0,3:0|0:0,0:0:0:0:
376,377,146506,6,0,P|316:346|239:363,1,135,6|0,3:0|3:0,0:0:0:0:
232,356,147143,1,0,3:0:0:0:
219,348,147234,5,10,0:0:0:0:
86,348,147506,1,2,0:0:0:0:
219,348,147779,1,0,3:0:0:0:
158,275,147961,6,0,L|166:217,1,45,2|0,0:0|3:0,0:0:0:0:
112,165,148325,1,2,3:0:0:0:
112,165,148688,5,10,0:0:0:0:
254,142,148870,1,2,3:0:0:0:
80,70,149052,5,10,0:0:0:0:
348,115,149416,6,0,B|398:97|398:97|493:123,1,135,6|0,3:0|3:0,0:0:0:0:
477,131,150052,1,0,3:0:0:0:
476,146,150143,5,10,0:0:0:0:
457,11,150416,1,2,0:0:0:0:
476,146,150688,1,0,3:0:0:0:
417,206,150870,6,0,L|423:258,2,45,6|0|6,0:2|3:0|3:0,0:0:0:0:
417,206,151597,5,10,0:0:0:0:
335,310,151779,1,0,3:0:0:0:
322,336,151870,1,0,3:0:0:0:
319,363,151961,1,10,0:0:0:0:
407,365,152143,1,2,0:0:0:0:
233,340,152325,6,0,L|91:360,1,135,6|0,3:0|3:0,0:0:0:0:
87,346,152961,1,0,3:0:0:0:
77,328,153052,5,10,0:0:0:0:
23,218,153325,1,2,0:0:0:0:
88,103,153597,1,0,3:0:0:0:
117,193,153779,6,0,L|183:186,1,45,6|0,0:2|3:0,0:0:0:0:
238,240,154143,1,2,3:0:0:0:
249,252,154506,5,14,0:0:0:0:
249,252,154688,1,0,3:0:0:0:
249,252,154870,1,6,3:2:0:0:
249,252,155052,1,6,0:2:0:0:
318,201,155234,6,0,P|364:147|337:88,1,135,6|0,3:0|3:0,0:0:0:0:
327,84,155870,1,0,3:0:0:0:
311,75,155961,5,10,0:0:0:0:
450,55,156234,1,2,0:0:0:0:
311,75,156506,1,0,3:0:0:0:
230,25,156688,6,0,L|175:35,2,45,2|0|6,0:0|3:0|3:2,0:0:0:0:
230,25,157416,6,0,L|225:86,1,45,10|0,0:0|0:0,0:0:0:0:
152,110,157779,2,0,L|157:171,1,45,2|0,3:0|0:0,0:0:0:0:
217,224,158143,6,0,P|155:197|74:220,1,135,6|0,3:0|3:0,0:0:0:0:
84,229,158779,1,0,3:0:0:0:
79,247,158870,5,14,0:0:0:0:
96,374,159143,1,2,0:0:0:0:
79,247,159416,1,0,3:0:0:0:
163,298,159597,5,4,0:2:0:0:
241,333,159779,2,0,L|238:367,2,22.5,0|0|2,3:0|3:0|3:0,0:0:0:0:
241,333,160325,5,10,0:0:0:0:
290,179,160506,1,0,3:0:0:0:
328,362,160688,5,14,0:0:0:0:
354,114,161052,6,0,B|311:83|311:83|224:112,1,135,6|0,3:0|3:0,0:0:0:0:
221,95,161688,1,0,3:0:0:0:
209,84,161779,5,10,0:0:0:0:
92,37,162052,1,2,0:0:0:0:
4,126,162325,1,0,3:0:0:0:
21,214,162506,5,2,0:0:0:0:
86,159,162688,1,0,3:0:0:0:
86,159,162870,1,6,3:0:0:0:
86,159,163234,6,0,L|144:153,1,45,10|0,0:0|3:0,0:0:0:0:
154,127,163506,1,0,3:0:0:0:
154,127,163597,5,10,0:0:0:0:
226,172,163779,1,2,3:0:0:0:
283,331,163961,6,0,L|277:380,1,31.4999990386963,8|8,0:0|0:0,0:0:0:0:
390,295,164143,1,0,3:0:0:0:
390,295,164234,1,0,3:0:0:0:
399,314,164325,6,0,L|395:368,1,31.4999990386963,8|8,0:0|0:0,0:0:0:0:
321,203,164506,2,0,L|318:171,1,31.4999990386963,8|8,0:0|0:0,0:0:0:0:
461,119,164688,5,0,3:0:0:0:
461,119,164779,1,0,3:0:0:0:
477,142,164870,5,8,0:0:0:0:
436,137,164961,1,8,0:0:0:0:
396,133,165052,1,8,0:0:0:0:
354,127,165143,1,8,0:0:0:0:
354,127,165234,2,0,L|351:77,1,31.4999990386963,0|0,3:0|3:0,0:0:0:0:
229,17,165416,5,8,0:0:0:0:
196,42,165506,2,0,L|199:90,2,31.4999990386963,8|0|0,0:0|3:0|3:0,0:0:0:0:
192,169,165779,5,0,0:0:0:0:
172,166,165870,1,0,0:0:0:0:
152,165,165961,1,0,0:0:0:0:
132,163,166052,1,0,0:0:0:0:
110,144,166143,5,0,3:0:0:0:
94,146,166234,1,0,3:0:0:0:
78,147,166325,1,0,3:0:0:0:
62,148,166416,1,0,3:0:0:0:
32,126,166506,5,10,0:0:0:0:
54,360,166870,5,6,3:0:0:0:
54,360,167052,1,0,3:0:0:0:
54,360,167234,1,6,3:0:0:0:
128,321,167597,1,10,0:0:0:0:
202,382,167961,5,2,3:0:0:0:
202,382,168143,1,0,3:0:0:0:
202,382,168325,1,2,3:0:0:0:
273,333,168688,2,0,L|346:346,1,62.9999980773926,10|0,0:0|3:0,0:0:0:0:
365,321,168961,1,0,3:0:0:0:
365,321,169052,2,0,L|449:334,1,62.9999980773926,12|0,0:0|3:0,0:0:0:0:
316,246,169416,1,14,0:2:0:0:
458,24,169779,5,6,3:0:0:0:
458,24,169961,1,0,3:0:0:0:
458,24,170143,1,6,3:0:0:0:
384,63,170506,1,10,0:0:0:0:
310,2,170870,5,2,3:0:0:0:
310,2,171052,1,0,3:0:0:0:
310,2,171234,1,2,3:0:0:0:
239,51,171597,2,0,L|166:38,1,62.9999980773926,10|0,0:0|3:0,0:0:0:0:
147,63,171870,1,0,3:0:0:0:
147,63,171961,6,0,L|63:50,1,62.9999980773926,12|0,0:0|3:0,0:0:0:0:
196,138,172325,1,14,0:2:0:0:
20,189,172688,5,6,3:0:0:0:
20,189,172870,1,0,3:0:0:0:
20,189,173052,1,6,3:0:0:0:
105,190,173416,1,10,0:0:0:0:
198,193,173779,5,2,3:0:0:0:
198,193,173961,1,0,3:0:0:0:
198,193,174143,1,2,3:0:0:0:
285,195,174506,1,10,0:0:0:0:
370,196,174688,1,0,3:0:0:0:
378,196,174779,1,0,3:0:0:0:
384,196,174870,5,12,0:0:0:0:
473,199,175052,1,0,3:0:0:0:
383,289,175234,1,14,0:2:0:0:
469,197,175597,5,6,3:0:0:0:
469,197,175779,1,0,3:0:0:0:
469,197,175961,1,6,3:0:0:0:
384,196,176325,1,10,0:0:0:0:
291,193,176688,5,2,3:0:0:0:
291,193,176870,1,0,3:0:0:0:
291,193,177052,1,2,3:0:0:0:
204,191,177415,1,10,0:0:0:0:
119,190,177597,1,0,3:0:0:0:
111,190,177688,1,0,3:0:0:0:
105,190,177779,5,12,0:0:0:0:
16,187,177961,2,0,L|12:226,1,31.4999990386963,0|0,3:0|3:0,0:0:0:0:
15,314,178143,5,8,0:2:0:0:
39,313,178234,1,8,0:0:0:0:
66,315,178325,1,8,0:0:0:0:
91,315,178416,1,8,0:0:0:0:
115,337,178506,6,0,L|190:334,1,62.9999980773926,6|0,3:0|3:0,0:0:0:0:
177,334,178870,1,6,3:0:0:0:
270,342,179234,1,10,0:0:0:0:
425,337,179597,6,0,L|350:334,1,62.9999980773926,2|0,3:0|3:0,0:0:0:0:
362,334,179961,1,2,3:0:0:0:
270,342,180325,1,10,0:0:0:0:
242,266,180506,1,0,3:0:0:0:
242,266,180597,1,0,3:0:0:0:
242,266,180688,5,12,0:0:0:0:
301,203,180870,1,0,3:0:0:0:
270,342,181052,1,14,0:2:0:0:
115,47,181416,6,0,L|190:50,1,62.9999980773926,6|0,3:0|3:0,0:0:0:0:
177,49,181780,1,6,3:0:0:0:
270,42,182144,1,10,0:0:0:0:
425,47,182507,6,0,L|350:50,1,62.9999980773926,2|0,3:0|3:0,0:0:0:0:
362,50,182871,1,2,3:0:0:0:
270,42,183235,1,10,0:0:0:0:
218,113,183416,1,0,3:0:0:0:
216,122,183507,1,0,3:0:0:0:
214,130,183598,5,12,0:0:0:0:
279,183,183780,1,0,3:0:0:0:
270,42,183962,1,14,0:2:0:0:
279,183,184143,1,10,0:0:0:0:
365,149,184325,5,6,3:0:0:0:
365,149,184506,1,0,3:0:0:0:
365,149,184688,1,6,3:0:0:0:
438,195,185052,1,10,0:0:0:0:
437,297,185416,5,2,3:0:0:0:
437,297,185597,1,0,3:0:0:0:
437,297,185779,1,2,3:0:0:0:
364,343,186143,1,10,0:0:0:0:
288,303,186325,1,0,3:0:0:0:
279,301,186416,1,0,3:0:0:0:
270,300,186506,5,12,0:0:0:0:
207,244,186688,1,0,3:0:0:0:
351,245,186870,1,14,0:2:0:0:
147,149,187234,5,6,3:0:0:0:
147,149,187415,1,2,3:0:0:0:
21,107,187597,5,8,0:0:0:0:
21,107,187779,1,0,0:0:0:0:
147,149,187961,5,14,0:0:0:0:
130,18,188143,1,10,0:0:0:0:
130,18,188325,1,2,3:0:0:0:
130,18,188506,1,0,3:0:0:0:
256,65,188688,5,14,0:0:0:0:
348,31,188870,1,0,3:0:0:0:
361,36,188961,1,0,3:0:0:0:
383,24,189052,5,0,0:0:0:0:
388,51,189143,1,0,0:0:0:0:
393,78,189234,1,0,0:0:0:0:
397,105,189325,1,0,0:0:0:0:
420,120,189416,5,0,0:0:0:0:
419,141,189506,1,0,0:0:0:0:
417,163,189597,1,0,0:0:0:0:
415,184,189688,1,0,0:0:0:0:
424,204,189779,5,8,0:0:0:0:
389,200,189870,1,8,0:0:0:0:
354,196,189961,1,8,0:0:0:0:
319,192,190052,1,8,0:0:0:0:
289,209,190143,5,6,3:0:0:0:
256,192,190234,12,0,200234,0:0:0:0:
