osu file format v14

[General]
AudioFilename: audio.mp3
AudioLeadIn: 0
PreviewTime: 53375
Countdown: 0
SampleSet: Soft
StackLeniency: 0.7
Mode: 0
LetterboxInBreaks: 0
WidescreenStoryboard: 1

[Editor]
Bookmarks: 7235,13835,27035,40235,53435,66935,95735,102335,105635,115535,128735,132335,161135,173135,185135,199535,213935,221135,242735,257135,271535
DistanceSpacing: 1.6
BeatDivisor: 4
GridSize: 32
TimelineZoom: 1

[Metadata]
Title:Secret treasure
TitleUnicode:Secret treasure
Artist:Draw the Emotional
ArtistUnicode:Draw the Emotional
Creator:Shirahane Suou
Version:Extreme
Source:東方星蓮船 ~ Undefined Fantastic Object.
Tags:touhou project seirensen collapse of the sky ゆよゆっぺ yuyoyuppe japanese rock metal tomatas95 livermorium 魔界地方都市エソテリア rural makai city esoteria chihoutoshi toramaru shou 寅丸星 feat f9 kiyono きよの
BeatmapID:3669516
BeatmapSetID:1790780

[Difficulty]
HPDrainRate:5.5
CircleSize:4.5
OverallDifficulty:9.2
ApproachRate:9.5
SliderMultiplier:2
SliderTickRate:1

[Events]
//Background and Video events
0,0,"secret.jpg",0,0
//Break Periods
//Storyboard Layer 0 (Background)
//Storyboard Layer 1 (Fail)
//Storyboard Layer 2 (Pass)
//Storyboard Layer 3 (Foreground)
//Storyboard Layer 4 (Overlay)
//Storyboard Sound Samples

[TimingPoints]
635,300,11,2,1,50,1,0
635,-200,11,2,1,50,0,0
6785,-200,11,2,1,60,0,0
6935,-111.111111111111,11,2,1,60,0,0
7235,-133.333333333333,11,2,1,60,0,0
13535,-83.3333333333333,11,2,1,60,0,0
13835,-100,11,2,1,70,0,0
14735,-125,11,2,1,70,0,0
15035,-83.3333333333333,11,2,1,70,0,0
15335,-100,11,2,1,70,0,0
19835,-83.3333333333333,11,2,1,70,0,0
20135,-250,11,2,1,70,0,0
20435,-100,11,2,1,70,0,0
21335,-125,11,2,1,70,0,0
21635,-83.3333333333333,11,2,1,70,0,0
21935,-100,11,2,1,70,0,0
27035,-153.846153846153,11,2,1,60,0,0
40235,-100,11,2,1,70,0,0
41135,-125,11,2,1,70,0,0
41435,-83.3333333333333,11,2,1,70,0,0
41735,-100,11,2,1,70,0,0
46235,-83.3333333333333,11,2,1,70,0,0
46535,-250,11,2,1,70,0,0
46835,-100,11,2,1,70,0,0
47735,-125,11,2,1,70,0,0
48035,-83.3333333333333,11,2,1,70,0,0
48335,-100,11,2,1,70,0,0
53435,-153.846153846153,11,2,1,60,0,0
63335,300,12,2,1,60,1,0
63335,-153.846153846153,12,2,1,60,0,0
66635,-83.3333333333333,12,2,1,70,0,0
66935,300,3,2,1,80,1,0
66935,-66.6666666666667,3,2,1,80,0,1
68435,-200,3,2,1,80,0,1
68735,-66.6666666666667,3,2,1,80,0,1
72035,-200,3,2,1,80,0,1
72335,-66.6666666666667,3,2,1,80,0,1
75635,-200,3,2,1,80,0,1
75935,-66.6666666666667,3,2,1,80,0,1
79235,-200,3,2,1,80,0,1
79535,-66.6666666666667,3,2,1,80,0,1
81335,-76.9230769230769,3,2,1,80,0,1
95735,300,11,2,1,60,1,0
95735,-83.3333333333333,11,2,1,60,0,0
96185,-166.666666666667,11,2,1,60,0,0
96935,-111.111111111111,11,2,1,60,0,0
97235,-83.3333333333333,11,2,1,60,0,0
97685,-166.666666666667,11,2,1,60,0,0
98285,-83.3333333333333,11,2,1,60,0,0
99485,-166.666666666667,11,2,1,60,0,0
100235,-111.111111111111,11,2,1,60,0,0
100535,-83.3333333333334,11,2,1,60,0,0
100985,-166.666666666667,11,2,1,60,0,0
101435,-111.111111111111,11,2,1,60,0,0
101735,-166.666666666667,11,2,1,60,0,0
102035,-83.3333333333333,11,2,1,50,0,0
105035,-100,11,2,1,70,0,0
105935,-133.333333333333,11,2,1,70,0,0
107435,-100,11,2,1,70,0,0
107735,-133.333333333333,11,2,1,70,0,0
108935,-100,11,2,1,70,0,0
109235,-133.333333333333,11,2,1,70,0,0
112235,-100,11,2,1,70,0,0
112535,-133.333333333333,11,2,1,70,0,0
114035,-100,11,2,1,70,0,0
114335,-133.333333333333,11,2,1,70,0,0
115535,-100,11,2,1,70,0,0
115835,-133.333333333333,11,2,1,70,0,0
118835,-100,11,2,1,70,0,0
119135,-133.333333333333,11,2,1,70,0,0
120635,-100,11,2,1,70,0,0
120935,-133.333333333333,11,2,1,70,0,0
122135,-100,11,2,1,70,0,0
122435,-133.333333333333,11,2,1,70,0,0
125435,-100,11,2,1,70,0,0
125735,-133.333333333333,11,2,1,70,0,0
127235,-100,11,2,1,70,0,0
127535,-133.333333333333,11,2,1,70,0,0
128735,300,12,2,1,50,1,0
128735,-200,12,2,1,50,0,0
131885,-83.3333333333333,12,2,1,70,0,0
132335,300,3,2,1,80,1,0
132335,-66.6666666666667,3,2,1,80,0,1
133835,-200,3,2,1,80,0,1
134135,-66.6666666666667,3,2,1,80,0,1
137435,-200,3,2,1,80,0,1
137735,-66.6666666666667,3,2,1,80,0,1
141035,-200,3,2,1,80,0,1
141335,-66.6666666666667,3,2,1,80,0,1
144635,-200,3,2,1,80,0,1
144935,-66.6666666666667,3,2,1,80,0,1
146735,-76.9230769230769,3,2,1,80,0,1
161135,300,5,2,1,60,1,0
161135,-166.666666666667,5,2,1,60,0,0
173135,-100,5,2,1,70,0,0
185135,300,3,2,1,50,1,0
185135,-250,3,2,1,50,0,0
199235,-133.333333333333,3,2,1,70,0,0
199535,-181.818181818181,3,2,1,50,0,0
213035,-333.333333333333,3,2,1,50,0,0
213485,-333.333333333333,3,2,1,60,0,0
216635,-166.666666666667,3,2,1,60,0,0
216935,-111.111111111111,3,2,1,60,0,0
217535,-333.333333333333,3,2,1,60,0,0
219335,-100,3,2,1,60,0,0
221135,-66.6666666666667,3,2,1,80,0,1
257135,-666.666666666667,3,2,1,70,0,0
257210,-666.666666666667,3,2,1,5,0,0

[Colours]
Combo1 : 247,220,149
Combo2 : 221,140,113
Combo3 : 132,190,234
Combo4 : 236,101,98

[HitObjects]
90,94,635,6,0,P|116:120|185:113,1,100,2|0,0:2|0:0,0:0:0:0:
296,60,1085,2,0,P|270:86|277:155,1,100,2|0,0:2|0:0,0:0:0:0:
360,176,1535,2,0,P|358:152|352:126,1,50,2|0,0:2|0:0,0:0:0:0:
293,230,1835,1,2,0:2:0:0:
293,230,1985,1,2,0:2:0:0:
436,261,2135,6,0,P|401:256|348:302,1,100,2|0,0:2|0:0,0:0:0:0:
186,316,2585,2,0,P|207:288|194:219,1,100,2|0,0:2|0:0,0:0:0:0:
107,126,3035,2,0,P|128:149|173:142,1,75,2|0,0:2|0:0,0:0:0:0:
196,127,3335,2,0,B|192:107|185:90|185:90|195:75|199:56,1,75,2|0,0:2|0:0,0:0:0:0:
216,29,3635,2,0,P|191:25|166:22,1,50,2|0,0:2|0:0,0:0:0:0:
329,0,3935,6,0,P|302:40|319:85,1,100,2|0,0:2|0:0,0:0:0:0:
405,160,4385,2,0,P|355:164|305:170,1,100,2|0,0:2|0:0,0:0:0:0:
228,234,4835,2,0,P|262:234|286:251,1,50,2|0,0:2|0:0,0:0:0:0:
225,151,5135,1,2,0:2:0:0:
225,151,5285,1,2,0:2:0:0:
159,280,5435,6,0,P|179:310|251:310,1,100,2|0,0:2|0:0,0:0:0:0:
355,372,5885,2,0,P|370:339|334:277,1,100,2|0,0:2|0:0,0:0:0:0:
431,195,6335,2,0,P|408:205|383:205,1,50,2|0,0:2|0:0,0:0:0:0:
225,151,6635,1,2,0:2:0:0:
342,15,6785,1,0,3:2:0:0:
342,15,6860,1,0,3:2:0:0:
342,15,6935,6,0,B|318:45|318:45|331:65|335:84|335:84|318:101|314:132,1,134.999995880127,10|0,0:2|0:0,0:0:0:0:
225,151,7235,6,0,P|274:153|288:251,1,150.000005722046,6|0,3:2|0:0,0:0:0:0:
152,354,7685,2,0,P|169:305|259:336,1,150.000005722046,10|0,0:2|3:2,0:0:0:0:
411,313,8135,2,0,P|375:323|340:313,1,75.0000028610231,2|0,3:2|0:0,0:0:0:0:
474,239,8435,2,0,P|500:265|509:300,1,75.0000028610231,10|0,0:2|0:0,0:0:0:0:
376,233,8735,6,0,B|350:174|394:128|394:128|415:156,1,150.000005722046,2|0,3:2|0:0,0:0:0:0:
278,240,9185,2,0,P|268:166|295:96,1,150.000005722046,10|0,0:2|3:2,0:0:0:0:
430,30,9635,2,0,P|396:46|359:43,1,75.0000028610231,2|0,3:2|0:0,0:0:0:0:
503,120,9935,1,10,0:2:0:0:
376,233,10085,1,0,3:2:0:0:
376,233,10160,1,0,3:2:0:0:
376,233,10235,2,0,P|379:193|385:158,1,75.0000028610231,10|0,0:2|0:0,0:0:0:0:
465,281,10535,6,0,P|393:268|340:317,1,150.000005722046,6|0,3:2|0:0,0:0:0:0:
189,366,10985,2,0,P|246:325|231:256,1,150.000005722046,10|0,0:2|3:2,0:0:0:0:
112,149,11435,2,0,P|144:168|192:160,1,75.0000028610231,2|0,3:2|0:0,0:0:0:0:
215,36,11735,2,0,P|182:54|165:99,1,75.0000028610231,10|0,0:2|0:0,0:0:0:0:
323,149,12035,6,0,B|353:126|353:126|303:81|251:113,1,150.000005722046,2|0,3:2|0:0,0:0:0:0:
401,200,12485,2,0,P|451:154|425:69,1,150.000005722046,10|0,0:2|3:2,0:0:0:0:
322,237,12935,1,10,0:2:0:0:
511,311,13085,1,0,3:2:0:0:
511,311,13160,1,0,3:2:0:0:
511,311,13235,2,0,P|467:299|416:357,1,112.500004291535,10|0,0:2|0:0,0:0:0:0:
385,366,13535,6,0,B|389:330|377:303|377:303|388:281|408:268|408:268|411:231|401:199,1,179.999994506836,10|0,0:2|0:0,0:0:0:0:
365,103,13835,5,6,3:2:0:0:
228,235,13985,2,0,P|280:251|338:222,1,100,2|0,3:2|0:0,0:0:0:0:
283,56,14285,2,0,B|259:100|259:100|283:159,1,100,10|0,0:2|0:0,0:0:0:0:
381,1,14585,1,2,3:2:0:0:
196,0,14735,2,0,L|65:30,1,120,2|0,3:2|0:0,0:0:0:0:
14,97,15035,6,0,B|0:67|0:67|91:19|144:117,1,179.999994506836,10|0,0:2|0:0,0:0:0:0:
176,157,15335,5,6,3:2:0:0:
55,312,15485,2,0,P|23:270|48:210,1,100,2|0,3:2|0:0,0:0:0:0:
216,352,15785,2,0,L|107:379,1,100,10|0,0:2|0:0,0:0:0:0:
249,226,16085,1,2,3:2:0:0:
441,320,16235,2,0,B|481:235|481:235|446:176,1,150,2|0,3:2|0:0,0:0:0:0:
397,130,16535,1,10,0:2:0:0:
309,332,16685,1,0,3:2:0:0:
309,332,16760,1,0,3:2:0:0:
309,332,16835,2,0,B|334:356|334:356|370:307|346:247,1,150,10|0,0:2|0:0,0:0:0:0:
279,146,17135,5,6,3:2:0:0:
113,238,17285,2,0,P|162:242|212:250,1,100,2|0,3:2|0:0,0:0:0:0:
311,41,17585,2,0,P|261:48|211:53,1,100,10|0,0:2|2:0,2:0:0:0:
367,146,17885,1,2,3:2:0:0:
489,4,18035,2,0,P|468:77|455:150,1,150,2|0,3:2|0:0,0:0:0:0:
497,248,18335,2,0,P|450:236|366:301,1,150,10|0,0:2|0:0,0:0:0:0:
275,336,18635,5,6,3:2:0:0:
187,161,18785,2,0,B|229:135|229:135|278:146,1,100,2|0,3:2|0:0,0:0:0:0:
140,284,19085,2,0,B|91:295|91:295|49:269,1,100,10|0,0:2|0:0,0:0:0:0:
159,71,19385,1,2,3:2:0:0:
257,230,19535,1,10,0:2:0:0:
29,147,19685,1,0,3:2:0:0:
271,36,19835,6,0,B|298:89|298:89|278:146,1,119.999996337891,10|0,0:2|3:2,0:0:0:0:
140,284,20060,1,0,3:2:0:0:
140,284,20135,6,0,P|128:257|130:227,1,60,10|0,0:3|0:0,0:0:0:0:
187,161,20435,5,6,3:2:0:0:
377,242,20585,2,0,P|398:197|386:150,1,100,2|0,3:2|0:0,0:0:0:0:
276,267,20885,2,0,P|264:314|285:358,1,100,10|0,0:2|0:0,0:0:0:0:
301,93,21185,1,2,3:2:0:0:
187,161,21335,2,0,L|329:190,1,120,2|0,3:2|0:0,0:0:0:0:
434,318,21635,6,0,B|400:359|400:359|341:302|392:207,1,179.999994506836,10|0,0:2|0:0,0:0:0:0:
458,202,21935,5,6,3:2:0:0:
370,46,22085,2,0,P|414:25|461:37,1,100,2|0,3:2|0:0,0:0:0:0:
305,185,22385,2,0,P|255:188|215:161,1,100,10|0,0:2|0:0,0:0:0:0:
36,61,22685,1,2,3:2:0:0:
146,5,22835,2,0,L|111:173,1,150,2|0,3:2|0:0,0:0:0:0:
50,215,23135,1,10,0:2:0:0:
223,317,23285,1,0,3:2:0:0:
223,317,23360,1,0,3:2:0:0:
223,317,23435,2,0,P|248:255|184:238,1,150,10|0,0:2|0:0,0:0:0:0:
114,304,23735,5,6,3:2:0:0:
289,384,23885,2,0,P|327:349|342:301,1,100,2|0,3:2|0:0,0:0:0:0:
250,137,24185,2,0,P|266:183|302:216,1,100,10|0,0:2|0:0,0:0:0:0:
479,138,24485,1,2,3:2:0:0:
369,83,24635,2,0,L|403:244,1,150,2|0,3:2|0:0,0:0:0:0:
341,304,24935,2,0,P|309:260|208:268,1,150,10|0,0:2|0:0,0:0:0:0:
158,313,25235,5,6,3:2:0:0:
8,213,25385,2,0,P|53:190|106:207,1,100,2|0,3:2|0:0,0:0:0:0:
69,384,25685,2,0,L|60:275,1,100,10|0,0:2|0:0,0:0:0:0:
196,158,25985,1,2,3:2:0:0:
255,340,26135,5,10,0:2:0:0:
287,360,26210,1,8,0:2:0:0:
324,365,26285,1,0,3:2:0:0:
360,353,26360,1,0,3:2:0:0:
387,328,26435,5,10,0:3:0:0:
397,306,26510,1,8,0:3:0:0:
400,281,26585,1,0,3:2:0:0:
395,257,26660,1,0,3:2:0:0:
381,236,26735,6,0,P|362:219|335:210,1,50,10|0,0:2|0:0,0:0:0:0:
496,115,26885,2,0,P|477:131|454:138,1,50,8|0,0:2|0:0,0:0:0:0:
490,346,27035,6,0,P|495:281|508:217,1,129.999994049073,6|0,3:2|0:0,0:0:0:0:
362,107,27485,2,0,P|374:170|380:235,1,129.999994049073,2|0,3:2|0:0,0:0:0:0:
177,171,27935,2,0,P|209:166|241:162,1,64.9999970245363,10|0,0:2|0:0,0:0:0:0:
341,92,28235,2,0,P|309:86|277:82,1,64.9999970245363,2|0,0:2|0:0,0:0:0:0:
171,182,28535,2,0,P|204:176|236:172,1,64.9999970245363,10|0,0:2|0:0,0:0:0:0:
223,2,28835,6,0,P|171:37|108:29,1,129.999994049073,2|2,3:2|0:2,0:3:0:0:
0,103,29285,2,0,P|44:98|73:115,1,64.9999970245363,8|2,0:2|0:2,0:0:0:0:
176,172,29585,1,0,3:2:0:0:
79,259,29735,2,0,P|81:226|86:194,1,64.9999970245363,2|0,3:2|0:0,0:0:0:0:
183,331,30035,2,0,P|182:298|177:266,1,64.9999970245363,10|0,0:2|0:0,0:0:0:0:
4,352,30335,6,0,P|65:341|111:384,1,129.999994049073,2|0,3:2|0:0,0:0:0:0:
274,355,30785,2,0,P|283:291|261:231,1,129.999994049073,2|0,3:2|0:0,0:0:0:0:
219,110,31235,2,0,P|260:129|284:126,1,64.9999970245363,10|0,0:2|0:0,0:0:0:0:
315,0,31535,2,0,P|278:26|268:48,1,64.9999970245363,2|0,0:2|0:0,0:0:0:0:
362,138,31835,2,0,P|357:92|343:73,1,64.9999970245363,10|0,0:2|0:0,0:0:0:0:
182,32,32135,6,0,P|117:37|52:46,1,129.999994049073,2|2,3:2|0:2,0:0:0:0:
0,193,32585,2,0,P|36:179|72:187,1,64.9999970245363,8|2,0:2|0:2,0:0:0:0:
219,110,32885,1,0,3:2:0:0:
162,237,33035,2,0,P|157:204|150:173,1,64.9999970245363,2|0,3:2|0:0,0:0:0:0:
303,60,33335,1,8,0:2:0:0:
250,201,33485,1,8,0:2:0:0:
312,48,33635,6,0,P|288:-6|232:14,1,129.999994049073,6|0,3:2|0:0,0:0:0:0:
328,147,34085,2,0,P|392:139|457:133,1,129.999994049073,2|0,3:2|0:0,0:0:0:0:
344,242,34535,2,0,P|376:244|408:249,1,64.9999970245363,10|0,0:2|0:0,0:0:0:0:
512,218,34835,2,0,P|507:250|504:282,1,64.9999970245363,2|0,0:2|0:0,0:0:0:0:
374,347,35135,2,0,P|406:349|438:354,1,64.9999970245363,10|0,0:2|0:0,0:0:0:0:
326,233,35435,6,0,P|286:255|282:337,1,129.999994049073,2|2,3:2|0:2,0:0:0:0:
409,249,35885,2,0,P|407:216|403:184,1,64.9999970245363,8|2,0:2|0:2,0:0:0:0:
280,81,36185,1,0,3:2:0:0:
235,153,36335,2,0,P|271:169|305:163,1,64.9999970245363,2|0,3:2|0:0,0:0:0:0:
417,101,36635,2,0,P|384:99|356:114,1,64.9999970245363,10|0,0:2|0:0,0:0:0:0:
231,11,36935,6,0,P|292:-3|351:33,1,129.999994049073,2|0,3:2|0:0,0:0:0:0:
198,83,37385,2,0,P|134:74|69:70,1,129.999994049073,2|0,3:2|0:0,0:0:0:0:
0,207,37835,2,0,P|35:194|72:199,1,64.9999970245363,10|0,0:2|0:0,0:0:0:0:
170,301,38135,2,0,P|137:302|107:289,1,64.9999970245363,2|0,0:2|0:0,0:0:0:0:
139,153,38435,2,0,P|144:184|149:217,1,64.9999970245363,10|0,0:2|0:0,0:0:0:0:
247,377,38735,6,0,P|255:312|267:248,1,129.999994049073,2|0,3:2|0:0,0:0:0:0:
388,159,39185,2,0,P|352:175|310:164,1,64.9999970245363,8|2,0:2|0:2,0:0:0:0:
181,87,39485,1,0,3:2:0:0:
181,87,39560,1,0,3:2:0:0:
181,87,39635,1,10,0:2:0:0:
272,11,39785,1,0,3:2:0:0:
272,11,39860,1,0,3:2:0:0:
272,11,39935,5,8,0:2:0:0:
263,50,40010,1,8,0:2:0:0:
255,90,40085,1,8,0:2:0:0:
247,130,40160,1,8,0:2:0:0:
239,170,40235,5,6,3:2:0:0:
429,100,40385,2,0,B|390:67|390:67|321:82,1,100,2|0,3:2|0:0,0:0:0:0:
424,284,40685,2,0,B|456:245|456:245|441:176,1,100,10|0,0:2|0:0,0:0:0:0:
233,301,40985,1,2,3:2:0:0:
342,351,41135,2,0,L|314:212,1,120,2|0,3:2|0:0,0:0:0:0:
239,170,41435,6,0,B|215:152|181:144|181:144|159:155|144:184|144:184|114:173|84:181,1,179.999994506836,10|0,0:2|0:0,0:0:0:0:
111,265,41735,5,6,3:2:0:0:
232,67,41885,2,0,P|185:49|139:64,1,100,2|0,3:2|0:0,0:0:0:0:
319,145,42185,2,0,L|450:128,1,100,10|0,0:2|0:0,0:0:0:0:
285,271,42485,1,2,3:2:0:0:
455,344,42635,2,0,B|484:297|484:297|448:210,1,150,2|0,3:2|0:0,0:0:0:0:
418,132,42935,1,10,0:2:0:0:
166,225,43085,1,0,3:2:0:0:
166,225,43160,1,0,3:2:0:0:
166,225,43235,2,0,P|237:216|285:271,1,150,10|0,0:2|0:0,0:0:0:0:
276,364,43535,5,6,3:2:0:0:
97,283,43685,2,0,P|72:229|86:181,1,100,2|0,3:2|0:0,0:0:0:0:
250,91,43985,2,0,P|256:139|232:182,1,100,10|0,0:2|0:0,0:0:0:0:
175,0,44285,1,2,3:2:0:0:
373,39,44435,2,0,L|346:201,1,150,2|0,3:2|0:0,0:0:0:0:
309,274,44735,2,0,P|356:220|425:236,1,150,10|0,0:2|0:0,0:0:0:0:
480,307,45035,5,6,3:2:0:0:
303,370,45185,2,0,L|179:359,1,100,2|0,3:2|0:0,0:0:0:0:
31,226,45485,2,0,P|86:239|137:206,1,100,10|0,0:2|0:0,0:0:0:0:
318,96,45785,1,2,3:2:0:0:
104,38,45935,1,10,0:2:0:0:
247,255,46085,1,0,3:2:0:0:
386,33,46235,6,0,B|334:4|334:4|274:18,1,119.999996337891,10|0,0:2|3:2,0:0:0:0:
276,175,46460,1,0,3:2:0:0:
276,175,46535,6,0,P|303:185|333:183,1,60,10|0,0:3|0:0,0:0:0:0:
318,96,46835,5,6,3:2:0:0:
247,255,46985,2,0,P|298:275|359:261,1,100,2|0,3:2|0:0,0:0:0:0:
229,100,47285,2,0,B|179:86|179:86|137:109,1,100,10|0,0:2|0:0,0:0:0:0:
0,251,47585,1,2,3:2:0:0:
157,314,47735,2,0,L|142:167,1,120,2|0,3:2|0:0,0:0:0:0:
66,36,48035,6,0,B|43:59|25:82|25:82|50:139|62:195,1,179.999994506836,10|0,0:2|0:0,0:0:0:0:
57,328,48335,5,6,3:2:0:0:
225,184,48485,2,0,P|273:177|315:203,1,100,2|0,3:2|0:0,0:0:0:0:
445,356,48785,2,0,P|415:316|416:267,1,100,10|0,0:2|0:0,0:0:0:0:
348,84,49085,1,2,3:2:0:0:
501,221,49235,2,0,P|454:165|383:170,1,150,2|0,3:2|0:0,0:0:0:0:
315,203,49535,1,10,0:2:0:0:
228,37,49685,1,0,3:2:0:0:
228,37,49760,1,0,3:2:0:0:
228,37,49835,2,0,B|248:23|271:19|271:19|246:68|254:119,1,150,10|0,0:2|0:0,0:0:0:0:
315,203,50135,5,6,3:2:0:0:
172,357,50285,2,0,P|145:302|160:248,1,100,2|0,3:2|0:0,0:0:0:0:
0,145,50585,2,0,P|55:118|109:133,1,100,10|0,0:2|0:0,0:0:0:0:
249,4,50885,1,2,3:2:0:0:
315,203,51035,2,0,B|241:226|241:226|177:165,1,150,2|0,3:2|0:0,0:0:0:0:
192,94,51335,2,0,P|266:86|339:69,1,150,10|0,0:2|0:0,0:0:0:0:
366,0,51635,5,6,3:2:0:0:
421,172,51785,2,0,P|429:221|433:271,1,100,2|0,3:2|0:0,0:0:0:0:
267,384,52085,2,0,P|270:334|279:284,1,100,10|0,0:2|0:0,0:0:0:0:
192,94,52385,1,2,3:2:0:0:
26,266,52535,5,10,0:2:0:0:
48,295,52610,1,8,0:2:0:0:
81,313,52685,1,0,3:2:0:0:
118,316,52760,1,0,3:2:0:0:
153,304,52835,5,10,0:3:0:0:
163,281,52910,1,8,0:3:0:0:
165,256,52985,1,0,3:2:0:0:
160,232,53060,1,0,3:2:0:0:
147,211,53135,6,0,P|124:200|99:195,1,50,10|0,0:2|0:0,0:0:0:0:
0,113,53285,2,0,P|24:108|47:97,1,50,8|0,0:2|0:0,0:0:0:0:
216,8,53435,6,0,P|178:18|180:104,1,129.999994049073,6|0,3:2|0:0,0:0:0:0:
251,218,53885,2,0,P|256:153|266:89,1,129.999994049073,2|0,3:2|0:0,0:0:0:0:
409,99,54335,2,0,P|376:102|344:109,1,64.9999970245363,10|0,0:2|0:0,0:0:0:0:
240,6,54635,2,0,P|272:13|304:16,1,64.9999970245363,2|0,0:2|0:0,0:0:0:0:
413,105,54935,2,0,P|380:108|348:115,1,64.9999970245363,10|0,0:2|0:0,0:0:0:0:
480,39,55235,6,0,P|514:92|498:153,1,129.999994049073,2|2,3:2|0:2,0:0:0:0:
358,206,55685,2,0,P|387:192|419:196,1,64.9999970245363,8|2,0:2|0:2,0:0:0:0:
511,235,55985,1,0,3:2:0:0:
405,348,56135,2,0,P|407:315|413:283,1,64.9999970245363,2|0,3:2|0:0,0:0:0:0:
500,384,56435,2,0,P|497:351|491:319,1,64.9999970245363,10|0,0:2|0:0,0:0:0:0:
358,206,56735,6,0,P|330:246|253:240,1,129.999994049073,2|0,3:2|0:0,0:0:0:0:
156,178,57185,2,0,P|169:244|178:306,1,129.999994049073,2|0,3:2|0:0,0:0:0:0:
47,384,57635,2,0,P|51:351|58:319,1,64.9999970245363,10|0,0:2|0:0,0:0:0:0:
0,216,57935,2,0,P|34:231|74:222,1,64.9999970245363,2|0,0:2|0:0,0:0:0:0:
63,75,58235,2,0,P|48:103|51:135,1,64.9999970245363,10|0,0:2|0:0,0:0:0:0:
222,240,58535,6,0,P|257:188|241:126,1,129.999994049073,2|2,3:2|0:2,0:0:0:0:
338,8,58985,2,0,P|320:37|321:69,1,64.9999970245363,8|2,0:2|0:2,0:0:0:0:
342,179,59285,1,0,3:2:0:0:
467,107,59435,2,0,P|437:95|404:98,1,64.9999970245363,2|0,3:2|0:0,0:0:0:0:
303,267,59735,1,8,0:2:0:0:
425,180,59885,1,8,0:2:0:0:
242,127,60035,6,0,P|177:132|112:139,1,129.999994049073,6|0,3:2|0:0,0:0:0:0:
0,226,60485,2,0,P|55:218|104:284,1,129.999994049073,2|0,3:2|0:0,0:0:0:0:
219,359,60935,2,0,P|215:326|209:294,1,64.9999970245363,10|0,0:2|0:0,0:0:0:0:
298,202,61235,2,0,P|292:234|288:266,1,64.9999970245363,2|0,0:2|0:0,0:0:0:0:
216,365,61535,2,0,P|212:332|206:300,1,64.9999970245363,10|0,0:2|0:0,0:0:0:0:
403,343,61835,6,0,P|365:333|296:396,1,129.999994049073,2|2,3:2|0:2,0:0:0:0:
382,245,62285,2,0,P|416:250|446:252,1,64.9999970245363,8|2,0:2|0:2,0:0:0:0:
360,161,62585,1,0,3:2:0:0:
453,91,62735,2,0,P|448:125|445:155,1,64.9999970245363,2|0,3:2|0:0,0:0:0:0:
356,13,63035,2,0,P|360:45|363:77,1,64.9999970245363,10|0,0:2|0:0,0:0:0:0:
288,220,63335,6,0,P|239:179|177:188,1,129.999994049073,2|0,3:2|0:0,0:0:0:0:
78,97,63785,2,0,P|140:105|188:65,1,129.999994049073,2|0,3:2|0:0,0:0:0:0:
294,0,64235,2,0,P|276:40|289:86,1,64.9999970245363,10|0,0:2|0:0,0:0:0:0:
408,99,64535,2,0,P|382:63|336:51,1,64.9999970245363,2|0,0:2|0:0,0:0:0:0:
265,148,64835,2,0,P|308:143|341:109,1,64.9999970245363,10|0,0:2|0:0,0:0:0:0:
467,198,65135,6,0,P|412:187|358:251,1,129.999994049073,2|0,3:2|0:0,0:0:0:0:
273,320,65585,2,0,P|282:276|268:241,1,64.9999970245363,8|2,0:2|0:2,0:0:0:0:
191,133,65885,1,0,3:2:0:0:
191,133,65960,1,0,3:2:0:0:
191,133,66035,1,10,0:2:0:0:
11,219,66185,1,0,3:2:0:0:
11,219,66260,1,0,3:2:0:0:
11,219,66335,1,8,0:2:0:0:
34,251,66410,1,8,0:2:0:0:
70,269,66485,1,8,0:2:0:0:
111,269,66560,1,8,0:2:0:0:
146,250,66635,6,0,B|202:202|255:261|255:261|212:277|189:329,1,179.999994506836,2|0,3:2|0:0,0:0:0:0:
87,181,66935,6,0,B|89:125|36:85|36:85|87:61|109:-4|109:-4|100:47|163:102,1,300.000011444092,6|0,3:2|0:0,0:0:0:0:
294,194,67385,6,0,B|316:142|367:129|367:129|255:36|163:164,1,300.000011444092,0|0,3:2|3:2,0:0:0:0:
222,371,67760,1,0,3:2:0:0:
222,371,67835,6,0,B|335:401|362:259|362:259|302:306|225:274|255:259|192:222|129:277,1,450.000017166138,10|0,0:2|0:0,0:0:0:0:
294,194,68435,6,0,P|302:171|297:146,1,50,0|0,3:2|0:0,0:0:0:0:
39,195,68735,6,0,B|62:268|19:300|-30:272|-52:401|47:462|165:341|39:325,1,300.000011444092,2|0,3:2|0:0,0:0:0:0:
199,66,69185,6,0,B|164:64|138:34|138:34|87:97|126:152|146:129|187:189|144:261,1,300.000011444092,0|0,3:2|3:2,0:0:0:0:
137,271,69560,1,0,3:2:0:0:
137,271,69635,5,10,0:2:0:0:
305,45,69785,1,0,3:2:0:0:
293,274,69935,1,8,0:2:0:0:
108,97,70085,1,0,3:2:0:0:
108,97,70160,1,0,3:2:0:0:
108,97,70235,6,0,P|114:12|194:81,1,225.000008583069,10|0,0:2|0:0,0:0:0:0:
378,182,70535,6,0,B|318:189|281:143|281:143|249:197|192:217|192:217|192:174|219:151,1,300.000011444092,6|0,3:2|0:0,0:0:0:0:
361,366,70985,6,0,B|403:383|455:344|455:344|412:240|293:273,1,300.000011444092,0|0,3:2|3:2,0:0:0:0:
82,284,71360,1,0,3:2:0:0:
82,284,71435,6,0,B|113:329|84:385|84:385|154:304|100:216|100:216|45:132|100:58,1,450.000017166138,10|0,0:2|0:0,0:0:0:0:
348,1,72035,6,0,P|356:25|355:50,1,50,0|0,3:2|0:0,0:0:0:0:
194,135,72335,6,0,B|224:144|246:145|246:145|258:128|282:115|282:115|319:151|391:149|391:149|358:194|326:192,1,300.000011444092,2|0,3:2|0:0,0:0:0:0:
138,349,72785,6,0,B|41:411|-39:321|-28:248|25:224|64:239|80:265|79:284,1,300.000011444092,0|0,3:2|3:2,0:0:0:0:
248,291,73160,1,0,3:2:0:0:
248,291,73235,6,0,P|261:325|256:362,1,75.0000028610231,10|0,0:2|0:0,0:0:0:0:
170,230,73385,1,0,3:2:0:0:
170,230,73460,1,0,3:2:0:0:
170,230,73535,2,0,P|192:201|227:187,1,75.0000028610231,10|0,0:2|0:0,0:0:0:0:
391,221,73685,2,0,P|355:215|325:192,1,75.0000028610231,0|0,3:2|0:0,0:0:0:0:
294,10,73835,5,10,0:2:0:0:
348,0,73910,1,8,0:2:0:0:
396,27,73985,1,8,0:2:0:0:
416,78,74060,1,8,0:2:0:0:
399,131,74135,6,0,B|313:173|253:111|282:90|206:16|116:77,1,300.000011444092,6|0,3:2|0:0,0:0:0:0:
42,280,74585,6,0,B|120:308|171:230|171:230|117:158|40:186,1,300.000011444092,0|0,3:2|3:2,0:0:0:0:
211,346,74960,1,0,3:2:0:0:
211,346,75035,6,0,B|279:374|361:352|361:352|386:251|320:171|320:171|309:238|271:258,1,450.000017166138,10|0,0:2|0:0,0:0:0:0:
451,363,75635,6,0,P|482:364|511:350,1,50,0|0,3:2|0:0,0:0:0:0:
503,149,75935,6,0,B|519:105|478:70|478:70|418:194|519:170|464:272,1,300.000011444092,2|0,3:2|0:0,0:0:0:0:
211,346,76385,6,0,B|103:387|42:282|69:212|126:200|162:223|171:252|167:270,1,300.000011444092,0|0,3:2|3:2,0:0:0:0:
97,357,76760,1,0,3:2:0:0:
97,357,76835,5,10,0:2:0:0:
28,136,76985,1,0,3:2:0:0:
262,257,77135,1,8,0:2:0:0:
195,38,77285,1,0,3:2:0:0:
195,38,77360,1,0,3:2:0:0:
195,38,77435,6,0,B|144:-11|144:-11|86:55|131:130,1,225.000008583069,10|0,0:2|0:0,0:0:0:0:
81,213,77735,6,0,B|167:255|227:193|198:172|274:98|364:159,1,300.000011444092,6|0,3:2|0:0,0:0:0:0:
503,294,78185,6,0,B|508:355|450:378|450:378|359:276|477:155,1,300.000011444092,0|0,3:2|3:2,0:0:0:0:
418,59,78560,1,0,3:2:0:0:
418,59,78635,6,0,B|331:100|241:43|241:43|204:75|202:129|202:129|160:90|93:101|93:101|123:140|154:129,1,450.000017166138,10|0,0:2|0:0,0:0:0:0:
316,229,79235,6,0,P|316:204|310:180,1,50,0|0,3:2|0:0,0:0:0:0:
77,275,79535,6,0,B|84:318|127:338|127:338|182:317|261:327|261:327|217:302|203:246,1,300.000011444092,2|0,3:2|0:0,0:0:0:0:
237,4,79985,6,0,B|164:-25|110:54|110:54|164:141|243:104,1,300.000011444092,0|0,3:2|3:2,0:0:0:0:
335,0,80360,1,0,3:2:0:0:
335,0,80435,6,0,P|373:0|406:24,1,75.0000028610231,10|0,0:2|0:0,0:0:0:0:
356,179,80585,1,0,3:2:0:0:
356,179,80660,1,0,3:2:0:0:
356,179,80735,2,0,P|337:147|342:106,1,75.0000028610231,8|0,0:2|0:0,0:0:0:0:
504,74,80885,2,0,P|486:107|448:124,1,75.0000028610231,0|0,3:2|0:0,0:0:0:0:
240,205,81035,5,8,0:2:0:0:
200,176,81110,1,8,0:2:0:0:
150,173,81185,1,8,0:2:0:0:
106,195,81260,1,8,0:2:0:0:
79,237,81335,6,0,P|111:343|247:320,1,259.999988098145,6|0,3:2|0:0,0:0:0:0:
453,123,81785,2,0,P|347:155|370:291,1,259.999988098145,2|0,3:2|3:2,0:0:0:0:
375,293,82160,1,0,3:2:0:0:
389,298,82235,6,0,P|444:264|414:207,1,129.999994049073,10|0,0:2|0:0,0:0:0:0:
106,195,82535,2,0,P|166:215|226:193,1,129.999994049073,2|0,0:2|0:0,0:0:0:0:
507,53,82835,2,0,P|446:32|386:54,1,129.999994049073,2|0,3:2|0:0,0:0:0:0:
374,362,83135,6,0,B|433:388|433:388|503:283|424:212,1,259.999988098145,2|2,3:2|0:2,0:0:0:0:
114,271,83585,2,0,B|181:279|226:330|226:330|265:277|334:265,1,259.999988098145,0|0,3:2|3:2,0:0:0:0:
352,268,83960,1,0,3:2:0:0:
366,275,84035,5,10,0:2:0:0:
124,377,84185,1,0,3:2:0:0:
224,118,84335,1,10,0:2:0:0:
435,358,84485,1,0,3:2:0:0:
435,358,84560,1,0,3:2:0:0:
435,358,84635,2,0,P|365:381|275:299,1,194.999991073609,10|0,0:2|0:0,0:0:0:0:
166,201,84935,6,0,B|302:262|273:123|411:188,1,259.999988098145,6|0,3:2|0:0,0:0:0:0:
151,320,85385,2,0,P|54:243|78:122,1,259.999988098145,2|0,3:2|3:2,0:0:0:0:
91,113,85760,1,0,3:2:0:0:
105,108,85835,6,0,P|167:95|225:121,1,129.999994049073,10|0,0:2|0:0,0:0:0:0:
337,338,86135,2,0,P|294:290|288:226,1,129.999994049073,2|0,0:2|0:0,0:0:0:0:
420,22,86435,2,0,P|399:82|347:119,1,129.999994049073,2|0,3:2|0:0,0:0:0:0:
43,38,86735,6,0,P|165:2|283:50,1,259.999988098145,2|2,3:2|0:2,0:0:0:0:
131,263,87185,2,0,P|95:155|208:143,1,259.999988098145,0|0,3:2|3:2,0:0:0:0:
214,158,87560,1,0,3:2:0:0:
214,174,87635,5,10,0:2:0:0:
43,38,87785,1,0,3:2:0:0:
59,24,87860,1,0,3:2:0:0:
79,20,87935,1,8,0:2:0:0:
131,263,88085,1,0,3:2:0:0:
300,102,88235,1,8,0:2:0:0:
258,71,88310,1,8,0:2:0:0:
207,61,88385,1,8,0:2:0:0:
157,73,88460,1,8,0:2:0:0:
117,104,88535,6,0,P|129:216|212:149,1,259.999988098145,6|0,3:2|0:0,0:0:0:0:
37,314,88985,2,0,P|114:354|276:290,1,259.999988098145,2|0,3:2|3:2,0:0:0:0:
276,285,89360,1,0,3:2:0:0:
269,269,89435,6,0,P|237:325|268:397,1,129.999994049073,10|0,0:2|0:0,0:0:0:0:
497,269,89735,2,0,B|441:237|441:237|362:258,1,129.999994049073,2|0,0:2|0:0,0:0:0:0:
116,163,90035,2,0,B|172:195|172:195|235:178,1,129.999994049073,2|0,3:2|0:0,0:0:0:0:
431,33,90335,6,0,B|371:-15|371:-15|301:76|368:182,1,259.999988098145,2|2,3:2|0:2,0:0:0:0:
255,384,90785,2,0,P|296:314|171:311,1,259.999988098145,0|0,3:2|3:2,0:0:0:0:
172,325,91160,1,0,3:2:0:0:
178,340,91235,5,10,0:2:0:0:
414,241,91385,1,0,3:2:0:0:
186,99,91535,1,10,0:2:0:0:
427,12,91685,1,0,3:2:0:0:
427,12,91760,1,0,3:0:0:0:
427,12,91835,2,0,B|462:39|493:53|493:53|468:108|461:165,1,194.999991073609,10|0,0:2|0:0,0:0:0:0:
310,378,92135,6,0,B|256:332|256:332|283:282|282:213|282:213|305:247|330:257,1,259.999988098145,6|0,3:2|0:0,0:0:0:0:
67,366,92585,2,0,P|32:258|151:193,1,259.999988098145,2|0,3:2|3:2,0:0:0:0:
157,196,92960,1,0,3:2:0:0:
168,207,93035,6,0,P|177:267|116:284,1,129.999994049073,10|0,0:2|0:0,0:0:0:0:
13,76,93335,2,0,P|83:50|170:104,1,129.999994049073,2|0,0:2|0:0,0:0:0:0:
321,173,93635,1,2,3:2:0:0:
274,162,93710,1,0,3:2:0:0:
243,125,93785,1,0,3:2:0:0:
242,78,93860,1,0,3:2:0:0:
272,40,93935,5,10,0:2:0:0:
484,148,94085,1,0,3:2:0:0:
299,257,94235,1,8,0:2:0:0:
494,361,94385,1,0,3:2:0:0:
494,361,94460,1,0,3:2:0:0:
494,361,94535,5,8,0:2:0:0:
369,104,94685,1,8,0:2:0:0:
213,298,94835,5,10,0:2:0:0:
187,317,94910,1,8,0:2:0:0:
155,323,94985,1,0,3:2:0:0:
124,314,95060,1,0,3:2:0:0:
101,292,95135,5,8,0:3:0:0:
95,277,95210,1,8,0:3:0:0:
94,260,95285,1,0,3:2:0:0:
97,245,95360,1,0,3:2:0:0:
105,231,95435,5,8,0:2:0:0:
131,195,95510,1,8,0:2:0:0:
133,151,95585,1,8,0:2:0:0:
110,113,95660,1,8,0:2:0:0:
70,94,95735,6,0,B|42:90|42:90|20:113,1,59.9999981689454,6|0,3:2|0:0,0:0:0:0:
203,226,95885,2,0,B|231:230|231:230|253:207,1,59.9999981689454,2|0,3:2|0:0,0:0:0:0:
265,203,96185,6,0,P|268:233|283:259,2,59.9999981689454,2|0|0,0:3|0:3|0:3,0:3:0:0:
232,50,96635,2,0,P|241:93|276:119,1,89.9999972534181,2|0,0:2|0:0,0:0:0:0:
342,89,96935,6,0,B|358:111|382:126|382:126|385:164|363:203,1,134.999995880127,10|0,0:2|0:0,0:0:0:0:
362,285,97235,6,0,P|374:312|378:342,1,59.9999981689454,2|0,3:2|0:0,0:0:0:0:
479,109,97385,2,0,P|466:81|462:51,1,59.9999981689454,2|0,3:2|0:0,0:0:0:0:
456,31,97685,6,0,P|486:25|518:40,2,59.9999981689454,2|0|0,0:2|0:0|0:0,0:0:0:0:
244,136,98135,1,10,0:2:0:0:
342,279,98285,1,0,3:2:0:0:
342,279,98360,1,0,3:2:0:0:
342,279,98435,1,10,0:2:0:0:
368,243,98510,1,8,0:2:0:0:
376,199,98585,1,0,3:2:0:0:
364,156,98660,1,0,3:2:0:0:
335,122,98735,6,0,B|281:60|342:7|342:7|386:55,1,179.999994506836,10|0,0:2|0:0,0:0:0:0:
297,212,99035,6,0,B|269:226|269:226|228:221,1,59.9999981689454,2|0,3:2|0:0,0:0:0:0:
70,78,99185,2,0,B|98:64|98:64|139:69,1,59.9999981689454,2|0,3:2|0:0,0:0:0:0:
138,85,99485,6,0,P|124:111|121:140,2,59.9999981689454,10|0|0,0:2|0:0|3:2,0:0:0:0:
275,0,99935,2,0,P|282:44|286:89,1,89.9999972534181,2|0,3:2|0:0,0:0:0:0:
357,139,100235,6,0,P|294:119|243:158,1,134.999995880127,10|0,0:2|0:0,0:0:0:0:
232,178,100535,6,0,B|221:206|221:206|241:236,1,59.9999981689454,2|0,3:2|0:0,0:0:0:0:
389,384,100685,2,0,B|405:359|405:359|394:331,1,59.9999981689454,2|0,3:2|0:0,0:0:0:0:
386,313,100985,6,0,P|416:312|445:304,2,59.9999981689454,10|0|0,0:2|0:0|3:2,0:0:0:0:
229,362,101435,6,0,P|175:323|110:334,1,134.999995880127,2|0,3:2|0:3,0:3:0:0:
43,384,101735,6,0,B|39:361|24:341|24:341|33:317|34:298,1,89.9999972534181,10|0,0:2|0:3,0:3:0:0:
99,201,102035,6,0,B|154:194|201:172|201:172|247:206|211:261,1,179.999994506836,2|0,3:2|0:0,0:0:0:0:
128,106,102335,5,6,3:2:0:0:
128,106,103235,1,2,0:2:0:0:
128,106,104135,1,2,0:2:0:0:
128,106,105035,6,0,B|166:72|166:72|228:84,1,100,2|0,3:2|0:0,0:0:0:0:
340,222,105335,2,0,B|291:206|291:206|270:146,1,100,2|0,3:2|0:0,0:0:0:0:
449,85,105635,6,0,B|483:107|483:107|450:168|355:136,1,150,6|0,3:2|0:0,0:0:0:0:
361,130,105935,1,0,0:0:0:0:
512,227,106085,2,0,P|457:230|428:319,1,150.000005722046,2|0,3:2|0:0,0:0:0:0:
338,384,106535,2,0,P|316:344|331:295,1,75.0000028610231,10|0,0:2|0:0,0:0:0:0:
251,336,106835,2,0,P|291:313|340:328,1,75.0000028610231,2|0,0:2|0:0,0:0:0:0:
299,247,107135,2,0,P|321:287|306:336,1,75.0000028610231,2|0,3:2|0:0,0:0:0:0:
191,203,107435,6,0,B|154:198|121:175|121:175|95:208|63:219,1,150,2|0,3:2|0:0,0:0:0:0:
24,220,107735,2,0,P|8:182|21:143,1,75.0000028610231,2|0,0:2|3:2,0:0:0:0:
134,275,108035,2,0,P|150:313|137:352,1,75.0000028610231,2|2,0:2|0:2,0:0:0:0:
142,355,108260,1,2,0:2:0:0:
147,364,108335,2,0,P|183:384|225:379,1,75.0000028610231,10|0,0:2|0:0,0:0:0:0:
372,219,108635,2,0,P|338:193|296:202,1,75.0000028610231,8|0,0:2|0:0,0:0:0:0:
292,384,108935,6,0,B|342:347|317:282|317:282|251:316,1,150,2|0,3:2|0:0,0:0:0:0:
256,314,109235,1,0,0:0:0:0:
409,376,109385,2,0,P|469:336|441:262,1,150.000005722046,2|0,3:2|0:0,0:0:0:0:
308,195,109835,2,0,P|271:200|235:213,1,75.0000028610231,10|0,0:2|0:0,0:0:0:0:
218,141,110135,2,0,P|223:177|236:213,1,75.0000028610231,2|0,0:2|0:0,0:0:0:0:
164,232,110435,2,0,P|200:226|236:213,1,75.0000028610231,2|0,3:2|0:0,0:0:0:0:
292,100,110735,6,0,P|239:50|170:67,1,150.000005722046,2|2,3:2|0:2,0:0:0:0:
0,231,111335,2,0,P|36:222|73:217,1,75.0000028610231,2|2,0:2|0:2,0:0:0:0:
84,213,111560,1,2,0:2:0:0:
93,207,111635,2,0,P|108:173|110:136,1,75.0000028610231,10|0,0:2|0:0,0:0:0:0:
0,47,111935,2,0,P|30:67|66:59,1,75.0000028610231,2|0,0:2|0:0,0:0:0:0:
267,27,112235,6,0,P|204:4|172:74,1,150,6|0,3:2|0:0,0:0:0:0:
186,97,112535,1,0,0:0:0:0:
337,172,112685,2,0,B|392:184|392:184|405:210|405:210|481:229,1,150.000005722046,2|0,3:2|0:0,0:0:0:0:
324,270,113135,2,0,L|247:294,1,75.0000028610231,10|2,0:2|0:2,0:0:0:0:
241,296,113360,1,2,0:2:0:0:
232,303,113435,2,0,P|256:330|259:366,1,75.0000028610231,2|0,0:2|0:0,0:0:0:0:
148,267,113735,2,0,P|163:233|194:212,1,75.0000028610231,2|0,3:2|0:0,0:0:0:0:
174,368,114035,6,0,B|135:367|105:384|105:384|87:341|47:326,1,150,2|0,3:2|0:0,0:0:0:0:
16,319,114335,2,0,P|10:281|1:245,1,75.0000028610231,0|0,0:0|3:2,0:0:0:0:
75,232,114635,2,0,P|37:237|1:246,1,75.0000028610231,2|0,0:2|3:2,0:0:0:0:
141,42,114935,5,10,0:2:0:0:
148,267,115085,1,8,0:2:0:0:
18,103,115235,1,8,0:2:0:0:
233,151,115385,1,8,0:2:0:0:
4,101,115535,6,0,B|0:127|10:158|10:158|-6:190|-6:190|2:220|2:245,1,150,6|0,3:2|0:0,0:0:0:0:
8,276,115835,1,0,0:0:0:0:
133,340,115985,6,0,L|151:253,1,75.0000028610231,2|0,3:2|0:0,0:0:0:0:
301,309,116285,1,2,0:2:0:0:
301,309,116360,1,2,0:2:0:0:
301,309,116435,2,0,P|266:322|229:316,1,75.0000028610231,10|0,0:2|0:0,0:0:0:0:
194,164,116735,1,2,0:2:0:0:
286,167,116885,1,2,0:2:0:0:
286,167,116960,1,2,0:2:0:0:
286,167,117035,2,0,P|279:203|256:232,1,75.0000028610231,10|0,0:2|0:0,0:0:0:0:
116,127,117335,6,0,P|164:73|236:84,1,150.000005722046,2|2,3:2|0:2,0:0:0:0:
380,177,117785,1,8,0:2:0:0:
437,100,117935,2,0,P|399:96|363:86,1,75.0000028610231,2|0,0:2|3:2,0:0:0:0:
257,232,118235,2,0,P|295:236|331:246,1,75.0000028610231,2|2,3:2|0:2,0:0:0:0:
339,253,118460,1,2,0:2:0:0:
347,260,118535,2,0,P|367:299|344:347,1,75.0000028610231,10|0,0:2|0:0,0:0:0:0:
164,384,118835,6,0,P|123:323|143:252,1,150,2|0,3:2|0:0,0:0:0:0:
168,230,119135,1,0,0:0:0:0:
45,114,119285,2,0,P|56:149|65:186,1,75.0000028610231,2|0,3:2|0:0,0:0:0:0:
191,57,119585,1,2,0:2:0:0:
191,57,119660,1,2,0:2:0:0:
191,57,119735,2,0,P|154:49|118:38,1,75.0000028610231,10|0,0:2|0:0,0:0:0:0:
141,137,120035,1,2,0:2:0:0:
291,96,120185,1,2,0:2:0:0:
291,96,120260,1,2,0:2:0:0:
291,96,120335,2,0,P|264:122|239:150,1,75.0000028610231,10|0,0:2|0:0,0:0:0:0:
401,249,120635,6,0,P|411:182|345:169,1,150,2|0,3:2|0:0,0:0:0:0:
322,197,120935,1,2,0:2:0:0:
425,338,121085,1,8,0:2:0:0:
344,384,121235,2,0,P|340:346|330:310,1,75.0000028610231,2|0,0:2|3:2,0:0:0:0:
477,194,121535,2,0,P|480:231|490:267,1,75.0000028610231,2|2,3:2|0:2,0:0:0:0:
495,279,121760,1,2,0:2:0:0:
500,288,121835,1,10,0:2:0:0:
322,197,121985,1,8,0:2:0:0:
464,28,122135,6,0,P|447:87|353:84,1,150,6|0,3:2|0:0,0:0:0:0:
341,73,122435,1,0,0:0:0:0:
251,220,122585,6,0,L|329:195,1,75.0000028610231,2|0,3:2|0:0,0:0:0:0:
174,99,122885,1,2,0:2:0:0:
174,99,122960,1,2,0:2:0:0:
174,99,123035,2,0,L|252:124,1,75.0000028610231,10|0,0:2|0:0,0:0:0:0:
165,191,123335,1,2,0:2:0:0:
98,27,123485,1,2,0:2:0:0:
98,27,123560,1,2,0:2:0:0:
98,27,123635,2,0,L|176:2,1,75.0000028610231,10|0,0:2|0:0,0:0:0:0:
9,96,123935,6,0,P|57:115|57:216,1,150.000005722046,2|2,3:2|0:2,0:0:0:0:
70,384,124385,1,8,0:2:0:0:
6,305,124535,2,0,P|43:299|79:289,1,75.0000028610231,2|0,0:2|3:2,0:0:0:0:
279,355,124835,2,0,P|241:360|205:370,1,75.0000028610231,2|2,3:2|0:2,0:0:0:0:
196,376,125060,1,2,0:2:0:0:
189,384,125135,2,0,P|170:352|170:315,1,75.0000028610231,10|0,0:2|0:3,0:3:0:0:
329,155,125435,6,0,P|384:201|383:274,1,150.000005722046,2|0,3:2|0:0,0:0:0:0:
371,298,125735,1,0,0:0:0:0:
225,250,125885,2,0,L|320:237,1,75.0000028610231,2|0,3:2|0:0,0:0:0:0:
425,374,126185,1,2,0:2:0:0:
425,374,126260,1,2,0:2:0:0:
425,374,126335,2,0,L|350:384,1,75.0000028610231,10|0,0:2|0:0,0:0:0:0:
275,327,126635,1,2,0:2:0:0:
467,224,126785,1,2,0:2:0:0:
467,224,126860,1,2,0:2:0:0:
467,224,126935,2,0,L|477:298,1,75.0000028610231,10|0,0:2|0:0,0:0:0:0:
230,161,127235,6,0,B|265:205|265:205|388:168,1,150,2|0,3:2|0:0,0:0:0:0:
381,167,127535,1,0,0:0:0:0:
198,51,127685,1,8,0:2:0:0:
128,253,127835,2,0,L|178:245,1,37.5000014305115,2|0,0:2|0:0,0:0:0:0:
267,313,127985,1,0,3:2:0:0:
267,313,128060,1,0,3:2:0:0:
267,313,128135,2,0,L|230:307,1,37.5000014305115,10|0,0:2|0:0,0:0:0:0:
134,169,128285,1,0,3:2:0:0:
134,169,128360,1,0,3:2:0:0:
134,169,128435,5,8,0:2:0:0:
101,149,128510,1,8,0:2:0:0:
64,150,128585,1,8,0:2:0:0:
32,169,128660,1,8,0:2:0:0:
13,202,128735,6,0,P|28:248|41:301,2,100,6|0|2,3:2|0:3|0:2,0:3:0:0:
153,374,129635,1,2,0:2:0:0:
153,374,129785,2,0,P|165:325|180:278,1,100,2|0,0:2|0:3,0:3:0:0:
236,207,130235,1,2,0:2:0:0:
353,326,130535,2,0,P|328:333|304:327,2,50,2|0|0,0:2|0:0|0:0,0:0:0:0:
420,263,130985,2,0,P|392:221|397:172,1,100,2|0,0:2|0:0,0:0:0:0:
475,125,131435,2,0,P|481:149|484:173,1,50,2|2,0:2|0:2,0:0:0:0:
95,321,131885,5,2,3:2:0:0:
95,321,131960,1,0,3:2:0:0:
95,321,132035,1,8,0:2:0:0:
111,338,132335,6,0,B|195:239|120:147|120:147|75:180|83:233,1,300.000011444092,6|0,3:2|0:0,0:0:0:0:
234,346,132785,6,0,B|237:299|289:253|289:253|241:209|238:150|238:150|283:159|291:193,1,300.000011444092,0|0,3:2|3:2,0:0:0:0:
159,80,133160,1,0,3:2:0:0:
159,80,133235,6,0,B|274:13|383:66|315:174|486:212|592:81|404:-30|397:80,1,450.000017166138,10|0,0:2|0:0,0:0:0:0:
405,220,133835,6,0,P|429:223|454:219,1,50,0|0,3:2|0:0,0:0:0:0:
312,339,134135,6,0,B|270:343|238:332|238:332|198:366|198:366|160:347|114:351|114:351|126:300|174:292,1,300.000011444092,2|0,3:2|0:0,0:0:0:0:
97,89,134585,6,0,B|153:86|178:141|178:141|115:219|0:175,1,300.000011444092,0|0,3:2|3:2,0:0:0:0:
4,94,134960,1,0,3:2:0:0:
4,94,135035,5,10,0:2:0:0:
268,240,135185,1,0,3:2:0:0:
15,376,135335,1,8,0:2:0:0:
127,170,135485,1,0,3:2:0:0:
127,170,135560,1,0,3:2:0:0:
127,170,135635,2,0,B|154:163|174:119|174:119|249:164|358:143,1,225.000008583069,10|0,0:2|0:0,0:0:0:0:
360,281,135935,6,0,B|384:201|322:148|322:148|380:119|388:85|388:85|358:106|324:98,1,300.000011444092,6|0,3:2|0:0,0:0:0:0:
445,317,136385,6,0,B|472:242|440:169|440:169|494:100|460:30,1,300.000011444092,0|0,3:2|3:2,0:0:0:0:
251,79,136760,1,0,3:2:0:0:
251,79,136835,6,0,B|201:162|269:246|269:246|188:246|138:339|138:339|118:276|148:246,1,450.000017166138,10|0,0:2|0:0,0:0:0:0:
305,344,137435,6,0,P|280:347|255:345,1,50,0|0,3:2|0:0,0:0:0:0:
0,271,137735,6,0,B|-7:324|53:362|53:362|23:248|84:188,1,300.000011444092,2|0,3:2|0:0,0:3:0:0:
292,66,138185,6,0,P|231:174|181:65,1,300.000011444092,0|0,3:2|3:2,0:0:0:0:
398,74,138560,1,0,3:2:0:0:
398,74,138635,6,0,P|405:110|398:147,1,75.0000028610231,10|0,0:2|0:0,0:0:0:0:
295,272,138785,1,0,3:2:0:0:
295,272,138860,1,0,3:2:0:0:
295,272,138935,2,0,P|322:247|358:235,1,75.0000028610231,10|0,0:2|0:0,0:0:0:0:
512,263,139085,2,0,P|477:251|448:226,1,75.0000028610231,0|0,3:2|0:0,0:0:0:0:
292,66,139235,5,10,0:2:0:0:
234,48,139310,1,8,0:2:0:0:
180,66,139385,1,8,0:2:0:0:
148,114,139460,1,8,0:2:0:0:
147,170,139535,6,0,B|205:265|141:356|141:356|85:333|89:277,1,300.000011444092,6|0,3:2|0:0,0:0:0:0:
359,271,139985,6,0,B|363:327|307:350|307:350|243:259|301:164,1,300.000011444092,0|0,3:2|3:2,0:0:0:0:
512,38,140360,1,0,3:2:0:0:
510,38,140435,6,0,B|441:61|406:143|406:143|354:55|271:31|271:31|322:2|381:43,1,450.000017166138,10|0,0:2|0:0,0:0:0:0:
512,160,141035,6,0,P|507:184|505:209,1,50,0|0,3:2|0:0,0:0:0:0:
362,377,141335,6,0,B|426:292|368:181|368:181|330:221|285:207,1,300.000011444092,2|0,3:2|0:0,0:0:0:0:
66,103,141785,6,0,B|79:77|134:59|134:59|183:111|256:116|256:116|213:134|194:164,1,300.000011444092,0|0,3:2|3:2,0:0:0:0:
189,254,142160,1,0,3:2:0:0:
189,254,142235,5,10,0:2:0:0:
384,78,142385,1,0,3:2:0:0:
310,309,142535,1,8,0:2:0:0:
230,28,142685,1,0,3:2:0:0:
230,28,142760,1,0,3:2:0:0:
229,27,142835,2,0,P|130:17|135:118,1,225.000008583069,10|0,0:2|0:0,0:0:0:0:
285,207,143135,6,0,B|339:178|396:210|396:210|454:243|511:203|511:203|479:206|450:195,1,300.000011444092,6|0,3:2|0:0,0:0:0:0:
310,309,143585,6,0,B|249:319|212:365|212:365|172:312|107:294|107:294|131:278|160:283,1,300.000011444092,0|0,3:2|3:2,0:0:0:0:
39,377,143960,1,0,3:2:0:0:
39,377,144035,6,0,B|-30:276|59:199|59:199|56:155|16:116|16:116|59:91|65:48|65:48|96:82|71:127,1,450.000017166138,10|0,0:2|0:0,0:0:0:0:
232,47,144635,6,0,P|223:70|220:95,1,50,0|0,3:2|0:0,0:0:0:0:
448,121,144935,6,0,B|493:122|519:90|519:90|456:56|409:84|409:84|363:116|310:93,1,300.000011444092,2|0,3:2|0:0,0:0:0:0:
117,253,145385,6,0,B|185:219|223:257|203:310|334:311|379:204|241:106|245:233,1,300.000011444092,0|0,3:2|3:2,0:0:0:0:
207,357,145760,1,0,3:2:0:0:
207,357,145835,6,0,P|242:368|279:363,1,75.0000028610231,10|0,0:2|0:0,0:0:0:0:
399,230,145985,1,0,3:2:0:0:
399,230,146060,1,0,3:2:0:0:
399,230,146135,2,0,P|387:265|392:302,1,75.0000028610231,8|0,0:2|0:0,0:0:0:0:
487,141,146285,2,0,P|461:113|427:99,1,75.0000028610231,0|0,3:2|0:0,0:0:0:0:
200,49,146435,5,8,0:2:0:0:
244,17,146510,1,8,0:2:0:0:
295,33,146585,1,8,0:2:0:0:
313,85,146660,1,8,0:2:0:0:
282,128,146735,6,0,P|232:245|280:363,1,259.999988098145,6|0,3:2|0:0,0:0:0:0:
60,132,147185,2,0,P|109:248|61:366,1,259.999988098145,2|0,3:2|3:2,0:0:0:0:
46,370,147560,1,0,3:2:0:0:
31,371,147635,6,0,P|-5:307|22:240,1,129.999994049073,10|0,0:2|0:0,0:0:0:0:
232,135,147935,2,0,P|266:188|254:250,1,129.999994049073,2|0,0:2|0:0,0:0:0:0:
15,54,148235,2,0,B|73:21|73:21|133:41,1,129.999994049073,2|0,3:2|0:0,0:0:0:0:
448,51,148535,6,0,B|388:43|332:104|332:104|299:34|237:28,1,259.999988098145,2|2,3:2|0:2,0:0:0:0:
24,139,148985,2,0,B|67:115|118:141|118:141|171:166|233:135|233:135|212:122|193:120,1,259.999988098145,0|0,3:2|3:2,0:0:0:0:
181,123,149360,1,0,3:2:0:0:
170,133,149435,5,10,0:2:0:0:
303,361,149585,1,0,3:2:0:0:
339,61,149735,1,10,0:2:0:0:
115,244,149885,1,0,3:2:0:0:
115,244,149960,1,0,3:2:0:0:
115,244,150035,2,0,P|176:273|254:185,1,194.999991073609,10|0,0:2|0:0,0:0:0:0:
170,133,150335,6,0,B|219:137|260:178|260:178|289:137|354:144|354:144|354:169|329:188,1,259.999988098145,6|0,3:2|0:0,0:0:0:0:
139,40,150785,2,0,B|203:25|265:65|265:65|320:34|388:52,1,259.999988098145,2|0,3:2|3:2,0:0:0:0:
397,60,151160,1,0,3:2:0:0:
407,66,151235,6,0,P|471:80|532:30,1,129.999994049073,10|0,0:2|0:0,0:0:0:0:
330,188,151535,2,0,P|316:252|366:313,1,129.999994049073,2|0,0:2|0:0,0:0:0:0:
170,133,151835,2,0,P|106:119|45:169,1,129.999994049073,2|0,3:2|0:0,0:0:0:0:
238,46,152135,6,0,P|118:4|0:48,1,259.999988098145,2|2,3:2|0:2,0:0:0:0:
129,253,152585,2,0,P|178:185|52:155,1,259.999988098145,0|0,3:2|3:2,0:0:0:0:
51,166,152960,1,0,3:2:0:0:
54,180,153035,5,10,0:2:0:0:
282,52,153185,1,0,3:2:0:0:
261,45,153260,1,0,3:2:0:0:
239,46,153335,1,8,0:2:0:0:
210,338,153485,1,0,3:2:0:0:
463,210,153635,1,8,0:2:0:0:
424,179,153710,1,8,0:2:0:0:
377,167,153785,1,8,0:2:0:0:
329,174,153860,1,8,0:2:0:0:
289,201,153935,6,0,P|368:220|356:84,1,259.999988098145,6|0,3:2|0:0,0:0:0:0:
210,338,154385,2,0,P|329:384|455:338,1,259.999988098145,2|0,3:2|3:2,0:0:0:0:
457,335,154760,1,0,3:2:0:0:
462,323,154835,6,0,P|433:258|386:269,1,129.999994049073,10|0,0:2|0:0,0:0:0:0:
167,200,155135,2,0,P|230:219|300:194,1,129.999994049073,2|0,0:2|0:0,0:0:0:0:
488,35,155435,2,0,P|428:35|417:94,1,129.999994049073,2|0,3:2|0:0,0:0:0:0:
213,307,155735,6,0,B|338:272|315:398|457:335,1,259.999988098145,2|2,3:2|0:2,0:0:0:0:
231,129,156185,2,0,P|162:108|108:271,1,259.999988098145,0|0,3:2|3:2,0:0:0:0:
97,263,156560,1,0,3:2:0:0:
108,271,156635,5,10,0:2:0:0:
112,15,156785,1,0,3:2:0:0:
253,259,156935,1,10,0:2:0:0:
21,151,157085,1,0,3:2:0:0:
21,151,157160,1,0,3:0:0:0:
21,150,157235,2,0,P|-25:233|0:325,1,194.999991073609,10|0,0:2|0:0,0:0:0:0:
153,371,157535,6,0,B|194:248|67:264|137:125,1,259.999988098145,6|0,3:2|0:0,0:0:0:0:
390,44,157985,2,0,P|297:18|318:142,1,259.999988098145,2|0,3:2|3:2,0:0:0:0:
324,143,158360,1,0,3:2:0:0:
337,139,158435,6,0,P|400:126|480:146,1,129.999994049073,10|0,0:2|0:0,0:0:0:0:
285,323,158735,2,0,P|226:315|230:256,1,129.999994049073,2|0,0:2|0:0,0:0:0:0:
139,14,159035,1,2,3:2:0:0:
183,32,159110,1,0,3:2:0:0:
212,70,159185,1,0,3:2:0:0:
218,118,159260,1,0,3:2:0:0:
200,163,159335,5,10,0:2:0:0:
9,16,159485,1,0,3:2:0:0:
78,285,159635,1,8,0:2:0:0:
310,151,159785,1,0,3:2:0:0:
310,151,159860,1,0,3:2:0:0:
310,151,159935,5,8,0:2:0:0:
59,110,160085,1,8,0:2:0:0:
267,308,160235,5,10,0:2:0:0:
297,318,160310,1,8,0:2:0:0:
329,319,160385,1,0,3:2:0:0:
360,308,160460,1,0,3:2:0:0:
386,289,160535,5,8,0:3:0:0:
396,275,160610,1,8,0:3:0:0:
400,260,160685,1,0,3:2:0:0:
400,243,160760,1,0,3:2:0:0:
395,228,160835,5,8,0:2:0:0:
370,268,160910,1,8,0:2:0:0:
382,314,160985,1,8,0:2:0:0:
424,336,161060,1,8,0:2:0:0:
469,321,161135,6,0,P|485:269|471:200,1,119.999996337891,6|0,3:2|0:0,0:0:0:0:
342,91,161585,2,0,P|395:81|388:147,1,119.999996337891,2|0,0:2|0:0,0:0:0:0:
257,119,162035,2,0,P|254:81|245:45,1,59.9999981689454,2|0,0:2|0:0,0:0:0:0:
331,179,162335,2,0,P|325:208|323:238,1,59.9999981689454,2|0,0:2|0:0,0:0:0:0:
417,369,162635,6,0,P|377:327|320:336,1,119.999996337891,2|0,0:2|0:0,0:0:0:0:
244,381,163085,2,0,P|242:351|236:321,1,59.9999981689454,2|0,0:2|0:0,0:0:0:0:
184,239,163385,1,2,0:2:0:0:
109,330,163535,2,0,P|77:344|24:319,1,89.9999972534181,2|0,0:2|0:0,0:0:0:0:
17,308,163835,2,0,P|18:278|24:248,1,59.9999981689454,2|0,0:2|0:0,0:0:0:0:
148,146,164135,6,0,P|113:171|24:138,1,119.999996337891,2|0,0:2|0:0,0:0:0:0:
105,53,164585,2,0,P|164:58|223:68,1,119.999996337891,2|0,0:2|0:0,0:0:0:0:
304,107,165035,2,0,P|314:76|304:36,1,59.9999981689454,2|0,0:2|0:0,0:0:0:0:
236,157,165335,2,0,P|257:181|297:192,1,59.9999981689454,2|0,0:2|0:0,0:0:0:0:
417,122,165635,6,0,P|374:152|384:218,1,119.999996337891,2|0,0:2|0:0,0:0:0:0:
499,170,166085,2,0,P|493:110|482:51,1,119.999996337891,2|0,0:2|0:0,0:0:0:0:
398,5,166535,1,2,0:2:0:0:
289,118,166685,1,0,3:2:0:0:
289,118,166760,1,0,3:2:0:0:
289,118,166835,2,0,P|245:125|212:82,1,89.9999972534181,10|0,0:2|0:0,0:0:0:0:
196,72,167135,6,0,P|183:130|174:190,1,119.999996337891,6|0,3:2|0:0,0:0:0:0:
79,275,167585,2,0,P|125:265|163:332,1,119.999996337891,2|0,0:2|0:0,0:0:0:0:
267,238,168035,2,0,P|251:280|259:319,1,59.9999981689454,2|0,0:2|0:0,0:0:0:0:
352,379,168335,2,0,P|353:349|356:319,1,59.9999981689454,2|0,0:2|0:0,0:0:0:0:
453,198,168635,6,0,P|416:238|341:219,1,119.999996337891,2|0,0:2|0:0,0:0:0:0:
235,144,169085,2,0,P|261:145|294:148,1,59.9999981689454,2|0,0:2|0:0,0:0:0:0:
384,158,169385,1,2,0:2:0:0:
307,48,169535,2,0,P|343:61|399:24,1,89.9999972534181,2|0,0:2|0:0,0:0:0:0:
403,28,169835,2,0,P|432:30|462:36,1,59.9999981689454,2|0,0:2|0:0,0:0:0:0:
512,213,170135,6,0,P|474:206|424:272,1,119.999996337891,2|0,3:2|0:0,0:0:0:0:
344,359,170585,2,0,P|337:299|329:239,1,119.999996337891,2|0,0:2|0:0,0:0:0:0:
219,89,171035,1,10,0:2:0:0:
98,236,171185,1,0,3:2:0:0:
98,236,171260,1,0,3:2:0:0:
98,236,171335,2,0,P|136:209|193:222,1,89.9999972534181,10|0,0:2|0:0,0:0:0:0:
206,232,171635,5,2,0:2:0:0:
206,232,173135,6,0,B|279:260|330:198|330:198|287:191|266:152,1,200,6|0,3:2|0:0,0:0:0:0:
116,269,173585,2,0,P|87:309|90:358,1,100,2|0,3:2|0:0,0:0:0:0:
179,146,173885,1,0,3:2:0:0:
179,146,173960,1,0,3:2:0:0:
179,146,174035,2,0,B|177:110|204:79|204:79|159:58|148:18,1,150,10|0,0:2|0:0,0:0:0:0:
71,47,174335,2,0,B|73:83|46:114|46:114|91:135|102:175,1,150,2|0,3:2|0:0,0:0:0:0:
193,236,174635,6,0,P|253:219|338:331,1,200,6|0,3:2|0:0,0:0:0:0:
427,90,175085,2,0,P|381:110|332:122,1,100,10|0,0:2|0:0,0:0:0:0:
247,313,175385,1,2,3:2:0:0:
191,108,175535,1,10,0:2:0:0:
370,223,175685,1,0,3:2:0:0:
370,223,175760,1,0,3:2:0:0:
370,223,175835,2,0,B|413:242|473:222|473:222|469:250|451:259,1,150,10|0,0:2|0:0,0:0:0:0:
340,308,176135,6,0,B|295:258|336:202|352:213|377:149|305:95,1,200,4|0,0:0|0:0,0:0:0:0:
176,9,176585,2,0,P|186:59|191:108,1,100,2|0,3:2|0:0,0:0:0:0:
405,77,176885,1,0,3:2:0:0:
405,77,176960,1,0,3:2:0:0:
405,77,177035,2,0,P|350:29|281:47,1,150,10|0,0:2|0:0,0:0:0:0:
260,165,177335,2,0,P|314:212|383:194,1,150,10|0,0:2|0:0,0:0:0:0:
331,122,177635,6,0,P|309:219|298:318,1,200,6|0,3:2|0:0,0:0:0:0:
170,187,178085,2,0,P|181:235|186:285,1,100,10|0,0:2|0:0,0:0:0:0:
396,372,178385,1,2,3:2:0:0:
396,372,178460,1,0,3:2:0:0:
396,372,178535,2,0,P|405:285|425:201,1,150,10|0,0:2|0:0,0:0:0:0:
415,128,178835,1,2,3:2:0:0:
382,110,178910,1,0,3:2:0:0:
345,107,178985,1,2,3:2:0:0:
310,120,179060,1,0,3:2:0:0:
284,146,179135,6,0,B|298:164|331:167|331:167|372:84|328:27,1,200,6|0,3:2|0:0,0:0:0:0:
235,223,179585,2,0,P|277:256|355:245,1,100,2|0,3:2|0:0,0:0:0:0:
231,66,179885,1,0,3:2:0:0:
231,66,179960,1,0,3:2:0:0:
231,66,180035,2,0,B|195:68|164:41|164:41|143:86|103:97,1,150,10|0,0:2|0:0,0:0:0:0:
42,141,180335,2,0,B|78:143|109:116|109:116|130:161|170:172,1,150,2|0,3:2|0:0,0:0:0:0:
235,223,180635,6,0,B|161:179|106:248|106:248|138:262|160:312,1,200,6|0,3:2|0:0,0:0:0:0:
330,225,181085,2,0,P|370:184|365:134,1,100,10|0,0:2|0:0,0:0:0:0:
241,334,181385,1,2,3:2:0:0:
440,287,181535,1,10,0:2:0:0:
282,152,181685,1,0,3:2:0:0:
282,152,181760,1,0,3:2:0:0:
282,152,181835,2,0,B|248:124|251:81|251:81|292:70|317:25,1,150,10|0,0:2|0:0,0:0:0:0:
390,6,182135,6,0,P|403:105|425:202,1,200,6|0,3:2|0:0,0:0:0:0:
241,334,182585,2,0,P|252:285|258:235,1,100,2|0,3:2|0:0,0:0:0:0:
144,79,182885,1,0,3:2:0:0:
144,79,182960,1,0,3:2:0:0:
144,79,183035,2,0,P|84:59|28:127,1,150,10|0,0:2|0:0,0:0:0:0:
33,202,183335,1,2,3:2:0:0:
70,194,183410,1,0,3:2:0:0:
106,200,183485,1,0,3:2:0:0:
138,221,183560,1,0,3:2:0:0:
158,252,183635,5,14,0:2:0:0:
378,125,183785,1,0,3:2:0:0:
178,4,183935,1,10,0:2:0:0:
289,239,184085,1,0,3:2:0:0:
289,239,184160,1,0,3:2:0:0:
289,239,184235,1,10,0:2:0:0:
388,24,184385,1,0,3:2:0:0:
498,233,184535,1,10,0:2:0:0:
512,277,184610,1,8,0:3:0:0:
506,313,184685,1,0,3:2:0:0:
492,337,184760,1,0,3:2:0:0:
478,350,184835,5,10,0:2:0:0:
441,345,184910,1,8,0:2:0:0:
404,340,184985,1,8,0:2:0:0:
367,335,185060,1,8,0:2:0:0:
330,330,185135,6,0,P|295:341|242:368,1,80,6|0,3:2|0:0,0:0:0:0:
170,341,185735,1,2,0:2:0:0:
225,273,186035,2,0,P|263:261|300:245,2,80,2|0|0,0:2|0:0|0:0,0:0:0:0:
172,153,186935,6,0,P|150:202|171:237,1,80,2|0,0:2|0:0,0:0:0:0:
226,274,187535,1,2,0:2:0:0:
169,336,187835,2,0,P|120:347|79:362,2,80,2|0|0,0:2|0:0|0:0,0:0:0:0:
3,234,188735,6,0,P|40:246|79:255,1,80,2|0,0:2|0:0,0:0:0:0:
159,224,189335,1,2,0:2:0:0:
19,142,189635,2,0,P|57:150|95:163,2,80,2|0|0,0:2|0:0|0:0,0:0:0:0:
228,201,190535,6,0,P|191:228|151:218,1,80,2|0,0:2|0:0,0:0:0:0:
96,163,191135,1,2,0:2:0:0:
129,26,191435,2,0,P|155:56|152:95,2,80,2|0|0,0:2|0:0|0:0,0:0:0:0:
40,231,192335,6,0,P|36:269|62:299,1,80,2|0,0:2|0:0,0:0:0:0:
110,371,192935,1,2,0:2:0:0:
186,332,193235,2,0,P|225:328|257:350,2,80,2|0|0,0:2|0:0|0:0,0:0:0:0:
322,293,194135,6,0,P|344:324|341:364,1,80,2|0,0:2|0:0,0:0:0:0:
242,265,194735,1,2,0:2:0:0:
309,209,195035,2,0,P|348:205|380:227,2,80,2|0|0,0:2|0:0|0:0,0:0:0:0:
415,315,195935,6,0,P|450:297|466:262,1,80,2|0,0:2|0:0,0:0:0:0:
512,189,196535,1,2,0:2:0:0:
367,153,196835,2,0,P|362:192|380:226,2,80,2|0|0,0:2|0:0|0:0,0:0:0:0:
451,37,197735,6,0,P|455:76|437:110,1,80,2|0,0:2|0:0,0:0:0:0:
367,153,198335,1,2,0:2:0:0:
238,62,198635,2,0,P|278:69|316:82,1,80,2|0,0:2|0:0,0:0:0:0:
146,167,199235,6,0,B|155:139|145:109|145:109|159:139|199:149,1,112.500004291535
247,189,199535,6,0,P|211:263|193:343,2,165.000005035401,6|2|2,3:2|0:0|0:2,0:0:0:0:
374,267,200735,1,2,0:2:0:0:
289,289,201035,1,2,0:2:0:0:
340,183,201335,6,0,P|392:173|436:205,1,110.000003356934,2|0,0:2|0:0,0:0:0:0:
454,298,201935,1,2,0:2:0:0:
318,384,202235,2,0,P|283:342|289:289,1,110.000003356934,2|0,0:2|0:0,0:0:0:0:
374,267,202835,1,2,0:2:0:0:
196,348,203135,6,0,B|159:288|85:317|85:317|108:353,2,165.000005035401,6|2|2,3:2|0:0|0:2,0:0:0:0:
305,235,204335,1,2,0:2:0:0:
221,189,204635,1,2,0:2:0:0:
289,343,204935,6,0,P|325:323|398:312,1,110.000003356934,2|0,0:2|0:0,0:0:0:0:
465,356,205535,1,2,0:2:0:0:
380,208,205835,2,0,B|341:222|309:190|308:144|338:107|384:94|440:103|484:173|454:236,1,302.500009231568,2|0,0:2|0:0,0:0:0:0:
452,227,206735,6,0,P|481:139|476:62,2,165.000005035401,6|2|2,3:2|0:0|0:2,0:0:0:0:
306,161,207935,1,2,0:2:0:0:
392,131,208235,1,2,0:2:0:0:
396,294,208535,6,0,P|342:260|291:247,1,110.000003356934,2|0,0:2|0:0,0:0:0:0:
224,197,209135,1,2,0:2:0:0:
296,53,209435,2,0,P|294:116|308:166,1,110.000003356934,2|0,0:2|0:0,0:0:0:0:
297,248,210035,1,2,0:2:0:0:
175,131,210335,5,6,0:2:0:0:
118,66,211235,5,2,0:2:0:0:
36,79,212135,5,2,0:2:0:0:
0,152,213035,6,0,P|4:182|6:212,1,59.9999981689454,2|0,0:2|0:0,0:0:0:0:
88,356,213485,5,0,3:2:0:0:
88,356,213560,1,0,3:2:0:0:
88,356,213635,1,8,0:2:0:0:
102,334,213935,6,0,B|200:298|179:376|279:334,2,179.999994506836,6|6|6,3:2|0:2|0:2,0:0:0:0:
299,55,216485,5,0,3:2:0:0:
299,55,216560,1,0,3:2:0:0:
299,55,216635,2,0,P|311:90|303:130,1,59.9999981689454,14|0,0:2|0:0,0:0:0:0:
325,291,216935,6,0,P|279:265|178:257,1,134.999995880127,0|0,3:2|0:0,0:0:0:0:
125,223,217235,2,0,P|191:216|251:185,1,134.999995880127,2|0,3:2|0:0,0:0:0:0:
357,195,217535,6,0,B|374:254|374:254|350:295|350:295|369:369,1,179.999994506836,6|6,3:2|0:2,0:0:0:0:
442,115,219185,5,0,3:2:0:0:
442,115,219260,1,0,3:2:0:0:
442,115,219335,5,14,0:2:0:0:
418,86,219410,1,8,0:2:0:0:
385,69,219485,1,0,3:2:0:0:
348,66,219560,1,0,3:2:0:0:
312,78,219635,5,8,0:3:0:0:
289,88,219710,1,8,0:3:0:0:
264,90,219785,1,0,3:2:0:0:
240,84,219860,1,0,3:2:0:0:
219,72,219935,5,0,3:2:0:0:
215,59,220010,1,0,3:2:0:0:
214,47,220085,1,0,3:2:0:0:
215,35,220160,1,0,3:2:0:0:
219,23,220235,5,14,0:2:0:0:
247,315,221135,5,14,0:2:0:0:
350,111,221285,1,0,3:2:0:0:
240,339,221435,1,8,0:2:0:0:
359,95,221585,1,0,3:2:0:0:
235,355,221735,1,8,0:2:0:0:
369,74,221885,1,0,3:2:0:0:
164,168,222035,5,10,0:2:0:0:
367,302,222185,1,0,3:2:0:0:
385,306,222260,1,0,3:2:0:0:
403,303,222335,1,8,0:2:0:0:
142,153,222485,1,0,3:2:0:0:
369,74,222635,1,8,0:2:0:0:
74,2,222785,1,0,3:0:0:0:
59,1,222860,1,0,3:0:0:0:
45,8,222935,5,10,0:2:0:0:
100,257,223085,1,0,3:2:0:0:
209,42,223235,1,8,0:2:0:0:
94,279,223385,1,0,3:2:0:0:
220,23,223535,1,8,0:2:0:0:
85,295,223685,1,0,3:2:0:0:
287,137,223835,5,10,0:2:0:0:
72,80,223985,1,0,3:2:0:0:
53,80,224060,1,0,3:2:0:0:
36,88,224135,1,8,0:2:0:0:
223,239,224285,1,0,3:2:0:0:
220,23,224435,1,10,0:2:0:0:
74,176,224585,1,0,3:2:0:0:
70,194,224660,1,0,3:2:0:0:
73,212,224735,5,14,0:2:0:0:
286,132,224885,1,0,3:2:0:0:
79,69,225035,1,8,0:2:0:0:
303,134,225185,1,0,3:2:0:0:
68,59,225335,1,8,0:2:0:0:
318,139,225485,1,0,3:2:0:0:
178,268,225635,5,10,0:2:0:0:
278,40,225785,1,0,3:2:0:0:
296,36,225860,1,0,3:2:0:0:
314,39,225935,1,8,0:2:0:0:
381,249,226085,1,0,3:2:0:0:
207,121,226235,1,8,0:2:0:0:
412,11,226385,1,0,3:2:0:0:
416,29,226460,1,0,3:2:0:0:
413,47,226535,5,10,0:2:0:0:
268,269,226685,1,0,3:2:0:0:
497,165,226835,1,8,0:2:0:0:
314,39,226985,1,0,3:2:0:0:
381,249,227135,1,8,0:2:0:0:
121,114,227285,1,0,3:2:0:0:
120,96,227360,1,0,3:2:0:0:
125,82,227435,5,10,0:2:0:0:
157,62,227510,1,8,0:2:0:0:
194,60,227585,1,0,3:2:0:0:
228,75,227660,1,0,3:2:0:0:
251,105,227735,5,8,0:3:0:0:
267,124,227810,1,8,0:3:0:0:
288,137,227885,1,0,3:2:0:0:
312,141,227960,1,0,3:2:0:0:
337,136,228035,5,0,3:2:0:0:
353,127,228110,1,0,3:2:0:0:
371,123,228185,1,0,3:2:0:0:
390,124,228260,1,0,3:2:0:0:
408,130,228335,6,0,B|435:151|452:187|452:187|430:215|431:260,1,150.000005722046,14|0,0:2|3:2,0:0:0:0:
226,384,228635,1,8,0:2:0:0:
341,218,228785,1,2,3:2:0:0:
141,197,228935,1,8,0:2:0:0:
342,351,229085,1,0,3:2:0:0:
245,122,229235,5,10,0:2:0:0:
110,291,229385,1,0,3:2:0:0:
88,287,229460,1,0,3:2:0:0:
69,279,229535,2,0,P|32:215|47:143,1,150.000005722046,10|0,0:2|3:2,0:0:0:0:
215,296,229835,1,10,0:2:0:0:
343,84,229985,1,0,3:2:0:0:
336,64,230060,1,0,3:2:0:0:
326,49,230135,6,0,P|262:12|190:27,1,150.000005722046,10|0,0:2|3:2,0:0:0:0:
386,190,230435,2,0,B|424:193|456:211|456:211|473:177|512:161,1,150.000005722046,10|0,0:2|3:2,0:0:0:0:
236,163,230735,2,0,P|197:232|224:307,1,150.000005722046,10|0,0:2|3:2,0:0:0:0:
463,353,231035,5,10,0:2:0:0:
446,91,231185,1,0,3:2:0:0:
428,87,231260,1,0,3:2:0:0:
410,90,231335,5,10,0:2:0:0:
288,238,231485,1,0,3:2:0:0:
210,26,231635,1,10,0:2:0:0:
5,160,231785,1,0,3:2:0:0:
10,182,231860,1,0,3:2:0:0:
21,197,231935,6,0,B|60:189|80:163|80:163|122:159|156:181,1,150.000005722046,14|0,0:2|3:2,0:0:0:0:
345,348,232235,1,8,0:2:0:0:
298,109,232385,1,2,3:2:0:0:
356,366,232535,1,8,0:2:0:0:
291,93,232685,1,0,3:2:0:0:
475,251,232835,5,10,0:2:0:0:
213,309,232985,1,0,3:2:0:0:
195,316,233060,1,0,3:2:0:0:
174,316,233135,2,0,P|138:252|157:181,1,150.000005722046,10|0,0:2|3:2,0:0:0:0:
364,24,233435,1,10,0:2:0:0:
474,211,233585,1,0,3:2:0:0:
474,229,233660,1,0,3:2:0:0:
475,251,233735,6,0,B|450:273|436:291|436:291|401:283|343:278,1,150.000005722046,10|0,0:2|3:2,0:0:0:0:
87,101,234035,2,0,B|111:78|125:60|125:60|160:68|218:73,1,150.000005722046,10|0,0:2|3:2,0:0:0:0:
57,330,234335,2,0,B|42:296|16:265|16:265|33:236|41:196,1,150.000005722046,10|0,0:2|3:2,0:0:0:0:
299,31,234635,5,10,0:2:0:0:
219,260,234785,1,0,3:2:0:0:
216,284,234860,1,0,3:2:0:0:
213,309,234935,1,8,0:2:0:0:
394,143,235085,1,0,3:2:0:0:
397,167,235160,1,0,3:2:0:0:
400,192,235235,1,8,0:2:0:0:
179,384,235385,1,0,3:2:0:0:
157,382,235460,1,0,3:2:0:0:
139,379,235535,6,0,L|119:230,1,150.000005722046,14|0,0:2|3:2,0:0:0:0:
299,31,235835,1,8,0:2:0:0:
230,259,235985,1,2,3:2:0:0:
112,69,236135,1,8,0:2:0:0:
34,304,236285,1,0,3:2:0:0:
222,144,236435,5,10,0:2:0:0:
314,312,236585,1,0,3:2:0:0:
308,333,236660,1,0,3:2:0:0:
295,353,236735,2,0,P|209:373|144:319,1,150.000005722046,10|0,0:2|3:2,0:0:0:0:
370,194,237035,1,10,0:2:0:0:
182,8,237185,1,0,3:2:0:0:
204,0,237260,1,0,3:2:0:0:
220,1,237335,6,0,B|235:34|217:72|217:72|199:106|222:144,1,150.000005722046,10|0,0:2|3:2,0:0:0:0:
438,111,237635,2,0,B|374:74|374:74|264:122,1,150.000005722046,10|0,0:2|3:2,0:0:0:0:
117,284,237935,2,0,B|186:314|186:314|250:277,1,150.000005722046,10|0,0:2|3:2,0:0:0:0:
48,112,238235,5,10,0:2:0:0:
0,327,238385,1,0,3:2:0:0:
3,351,238460,1,0,3:2:0:0:
6,376,238535,1,10,0:2:0:0:
187,151,238685,1,0,3:2:0:0:
5,232,238835,1,10,0:2:0:0:
256,373,238985,1,0,3:2:0:0:
278,360,239060,1,0,3:2:0:0:
298,350,239135,6,0,L|279:202,1,150.000005722046,14|0,0:2|3:2,0:0:0:0:
468,38,239435,1,8,0:2:0:0:
396,267,239585,1,2,3:2:0:0:
477,22,239735,1,8,0:2:0:0:
389,285,239885,1,0,3:2:0:0:
275,24,240035,5,10,0:2:0:0:
104,190,240185,1,0,3:2:0:0:
102,211,240260,1,0,3:2:0:0:
108,228,240335,2,0,B|162:279|162:279|259:262,1,150.000005722046,10|0,0:2|3:2,0:0:0:0:
435,146,240635,1,10,0:2:0:0:
275,24,240785,1,0,3:2:0:0:
251,17,240860,1,0,3:2:0:0:
227,21,240935,6,0,L|246:169,1,150.000005722046,10|0,0:2|3:2,0:0:0:0:
421,361,241235,1,8,0:2:0:0:
341,92,241385,1,0,3:2:0:0:
218,348,241535,1,8,0:2:0:0:
506,226,241685,1,0,3:2:0:0:
275,24,241835,5,10,0:2:0:0:
240,9,241910,1,8,0:2:0:0:
203,8,241985,1,0,3:2:0:0:
169,22,242060,1,0,3:2:0:0:
143,49,242135,5,8,0:3:0:0:
154,63,242210,1,8,0:3:0:0:
162,80,242285,1,0,3:2:0:0:
165,99,242360,1,0,3:2:0:0:
164,117,242435,5,8,0:2:0:0:
124,155,242510,1,8,0:2:0:0:
108,209,242585,1,8,0:2:0:0:
120,263,242660,1,8,0:2:0:0:
158,304,242735,5,14,0:2:0:0:
259,228,242885,1,8,0:2:0:0:
384,268,243035,1,8,0:2:0:0:
154,312,243185,1,8,0:2:0:0:
256,218,243335,1,8,0:2:0:0:
384,257,243485,1,8,0:2:0:0:
149,322,243635,1,8,0:2:0:0:
253,209,243785,1,8,0:2:0:0:
387,246,243935,1,8,0:2:0:0:
144,333,244085,1,8,0:2:0:0:
251,193,244235,1,8,0:2:0:0:
390,235,244385,1,8,0:2:0:0:
138,345,244535,1,8,0:2:0:0:
247,180,244685,1,8,0:2:0:0:
397,222,244835,1,8,0:2:0:0:
135,357,244985,1,8,0:2:0:0:
243,169,245135,1,8,0:2:0:0:
406,209,245285,1,8,0:2:0:0:
221,308,245435,5,10,0:2:0:0:
124,186,245585,1,8,0:2:0:0:
212,54,245735,1,8,0:2:0:0:
223,322,245885,1,8,0:2:0:0:
110,190,246035,1,8,0:2:0:0:
200,40,246185,1,8,0:2:0:0:
456,117,246335,5,10,0:2:0:0:
347,98,246485,1,8,0:2:0:0:
268,177,246635,1,8,0:2:0:0:
460,110,246785,1,8,0:2:0:0:
344,88,246935,1,8,0:2:0:0:
259,175,247085,1,8,0:2:0:0:
463,102,247235,1,8,0:2:0:0:
340,78,247385,1,8,0:2:0:0:
252,168,247535,1,8,0:2:0:0:
467,94,247685,1,8,0:2:0:0:
336,69,247835,1,8,0:2:0:0:
243,159,247985,1,8,0:2:0:0:
474,85,248135,1,8,0:2:0:0:
331,54,248285,1,8,0:2:0:0:
230,152,248435,1,8,0:2:0:0:
480,72,248585,1,8,0:2:0:0:
324,43,248735,1,8,0:2:0:0:
220,146,248885,1,8,0:2:0:0:
390,348,249035,5,10,0:2:0:0:
300,226,249185,1,8,0:2:0:0:
403,125,249335,1,8,0:2:0:0:
402,357,249485,1,8,0:2:0:0:
289,232,249635,1,8,0:2:0:0:
408,112,249785,1,8,0:2:0:0:
236,331,249935,5,10,0:2:0:0:
128,309,250085,1,8,0:2:0:0:
86,210,250235,1,8,0:2:0:0:
242,338,250385,1,8,0:2:0:0:
124,314,250535,1,8,0:2:0:0:
80,208,250685,1,8,0:2:0:0:
250,344,250835,1,8,0:2:0:0:
117,321,250985,1,8,0:2:0:0:
71,202,251135,1,8,0:2:0:0:
253,354,251285,1,8,0:2:0:0:
107,332,251435,1,8,0:2:0:0:
59,198,251585,1,8,0:2:0:0:
263,43,251735,5,8,0:2:0:0:
183,125,251885,1,8,0:2:0:0:
205,246,252035,1,8,0:2:0:0:
267,36,252185,1,8,0:2:0:0:
176,121,252335,1,8,0:2:0:0:
197,248,252485,1,8,0:2:0:0:
269,26,252635,1,8,0:2:0:0:
167,117,252785,1,8,0:2:0:0:
189,258,252935,1,8,0:2:0:0:
275,19,253085,1,8,0:2:0:0:
159,111,253235,1,8,0:2:0:0:
186,267,253385,1,8,0:2:0:0:
397,82,253535,5,10,0:2:0:0:
336,301,253685,1,8,0:2:0:0:
250,115,253835,1,8,0:2:0:0:
451,248,253985,1,10,0:2:0:0:
228,365,254135,1,8,0:2:0:0:
353,177,254285,1,8,0:2:0:0:
133,132,254435,5,10,0:2:0:0:
336,301,254585,1,8,0:2:0:0:
259,91,254735,1,10,0:2:0:0:
87,274,254885,1,8,0:2:0:0:
64,15,255035,1,10,0:2:0:0:
258,219,255185,1,8,0:2:0:0:
458,68,255335,5,10,0:2:0:0:
499,103,255410,1,8,0:2:0:0:
512,157,255485,1,8,0:2:0:0:
491,208,255560,1,8,0:2:0:0:
443,237,255635,2,0,P|406:241|374:225,1,75.0000028610231,0|0,3:2|3:2,0:0:0:0:
180,54,255785,5,8,0:2:0:0:
216,12,255860,1,8,0:2:0:0:
269,0,255935,1,8,0:2:0:0:
321,20,256010,1,8,0:2:0:0:
349,69,256085,2,0,P|353:105|337:137,1,75.0000028610231,0|0,3:2|3:2,3:0:0:0:
151,171,256235,5,10,0:2:0:0:
100,194,256310,1,8,0:2:0:0:
67,238,256385,1,0,3:2:0:0:
60,294,256460,1,0,3:2:0:0:
81,346,256535,5,8,0:2:0:0:
108,371,256610,1,8,0:2:0:0:
144,382,256685,1,0,3:2:0:0:
180,377,256760,1,0,3:2:0:0:
212,357,256835,5,8,0:3:0:0:
221,340,256910,1,8,0:3:0:0:
222,321,256985,1,0,3:2:0:0:
215,305,257060,1,0,3:2:0:0:
201,293,257135,6,0,B|158:243|166:174|211:142|242:166|284:85|232:24|232:24|197:-8|158:0|122:66|155:128|264:162|367:139|397:77|415:13|415:13|397:127|499:176|499:176|458:239|458:239|404:217|378:178|378:178|341:198|292:200|292:200|368:260|375:330|357:360|325:366|300:349|296:321|315:303,1,1439.99995605469,6|0,3:2|0:0,0:0:0:0:
