osu file format v14

[General]
AudioFilename: Sad Spring.mp3
AudioLeadIn: 0
PreviewTime: 45684
Countdown: 0
SampleSet: Normal
StackLeniency: 0.5
Mode: 0
LetterboxInBreaks: 1
WidescreenStoryboard: 0

[Editor]
DistanceSpacing: 1.1
BeatDivisor: 4
GridSize: 4
TimelineZoom: 1

[Metadata]
Title:Sad Spring
TitleUnicode:Sad Spring
Artist:Draw the Emotional
ArtistUnicode:Draw the Emotional
Creator:LawL4Ever
Version:Extra Stage
Source:Touhou Project
Tags:Foreground Eclipse seated with liquor border of life perfect cherry blossom
BeatmapID:838945
BeatmapSetID:383839

[Difficulty]
HPDrainRate:6
CircleSize:4
OverallDifficulty:8.5
ApproachRate:9.2
SliderMultiplier:1.4
SliderTickRate:1

[Events]
//Background and Video events
0,0,"1416942492405.jpg",0,0
//Break Periods
2,14253,22940
2,98057,111001
//Storyboard Layer 0 (Background)
//Storyboard Layer 1 (Fail)
//Storyboard Layer 2 (Pass)
//Storyboard Layer 3 (Foreground)
//Storyboard Sound Samples

[TimingPoints]
3945,326.086956521739,4,1,0,80,1,0
3945,-400,4,1,0,80,0,0
5901,-400,4,1,0,35,0,0
6227,-400,4,1,0,80,0,0
7858,-400,4,1,0,35,0,0
8510,-400,4,1,0,80,0,0
10792,-400,4,1,0,35,0,0
11118,-80,4,1,0,80,0,0
11771,-80,4,2,1,80,0,0
13727,-80,4,2,1,60,0,0
23510,-200,4,1,0,80,0,0
23999,-200,4,2,1,80,0,0
24325,-200,4,1,0,80,0,0
24569,-80,4,1,0,80,0,0
35249,-80,4,2,1,80,0,0
36390,-133.333333333333,4,2,1,80,0,0
36553,-80,4,2,1,80,0,0
38999,-133.333333333333,4,2,1,80,0,0
39162,-80,4,2,1,80,0,0
41608,-133.333333333333,4,2,1,80,0,0
41771,-80,4,2,1,80,0,0
42260,-133.333333333333,4,2,1,80,0,0
42423,-80,4,2,1,80,0,0
43075,-111.111111111111,4,1,0,80,0,0
45684,-71.4285714285714,4,1,0,80,0,1
55629,-71.4285714285714,4,2,1,80,0,1
56118,-71.4285714285714,4,1,0,80,0,1
61336,-71.4285714285714,4,2,1,80,0,1
63944,-71.4285714285714,4,3,1,80,0,1
66553,-80,4,2,1,80,0,1
71852,-80,4,2,1,45,0,1
72097,-80,4,2,1,80,0,1
72504,-80,4,2,1,45,0,1
72749,-80,4,2,1,80,0,1
72830,-80,4,2,1,45,0,1
72912,-80,4,2,1,80,0,1
72993,-80,4,2,1,45,0,1
73075,-80,4,2,1,80,0,1
73156,-80,4,2,1,45,0,1
73401,-80,4,2,1,80,0,1
73483,-80,4,2,1,45,0,1
73564,-80,4,2,1,80,0,1
73646,-80,4,2,1,45,0,1
73727,-80,4,2,1,80,0,1
74053,-80,4,2,1,45,0,1
74379,-80,4,2,1,80,0,1
75765,-80,4,2,1,45,0,1
76010,-80,4,2,1,80,0,1
76091,-80,4,2,1,45,0,1
76173,-80,4,2,1,80,0,1
76254,-80,4,2,1,45,0,1
76336,-80,4,2,1,80,0,1
76662,-80,4,1,0,5,0,0
76825,-80,4,2,1,80,0,0
78129,-133.333333333333,4,2,1,80,0,0
78292,-80,4,2,1,80,0,0
78781,-80,4,2,0,80,0,0
79271,-80,4,2,1,80,0,0
80086,-133.333333333333,4,2,1,80,0,0
80249,-80,4,2,1,80,0,0
80738,-133.333333333333,4,2,1,80,0,0
80901,-80,4,2,1,80,0,0
83347,-133.333333333333,4,2,1,80,0,0
83510,-80,4,2,1,80,0,0
84162,-80,4,2,0,80,0,0
84488,-80,4,2,1,80,0,0
85303,-133.333333333333,4,2,1,80,0,0
85466,-80,4,2,1,80,0,0
86118,-80,4,1,1,80,0,0
93129,-80,4,2,0,80,0,0
95249,-80,4,1,1,80,0,0
97857,428.571428571429,4,2,1,80,1,0
112214,-133.333333333333,4,2,1,80,0,0
126142,-200,4,2,1,80,0,0
126999,-133.333333333333,4,2,1,80,0,0
129571,-200,4,2,1,80,0,0
131714,-133.333333333333,4,2,1,80,0,0
132999,-200,4,2,1,80,0,0
138142,326.086956521739,4,1,0,80,1,0
138794,326.086956521739,4,1,0,80,1,0
138794,-80,4,2,1,80,0,0
157380,-80,4,2,0,80,0,0
159663,-400,4,1,0,80,0,0
160967,-71.4285714285714,4,2,1,80,0,0
162272,-400,4,1,0,80,0,0
163576,-71.4285714285714,4,1,0,80,0,0
164880,-400,4,1,0,80,0,0
166185,-71.4285714285714,4,1,0,80,0,0
170098,-71.4285714285714,4,1,1,80,0,1
186810,-71.4285714285714,4,1,1,45,0,1
187054,-71.4285714285714,4,1,1,80,0,1
188114,-71.4285714285714,4,1,1,45,0,1
188359,-71.4285714285714,4,1,1,80,0,1
189418,-71.4285714285714,4,1,1,45,0,1
189663,-71.4285714285714,4,1,1,80,0,1
189745,-71.4285714285714,4,1,1,45,0,1
189826,-71.4285714285714,4,1,1,80,0,1
189908,-71.4285714285714,4,1,1,45,0,1
189989,-71.4285714285714,4,1,1,80,0,1
190397,-71.4285714285714,4,1,1,45,0,1
190478,-71.4285714285714,4,1,1,80,0,1
190560,-71.4285714285714,4,1,1,45,0,1
190641,-71.4285714285714,4,1,1,80,0,1
190723,-71.4285714285714,4,1,1,45,0,1
190804,-71.4285714285714,4,1,1,80,0,1
190886,-71.4285714285714,4,1,1,45,0,1
190967,-80,4,1,1,80,0,0

[HitObjects]
104,256,3945,6,0,B|124:216|176:240|188:272|228:208|228:208|204:184|232:152,1,210,0|0,0:0|1:0,0:0:0:0:
400,112,6227,5,0,0:0:0:0:
408,164,6390,1,0,0:0:0:0:
392,216,6553,2,0,B|344:264|340:216|340:216|304:216|284:252,1,140
76,96,8510,5,0,0:0:0:0:
148,124,8673,1,0,0:0:0:0:
80,168,8836,1,0,0:0:0:0:
152,204,8999,1,0,0:0:0:0:
84,244,9162,2,0,B|112:296|176:288|176:288|200:248|232:260,1,175
252,172,11118,5,0,0:0:0:0:
132,116,11281,1,0,0:0:0:0:
252,172,11444,2,0,B|264:180|252:192|224:188|208:112,1,87.5
356,64,11771,5,0,0:0:0:0:
362,98,11852,1,0,0:0:0:0:
368,132,11934,1,0,0:0:0:0:
440,24,12097,1,0,0:0:0:0:
480,160,12260,1,0,0:0:0:0:
463,190,12341,1,0,0:0:0:0:
446,221,12423,1,0,0:0:0:0:
372,92,12586,1,0,0:0:0:0:
312,240,12749,1,0,0:0:0:0:
336,264,12830,1,0,0:0:0:0:
360,288,12912,1,0,0:0:0:0:
412,164,13075,5,0,0:0:0:0:
440,336,13238,1,0,0:0:0:0:
407,348,13319,1,0,0:0:0:0:
373,356,13401,1,0,0:0:0:0:
338,360,13482,1,0,0:0:0:0:
303,359,13564,1,0,0:0:0:0:
268,353,13645,1,0,0:0:0:0:
236,340,13727,6,2,P|204:312|224:260,1,87.5,2|2,2:2|2:2,2:2:0:0:
224,260,13972,1,2,2:2:0:0:
208,260,14053,1,2,2:2:0:0:
128,80,23510,6,0,B|184:64|180:112|180:112|200:116|216:128,1,105
234,140,24080,1,0,0:0:0:0:
260,164,24162,2,0,B|268:184|248:196|260:208,2,35
288,140,24569,1,0,3:0:0:0:
320,128,24651,1,0,3:0:0:0:
356,124,24733,1,0,3:0:0:0:
392,132,24814,6,0,P|464:184|456:288,1,175,0|0,0:0|3:0,0:0:0:0:
300,312,25303,2,0,P|276:260|288:208,1,87.5,0|0,3:0|3:0,0:0:0:0:
380,136,25629,1,0,3:0:0:0:
212,108,25792,1,0,1:0:0:0:
328,185,25955,1,0,3:0:0:0:
204,300,26118,6,0,P|152:272|128:232,1,87.5,0|0,0:0|3:0,0:0:0:0:
168,76,26444,1,0,3:0:0:0:
264,180,26608,1,0,2:0:0:0:
96,180,26771,2,0,L|20:92,1,87.5,0|0,3:0|3:0,0:0:0:0:
200,40,27097,1,0,0:0:0:0:
460,280,27423,6,0,P|412:300|336:304,1,87.5,0|0,0:0|3:0,0:0:0:0:
328,136,27749,1,0,0:0:0:0:
328,136,28075,1,0,0:0:0:0:
192,176,28238,1,0,3:0:0:0:
180,316,28401,1,0,0:0:0:0:
328,208,28564,2,0,B|224:196|300:108|168:100,1,175,0|0,0:0|3:0,0:0:0:0:
168,96,28972,5,0,3:0:0:0:
140,76,29053,1,0,3:0:0:0:
456,80,29379,1,0,3:0:0:0:
424,252,29542,1,0,3:0:0:0:
316,112,29705,1,0,3:0:0:0:
408,176,29868,1,0,3:0:0:0:
360,199,29950,1,0,3:0:0:0:
310,215,30031,6,0,P|248:220|112:188,2,175,0|0|0,0:0|0:0|3:0,0:0:0:0:
404,112,30847,1,0,3:0:0:0:
408,252,31010,1,0,0:0:0:0:
484,136,31173,1,0,3:0:0:0:
392,32,31336,6,0,P|344:28|284:40,1,87.5,0|0,0:0|3:0,0:0:0:0:
232,196,31662,1,0,3:0:0:0:
340,160,31825,2,0,P|320:120|264:88,1,87.5,0|0,0:0|3:0,0:0:0:0:
160,156,32151,1,0,3:0:0:0:
232,276,32314,1,0,3:0:0:0:
256,176,32477,1,0,3:0:0:0:
392,284,32640,6,0,L|480:212,1,87.5,0|0,0:0|1:0,0:0:0:0:
340,328,32966,2,0,P|256:352|152:308,1,175
140,156,33455,1,0,3:0:0:0:
276,196,33618,1,0,0:0:0:0:
136,68,33781,2,0,P|208:20|300:24,1,175,0|0,0:0|3:0,0:0:0:0:
324,40,34189,5,0,3:0:0:0:
348,68,34271,1,0,3:0:0:0:
164,164,34434,2,0,L|96:128,1,43.75,0|0,3:0|3:0,3:0:0:0:
140,320,34597,1,0,3:0:0:0:
182,331,34678,1,0,3:0:0:0:
225,336,34760,1,0,3:0:0:0:
269,332,34841,1,0,3:0:0:0:
312,320,34923,2,0,L|360:296,3,43.75,0|0|0|0,3:0|3:0|3:0|3:0,3:0:0:0:
200,104,35249,5,0,0:0:0:0:
200,104,35330,1,0,0:0:0:0:
200,104,35412,1,0,0:0:0:0:
424,184,35575,1,0,0:0:0:0:
200,244,35738,1,0,0:0:0:0:
200,244,36064,5,0,0:0:0:0:
404,292,36227,1,0,0:0:0:0:
468,92,36390,2,0,L|532:68,1,52.5000020027161,0|8,0:0|0:3,0:0:0:0:
300,48,36716,1,0,0:0:0:0:
128,164,36879,1,0,0:0:0:0:
300,288,37042,1,0,0:0:0:0:
300,288,37368,5,0,0:0:0:0:
128,164,37531,1,0,0:0:0:0:
300,48,37694,1,0,0:0:0:0:
212,240,37858,1,0,0:0:0:0:
212,240,37939,1,0,0:0:0:0:
212,240,38021,1,0,0:0:0:0:
404,152,38184,1,0,0:0:0:0:
200,104,38347,1,0,0:0:0:0:
200,104,38673,5,0,0:0:0:0:
352,248,38836,1,0,0:0:0:0:
340,40,38999,2,0,L|276:8,1,52.5000020027161,0|8,0:0|0:3,0:0:0:0:
404,196,39325,1,0,0:0:0:0:
196,228,39488,1,0,0:0:0:0:
381,104,39651,1,0,0:0:0:0:
376,339,39814,1,0,0:0:0:0:
242,147,39977,1,0,0:0:0:0:
463,224,40140,1,0,0:0:0:0:
239,291,40303,5,0,0:0:0:0:
220,276,40385,1,0,0:0:0:0:
201,257,40466,1,0,0:0:0:0:
182,238,40548,1,0,0:0:0:0:
163,219,40629,1,0,0:0:0:0:
224,56,40792,1,0,0:0:0:0:
416,140,40955,1,0,0:0:0:0:
416,140,41281,5,0,0:0:0:0:
224,56,41444,1,0,0:0:0:0:
336,236,41608,2,0,L|408:212,1,52.5000020027161,0|8,0:0|0:3,0:0:0:0:
200,336,41934,1,0,0:0:0:0:
308,156,42097,1,0,0:0:0:0:
112,76,42260,2,0,L|60:108,1,52.5000020027161,0|8,0:0|0:3,0:0:0:0:
284,48,42586,1,0,0:0:0:0:
444,184,42749,1,0,0:0:0:0:
204,324,43075,6,0,L|112:232,1,125.999996154785
308,60,43727,2,0,L|397:149,1,125.999996154785
148,368,44379,2,0,L|56:276,1,125.999996154785
360,12,45031,2,0,L|449:101,1,125.999996154785
112,264,45684,5,0,0:0:0:0:
272,92,45847,1,0,0:0:0:0:
356,312,46010,2,0,P|264:332|156:292,1,195.999994018555,0|0,0:0|0:0,0:0:0:0:
368,176,46499,1,0,0:0:0:0:
172,44,46662,2,0,P|124:88|144:240,1,195.999994018555,0|0,0:0|0:0,0:0:0:0:
312,72,47151,5,0,0:0:0:0:
448,264,47314,2,0,P|356:312|244:284,1,195.999994018555,0|0,0:0|0:0,0:0:0:0:
428,128,47803,1,0,0:0:0:0:
204,52,47966,2,0,P|176:108|268:224,1,195.999994018555,0|0,0:0|0:0,0:0:0:0:
360,64,48455,5,0,0:0:0:0:
460,232,48618,1,0,0:0:0:0:
112,48,48944,2,0,P|84:92|88:152,1,97.9999970092774,0|0,0:0|0:0,0:0:0:0:
228,268,49271,1,0,0:0:0:0:
264,96,49434,1,0,0:0:0:0:
112,216,49597,6,0,L|24:272,1,97.9999970092774,0|0,0:0|0:0,0:0:0:0:
72,36,49923,1,0,0:0:0:0:
280,148,50086,1,0,0:0:0:0:
148,340,50249,2,0,P|176:360|252:368,1,97.9999970092774,0|0,0:0|0:0,0:0:0:0:
396,168,50575,1,0,0:0:0:0:
184,64,50738,5,0,0:0:0:0:
156,104,50819,1,0,0:0:0:0:
144,152,50901,2,0,P|152:208|180:244,1,97.9999970092774,0|0,0:0|0:0,0:0:0:0:
368,108,51227,1,0,0:0:0:0:
88,36,51553,1,0,0:0:0:0:
164,216,51716,1,0,0:0:0:0:
332,52,51879,6,0,L|224:52,1,97.9999970092774,0|0,0:0|0:0,0:0:0:0:
400,216,52205,1,0,0:0:0:0:
264,296,52368,1,0,0:0:0:0:
92,136,52531,2,0,P|152:96|280:88,1,195.999994018555,0|0,0:0|0:0,0:0:0:0:
220,256,53021,1,0,0:0:0:0:
452,228,53184,2,0,P|476:184|468:128,1,97.9999970092774,0|0,0:0|0:0,0:0:0:0:
284,280,53510,5,0,0:0:0:0:
208,144,53673,1,0,0:0:0:0:
428,56,53836,1,0,0:0:0:0:
428,56,54162,1,0,0:0:0:0:
500,196,54325,1,0,0:0:0:0:
140,288,54488,5,0,0:0:0:0:
324,80,54651,1,0,0:0:0:0:
324,80,54733,1,0,0:0:0:0:
324,80,54814,2,0,P|376:104|416:172,1,97.9999970092774,0|0,0:0|0:0,0:0:0:0:
84,48,55140,2,0,P|36:64|-4:120,1,97.9999970092774,0|0,0:0|0:0,0:0:0:0:
340,280,55466,1,0,0:0:0:0:
416,180,55629,1,0,0:0:0:0:
356,68,55792,1,0,0:0:0:0:
232,44,55955,1,0,0:0:0:0:
140,260,56118,6,0,P|176:280|240:296,1,97.9999970092774,0|0,0:0|0:0,0:0:0:0:
124,76,56444,1,0,0:0:0:0:
320,60,56608,1,0,0:0:0:0:
444,212,56771,2,0,P|408:272|368:296,1,97.9999970092774,0|0,0:0|0:0,0:0:0:0:
204,124,57097,1,0,0:0:0:0:
352,124,57260,1,0,0:0:0:0:
96,124,57423,5,0,0:0:0:0:
180,256,57586,1,0,0:0:0:0:
284,92,57749,1,0,0:0:0:0:
152,180,57912,1,0,0:0:0:0:
268,24,58075,1,0,0:0:0:0:
324,168,58238,1,0,0:0:0:0:
160,64,58401,1,0,0:0:0:0:
232,204,58564,1,0,0:0:0:0:
424,36,58727,6,0,P|472:120|452:232,1,195.999994018555,0|0,0:0|0:0,0:0:0:0:
332,124,59216,1,0,0:0:0:0:
136,268,59379,2,0,P|180:316|248:328,1,97.9999970092774,0|0,0:0|0:0,0:0:0:0:
392,164,59705,1,0,0:0:0:0:
244,164,59868,1,0,0:0:0:0:
500,164,60031,5,0,0:0:0:0:
396,280,60194,1,0,0:0:0:0:
288,60,60358,2,0,P|328:40|400:48,1,97.9999970092774,0|0,0:0|0:0,0:0:0:0:
324,280,60684,2,0,P|264:280|220:260,1,97.9999970092774,0|0,0:0|0:0,0:0:0:0:
420,112,61010,1,0,0:0:0:0:
476,224,61173,1,0,0:0:0:0:
228,164,61336,5,0,0:0:0:0:
216,142,61417,1,0,0:0:0:0:
214,118,61499,1,0,0:0:0:0:
222,95,61580,1,0,0:0:0:0:
241,79,61662,1,0,0:0:0:0:
264,74,61743,1,0,0:0:0:0:
288,78,61825,1,0,0:0:0:0:
309,91,61906,1,0,0:0:0:0:
324,108,61988,5,0,0:0:0:0:
341,124,62069,1,0,0:0:0:0:
363,135,62151,1,0,0:0:0:0:
387,139,62232,1,0,0:0:0:0:
412,137,62314,2,0,L|472:120,3,48.9999985046387,0|0|0|0,0:0|0:0|0:0|0:0,0:0:0:0:
416,292,62640,5,0,0:0:0:0:
391,288,62721,1,0,0:0:0:0:
371,276,62803,1,0,0:0:0:0:
355,257,62884,1,0,0:0:0:0:
341,237,62966,1,0,0:0:0:0:
327,217,63047,1,0,0:0:0:0:
310,199,63129,1,0,0:0:0:0:
290,185,63210,1,0,0:0:0:0:
267,176,63292,5,0,0:0:0:0:
248,161,63373,1,0,0:0:0:0:
240,139,63455,1,0,0:0:0:0:
253,119,63536,1,0,0:0:0:0:
275,108,63618,2,0,L|336:84,3,48.9999985046387
460,192,63944,5,0,0:0:0:0:
208,244,64108,1,0,0:0:0:0:
416,36,64271,1,0,0:0:0:0:
384,288,64434,1,0,0:0:0:0:
156,104,64597,1,0,0:0:0:0:
284,324,64760,1,0,0:0:0:0:
320,32,64923,1,0,0:0:0:0:
136,208,65086,1,0,0:0:0:0:
424,148,65249,6,0,P|440:220|424:260,1,97.9999970092774
240,76,65575,1,0,0:0:0:0:
164,280,65738,1,0,0:0:0:0:
212,288,65819,1,0,0:0:0:0:
261,286,65901,1,0,0:0:0:0:
307,272,65982,1,0,0:0:0:0:
347,244,66064,1,0,0:0:0:0:
376,205,66145,1,0,0:0:0:0:
397,160,66227,2,0,L|404:104,3,48.9999985046387
256,24,66553,5,0,0:0:0:0:
270,55,66635,1,0,0:0:0:0:
284,86,66716,1,0,0:0:0:0:
484,108,66879,1,0,0:0:0:0:
464,136,66961,1,0,0:0:0:0:
444,164,67042,1,0,0:0:0:0:
252,200,67205,5,0,0:0:0:0:
280,220,67287,1,0,0:0:0:0:
308,239,67368,1,0,0:0:0:0:
440,360,67531,1,0,0:0:0:0:
404,360,67613,1,0,0:0:0:0:
369,360,67694,1,0,0:0:0:0:
144,296,67858,5,0,0:0:0:0:
176,282,67939,1,0,0:0:0:0:
208,269,68021,1,0,0:0:0:0:
376,232,68184,1,0,0:0:0:0:
347,212,68265,1,0,0:0:0:0:
317,192,68347,1,0,0:0:0:0:
120,160,68510,5,0,0:0:0:0:
139,131,68591,1,0,0:0:0:0:
159,102,68673,1,0,0:0:0:0:
360,120,68836,1,0,0:0:0:0:
353,85,68917,1,0,0:0:0:0:
346,50,68999,1,0,0:0:0:0:
148,40,69162,6,0,L|96:40,2,43.75
404,164,69488,2,0,L|460:164,2,43.75
136,248,69814,6,0,L|92:248,2,43.75
396,320,70140,2,0,L|456:320,2,43.75
172,192,70466,6,0,L|172:132,2,43.75
416,76,70792,2,0,L|416:132,2,43.75
404,276,71118,5,0,0:0:0:0:
371,281,71199,1,0,0:0:0:0:
341,271,71281,1,0,0:0:0:0:
314,251,71362,1,0,0:0:0:0:
290,229,71444,1,0,3:0:0:0:
266,207,71525,1,0,3:0:0:0:
238,189,71607,1,0,3:0:0:0:
207,178,71688,1,0,3:0:0:0:
176,176,71771,6,0,L|112:176,3,43.75
115,170,72097,1,0,0:0:0:0:
98,163,72178,1,0,0:0:0:0:
85,152,72260,1,0,0:0:0:0:
74,138,72341,1,0,0:0:0:0:
68,122,72423,2,0,L|72:64,3,43.75
240,32,72749,2,0,L|277:54,1,43.75
196,192,72912,2,0,L|159:215,1,43.75
312,312,73075,6,0,L|376:320,3,43.75
440,176,73401,2,0,L|428:133,1,43.75
292,100,73564,2,0,L|256:124,1,43.75
136,48,73727,1,0,0:0:0:0:
122,59,73808,1,0,0:0:0:0:
111,72,73890,1,0,0:0:0:0:
104,88,73971,1,0,0:0:0:0:
104,108,74053,2,0,L|108:164,3,43.75
256,236,74379,5,0,0:0:0:0:
280,211,74461,1,0,0:0:0:0:
304,186,74542,1,0,0:0:0:0:
180,309,74705,1,0,0:0:0:0:
320,332,74868,1,0,0:0:0:0:
172,216,75031,5,0,0:0:0:0:
148,241,75112,1,0,0:0:0:0:
124,266,75194,1,0,0:0:0:0:
248,141,75358,1,0,0:0:0:0:
380,184,75521,1,0,0:0:0:0:
248,68,75684,6,0,L|287:48,3,43.75
312,216,76010,2,0,L|341:248,1,43.75
148,212,76173,2,0,L|176:140,1,43.75
148,300,76336,2,0,B|184:328|208:304|216:272|184:264|172:296|232:328|320:328,1,175,0|0,0:0|2:0,0:0:0:0:
396,280,76988,5,0,0:0:0:0:
376,251,77069,1,0,0:0:0:0:
356,221,77151,1,0,0:0:0:0:
168,312,77314,1,0,0:0:0:0:
220,108,77477,2,0,L|392:48,1,175
132,140,77966,1,0,0:0:0:0:
292,276,78129,2,0,L|348:236,1,52.5000020027161,0|8,0:0|0:3,0:0:0:0:
60,264,78781,1,0,2:0:0:0:
412,132,79271,5,0,0:0:0:0:
220,44,79434,1,0,0:0:0:0:
152,260,79597,2,0,P|200:272|256:260,1,87.5
364,80,79923,1,0,0:0:0:0:
136,104,80086,2,0,L|136:176,1,52.5000020027161,0|0,0:0|2:0,0:0:0:0:
136,32,80412,1,0,0:0:0:0:
344,128,80575,1,0,0:0:0:0:
240,328,80738,2,0,L|188:296,1,52.5000020027161,0|8,0:0|0:3,0:0:0:0:
320,292,81716,5,0,0:0:0:0:
388,76,81879,1,0,0:0:0:0:
172,144,82042,1,0,0:0:0:0:
384,220,82205,1,0,0:0:0:0:
408,195,82287,1,0,0:0:0:0:
432,170,82368,1,0,0:0:0:0:
311,298,82531,1,0,0:0:0:0:
232,104,82694,2,0,P|304:64|400:128,1,175
232,248,83184,1,0,0:0:0:0:
436,296,83347,2,0,L|468:352,1,52.5000020027161,0|8,0:0|0:3,0:0:0:0:
92,120,84162,5,0,0:0:0:0:
368,40,84488,2,0,P|400:80|412:144,1,87.5
268,292,84814,1,0,0:0:0:0:
88,184,84977,1,0,0:0:0:0:
284,108,85140,1,0,0:0:0:0:
160,276,85303,2,0,L|188:320,1,52.5000020027161
72,144,85629,1,0,0:0:0:0:
256,44,85792,2,0,P|308:64|340:104,1,87.5
168,244,86118,5,0,0:0:0:0:
380,164,86281,1,0,0:0:0:0:
172,72,86444,1,0,0:0:0:0:
228,296,86608,1,0,0:0:0:0:
336,96,86771,1,0,0:0:0:0:
168,252,86934,1,0,0:0:0:0:
112,32,87097,1,0,0:0:0:0:
300,160,87260,1,0,0:0:0:0:
76,132,87423,6,0,P|52:180|48:236,1,87.5,0|0,0:0|2:0,0:0:0:0:
148,284,87749,1,0,2:0:0:0:
260,240,87912,1,0,2:0:0:0:
296,124,88075,1,0,2:0:0:0:
204,44,88238,1,0,2:0:0:0:
80,44,88401,2,0,P|92:100|140:148,1,87.5,0|0,0:0|2:0,0:0:0:0:
296,40,88727,6,0,P|352:64|384:120,1,87.5,0|0,0:0|2:0,0:0:0:0:
332,200,89053,1,0,2:0:0:0:
224,256,89216,1,0,2:0:0:0:
108,212,89379,1,0,2:0:0:0:
84,92,89542,1,0,2:0:0:0:
192,36,89705,2,0,P|204:92|196:132,1,87.5,0|0,0:0|2:0,0:0:0:0:
39,235,90031,6,0,P|66:270|107:283,1,87.5,0|0,0:0|2:0,0:0:0:0:
228,212,90358,2,0,P|200:176|156:152,1,87.5,0|0,0:0|2:0,0:0:0:0:
164,332,90684,2,0,P|208:348|280:332,1,87.5,0|0,0:0|2:0,0:0:0:0:
360,264,91010,1,0,2:0:0:0:
284,148,91173,1,0,2:0:0:0:
448,52,91336,5,0,0:0:0:0:
312,236,91499,1,0,0:0:0:0:
208,156,91662,1,0,0:0:0:0:
332,112,91825,1,0,0:0:0:0:
248,324,91988,2,0,L|164:244,1,87.5,0|0,0:0|3:0,0:0:0:0:
336,20,92314,2,0,L|420:100,1,87.5,0|0,0:0|3:0,0:0:0:0:
399,80,92559,1,0,3:0:0:0:
399,80,92640,5,0,3:0:0:0:
128,316,93129,1,0,0:0:0:0:
428,316,93618,1,0,0:0:0:0:
132,188,93944,1,0,0:0:0:0:
440,240,94434,1,0,0:0:0:0:
136,256,94923,1,0,0:0:0:0:
396,136,95249,5,0,0:0:0:0:
240,56,95412,1,0,3:0:0:0:
276,228,95575,1,0,1:0:0:0:
332,64,95738,1,0,3:0:0:0:
212,192,95901,1,0,0:0:0:0:
380,144,96064,1,0,3:0:0:0:
176,24,96227,2,0,P|124:60|96:108,1,87.5,0|0,0:0|3:0,0:0:0:0:
103,109,96472,1,0,3:0:0:0:
103,139,96553,5,0,3:0:0:0:
103,169,96634,1,0,3:0:0:0:
109,199,96716,1,0,3:0:0:0:
120,228,96797,1,0,3:0:0:0:
136,254,96879,1,0,3:0:0:0:
156,277,96960,1,0,3:0:0:0:
180,296,97042,1,0,3:0:0:0:
207,310,97123,1,0,3:0:0:0:
236,319,97205,1,0,3:0:0:0:
236,319,97857,1,4,0:0:0:0:
144,152,111571,5,0,0:0:0:0:
156,184,111678,1,0,0:0:0:0:
168,216,111785,1,0,0:0:0:0:
112,64,111999,1,0,0:0:0:0:
272,92,112214,2,0,L|324:184,1,105.000004005432
176,184,112857,1,0,0:0:0:0:
404,184,113071,2,0,L|432:228,1,52.5000020027161,0|8,0:0|0:3,0:0:0:0:
353,111,113499,6,0,P|312:108|284:112,1,52.5000020027161
136,192,113928,1,0,0:0:0:0:
152,212,114035,1,0,0:0:0:0:
168,232,114142,1,0,0:0:0:0:
192,132,114357,1,0,0:0:0:0:
270,132,114571,1,0,0:0:0:0:
112,132,114785,1,0,0:0:0:0:
344,132,114999,5,0,0:0:0:0:
364,152,115107,1,0,0:0:0:0:
384,172,115214,1,0,0:0:0:0:
280,68,115428,1,0,0:0:0:0:
176,140,115642,2,0,L|256:232,1,105.000004005432
332,144,116285,1,0,0:0:0:0:
180,276,116499,2,0,L|128:276,1,52.5000020027161,0|8,0:0|0:3,0:0:0:0:
304,276,116928,6,0,P|328:264|344:232,1,52.5000020027161
232,112,117357,1,0,0:0:0:0:
212,128,117464,1,0,0:0:0:0:
192,144,117571,1,0,0:0:0:0:
368,280,117714,1,0,0:0:0:0:
168,280,117857,1,0,0:0:0:0:
396,208,117999,2,0,P|420:176|408:116,1,105.000004005432
384,100,118535,5,0,0:0:0:0:
360,92,118642,1,0,0:0:0:0:
492,152,118857,1,0,0:0:0:0:
296,152,119071,2,0,L|200:72,1,105.000004005432
280,20,119714,1,0,0:0:0:0:
152,148,119928,2,0,L|104:108,1,52.5000020027161,0|8,0:0|0:3,0:0:0:0:
212,200,120357,6,0,P|240:212|272:216,1,52.5000020027161
304,88,120785,2,0,L|288:72,3,17.500000667572
124,132,121214,1,0,0:0:0:0:
328,196,121428,1,0,0:0:0:0:
132,280,121642,1,0,0:0:0:0:
404,164,121857,5,0,0:0:0:0:
404,137,121964,1,0,0:0:0:0:
404,110,122071,1,0,0:0:0:0:
404,240,122285,1,0,0:0:0:0:
280,132,122499,2,0,L|168:132,1,105.000004005432
176,256,123142,1,0,0:0:0:0:
176,56,123357,2,0,L|112:56,1,52.5000020027161,0|8,0:0|0:3,0:0:0:0:
260,56,123785,6,0,P|296:80|304:104,1,52.5000020027161
288,240,124214,1,0,0:0:0:0:
268,256,124321,1,0,0:0:0:0:
248,276,124428,1,0,0:0:0:0:
80,216,124571,1,0,0:0:0:0:
320,352,124714,1,0,0:0:0:0:
248,132,124857,2,0,P|212:100|152:100,1,105.000004005432
144,120,125392,5,0,0:0:0:0:
132,144,125499,1,0,0:0:0:0:
208,8,125714,1,0,0:0:0:0:
368,104,125928,1,0,0:0:0:0:
120,32,126142,2,0,B|56:64|88:120|36:152,1,140
392,156,127642,6,0,L|416:144,3,17.500000667572
192,44,128071,1,0,0:0:0:0:
308,260,128285,1,0,0:0:0:0:
332,256,128392,1,0,0:0:0:0:
356,252,128499,1,0,0:0:0:0:
188,276,128714,5,0,0:0:0:0:
164,280,128821,1,0,0:0:0:0:
140,284,128928,1,0,0:0:0:0:
160,72,129142,1,0,0:0:0:0:
388,160,129357,1,0,0:0:0:0:
148,196,129571,2,0,B|84:168|128:112|76:80,1,140
312,124,131071,5,0,0:0:0:0:
328,132,131178,1,0,0:0:0:0:
344,140,131285,1,0,0:0:0:0:
176,52,131428,1,0,0:0:0:0:
80,220,131571,1,0,0:0:0:0:
292,36,131714,2,0,P|344:48|384:80,1,105.000004005432
392,104,132249,5,0,0:0:0:0:
400,128,132357,1,0,0:0:0:0:
220,60,132571,1,0,0:0:0:0:
464,208,132785,1,0,0:0:0:0:
120,168,132999,2,0,B|108:252|188:284,1,140
328,92,134499,6,0,L|316:84,3,11.6666666666667
208,256,134928,1,0,0:0:0:0:
96,92,135142,1,0,0:0:0:0:
112,84,135249,1,0,0:0:0:0:
128,76,135357,1,0,0:0:0:0:
248,152,135571,5,0,0:0:0:0:
264,144,135678,1,0,0:0:0:0:
280,136,135786,1,0,0:0:0:0:
268,296,135999,1,0,0:0:0:0:
284,288,136106,1,0,0:0:0:0:
300,280,136214,1,0,0:0:0:0:
100,216,136428,5,0,0:0:0:0:
124,204,136535,1,0,0:0:0:0:
148,192,136643,1,0,0:0:0:0:
408,288,136857,1,0,0:0:0:0:
432,276,136964,1,0,0:0:0:0:
456,264,137072,1,0,0:0:0:0:
475,227,137178,5,0,0:0:0:0:
473,185,137285,1,0,0:0:0:0:
450,151,137392,1,0,0:0:0:0:
413,131,137499,1,0,0:0:0:0:
373,120,137606,1,0,0:0:0:0:
332,111,137713,1,0,0:0:0:0:
294,93,137820,1,0,0:0:0:0:
259,69,137928,1,0,0:0:0:0:
229,39,138035,1,0,0:0:0:0:
188,29,138142,5,0,3:0:0:0:
168,48,138223,1,0,3:0:0:0:
152,72,138305,1,0,3:0:0:0:
144,100,138386,1,0,3:0:0:0:
140,128,138468,1,0,3:0:0:0:
140,156,138549,1,0,3:0:0:0:
144,184,138631,1,0,3:0:0:0:
152,212,138712,1,0,3:0:0:0:
164,236,138794,6,0,P|188:272|260:288,1,87.5,0|0,1:0|0:0,0:0:0:0:
360,248,139120,1,0,0:0:0:0:
396,112,139283,1,0,0:0:0:0:
276,40,139446,1,0,0:0:0:0:
148,96,139609,1,0,0:0:0:0:
156,236,139772,2,0,P|208:228|256:176,1,87.5,0|0,1:0|0:0,0:0:0:0:
204,32,140098,6,0,P|248:16|316:32,1,87.5,0|0,1:0|0:0,0:0:0:0:
388,120,140424,1,0,0:0:0:0:
368,260,140587,1,0,0:0:0:0:
232,300,140750,1,0,0:0:0:0:
128,208,140913,1,0,0:0:0:0:
148,68,141076,2,0,P|196:80|236:116,1,87.5,0|0,1:0|0:0,0:0:0:0:
152,292,141402,6,0,P|96:288|52:260,1,87.5,0|0,1:0|0:0,0:0:0:0:
216,172,141728,2,0,P|252:196|276:236,1,87.5,0|0,1:0|0:0,0:0:0:0:
92,196,142054,2,0,P|92:148|116:96,1,87.5,0|0,1:0|0:0,0:0:0:0:
320,172,142380,1,0,0:0:0:0:
144,248,142544,1,0,0:0:0:0:
312,300,142707,5,0,0:0:0:0:
400,192,142870,1,0,0:0:0:0:
228,156,143033,1,0,0:0:0:0:
184,24,143196,1,0,0:0:0:0:
56,144,143359,1,0,0:0:0:0:
96,276,143522,1,0,0:0:0:0:
284,160,143685,1,0,0:0:0:0:
392,244,143848,1,0,0:0:0:0:
368,260,143929,1,0,0:0:0:0:
344,272,144011,6,0,P|260:284|168:232,1,175,0|0,1:0|0:0,0:0:0:0:
304,112,144500,2,0,P|364:112|420:136,1,87.5,0|0,1:0|0:0,0:0:0:0:
412,260,144826,1,0,0:0:0:0:
304,352,144989,2,0,P|260:352|196:336,1,87.5,0|0,1:0|0:0,0:0:0:0:
236,116,145315,6,0,P|188:112|116:144,1,87.5,0|0,1:0|0:0,0:0:0:0:
252,220,145641,1,0,0:0:0:0:
350,121,145804,1,0,0:0:0:0:
252,22,145967,1,0,0:0:0:0:
153,121,146130,1,0,0:0:0:0:
252,220,146294,1,0,0:0:0:0:
350,121,146457,1,0,0:0:0:0:
108,48,146620,6,0,L|68:136,1,87.5,0|0,1:0|0:0,0:0:0:0:
236,260,146946,2,0,L|280:156,1,87.5,0|0,1:0|0:0,0:0:0:0:
40,16,147272,2,0,L|0:104,1,87.5,0|0,1:0|0:0,0:0:0:0:
164,216,147598,1,0,1:0:0:0:
360,40,147761,5,0,1:0:0:0:
432,264,147924,1,0,1:0:0:0:
216,172,148087,1,0,1:0:0:0:
432,72,148250,1,0,1:0:0:0:
364,296,148413,1,0,1:0:0:0:
284,56,148576,1,0,1:0:0:0:
144,268,148739,1,0,1:0:0:0:
396,228,148902,1,0,1:0:0:0:
144,188,149065,1,0,1:0:0:0:
392,132,149228,5,0,0:0:0:0:
76,64,149554,1,0,0:0:0:0:
308,312,149880,1,0,0:0:0:0:
456,36,150207,1,0,0:0:0:0:
80,208,150533,1,0,0:0:0:0:
404,240,150859,1,0,0:0:0:0:
120,56,151185,1,0,0:0:0:0:
456,36,151511,2,0,L|476:136,1,87.5,0|0,0:0|3:0,0:0:0:0:
220,56,151837,5,0,0:0:0:0:
72,336,152163,1,0,0:0:0:0:
392,236,152489,1,0,0:0:0:0:
108,36,152815,2,0,L|48:112,1,87.5,0|0,0:0|3:0,0:0:0:0:
316,72,153141,5,0,3:0:0:0:
400,316,153467,1,0,3:0:0:0:
56,224,153794,1,0,3:0:0:0:
388,116,154120,1,0,3:0:0:0:
88,344,154446,1,0,3:0:0:0:
200,52,154772,1,0,3:0:0:0:
384,328,155098,1,0,3:0:0:0:
84,208,155424,2,0,L|116:120,1,87.5,0|0,3:0|3:0,0:0:0:0:
320,248,155750,5,0,3:0:0:0:
460,12,156076,1,0,3:0:0:0:
144,68,156402,1,0,3:0:0:0:
144,76,156484,1,0,3:0:0:0:
144,84,156565,1,0,3:0:0:0:
144,92,156647,1,0,3:0:0:0:
144,100,156728,1,0,3:0:0:0:
144,108,156810,1,0,3:0:0:0:
144,116,156891,1,0,3:0:0:0:
144,124,156973,1,0,3:0:0:0:
144,132,157054,5,0,1:0:0:0:
396,200,157380,1,0,0:0:0:0:
136,280,157707,1,0,0:0:0:0:
380,316,158033,1,0,0:0:0:0:
144,96,158359,1,0,0:0:0:0:
256,192,158440,12,8,159337,0:3:0:0:
344,96,159663,6,0,B|360:136|388:132|388:132|400:164|360:208,1,140,0|0,0:0|2:0,0:0:0:0:
264,296,161130,1,0,2:0:0:0:
124,248,161294,1,0,2:0:0:0:
84,96,161457,1,0,2:0:0:0:
196,232,161620,1,0,2:0:0:0:
384,232,161783,1,0,2:0:0:0:
264,76,161946,1,0,2:0:0:0:
108,244,162109,5,0,3:0:0:0:
140,288,162190,1,0,3:0:0:0:
188,312,162272,2,0,B|224:324|248:312|248:312|236:276|244:232,1,140,0|0,3:0|0:0,0:0:0:0:
272,208,163658,5,0,3:0:0:0:
308,196,163739,1,0,3:0:0:0:
348,192,163821,1,0,3:0:0:0:
384,184,163902,1,0,3:0:0:0:
416,160,163984,1,0,3:0:0:0:
432,124,164065,1,0,3:0:0:0:
432,84,164147,1,0,3:0:0:0:
408,52,164228,1,0,3:0:0:0:
368,44,164310,5,0,3:0:0:0:
328,44,164391,1,0,3:0:0:0:
292,56,164473,1,0,3:0:0:0:
264,80,164554,1,0,3:0:0:0:
232,100,164636,1,0,3:0:0:0:
196,112,164717,1,0,3:0:0:0:
156,112,164799,1,0,3:0:0:0:
116,104,164880,2,0,B|104:88|72:80|72:80|68:120|44:136|40:168,1,140,0|0,0:0|1:0,0:0:0:0:
448,276,166837,1,0,1:0:0:0:
68,236,167489,5,0,3:0:0:0:
188,80,167652,1,0,3:0:0:0:
364,156,167815,1,0,3:0:0:0:
356,196,167897,1,0,3:0:0:0:
348,236,167978,1,0,3:0:0:0:
296,40,168141,1,0,3:0:0:0:
164,184,168304,1,0,3:0:0:0:
184,220,168386,1,0,3:0:0:0:
204,256,168467,1,0,3:0:0:0:
232,68,168630,1,0,3:0:0:0:
392,184,168794,5,0,3:0:0:0:
380,220,168875,1,0,3:0:0:0:
368,256,168957,1,0,3:0:0:0:
300,80,169120,1,0,3:0:0:0:
168,228,169283,1,0,3:0:0:0:
180,264,169364,1,0,3:0:0:0:
192,304,169446,1,0,3:0:0:0:
76,200,170098,5,0,0:0:0:0:
284,288,170261,1,0,0:0:0:0:
264,64,170424,2,0,P|152:72|96:160,1,195.999994018555
384,152,170913,1,0,0:0:0:0:
304,364,171076,2,0,P|244:332|168:224,1,195.999994018555
424,228,171565,5,0,0:0:0:0:
352,24,171728,2,0,P|264:56|216:180,1,195.999994018555
464,104,172217,1,0,0:0:0:0:
424,340,172380,2,0,P|352:324|272:236,1,195.999994018555
416,60,172870,5,0,0:0:0:0:
172,28,173033,1,0,0:0:0:0:
368,264,173359,2,0,P|324:296|264:300,1,97.9999970092774
84,152,173685,1,0,0:0:0:0:
228,80,173848,1,0,0:0:0:0:
416,196,174011,6,0,L|456:300,1,97.9999970092774
368,68,174337,1,0,0:0:0:0:
188,140,174500,1,0,0:0:0:0:
364,296,174663,2,0,P|416:256|420:192,1,97.9999970092774
168,268,174989,1,0,0:0:0:0:
56,92,175152,5,0,0:0:0:0:
92,76,175234,1,0,0:0:0:0:
128,60,175315,2,0,P|180:44|240:40,1,97.9999970092774
100,288,175641,1,0,0:0:0:0:
412,160,175967,1,0,0:0:0:0:
228,92,176130,1,0,0:0:0:0:
220,336,176294,6,0,P|288:328|344:296,1,97.9999970092774
112,176,176620,1,0,0:0:0:0:
272,36,176783,1,0,0:0:0:0:
472,156,176946,2,0,P|416:232|312:256,1,195.999994018555
176,196,177435,1,0,0:0:0:0:
272,36,177598,2,0,P|228:12|156:16,1,97.9999970092774
248,236,177924,5,0,0:0:0:0:
412,128,178087,1,0,0:0:0:0:
180,88,178250,1,0,0:0:0:0:
180,88,178576,1,0,0:0:0:0:
348,192,178739,1,0,0:0:0:0:
116,264,178902,5,0,0:0:0:0:
288,100,179065,1,0,0:0:0:0:
328,108,179147,1,0,0:0:0:0:
364,124,179228,2,0,P|412:164|412:216,1,97.9999970092774
184,168,179554,1,0,0:0:0:0:
324,32,179717,1,0,0:0:0:0:
312,208,179880,5,0,3:0:0:0:
316,227,179961,1,0,3:0:0:0:
317,246,180043,1,0,3:0:0:0:
309,263,180124,1,0,3:0:0:0:
298,280,180206,1,0,3:0:0:0:
291,298,180287,1,0,3:0:0:0:
295,317,180369,1,0,3:0:0:0:
309,330,180450,1,0,3:0:0:0:
328,335,180533,6,0,P|392:324|428:288,1,97.9999970092774
232,72,180859,1,0,0:0:0:0:
72,256,181022,2,0,L|120:360,1,97.9999970092774
20,136,181348,1,0,0:0:0:0:
296,36,181511,1,0,0:0:0:0:
296,308,181674,2,0,L|188:284,1,97.9999970092774
448,328,182000,5,0,0:0:0:0:
364,128,182163,1,0,0:0:0:0:
84,196,182326,2,0,L|136:300,1,97.9999970092774
16,72,182652,1,0,0:0:0:0:
268,32,182815,1,0,0:0:0:0:
208,288,182978,1,0,0:0:0:0:
412,76,183141,6,0,L|544:116,1,97.9999970092774
268,32,183467,1,0,0:0:0:0:
364,264,183630,2,0,L|276:360,1,97.9999970092774
456,160,183957,1,0,0:0:0:0:
224,32,184120,1,0,0:0:0:0:
120,288,184283,2,0,L|228:352,1,97.9999970092774
4,220,184609,5,0,0:0:0:0:
224,84,184772,1,0,0:0:0:0:
400,248,184935,2,0,L|332:336,1,97.9999970092774
448,48,185261,1,0,0:0:0:0:
152,128,185424,1,0,0:0:0:0:
368,148,185587,1,0,0:0:0:0:
172,36,185750,5,0,2:0:0:0:
134,46,185831,1,0,2:0:0:0:
103,70,185913,1,0,2:0:0:0:
84,103,185994,1,0,2:0:0:0:
81,142,186076,1,0,2:0:0:0:
98,177,186157,1,0,2:0:0:0:
131,197,186239,1,0,2:0:0:0:
170,203,186320,1,0,2:0:0:0:
209,200,186402,1,0,2:0:0:0:
248,195,186483,1,0,2:0:0:0:
287,197,186565,1,0,2:0:0:0:
324,209,186646,1,0,2:0:0:0:
359,227,186728,2,0,L|408:272,3,48.9999985046387,0|0|0|0,2:0|2:0|2:0|2:0,2:0:0:0:
192,336,187054,5,0,2:0:0:0:
147,319,187135,1,0,2:0:0:0:
112,286,187217,1,0,2:0:0:0:
91,241,187298,1,0,2:0:0:0:
89,193,187380,1,0,2:0:0:0:
111,150,187461,1,0,2:0:0:0:
154,129,187543,1,0,2:0:0:0:
203,125,187624,1,0,2:0:0:0:
252,129,187706,1,0,2:0:0:0:
301,133,187787,1,0,2:0:0:0:
350,131,187869,1,0,2:0:0:0:
395,114,187950,1,0,2:0:0:0:
431,81,188033,2,0,L|464:16,3,48.9999985046387,0|0|0|0,2:0|2:0|2:0|2:0,2:0:0:0:
260,20,188359,5,0,2:0:0:0:
241,24,188440,1,0,2:0:0:0:
222,31,188522,1,0,2:0:0:0:
205,41,188603,1,0,2:0:0:0:
189,53,188685,1,0,2:0:0:0:
176,67,188766,1,0,2:0:0:0:
167,84,188848,1,0,2:0:0:0:
164,104,188929,1,0,2:0:0:0:
168,123,189011,1,0,2:0:0:0:
176,141,189092,1,0,2:0:0:0:
187,157,189174,1,0,2:0:0:0:
199,172,189255,1,0,2:0:0:0:
212,187,189337,2,0,L|240:244,3,48.9999985046387,0|0|0|0,2:0|2:0|2:0|2:0,2:0:0:0:
116,268,189663,6,0,L|75:240,1,48.9999985046387,0|0,2:0|2:0,2:0:0:0:
192,80,189826,2,0,L|239:93,1,48.9999985046387,0|0,2:0|2:0,2:0:0:0:
302,260,189989,1,0,2:0:0:0:
288,284,190071,1,0,2:0:0:0:
268,304,190152,1,0,2:0:0:0:
244,320,190234,1,0,2:0:0:0:
220,336,190315,6,0,L|172:347,1,48.9999985046387,0|0,1:0|3:0,1:0:0:0:
92,117,190478,2,0,L|68:160,1,48.9999985046387,0|0,1:0|3:0,1:0:0:0:
300,223,190641,2,0,L|344:200,1,48.9999985046387,0|0,1:0|3:0,1:0:0:0:
188,20,190804,2,0,L|139:10,1,48.9999985046387,0|0,1:0|3:0,1:0:0:0:
176,244,190967,1,4,1:2:0:0:
