osu file format v14

[General]
AudioFilename: audio.mp3
AudioLeadIn: 1000
PreviewTime: 79300
Countdown: 0
SampleSet: Soft
StackLeniency: 0.2
Mode: 0
LetterboxInBreaks: 0
WidescreenStoryboard: 0

[Editor]
DistanceSpacing: 0.4
BeatDivisor: 4
GridSize: 32
TimelineZoom: 2.5

[Metadata]
Title:Just follow time
TitleUnicode:Just follow time
Artist:Draw the Emotional
ArtistUnicode:Draw the Emotional
Creator:619
Version:Tears
Source:東方星蓮船 ~ Undefined Fantastic Object.
Tags:東方Project Touhou スカイルーイン Sky Ruin Stage 3 Theme Collapse of the Sky C78 calo ゆよゆっぺ Yuyoyuppe Cut version
BeatmapID:1543516
BeatmapSetID:727241

[Difficulty]
HPDrainRate:6
CircleSize:4.5
OverallDifficulty:7.5
ApproachRate:8.5
SliderMultiplier:1.7
SliderTickRate:1

[Events]
//Background and Video events
0,0,"BG.jpg",0,0
//Break Periods
//Storyboard Layer 0 (Background)
//Storyboard Layer 1 (Fail)
//Storyboard Layer 2 (Pass)
//Storyboard Layer 3 (Foreground)
//Storyboard Sound Samples

[TimingPoints]
1573,389.61038961039,4,2,1,25,1,0
14040,-125,4,2,1,30,0,0
26508,-111.111111111111,4,2,1,50,0,0
26702,-111.111111111111,4,2,1,50,0,0
38196,-111.111111111111,4,2,1,50,0,0
38585,-125,4,2,1,65,0,0
38975,-500,4,2,1,40,0,0
41702,-500,4,2,1,5,0,0
42092,-500,4,2,1,40,0,0
44819,-500,4,2,1,5,0,0
45209,-500,4,2,1,40,0,0
47936,-500,4,2,1,5,0,0
48326,-500,4,2,1,40,0,0
49884,-125,4,2,1,45,0,0
50858,-100,4,2,1,45,0,0
51443,-125,4,2,1,45,0,0
76573,-100,4,2,1,30,0,0
79105,-66.6666666666667,4,2,1,45,0,0
79397,-66.6666666666667,4,2,1,5,0,0
79495,-100,4,2,1,60,0,1
84949,-100,4,2,1,60,0,1
91962,-111.111111111111,4,2,1,60,0,1
103845,-100,4,2,1,60,0,1
104430,-100,4,2,1,60,0,0
105209,-100,4,2,1,30,0,0
105988,-100,4,2,1,25,0,0
106767,-100,4,2,1,20,0,0
107547,-100,4,2,1,15,0,0
108326,-100,4,2,1,10,0,0
109105,-100,4,2,1,5,0,0

[Colours]
Combo1 : 248,243,97
Combo2 : 122,145,205
Combo3 : 240,175,145
Combo4 : 80,163,186
SliderBorder : 255,255,255
SliderTrackOverride : 25,80,100

[HitObjects]
103,269,1573,5,2,0:3:0:0:
34,218,1767,1,0,0:0:0:0:
60,137,1962,1,2,0:3:0:0:
145,137,2157,1,0,0:0:0:0:
170,218,2352,1,2,0:3:0:0:
170,218,2741,5,0,0:0:0:0:
170,218,2936,1,0,0:0:0:0:
103,269,3326,5,0,0:0:0:0:
103,269,3521,1,0,0:0:0:0:
34,218,3910,5,0,0:0:0:0:
34,218,4105,1,0,0:0:0:0:
409,269,4689,5,2,0:3:0:0:
478,218,4884,1,0,0:0:0:0:
452,137,5079,1,2,0:3:0:0:
367,137,5274,1,0,0:0:0:0:
342,218,5469,1,2,0:3:0:0:
342,218,5858,5,0,0:0:0:0:
342,218,6053,1,0,0:0:0:0:
409,269,6443,5,0,0:0:0:0:
409,269,6637,1,0,0:0:0:0:
478,218,7027,5,0,0:0:0:0:
478,218,7222,1,0,0:0:0:0:
34,218,7806,5,2,0:3:0:0:
88,152,8001,1,0,0:0:0:0:
34,85,8196,1,2,0:3:0:0:
88,152,8391,1,0,0:0:0:0:
172,153,8585,1,2,0:3:0:0:
172,153,8975,5,0,0:0:0:0:
172,153,9170,1,0,0:0:0:0:
34,218,9560,5,0,0:0:0:0:
34,218,9754,1,0,0:0:0:0:
34,85,10144,5,0,0:0:0:0:
34,85,10339,1,0,0:0:0:0:
478,218,10923,5,2,0:3:0:0:
424,152,11118,1,0,0:0:0:0:
478,85,11313,1,2,0:3:0:0:
424,152,11508,1,0,0:0:0:0:
340,153,11702,1,2,0:3:0:0:
340,153,12092,5,0,0:0:0:0:
340,153,12287,1,0,0:0:0:0:
478,218,12676,5,0,0:0:0:0:
478,218,12871,1,0,0:0:0:0:
482,53,13261,5,0,0:0:0:0:
482,53,13456,1,0,0:0:0:0:
312,322,14040,5,2,3:2:0:0:
244,277,14235,1,0,0:0:0:0:
176,244,14430,2,0,L|102:244,1,68.0000002384184,2|0,0:0|0:0,0:0:0:0:
95,250,14722,1,0,0:0:0:0:
83,256,14819,2,0,L|83:183,1,68.0000002384184,2|0,0:0|0:0,0:0:0:0:
84,105,15209,5,2,0:0:0:0:
17,57,15404,1,0,0:0:0:0:
84,105,15598,1,2,2:3:0:0:
151,57,15793,1,0,0:0:0:0:
299,105,15988,5,2,0:0:0:0:
232,57,16183,1,0,0:0:0:0:
232,57,16573,5,0,0:0:0:0:
192,127,16767,1,2,0:0:0:0:
193,208,16962,1,0,0:0:0:0:
266,322,17157,5,2,3:3:0:0:
339,357,17352,1,0,0:0:0:0:
407,312,17547,2,0,P|438:306|481:312,1,68.0000002384184,2|0,0:0|0:0,0:0:0:0:
486,316,17839,1,0,0:0:0:0:
498,321,17936,2,0,P|503:289|496:241,1,68.0000002384184,2|0,0:0|0:0,0:0:0:0:
458,182,18326,1,2,0:0:0:0:
384,217,18521,1,0,0:0:0:0:
228,181,18715,5,2,2:3:0:0:
302,216,18910,1,0,0:0:0:0:
222,100,19105,1,2,0:0:0:0:
228,181,19300,1,0,0:0:0:0:
161,227,19495,1,2,2:3:0:0:
384,217,19884,5,2,0:0:0:0:
344,145,20079,1,0,0:0:0:0:
343,287,20274,5,2,3:3:0:0:
274,331,20469,1,0,0:0:0:0:
199,298,20663,2,0,L|125:298,1,68.0000002384184,2|0,0:0|0:0,0:0:0:0:
119,306,20956,1,0,0:0:0:0:
107,313,21053,2,0,L|107:224,1,68.0000002384184,2|0,0:0|0:0,0:0:0:0:
106,162,21443,5,2,0:0:0:0:
175,119,21637,1,0,0:0:0:0:
106,162,21832,1,2,2:3:0:0:
39,119,22027,1,0,0:0:0:0:
175,119,22222,5,2,0:0:0:0:
106,162,22417,1,0,0:0:0:0:
106,162,22806,1,0,0:0:0:0:
67,234,23001,5,2,0:0:0:0:
106,305,23196,1,0,0:0:0:0:
232,355,23391,5,2,3:3:0:0:
303,316,23585,1,0,0:0:0:0:
377,254,23780,2,0,P|409:248|451:254,1,68.0000002384184,2|0,0:0|0:0,0:0:0:0:
457,255,24073,1,0,0:0:0:0:
469,260,24170,2,0,L|469:165,1,68.0000002384184,2|0,0:0|0:0,0:0:0:0:
463,110,24560,1,2,0:0:0:0:
402,56,24754,1,0,0:0:0:0:
259,109,24949,5,2,2:3:0:0:
320,55,25144,1,0,0:0:0:0:
277,189,25339,5,2,0:0:0:0:
199,163,25534,1,0,0:0:0:0:
337,134,25728,5,2,2:3:0:0:
217,248,26118,5,6,0:0:0:0:
321,334,26313,1,0,0:0:0:0:
331,341,26410,1,0,0:0:0:0:
343,349,26508,6,0,L|429:345,1,76.499997933626,4|0,3:2|0:0,0:0:0:0:
473,272,26897,2,0,P|482:234|475:197,1,76.499997933626,8|0,0:0|0:0,0:0:0:0:
466,184,27189,1,8,0:0:0:0:
454,173,27287,2,0,L|367:168,1,76.499997933626
224,170,27676,2,0,P|245:171|267:167,1,38.249998966813,8|0,3:2|0:0,0:0:0:0:
277,165,27871,1,0,3:2:0:0:
124,63,28066,6,0,L|124:149,1,76.499997933626,0|0,3:2|0:0,0:0:0:0:
128,247,28456,2,0,P|90:253|53:245,1,76.499997933626,8|0,0:0|0:0,0:0:0:0:
40,237,28748,1,8,0:0:0:0:
28,227,28845,2,0,B|20:266|20:266|26:305,1,76.499997933626
167,361,29235,2,0,P|188:361|214:355,1,38.249998966813,8|0,3:2|0:0,0:0:0:0:
219,350,29430,1,0,3:2:0:0:
363,238,29624,6,0,L|368:330,1,76.499997933626,2|0,3:2|0:0,0:0:0:0:
474,316,30014,2,0,L|478:239,1,76.499997933626,8|0,0:0|0:0,0:0:0:0:
481,225,30306,1,8,0:0:0:0:
483,209,30404,2,0,B|471:170|471:170|446:142,1,76.499997933626
293,132,30793,2,0,P|315:129|344:135,1,38.249998966813,8|0,3:2|0:0,0:0:0:0:
345,136,30988,1,0,3:3:0:0:
189,229,31183,6,0,L|189:139,1,76.499997933626,0|0,3:2|0:0,0:0:0:0:
158,49,31573,2,0,P|120:41|83:47,1,76.499997933626,8|0,0:0|0:0,0:0:0:0:
70,55,31865,1,8,0:0:0:0:
60,66,31962,6,0,P|52:103|58:140,1,76.499997933626
136,226,32254,1,0,0:0:0:0:
150,231,32352,2,0,L|197:228,1,38.249998966813,8|0,3:2|0:0,0:0:0:0:
309,204,32547,2,0,L|271:206,1,38.249998966813,8|0,3:2|0:0,0:0:0:0:
239,88,32741,6,0,L|324:83,1,76.499997933626,4|0,3:2|0:0,0:0:0:0:
423,84,33131,2,0,L|435:175,1,76.499997933626,8|0,0:0|0:0,0:0:0:0:
437,174,33423,1,8,0:0:0:0:
442,188,33521,2,0,B|443:228|443:228|430:268,1,76.499997933626
292,326,33910,2,0,P|312:329|336:325,1,38.249998966813,8|0,3:2|0:0,0:0:0:0:
343,317,34105,1,0,3:2:0:0:
221,178,34300,6,0,P|214:215|220:255,1,76.499997933626,0|0,3:2|0:0,0:0:0:0:
112,253,34689,2,0,P|117:215|110:177,1,76.499997933626,8|0,0:0|0:0,0:0:0:0:
105,163,34982,1,8,0:0:0:0:
95,150,35079,2,0,L|8:150,1,76.499997933626
128,42,35469,2,0,P|148:40|170:42,1,38.249998966813,8|0,3:2|0:0,0:0:0:0:
179,50,35663,1,0,3:2:0:0:
362,37,35858,6,0,B|323:36|323:36|336:73,1,76.499997933626,2|0,3:2|0:0,0:0:0:0:
398,159,36248,2,0,B|434:173|434:173|435:134,1,76.499997933626,8|0,0:0|0:0,0:0:0:0:
444,123,36540,1,8,0:0:0:0:
456,113,36637,2,0,L|455:202,1,76.499997933626
463,343,37027,2,0,P|465:320|459:291,1,38.249998966813,8|0,3:2|0:0,0:0:0:0:
453,291,37222,1,0,3:2:0:0:
272,257,37417,6,0,P|294:336|337:242,1,229.499993800878,2|0,3:0|0:0,0:0:0:0:
315,133,38196,5,2,3:2:0:0:
315,154,38293,1,0,3:0:0:0:
315,175,38391,1,2,3:2:0:0:
315,196,38488,1,0,3:0:0:0:
272,257,38585,5,8,3:0:0:0:
239,267,38683,1,8,3:0:0:0:
205,267,38780,1,8,3:0:0:0:
173,257,38878,1,8,3:0:0:0:
152,242,38975,6,0,B|101:197|41:198|41:198|101:199|145:151,1,238.000000834464,0|0,3:2|0:0,0:0:0:0:
160,68,42092,6,0,B|218:87|226:138|226:138|245:108|274:100|274:100|259:136|276:180,1,238.000000834464
249,253,45209,6,0,B|306:267|342:220|342:220|319:248|323:279|323:279|351:255|393:259,1,238.000000834464
455,308,48326,6,0,P|471:264|457:211,1,102.000000357628
420,134,49689,1,0,0:0:0:0:
420,134,49884,6,0,L|333:134,1,68.0000002384184,2|0,3:2|0:0,0:0:0:0:
339,140,50176,1,0,0:0:0:0:
325,143,50274,2,0,P|292:145|255:130,1,68.0000002384184,0|0,3:2|0:0,0:0:0:0:
248,125,50566,1,0,0:0:0:0:
236,117,50663,1,2,2:3:0:0:
76,37,50858,1,2,3:2:0:0:
85,50,50956,1,0,3:3:0:0:
94,64,51053,5,8,0:0:0:0:
109,103,51150,1,8,0:0:0:0:
107,145,51248,1,8,0:0:0:0:
89,183,51345,1,8,0:0:0:0:
68,210,51443,6,0,B|33:213|33:213|0:202,1,68.0000002384184,6|0,3:2|0:0,0:0:0:0:
109,103,51832,2,0,B|140:92|140:92|175:95,1,68.0000002384184,8|0,0:0|0:0,0:0:0:0:
188,99,52124,1,8,0:0:0:0:
199,106,52222,2,0,L|205:192,1,68.0000002384184,2|0,0:0|3:3,0:0:0:0:
200,309,52611,2,0,P|203:291|201:275,1,34.0000001192092,8|0,3:2|0:0,0:0:0:0:
194,263,52806,1,0,3:2:0:0:
328,356,53001,6,0,P|364:363|408:350,1,68.0000002384184,2|0,3:2|0:0,0:0:0:0:
456,223,53391,2,0,P|420:216|376:229,1,68.0000002384184,8|0,0:0|0:0,0:0:0:0:
378,230,53683,1,0,0:0:0:0:
366,237,53780,2,0,B|335:234|335:234|298:211,1,68.0000002384184,2|0,0:0|3:2,0:0:0:0:
260,84,54170,2,0,P|262:102|259:122,1,34.0000001192092,8|0,3:2|0:0,0:0:0:0:
253,130,54365,1,0,0:0:0:0:
112,46,54560,6,0,L|194:42,1,68.0000002384184,2|0,3:2|0:0,0:0:0:0:
180,189,54949,2,0,L|98:185,1,68.0000002384184,8|0,0:0|0:0,0:0:0:0:
99,180,55241,1,8,0:0:0:0:
86,173,55339,2,0,P|93:209|85:245,1,68.0000002384184,2|0,0:0|3:2,0:0:0:0:
0,344,55728,2,0,P|17:348|37:347,1,34.0000001192092,8|0,3:2|0:0,0:0:0:0:
47,343,55923,1,0,3:2:0:0:
200,286,56118,6,0,L|207:364,1,68.0000002384184,2|0,3:2|0:0,0:0:0:0:
353,355,56508,2,0,L|359:287,1,68.0000002384184,8|0,0:0|0:0,0:0:0:0:
353,274,56800,1,0,0:0:0:0:
345,262,56897,2,0,P|386:266|430:248,1,68.0000002384184,2|0,0:0|3:2,0:0:0:0:
371,166,57189,1,0,0:0:0:0:
359,158,57287,2,0,L|311:155,1,34.0000001192092,8|0,2:2|0:0,0:0:0:0:
218,130,57482,2,0,L|251:133,1,34.0000001192092,8|0,3:3|0:0,0:0:0:0:
264,240,57676,6,0,L|173:231,1,68.0000002384184,6|0,3:2|0:0,0:0:0:0:
49,228,58066,2,0,L|44:160,1,68.0000002384184,8|0,0:0|0:0,0:0:0:0:
36,149,58358,1,8,0:0:0:0:
27,138,58456,2,0,L|106:128,1,68.0000002384184,2|0,0:0|3:2,0:0:0:0:
210,58,58845,2,0,P|190:53|160:51,1,34.0000001192092,8|0,3:2|0:0,0:0:0:0:
163,57,59040,1,0,3:2:0:0:
251,194,59235,6,0,P|257:158|248:119,1,68.0000002384184,2|0,3:2|0:0,0:0:0:0:
397,126,59624,2,0,P|391:159|397:192,1,68.0000002384184,8|0,0:0|0:0,0:0:0:0:
230,195,60014,2,0,P|236:159|227:120,1,68.0000002384184,2|0,0:0|3:2,0:0:0:0:
416,126,60404,2,0,P|410:159|416:192,1,68.0000002384184,8|0,0:0|0:0,0:0:0:0:
448,268,60696,1,8,0:0:0:0:
439,279,60793,6,0,L|366:275,1,68.0000002384184,2|0,3:2|0:0,0:0:0:0:
238,211,61183,2,0,L|311:207,1,68.0000002384184,8|0,0:0|0:0,0:0:0:0:
318,201,61475,1,8,0:0:0:0:
328,191,61573,2,0,P|334:157|328:124,1,68.0000002384184,2|0,0:0|3:2,0:0:0:0:
209,57,61962,2,0,P|227:55|250:58,1,34.0000001192092,8|0,3:2|0:0,0:0:0:0:
255,64,62157,1,0,3:2:0:0:
119,159,62352,5,2,2:3:0:0:
77,30,62547,1,0,0:0:0:0:
209,57,62741,1,8,0:0:0:0:
464,200,63131,1,2,2:3:0:0:
367,331,63326,1,2,3:2:0:0:
356,339,63423,1,0,3:3:0:0:
341,347,63521,5,8,0:0:0:0:
300,358,63618,1,8,0:0:0:0:
258,355,63715,1,8,0:0:0:0:
220,336,63813,1,8,0:0:0:0:
197,302,63910,6,0,P|190:265|203:218,1,68.0000002384184,6|0,3:2|0:0,0:0:0:0:
320,158,64300,2,0,P|325:191|318:224,1,68.0000002384184,8|0,0:0|0:0,0:0:0:0:
312,236,64592,1,8,0:0:0:0:
305,247,64689,2,0,P|338:240|381:250,1,68.0000002384184,2|0,0:0|3:2,0:0:0:0:
491,311,65079,2,0,P|495:291|496:268,1,34.0000001192092,8|0,3:2|0:0,0:0:0:0:
490,264,65274,1,0,3:2:0:0:
405,124,65469,6,0,B|442:130|442:130|482:122,1,68.0000002384184,2|0,3:2|0:0,0:0:0:0:
351,41,65858,2,0,B|314:35|314:35|274:43,1,68.0000002384184,8|0,0:0|0:0,0:0:0:0:
272,48,66150,1,0,0:0:0:0:
260,54,66248,2,0,B|254:91|254:91|262:131,1,68.0000002384184,2|0,0:0|3:2,0:0:0:0:
342,229,66637,2,0,P|342:211|334:187,1,34.0000001192092,8|0,3:2|0:0,0:0:0:0:
327,185,66832,1,0,3:2:0:0:
229,315,67027,6,0,P|261:322|298:316,1,68.0000002384184,2|0,3:2|0:0,0:0:0:0:
179,226,67417,2,0,P|147:219|110:225,1,68.0000002384184,8|0,0:0|0:0,0:0:0:0:
100,230,67709,1,8,0:0:0:0:
91,240,67806,2,0,P|98:206|92:173,1,68.0000002384184,2|0,0:0|3:2,0:0:0:0:
56,41,68196,2,0,L|95:47,1,34.0000001192092,8|0,3:2|0:0,0:0:0:0:
103,44,68391,1,0,3:2:0:0:
265,43,68585,6,0,L|177:47,1,68.0000002384184,2|0,3:2|0:0,0:0:0:0:
196,193,68975,2,0,L|284:197,1,68.0000002384184,8|0,0:0|0:0,0:0:0:0:
265,29,69365,2,0,L|177:33,1,68.0000002384184,2|0,3:2|3:2,0:0:0:0:
196,212,69754,2,0,L|284:216,1,68.0000002384184,8|0,0:0|0:0,0:0:0:0:
336,254,70047,1,8,2:3:0:0:
346,245,70144,6,0,P|352:209|339:172,1,68.0000002384184,6|0,3:2|0:0,0:0:0:0:
238,282,70534,2,0,P|229:314|235:347,1,68.0000002384184,8|0,0:0|0:0,0:0:0:0:
244,358,70826,1,8,0:0:0:0:
252,368,70923,2,0,L|170:365,1,68.0000002384184,2|0,0:0|3:2,0:0:0:0:
48,345,71313,2,0,P|66:344|88:337,1,34.0000001192092,8|0,3:2|0:0,0:0:0:0:
91,329,71508,1,0,3:2:0:0:
48,172,71702,6,0,P|41:207|53:252,1,68.0000002384184,2|0,3:2|0:0,0:0:0:0:
193,240,72092,2,0,P|198:206|191:173,1,68.0000002384184,8|0,0:0|0:0,0:0:0:0:
32,169,72482,2,0,P|25:204|37:249,1,68.0000002384184,2|0,0:0|3:2,0:0:0:0:
211,241,72871,2,0,P|216:207|209:174,1,68.0000002384184,8|0,0:0|0:0,0:0:0:0:
162,107,73163,1,8,3:2:0:0:
153,96,73261,6,0,L|237:91,1,68.0000002384184,6|0,0:0|0:0,0:0:0:0:
364,64,73650,2,0,L|361:148,1,68.0000002384184,8|0,0:0|0:0,0:0:0:0:
359,145,73943,1,8,0:0:0:0:
353,157,74040,2,0,P|352:191|372:235,1,68.0000002384184,2|0,0:0|3:2,0:0:0:0:
491,275,74430,2,0,P|470:276|452:280,1,34.0000001192092,8|0,3:2|0:0,0:0:0:0:
448,289,74624,1,0,3:2:0:0:
290,331,74819,6,0,P|325:336|371:323,1,68.0000002384184,2|0,3:2|0:0,0:0:0:0:
256,222,75209,1,8,0:0:0:0:
181,348,75404,1,0,0:0:0:0:
73,225,75598,2,0,L|149:224,1,68.0000002384184,2|0,0:0|3:2,0:0:0:0:
330,269,75988,1,8,0:0:0:0:
341,237,76085,1,8,0:0:0:0:
341,203,76183,1,8,0:0:0:0:
327,172,76280,1,8,0:0:0:0:
279,116,76378,5,2,3:0:0:0:
98,88,76573,1,0,0:0:0:0:
264,129,76767,5,2,0:3:0:0:
73,225,76962,1,2,0:3:0:0:
252,141,77157,5,2,0:3:0:0:
252,141,77547,5,2,0:3:0:0:
252,141,77741,1,2,0:3:0:0:
380,252,77936,5,0,0:0:0:0:
380,69,78131,1,2,0:3:0:0:
499,140,78326,5,2,0:3:0:0:
380,54,78521,1,2,0:3:0:0:
318,204,79105,6,0,P|228:230|163:160,1,191.250007295609,8|0,3:2|0:0,0:0:0:0:
213,55,79495,6,0,B|246:50|266:31|266:31|251:147,1,170.000000596046,12|0,3:2|0:0,0:0:0:0:
105,252,80079,1,0,0:0:0:0:
48,69,80274,2,0,P|56:110|47:159,1,85.000000298023,8|0,3:2|0:0,0:0:0:0:
40,168,80566,2,0,B|105:154|105:154|175:169,1,127.500000447035,8|8,3:2|3:2,0:0:0:0:
346,249,81053,2,0,B|232:236|232:236|259:209|262:165,1,170.000000596046,0|0,3:2|0:0,0:0:0:0:
360,36,81637,1,0,0:0:0:0:
461,189,81832,2,0,L|453:98,1,85.000000298023,8|0,0:0|0:0,0:0:0:0:
266,103,82222,2,0,L|258:187,1,85.000000298023,0|0,3:2|3:2,0:0:0:0:
155,212,82514,1,0,2:3:0:0:
140,204,82611,6,0,P|169:130|94:89,1,170.000000596046,4|0,3:2|0:0,0:0:0:0:
51,268,83196,1,0,0:0:0:0:
218,350,83391,2,0,L|123:337,1,85.000000298023,8|0,3:2|0:0,0:0:0:0:
118,331,83683,2,0,L|250:321,1,127.500000447035,8|8,3:2|3:2,0:0:0:0:
391,178,84170,2,0,B|438:201|438:201|426:326,1,170.000000596046,0|0,3:0|0:0,0:0:0:0:
253,246,84754,1,0,0:0:0:0:
244,231,84852,1,0,3:0:0:0:
236,214,84949,2,0,P|228:170|244:112,1,85.000000298023,8|0,3:2|3:0,0:0:0:0:
355,275,85339,1,8,3:2:0:0:
198,376,85534,1,0,0:0:0:0:
70,218,85728,6,0,B|99:225|141:213|141:213|163:223|163:223|194:206|248:215,1,170,4|0,3:2|0:0,0:0:0:0:
424,214,86313,1,0,0:0:0:0:
339,47,86508,2,0,P|330:91|349:145,1,85.000000298023,8|0,3:2|0:0,0:0:0:0:
351,141,86800,2,0,L|214:141,1,127.500000447035,8|8,3:2|3:2,0:0:0:0:
368,286,87287,2,0,P|459:299|510:242,1,170.000000596046,0|0,3:2|0:0,0:0:0:0:
351,141,87871,1,0,0:0:0:0:
280,317,88066,2,0,B|290:274|290:274|280:227,1,85.000000298023,8|0,3:2|0:0,0:0:0:0:
97,233,88456,2,0,B|88:272|88:272|98:315,1,85.000000298023,0|0,3:2|3:2,0:0:0:0:
147,117,88845,6,0,B|21:105|21:105|41:151,1,170.000000596046,4|0,3:2|0:0,0:0:0:0:
192,252,89430,1,0,0:0:0:0:
247,74,89624,2,0,P|257:115|244:169,1,85.000000298023,8|0,3:2|0:0,0:0:0:0:
238,169,89917,2,0,B|301:185|301:185|368:168,1,127.500000447035,8|8,3:2|3:2,0:0:0:0:
147,117,90404,1,0,3:0:0:0:
93,295,90598,1,0,0:0:0:0:
137,98,90793,1,8,3:2:0:0:
338,64,90988,1,0,3:0:0:0:
350,75,91085,1,0,3:0:0:0:
361,87,91183,2,0,P|370:126|356:179,1,85.000000298023,0|0,3:0|0:0,0:0:0:0:
293,336,91573,5,8,0:0:0:0:
330,354,91670,1,8,0:0:0:0:
373,354,91767,1,8,0:0:0:0:
411,336,91865,1,8,0:0:0:0:
444,310,91962,6,0,P|453:268|445:229,1,76.499997933626,4|2,3:2|0:0,0:0:0:0:
361,87,92352,2,0,L|445:87,1,76.499997933626,8|2,0:0|0:0,0:0:0:0:
450,79,92644,1,0,3:2:0:0:
463,71,92741,2,0,L|463:153,1,76.499997933626,0|2,3:0|0:0,0:0:0:0:
342,265,93131,1,8,0:0:0:0:
242,133,93326,1,2,0:0:0:0:
140,286,93521,6,0,P|179:294|230:280,1,76.499997933626,0|2,3:0|0:0,0:0:0:0:
133,144,93910,2,0,P|94:136|43:150,1,76.499997933626,8|2,0:0|0:0,0:0:0:0:
45,151,94202,1,0,3:2:0:0:
33,161,94300,2,0,L|37:240,1,76.499997933626,0|2,3:0|0:0,0:0:0:0:
149,356,94689,1,8,0:0:0:0:
285,265,94884,1,2,0:0:0:0:
277,251,94982,1,0,3:2:0:0:
267,238,95079,6,0,L|259:324,1,76.499997933626,4|2,3:2|0:0,0:0:0:0:
349,174,95469,2,0,L|278:124,1,76.499997933626,8|2,0:0|0:0,0:0:0:0:
272,123,95761,1,0,3:2:0:0:
256,120,95858,2,0,L|163:115,1,76.499997933626,0|2,3:2|0:0,0:0:0:0:
14,101,96248,2,0,L|22:42,1,38.249998966813,8|8,0:0|0:0,0:0:0:0:
79,162,96443,2,0,L|84:199,1,38.249998966813,10|8,0:0|0:0,0:0:0:0:
124,281,96637,6,0,P|85:291|36:277,1,76.499997933626,0|2,3:2|0:0,0:0:0:0:
194,204,97027,2,0,P|231:197|268:207,1,76.499997933626,8|2,0:0|0:0,0:0:0:0:
281,215,97319,1,0,3:2:0:0:
293,224,97417,2,0,P|330:230|367:220,1,76.499997933626,0|2,3:0|0:0,0:0:0:0:
293,72,97806,1,8,0:0:0:0:
194,204,98001,1,2,0:0:0:0:
115,38,98196,6,0,L|207:38,1,76.499997933626,4|2,3:2|0:0,0:0:0:0:
194,204,98585,2,0,L|102:204,1,76.499997933626,8|2,0:0|0:0,0:0:0:0:
102,206,98878,1,0,3:2:0:0:
88,213,98975,2,0,P|80:249|91:297,1,76.499997933626,0|2,3:2|0:0,0:0:0:0:
251,270,99365,1,8,0:0:0:0:
178,121,99560,1,2,0:0:0:0:
350,180,99754,6,0,B|312:187|312:187|259:178,1,76.499997933626,0|2,3:0|0:0,0:0:0:0:
375,49,100144,2,0,B|413:42|413:42|466:51,1,76.499997933626,8|2,0:0|0:0,0:0:0:0:
464,54,100436,1,0,3:2:0:0:
477,61,100534,2,0,P|485:97|474:145,1,76.499997933626,0|2,3:0|0:0,0:0:0:0:
366,256,100923,1,8,0:0:0:0:
285,112,101118,1,2,0:0:0:0:
206,278,101313,6,0,L|288:276,1,76.499997933626,4|2,3:2|0:0,0:0:0:0:
285,112,101702,2,0,L|203:110,1,76.499997933626,8|2,0:0|0:0,0:0:0:0:
193,105,101995,1,0,3:2:0:0:
179,97,102092,2,0,P|187:140|181:177,1,76.499997933626,0|2,3:0|0:0,0:0:0:0:
77,299,102482,1,8,0:0:0:0:
51,137,102676,1,2,0:0:0:0:
206,278,102871,6,0,L|211:364,1,76.499997933626,0|2,3:0|0:0,0:0:0:0:
281,204,103261,1,8,0:0:0:0:
116,216,103456,1,2,3:2:0:0:
122,229,103553,1,0,3:0:0:0:
128,242,103650,1,0,3:0:0:0:
343,291,103845,5,2,0:0:0:0:
371,259,103943,1,0,3:3:0:0:
385,219,104040,1,8,0:0:0:0:
382,177,104137,1,8,0:0:0:0:
364,139,104235,1,8,0:0:0:0:
332,111,104332,1,8,0:0:0:0:
247,75,104430,5,4,3:2:0:0:
256,192,104527,12,0,109105,0:0:0:0:
