osu file format v14

[General]
AudioFilename: audio.mp3
AudioLeadIn: 1000
PreviewTime: 79300
Countdown: 0
SampleSet: Soft
StackLeniency: 0.3
Mode: 0
LetterboxInBreaks: 0
WidescreenStoryboard: 0

[Editor]
DistanceSpacing: 1
BeatDivisor: 4
GridSize: 8
TimelineZoom: 2.5

[Metadata]
Title:Just follow time
TitleUnicode:Just follow time
Artist:Draw the Emotional
ArtistUnicode:Draw the Emotional
Creator:619
Version:Normal
Source:東方星蓮船 ~ Undefined Fantastic Object.
Tags:東方Project Touhou スカイルーイン Sky Ruin Stage 3 Theme Collapse of the Sky C78 calo ゆよゆっぺ Yuyoyuppe Cut version
BeatmapID:1538178
BeatmapSetID:727241

[Difficulty]
HPDrainRate:4
CircleSize:3.5
OverallDifficulty:4.5
ApproachRate:4.5
SliderMultiplier:1
SliderTickRate:1

[Events]
//Background and Video events
0,0,"BG.jpg",0,0
//Break Periods
2,2552,3429
2,5668,6546
2,8785,9663
2,11902,12780
2,42292,43949
2,45409,47066
//Storyboard Layer 0 (Background)
//Storyboard Layer 1 (Fail)
//Storyboard Layer 2 (Pass)
//Storyboard Layer 3 (Foreground)
//Storyboard Sound Samples

[TimingPoints]
1573,389.61038961039,4,2,1,25,1,0
1573,-100,4,2,1,25,0,0
14040,-100,4,2,1,30,0,0
26508,-100,4,2,1,50,0,0
38196,-100,4,2,1,55,0,0
38585,-100,4,2,1,65,0,0
38975,-100,4,2,1,40,0,0
42092,-100,4,2,1,5,0,0
45209,-100,4,2,1,40,0,0
49884,-100,4,2,1,45,0,0
50858,-100,4,2,1,45,0,0
51443,-100,4,2,1,45,0,0
76378,-100,4,2,1,30,0,0
79105,-100,4,2,1,45,0,0
79495,-100,4,2,1,60,0,1
91962,-100,4,2,1,55,0,1
104040,-100,4,2,1,60,0,1
104430,-100,4,2,1,35,0,0
105209,-100,4,2,1,30,0,0
105988,-100,4,2,1,25,0,0
106767,-100,4,2,1,20,0,0
107547,-100,4,2,1,15,0,0
108326,-100,4,2,1,10,0,0
109105,-100,4,2,1,5,0,0

[Colours]
Combo1 : 248,243,97
Combo2 : 122,145,205
Combo3 : 240,175,145
Combo4 : 80,163,186
SliderBorder : 255,255,255
SliderTrackOverride : 25,80,100

[HitObjects]
92,267,1573,6,0,L|78:162,2,100.000000596046,2|2|2,0:3|0:3|0:3,0:0:0:0:
420,267,4689,6,0,L|434:162,2,100.000000596046,2|2|2,0:3|0:3|0:3,0:0:0:0:
191,269,7806,6,0,P|145:282|88:266,1,100.000000596046,2|2,0:3|0:3,0:0:0:0:
142,181,8585,1,2,0:3:0:0:
321,269,10923,6,0,P|367:282|424:266,1,100.000000596046,2|2,0:3|0:3,0:0:0:0:
370,181,11702,1,2,0:3:0:0:
370,181,14040,6,0,L|476:181,2,100.000000596046,2|2|0,3:3|0:0|0:0,0:0:0:0:
269,192,15209,1,2,0:0:0:0:
222,209,15404,2,0,P|176:222|119:206,1,100.000000596046,0|0,0:0|0:0,0:0:0:0:
84,182,15988,2,0,P|81:157|88:113,1,50.000000298023,2|0,0:0|0:0,0:0:0:0:
139,49,16573,1,0,0:0:0:0:
187,38,16767,2,0,L|245:38,1,50.000000298023,2|0,0:0|0:0,0:0:0:0:
280,63,17157,6,0,B|349:71|349:71|386:59,1,100.000000596046,2|2,3:3|0:0,0:0:0:0:
477,47,17936,2,0,P|489:93|474:150,1,100.000000596046,0|2,0:0|0:0,0:0:0:0:
455,187,18521,1,0,0:0:0:0:
419,221,18715,2,0,L|356:218,1,50.000000298023,2|0,2:3|0:0,0:0:0:0:
318,218,19105,2,0,L|268:220,1,50.000000298023,2|0,0:0|0:0,0:0:0:0:
221,200,19495,1,2,2:3:0:0:
153,273,19884,1,2,0:0:0:0:
64,226,20274,6,0,B|52:162|52:162|62:120,2,100,2|2|0,3:3|0:0|0:0,0:0:0:0:
153,273,21443,1,2,0:0:0:0:
191,303,21637,2,0,L|304:303,1,100.000000596046,0|0,0:0|0:0,0:0:0:0:
339,315,22222,2,0,P|366:315|396:307,1,50.000000298023,2|0,0:0|0:0,0:0:0:0:
470,253,22806,1,0,0:0:0:0:
481,204,23001,2,0,L|481:137,1,50.000000298023,2|0,0:0|0:0,0:0:0:0:
456,109,23391,6,0,B|407:120|407:120|349:107,1,100.000000596046,2|2,3:3|0:0,0:0:0:0:
262,80,24170,2,0,L|262:202,1,100.000000596046,0|2,0:0|0:0,0:0:0:0:
264,229,24754,1,0,0:0:0:0:
243,274,24949,2,0,P|216:278|177:271,1,50.000000298023,2|0,2:3|0:0,0:0:0:0:
145,261,25339,2,0,P|118:257|79:264,1,50.000000298023,2|0,0:0|0:0,0:0:0:0:
45,266,25728,1,2,2:3:0:0:
17,169,26118,1,6,0:0:0:0:
66,82,26508,6,0,L|175:80,1,100.000000596046,4|8,3:2|0:0,0:0:0:0:
263,103,27287,2,0,P|266:82|262:50,2,50.000000298023,0|0|8,3:2|0:0|3:2,0:0:0:0:
190,171,28066,2,0,B|179:219|179:219|190:268,1,100.000000596046,0|8,3:2|0:0,0:0:0:0:
264,335,28845,2,0,P|286:342|324:345,2,50.000000298023,0|0|8,3:2|0:0|3:2,0:0:0:0:
190,268,29624,6,0,P|143:256|78:274,1,100.000000596046,2|8,3:2|0:0,0:0:0:0:
23,193,30404,2,0,L|23:126,1,50.000000298023,0|0,3:2|0:0,0:0:0:0:
35,94,30793,1,8,3:2:0:0:
124,48,31183,2,0,L|234:48,1,100.000000596046,0|8,3:2|0:0,0:0:0:0:
273,44,31767,1,0,0:0:0:0:
322,34,31962,2,0,P|351:31|382:38,1,50.000000298023,0|0,3:2|0:0,0:0:0:0:
415,58,32352,2,0,L|415:117,1,50.000000298023,8|8,3:2|3:2,0:0:0:0:
391,152,32741,6,0,B|385:222|385:222|394:253,1,100.000000596046,4|8,3:2|0:0,0:0:0:0:
442,338,33521,2,0,P|470:337|500:326,2,50,0|0|8,3:2|0:0|3:2,0:0:0:0:
342,324,34300,2,0,L|241:324,1,100.000000596046,0|8,3:2|0:0,0:0:0:0:
153,276,35079,2,0,P|125:279|100:290,2,50,0|0|8,3:2|0:0|3:2,0:0:0:0:
242,324,35858,6,0,P|254:275|237:220,1,100,2|8,3:2|0:0,0:0:0:0:
172,155,36637,2,0,L|105:155,1,50.000000298023,0|0,3:2|0:0,0:0:0:0:
75,135,37027,1,8,3:2:0:0:
124,48,37417,2,0,L|246:48,1,100.000000596046,2|8,3:0|0:0,0:0:0:0:
323,58,38196,2,0,P|350:57|379:48,2,50.000000298023,2|2|8,3:2|3:2|3:0,0:0:0:0:
224,48,38975,5,0,3:3:0:0:
256,192,39365,12,0,42092,0:0:0:0:
39,168,45209,5,2,0:3:0:0:
473,168,48326,5,2,0:3:0:0:
473,168,49884,6,0,B|474:99|474:99|458:60,1,100,2|0,3:2|3:2,0:0:0:0:
362,67,50663,2,0,L|356:116,1,50.000000298023,2|2,2:3|3:2,0:0:0:0:
351,166,51053,2,0,L|345:215,1,50.000000298023,8|8,0:0|0:0,0:0:0:0:
331,263,51443,6,0,B|282:274|282:274|224:261,1,100.000000596046,6|8,3:2|0:0,0:0:0:0:
136,237,52222,2,0,L|132:292,1,50.000000298023,2|0,0:0|3:3,0:0:0:0:
107,330,52611,1,8,3:2:0:0:
26,271,53001,2,0,L|26:155,1,100.000000596046,2|8,3:2|0:0,0:0:0:0:
56,75,53780,2,0,P|80:71|118:78,1,50.000000298023,2|0,0:0|3:2,0:0:0:0:
149,98,54170,2,0,P|173:102|211:95,1,50.000000298023,8|0,3:2|0:0,0:0:0:0:
243,76,54560,6,0,L|359:76,1,100.000000596046,2|8,3:2|0:0,0:0:0:0:
442,67,55339,2,0,L|439:138,1,50.000000298023,2|0,0:0|3:2,0:0:0:0:
446,166,55728,1,8,3:2:0:0:
396,253,56118,2,0,P|350:264|288:248,1,100.000000596046,2|8,3:2|0:0,0:0:0:0:
235,176,56897,2,0,B|165:168|165:168|129:180,1,100.000000596046,2|8,0:0|2:2,0:0:0:0:
88,189,57482,1,8,3:3:0:0:
50,222,57676,6,0,L|53:327,1,100.000000596046,4|8,3:2|0:0,0:0:0:0:
142,366,58456,2,0,P|168:370|195:364,1,50.000000298023,2|0,0:0|3:2,0:0:0:0:
234,339,58845,1,8,3:2:0:0:
318,285,59235,2,0,L|429:280,1,100.000000596046,2|8,3:2|0:0,0:0:0:0:
492,213,60014,2,0,P|496:194|492:155,1,50,2|0,0:0|3:2,0:0:0:0:
472,118,60404,1,8,0:0:0:0:
402,47,60793,6,0,B|330:37|330:37|296:47,1,100.000000596046,2|8,3:2|0:0,0:0:0:0:
218,97,61573,2,0,P|194:100|163:93,1,50.000000298023,2|0,0:0|3:2,0:0:0:0:
122,75,61962,2,0,P|98:72|67:79,1,50.000000298023,8|0,3:2|3:2,0:0:0:0:
34,109,62352,2,0,L|34:217,1,100.000000596046,2|8,2:3|0:0,0:0:0:0:
86,294,63131,2,0,P|132:305|194:289,1,100.000000596046,2|8,2:3|0:0,0:0:0:0:
225,268,63715,1,8,0:0:0:0:
259,232,63910,6,0,B|331:226|331:226|370:240,1,100.000000596046,4|8,3:2|0:0,0:0:0:0:
454,259,64689,2,0,L|461:196,1,50.000000298023,2|0,0:0|3:2,0:0:0:0:
466,159,65079,1,8,3:2:0:0:
416,71,65469,2,0,L|303:71,1,100.000000596046,2|8,3:2|0:0,0:0:0:0:
218,50,66248,2,0,P|194:49|164:57,1,50.000000298023,2|0,0:0|3:2,0:0:0:0:
128,85,66637,2,0,P|104:86|74:78,1,50.000000298023,8|0,3:2|3:2,0:0:0:0:
33,59,67027,6,0,L|33:174,1,100.000000596046,2|8,3:2|0:0,0:0:0:0:
58,255,67806,2,0,P|87:258|115:252,1,50.000000298023,2|0,0:0|3:2,0:0:0:0:
156,242,68196,1,8,3:2:0:0:
242,191,68585,2,0,P|256:240|239:296,1,100.000000596046,2|8,3:2|0:0,0:0:0:0:
345,289,69365,2,0,P|334:240|348:193,1,100.000000596046,2|8,3:2|0:0,0:0:0:0:
378,153,69949,1,0,3:2:0:0:
404,110,70144,6,0,L|292:104,1,100.000000596046,4|8,3:2|0:0,0:0:0:0:
206,84,70923,2,0,L|207:140,1,50.000000298023,2|0,0:0|3:2,0:0:0:0:
222,181,71313,1,8,3:2:0:0:
180,271,71702,2,0,B|108:277|108:277|81:267,1,100.000000596046,2|8,3:2|0:0,0:0:0:0:
15,192,72482,2,0,P|12:166|18:128,1,50.000000298023,2|0,0:0|3:2,0:0:0:0:
27,94,72871,1,8,0:0:0:0:
106,33,73261,6,0,L|221:42,1,100.000000596046,6|8,0:0|0:0,0:0:0:0:
291,92,74040,2,0,P|317:94|348:91,1,50.000000298023,2|0,0:0|3:2,0:0:0:0:
383,65,74430,2,0,P|409:63|440:66,1,50.000000298023,8|0,3:2|3:2,0:0:0:0:
482,69,74819,2,0,L|482:182,1,100.000000596046,2|8,3:2|0:0,0:0:0:0:
442,260,75598,2,0,P|417:263|387:259,1,50.000000298023,2|0,0:0|3:2,0:0:0:0:
350,232,75988,1,8,0:0:0:0:
272,168,76378,6,0,L|205:174,1,50.000000298023,2|0,3:0|0:0,0:0:0:0:
172,175,76767,2,0,L|122:170,1,50.000000298023,2|2,0:3|0:3,0:0:0:0:
75,153,77157,1,2,0:3:0:0:
21,237,77547,2,0,P|17:261|21:289,1,50,2|2,0:3|0:3,0:0:0:0:
44,329,77936,2,0,L|104:325,1,50,0|2,0:0|0:3,0:0:0:0:
144,326,78326,2,0,L|193:329,1,50,0|2,0:0|0:3,0:0:0:0:
344,336,79105,1,8,3:2:0:0:
412,261,79495,6,0,B|425:197|425:197|412:153,1,100.000000596046,12|0,3:2|0:0,0:0:0:0:
394,65,80274,2,0,P|438:64|478:41,2,75.0000004470345,8|8|8,3:2|3:2|3:2,0:0:0:0:
347,46,81053,2,0,L|239:46,1,100.000000596046,0|0,3:2|0:0,0:0:0:0:
197,43,81637,1,0,0:0:0:0:
154,70,81832,2,0,P|142:118|157:177,1,100.000000596046,8|0,0:0|3:2,0:0:0:0:
230,228,82611,6,0,B|279:237|279:237|337:228,1,100.000000596046,4|0,3:2|0:0,0:0:0:0:
427,246,83391,2,0,P|425:205|405:164,2,75.0000004470345,8|8|8,3:2|3:2|3:2,0:0:0:0:
415,294,84170,1,0,3:0:0:0:
329,346,84560,2,0,P|304:350|262:341,1,50.000000298023,0|0,3:2|0:0,0:0:0:0:
234,325,84949,2,0,P|209:321|167:330,1,50.000000298023,8|0,3:2|3:0,0:0:0:0:
136,338,85339,1,8,3:2:0:0:
42,303,85728,6,0,P|32:256|49:188,1,100.000000596046,4|0,3:2|0:0,0:0:0:0:
86,115,86508,2,0,B|49:114|49:114|13:94,2,75.0000004470345,8|8|8,3:2|3:2|3:2,0:0:0:0:
131,93,87287,2,0,B|203:85|203:85|236:99,1,100.000000596046,0|0,3:0|0:0,0:0:0:0:
273,118,87871,1,0,0:0:0:0:
320,132,88066,2,0,L|425:133,1,100.000000596046,8|0,3:2|3:2,0:0:0:0:
422,233,88845,6,0,L|317:232,1,100.000000596046,4|0,3:2|0:0,0:0:0:0:
226,203,89624,2,0,P|232:243|225:281,2,75.0000004470345,8|8|8,3:2|3:2|3:2,0:0:0:0:
194,163,90404,2,0,B|122:155|122:155|89:169,1,100.000000596046,0|8,3:0|3:2,0:0:0:0:
54,192,90988,1,0,3:0:0:0:
23,231,91183,2,0,P|21:255|28:290,1,50,0|0,3:2|3:2,0:0:0:0:
51,324,91573,1,8,0:0:0:0:
145,355,91962,6,0,L|256:355,1,100.000000596046,4|8,3:2|0:0,0:0:0:0:
294,343,92547,1,2,0:0:0:0:
341,327,92741,2,0,P|369:324|395:329,1,50.000000298023,0|2,3:0|0:0,0:0:0:0:
438,342,93131,1,8,0:0:0:0:
488,255,93521,6,0,L|488:149,1,100.000000596046,0|8,3:0|0:0,0:0:0:0:
472,107,94105,1,2,0:0:0:0:
430,78,94300,2,0,L|375:78,1,50.000000298023,0|2,3:0|0:0,0:0:0:0:
331,91,94689,1,8,0:0:0:0:
235,59,95079,6,0,B|186:48|186:48|128:61,1,100.000000596046,4|8,3:2|0:0,0:0:0:0:
91,77,95663,1,2,0:0:0:0:
60,116,95858,2,0,P|56:138|62:177,1,50.000000298023,0|2,3:2|0:0,0:0:0:0:
80,210,96248,2,0,L|136:217,1,50.000000298023,8|10,0:0|0:0,0:0:0:0:
170,245,96637,6,0,L|281:245,1,100.000000596046,0|8,3:2|0:0,0:0:0:0:
356,295,97417,2,0,P|369:250|344:181,1,100.000000596046,0|8,3:0|0:0,0:0:0:0:
335,154,98001,1,2,0:0:0:0:
312,109,98196,6,0,B|263:120|263:120|194:106,1,100.000000596046,4|8,3:2|0:0,0:0:0:0:
166,93,98780,1,2,0:0:0:0:
118,78,98975,2,0,P|95:75|59:81,1,50.000000298023,0|2,3:2|0:0,0:0:0:0:
30,111,99365,1,8,0:0:0:0:
96,185,99754,6,0,P|105:234|95:288,1,100,0|8,3:0|0:0,0:0:0:0:
197,284,100534,2,0,P|188:234|197:185,1,100,0|8,3:0|0:0,0:0:0:0:
226,145,101118,1,2,0:0:0:0:
267,116,101313,6,0,L|385:116,1,100.000000596046,4|8,3:2|0:0,0:0:0:0:
416,128,101897,1,2,0:0:0:0:
459,152,102092,2,0,P|463:178|458:213,1,50.000000298023,0|2,3:0|0:0,0:0:0:0:
451,250,102482,1,8,0:0:0:0:
381,322,102871,6,0,L|328:319,1,50.000000298023,0|2,3:0|0:0,0:0:0:0:
280,319,103261,2,0,L|230:321,1,50.000000298023,8|2,0:0|3:2,0:0:0:0:
181,309,103650,1,0,0:0:0:0:
94,259,104040,2,0,P|90:234|95:202,1,50.000000298023,8|8,0:0|0:0,0:0:0:0:
105,160,104430,5,6,0:0:0:0:
256,192,104819,12,4,109105,3:2:0:0:
