osu file format v14

[General]
AudioFilename: audio.mp3
AudioLeadIn: 1000
PreviewTime: 79300
Countdown: 0
SampleSet: Soft
StackLeniency: 0.3
Mode: 0
LetterboxInBreaks: 0
WidescreenStoryboard: 0

[Editor]
DistanceSpacing: 1.4
BeatDivisor: 4
GridSize: 32
TimelineZoom: 2.5

[Metadata]
Title:Just follow time
TitleUnicode:Just follow time
Artist:Draw the Emotional
ArtistUnicode:Draw the Emotional
Creator:619
Version:Hard
Source:東方星蓮船 ~ Undefined Fantastic Object.
Tags:東方Project Touhou スカイルーイン Sky Ruin Stage 3 Theme Collapse of the Sky C78 calo ゆよゆっぺ Yuyoyuppe Cut version
BeatmapID:1538177
BeatmapSetID:727241

[Difficulty]
HPDrainRate:5.5
CircleSize:4
OverallDifficulty:6.5
ApproachRate:7.5
SliderMultiplier:1.4
SliderTickRate:1

[Events]
//Background and Video events
0,0,"BG.jpg",0,0
//Break Periods
2,42292,44384
2,45409,47501
//Storyboard Layer 0 (Background)
//Storyboard Layer 1 (Fail)
//Storyboard Layer 2 (Pass)
//Storyboard Layer 3 (Foreground)
//Storyboard Sound Samples

[TimingPoints]
1573,389.61038961039,4,2,1,25,1,0
1573,-125,4,2,1,25,0,0
2741,-142.857142857143,4,2,1,25,0,0
3326,-166.666666666667,4,2,1,20,0,0
3910,-200,4,2,1,15,0,0
4689,-125,4,2,1,25,0,0
5858,-142.857142857143,4,2,1,25,0,0
6443,-166.666666666667,4,2,1,20,0,0
7027,-200,4,2,1,15,0,0
7806,-125,4,2,1,25,0,0
8975,-142.857142857143,4,2,1,25,0,0
9560,-166.666666666667,4,2,1,20,0,0
10144,-200,4,2,1,15,0,0
10923,-125,4,2,1,25,0,0
12092,-142.857142857143,4,2,1,25,0,0
12676,-166.666666666667,4,2,1,20,0,0
13261,-200,4,2,1,15,0,0
14040,-125,4,2,1,30,0,0
26508,-111.111111111111,4,2,1,50,0,0
26702,-111.111111111111,4,2,1,50,0,0
38975,-500,4,2,1,40,0,0
42092,-500,4,2,1,5,0,0
45209,-500,4,2,1,30,0,0
49884,-125,4,2,1,45,0,0
51053,-111.111111111111,4,2,1,45,0,0
51443,-125,4,2,1,45,0,0
76378,-133.333333333333,4,2,1,45,0,0
79105,-76.9230769230769,4,2,1,45,0,0
79397,-66.6666666666667,4,2,1,5,0,0
79495,-100,4,2,1,60,0,1
84949,-100,4,2,1,60,0,1
91962,-111.111111111111,4,2,1,60,0,1
104430,-100,4,2,1,60,0,0
105209,-100,4,2,1,30,0,0
105988,-100,4,2,1,25,0,0
106767,-100,4,2,1,20,0,0
107547,-100,4,2,1,15,0,0
108326,-100,4,2,1,10,0,0
109105,-100,4,2,1,5,0,0

[Colours]
Combo1 : 248,243,97
Combo2 : 122,145,205
Combo3 : 240,175,145
Combo4 : 80,163,186
SliderBorder : 255,255,255
SliderTrackOverride : 25,80,100

[HitObjects]
417,267,1573,6,0,L|417:326,2,56.0000002384184,2|0|2,0:3|0:0|0:3,0:0:0:0:
418,182,2157,1,0,0:0:0:0:
418,97,2352,1,2,0:3:0:0:
418,97,2741,6,0,L|365:97,1,48.9999987132548,0|0,0:0|0:0,0:0:0:0:
418,182,3326,2,0,L|376:182,1,41.9999988970756,0|0,0:0|0:0,0:0:0:0:
417,267,3910,2,0,L|380:267,1,35.0000001490115,0|0,0:0|0:0,0:0:0:0:
95,267,4689,6,0,L|95:326,2,56.0000002384184,2|0|2,0:3|0:0|0:3,0:0:0:0:
94,182,5274,1,0,0:0:0:0:
94,97,5469,1,2,0:3:0:0:
94,97,5858,6,0,L|147:97,1,48.9999987132548,0|0,0:0|0:0,0:0:0:0:
94,182,6443,2,0,L|136:182,1,41.9999988970756,0|0,0:0|0:0,0:0:0:0:
95,267,7027,2,0,L|132:267,1,35.0000001490115,0|0,0:0|0:0,0:0:0:0:
357,158,7806,6,0,L|357:94,2,56.0000002384184,2|0|2,0:3|0:0|0:3,0:0:0:0:
358,242,8391,1,0,0:0:0:0:
358,325,8585,1,2,0:3:0:0:
358,325,8975,6,0,L|414:325,1,48.9999987132548,0|0,0:0|0:0,0:0:0:0:
358,242,9560,2,0,L|403:242,1,41.9999988970756,0|0,0:0|0:0,0:0:0:0:
357,158,10144,2,0,L|400:158,1,35.0000001490115,0|0,0:0|0:0,0:0:0:0:
155,158,10923,6,0,L|155:94,2,56.0000002384184,2|0|2,0:3|0:0|0:3,0:0:0:0:
154,242,11508,1,0,0:0:0:0:
154,325,11702,1,2,0:3:0:0:
154,325,12092,6,0,L|98:325,1,48.9999987132548,0|0,0:0|0:0,0:0:0:0:
154,242,12676,2,0,L|109:242,1,41.9999988970756,0|0,0:0|0:0,0:0:0:0:
155,158,13261,2,0,L|112:158,1,35.0000001490115,0|0,0:0|0:0,0:0:0:0:
105,325,14040,6,0,L|166:325,1,56.0000002384184,2|0,3:3|0:0,0:0:0:0:
239,326,14430,1,2,0:0:0:0:
239,326,14624,1,0,0:0:0:0:
315,345,14819,2,0,B|393:352|393:352|431:317,1,112.000000476837,0|2,0:0|0:0,0:0:0:0:
467,268,15404,2,0,P|483:217|464:154,1,112.000000476837,0|0,0:0|0:0,0:0:0:0:
418,101,15988,1,2,0:0:0:0:
418,101,16183,1,0,0:0:0:0:
407,87,16573,1,0,0:0:0:0:
333,59,16767,2,0,L|273:59,1,56.0000002384184,2|0,0:0|0:0,0:0:0:0:
164,59,17157,5,2,3:3:0:0:
164,59,17352,1,0,0:0:0:0:
203,126,17547,2,0,P|208:151|204:182,1,56.0000002384184,2|0,0:0|0:0,0:0:0:0:
160,246,17936,2,0,L|100:246,1,56.0000002384184,0|0,0:0|0:0,0:0:0:0:
25,247,18326,1,2,0:0:0:0:
25,247,18521,1,0,0:0:0:0:
86,340,18715,6,0,L|147:345,1,56.0000002384184,2|0,2:3|0:0,0:0:0:0:
220,346,19105,2,0,L|275:341,1,56.0000002384184,2|0,0:0|0:0,0:0:0:0:
354,333,19495,1,2,2:3:0:0:
468,226,19884,1,2,0:0:0:0:
468,226,20079,1,0,0:0:0:0:
388,147,20274,6,0,L|385:217,1,56.0000002384184,2|0,3:3|0:0,0:0:0:0:
301,203,20663,2,0,L|298:147,1,56.0000002384184,2|0,0:0|0:0,0:0:0:0:
267,68,21053,2,0,B|185:62|185:62|144:85,1,112.000000476837,0|2,0:0|0:0,0:0:0:0:
85,117,21637,2,0,L|85:239,1,112.000000476837,0|0,0:0|0:0,0:0:0:0:
89,313,22222,1,2,0:0:0:0:
89,313,22417,1,0,0:0:0:0:
101,324,22806,1,0,0:0:0:0:
175,349,23001,2,0,L|236:349,1,56.0000002384184,2|0,0:0|0:0,0:0:0:0:
341,327,23391,5,2,3:3:0:0:
341,327,23585,1,0,0:0:0:0:
290,267,23780,2,0,P|286:239|290:211,1,56.0000002384184,2|0,0:0|0:0,0:0:0:0:
300,133,24170,2,0,L|239:133,1,56.0000002384184,0|0,0:0|0:0,0:0:0:0:
165,131,24560,1,2,0:0:0:0:
165,131,24754,1,0,0:0:0:0:
242,49,24949,6,0,L|303:49,1,56.0000002384184,2|0,2:3|0:0,0:0:0:0:
376,50,25339,1,2,0:0:0:0:
376,50,25534,1,0,0:0:0:0:
475,101,25728,1,2,2:3:0:0:
484,114,26118,5,6,0:0:0:0:
433,214,26313,1,0,0:0:0:0:
433,214,26410,1,0,0:0:0:0:
433,214,26508,6,0,P|403:220|354:208,1,62.9999983456133,4|0,3:2|0:0,0:0:0:0:
289,182,26897,2,0,L|289:297,2,94.49999751842,8|8|0,0:0|0:0|0:0,0:0:0:0:
266,96,27676,1,8,3:2:0:0:
183,63,27871,1,0,3:2:0:0:
73,126,28066,6,0,L|73:199,1,62.9999983456133,0|0,3:2|0:0,0:0:0:0:
118,264,28456,2,0,P|78:277|24:262,2,94.49999751842,8|8|0,0:0|0:0|0:0,0:0:0:0:
200,232,29235,1,8,3:2:0:0:
159,153,29430,1,0,3:2:0:0:
283,138,29624,6,0,L|281:204,1,62.9999983456133,2|0,3:2|0:0,0:0:0:0:
268,288,30014,2,0,B|330:296|330:296|364:285,2,94.49999751842,8|8|0,0:0|0:0|0:0,0:0:0:0:
200,232,30793,1,8,3:2:0:0:
118,264,30988,1,0,3:3:0:0:
13,192,31183,6,0,P|8:165|13:127,1,62.9999983456133,0|0,3:2|0:0,0:0:0:0:
61,56,31573,2,0,L|160:56,1,94.49999751842,8|8,0:0|0:0,0:0:0:0:
167,58,31962,2,0,P|198:63|234:57,1,62.9999983456133,0|0,0:0|0:0,0:0:0:0:
316,46,32352,1,8,3:2:0:0:
438,74,32547,1,8,3:2:0:0:
438,74,32644,1,0,0:0:0:0:
438,74,32741,6,0,L|438:142,1,62.9999983456133,4|0,3:2|0:0,0:0:0:0:
392,213,33131,2,0,B|442:225|442:225|495:210,2,94.49999751842,8|8|0,0:0|0:0|0:0,0:0:0:0:
306,189,33910,1,8,3:2:0:0:
239,246,34105,1,0,3:2:0:0:
121,201,34300,6,0,P|116:171|121:132,1,62.9999983456133,0|0,3:2|0:0,0:0:0:0:
155,58,34689,2,0,L|39:54,2,94.49999751842,8|8|0,0:0|0:0|0:0,0:0:0:0:
243,63,35469,1,8,3:2:0:0:
322,101,35663,1,0,3:2:0:0:
270,216,35858,6,0,P|243:222|197:212,1,62.9999983456133,2|0,3:2|0:0,0:0:0:0:
121,201,36248,2,0,B|129:247|129:247|120:301,2,94.49999751842,8|8|0,0:0|0:0|0:0,0:0:0:0:
72,127,37027,1,8,3:2:0:0:
17,196,37222,1,0,3:2:0:0:
121,294,37417,6,0,B|155:309|200:294|200:294|219:305|219:305|266:289|316:308,1,188.999994232178,2|0,3:0|0:0,0:0:0:0:
427,321,38196,2,0,L|435:282,3,31.4999991728067,2|0|2|0,3:2|3:0|3:2|3:0,0:0:0:0:
436,249,38585,2,0,L|428:210,3,31.4999991728067,8|8|8|8,3:0|3:0|3:0|3:0,0:0:0:0:
413,192,38975,5,0,3:2:0:0:
256,192,39073,12,0,42092,0:0:0:0:
424,79,45209,5,2,0:3:0:0:
105,311,48326,5,2,0:3:0:0:
430,315,49884,6,0,B|438:252|438:252|422:216,1,84.0000003576276,2|0,3:2|0:0,0:0:0:0:
424,223,50274,2,0,L|359:223,1,56.0000002384184,0|0,3:2|0:0,0:0:0:0:
289,226,50663,1,2,2:3:0:0:
182,191,50858,1,2,3:2:0:0:
182,191,50956,1,0,3:3:0:0:
182,191,51053,2,0,P|179:173|186:142,3,31.4999991728067,8|8|8|8,0:0|0:0|0:0|0:0,0:0:0:0:
188,121,51443,6,0,L|121:121,1,56.0000002384184,6|0,3:2|0:0,0:0:0:0:
54,132,51832,2,0,B|54:35,2,84.0000003576276,8|8|0,0:0|0:0|3:3,0:0:0:0:
57,210,52611,1,8,3:2:0:0:
57,210,52806,1,0,3:2:0:0:
122,300,53001,6,0,B|152:305|152:305|186:300,1,56.0000002384184,2|0,3:2|0:0,0:0:0:0:
256,295,53391,1,8,0:0:0:0:
386,207,53780,2,0,B|356:202|356:202|322:207,1,56.0000002384184,2|0,0:0|3:2,0:0:0:0:
252,212,54170,1,8,3:2:0:0:
474,240,54560,6,0,L|474:174,1,56.0000002384184,2|0,3:2|0:0,0:0:0:0:
484,106,54949,2,0,L|396:105,1,84.0000003576276,8|8,0:0|0:0,0:0:0:0:
389,109,55339,2,0,P|364:112|326:108,1,56.0000002384184,2|0,0:0|3:2,0:0:0:0:
256,95,55728,1,8,3:2:0:0:
256,95,55923,1,0,3:2:0:0:
159,37,56118,6,0,L|159:95,1,56.0000002384184,2|0,3:2|0:0,0:0:0:0:
160,171,56508,1,8,0:0:0:0:
240,305,56897,2,0,L|240:247,1,56.0000002384184,2|0,0:0|3:2,0:0:0:0:
239,171,57287,1,8,2:2:0:0:
337,117,57482,1,8,3:3:0:0:
337,117,57579,1,0,0:0:0:0:
337,117,57676,6,0,P|365:112|394:117,1,56.0000002384184,4|0,3:2|0:0,0:0:0:0:
469,128,58066,2,0,L|469:32,2,84.0000003576276,8|8|0,0:0|0:0|3:2,0:0:0:0:
467,206,58845,1,8,3:2:0:0:
467,206,59040,1,0,3:2:0:0:
389,287,59235,6,0,P|364:291|328:287,1,56.0000002384184,2|0,3:2|0:0,0:0:0:0:
255,287,59624,1,8,0:0:0:0:
120,206,60014,2,0,P|145:202|181:206,1,56.0000002384184,2|0,0:0|3:2,0:0:0:0:
254,206,60404,1,8,0:0:0:0:
32,239,60793,6,0,L|32:178,1,56.0000002384184,2|0,3:2|0:0,0:0:0:0:
32,104,61183,2,0,L|117:104,1,84.0000003576276,8|8,0:0|0:0,0:0:0:0:
127,104,61573,2,0,P|155:108|188:104,1,56.0000002384184,2|0,0:0|3:2,0:0:0:0:
260,97,61962,1,8,3:2:0:0:
260,97,62157,1,0,3:2:0:0:
363,52,62352,6,0,L|363:116,1,56.0000002384184,2|0,2:3|0:0,0:0:0:0:
362,186,62741,1,8,0:0:0:0:
256,302,63131,1,2,2:3:0:0:
145,283,63326,1,2,3:2:0:0:
145,283,63423,1,0,3:3:0:0:
145,283,63521,2,0,L|95:272,3,28.0000001192092,8|8|8|8,0:0|0:0|0:0|0:0,0:0:0:0:
79,282,63910,6,0,P|75:253|79:218,1,56.0000002384184,4|0,3:2|0:0,0:0:0:0:
96,150,64300,2,0,L|9:144,2,84.0000003576276,8|8|0,0:0|0:0|3:2,0:0:0:0:
174,156,65079,1,8,3:2:0:0:
174,156,65274,1,0,3:2:0:0:
284,175,65469,6,0,L|284:113,1,56.0000002384184,2|0,3:2|0:0,0:0:0:0:
283,40,65858,1,8,0:0:0:0:
439,41,66248,2,0,L|439:103,1,56.0000002384184,2|0,0:0|3:2,0:0:0:0:
440,176,66637,1,8,3:2:0:0:
284,337,67027,6,0,L|226:337,1,56.0000002384184,2|0,3:2|0:0,0:0:0:0:
149,348,67417,2,0,B|106:356|106:356|61:347,2,84.0000003576276,8|8|0,0:0|0:0|3:2,0:0:0:0:
228,337,68196,1,8,3:2:0:0:
228,337,68391,1,0,3:2:0:0:
176,238,68585,6,0,L|117:238,1,56.0000002384184,2|0,3:2|0:0,0:0:0:0:
41,238,68975,1,8,0:0:0:0:
49,81,69365,2,0,L|108:81,1,56.0000002384184,2|0,3:2|3:2,0:0:0:0:
184,81,69754,1,8,0:0:0:0:
291,52,69949,1,0,0:0:0:0:
291,52,70047,1,8,2:3:0:0:
291,52,70144,6,0,P|295:83|290:110,1,56.0000002384184,4|0,3:2|0:0,0:0:0:0:
267,182,70534,2,0,L|176:182,1,84.0000003576276,8|8,0:0|0:0,0:0:0:0:
171,181,70923,2,0,P|145:177|110:181,1,56.0000002384184,2|0,0:0|3:2,0:0:0:0:
48,221,71313,1,8,3:2:0:0:
48,221,71508,1,0,3:2:0:0:
109,313,71702,6,0,L|171:313,1,56.0000002384184,2|0,3:2|0:0,0:0:0:0:
243,314,72092,1,8,0:0:0:0:
376,231,72482,2,0,L|314:231,1,56.0000002384184,2|0,0:0|3:2,0:0:0:0:
242,232,72871,1,8,0:0:0:0:
463,200,73261,6,0,P|468:228|463:259,1,56.0000002384184,6|0,0:0|0:0,0:0:0:0:
456,333,73650,2,0,L|368:332,1,84.0000003576276,8|8,0:0|0:0,0:0:0:0:
360,332,74040,2,0,P|336:336|303:332,1,56.0000002384184,2|0,0:0|3:2,0:0:0:0:
229,310,74430,1,8,3:2:0:0:
229,310,74624,1,0,3:2:0:0:
120,281,74819,6,0,L|120:218,1,56.0000002384184,2|0,3:2|0:0,0:0:0:0:
122,146,75209,1,8,0:0:0:0:
240,43,75598,2,0,L|299:43,1,56.0000002384184,2|0,0:0|3:2,0:0:0:0:
408,48,75988,2,0,L|414:82,3,28.0000001192092,8|8|8|8,0:0|0:0|0:0|0:0,0:0:0:0:
414,112,76378,6,0,L|414:172,1,52.5000022262334,2|0,3:0|0:0,0:0:0:0:
415,238,76767,1,2,0:3:0:0:
415,238,76962,1,2,0:3:0:0:
340,311,77157,1,2,0:3:0:0:
330,323,77547,6,0,P|305:328|271:322,1,52.5000022262334,2|2,0:3|0:3,0:0:0:0:
212,291,77936,2,0,P|187:286|153:292,1,52.5000022262334,0|2,0:0|0:3,0:0:0:0:
89,309,78326,1,2,0:3:0:0:
89,309,78521,1,2,0:3:0:0:
15,46,79105,6,0,B|107:36|107:36|118:52|140:66,1,136.499993751526,8|0,3:2|0:0,0:0:0:0:
148,76,79495,6,0,P|212:94|282:77,1,140.000000596046,12|0,3:2|0:0,0:0:0:0:
376,51,80079,1,0,0:0:0:0:
472,67,80274,2,0,B|485:139|485:139|475:176,1,105.000000447034,8|8,3:2|3:2,0:0:0:0:
472,182,80663,2,0,P|465:216|472:257,1,70.000000298023,0|8,0:0|3:2,0:0:0:0:
429,340,81053,6,0,B|362:355|362:355|286:339,1,140.000000596046,0|0,3:2|0:0,0:0:0:0:
200,306,81637,1,0,0:0:0:0:
114,258,81832,2,0,L|39:252,1,70.000000298023,8|0,0:0|0:0,0:0:0:0:
42,153,82222,2,0,L|117:147,1,70.000000298023,0|0,3:2|3:2,0:0:0:0:
132,148,82514,1,0,2:3:0:0:
152,149,82611,6,0,P|208:121|171:68,1,140.000000596046,4|0,3:2|0:0,0:0:0:0:
76,61,83196,1,0,0:0:0:0:
42,153,83391,2,0,L|42:261,1,105.000000447034,8|8,3:2|3:2,0:0:0:0:
38,271,83780,2,0,P|74:267|111:276,1,70.000000298023,0|8,0:0|3:2,0:0:0:0:
179,340,84170,6,0,P|215:344|252:335,1,70.000000298023,0|0,3:0|0:0,0:0:0:0:
343,314,84560,1,0,3:2:0:0:
418,252,84754,1,0,0:0:0:0:
418,252,84852,1,0,3:0:0:0:
418,252,84949,2,0,B|425:142|425:142|410:154|395:160,1,140.000000596046,8|8,3:2|3:2,0:0:0:0:
307,193,85534,1,0,0:0:0:0:
176,193,85728,6,0,P|240:214|315:186,1,140.000000596046,4|0,3:2|0:0,0:0:0:0:
399,157,86313,1,0,0:0:0:0:
325,88,86508,2,0,B|257:75|257:75|214:82,2,105.000000447034,8|8|8,3:2|3:2|3:2,0:0:0:0:
399,157,87287,6,0,P|420:224|395:296,1,140.000000596046,0|0,3:0|0:0,0:0:0:0:
321,346,87871,1,0,0:0:0:0:
223,359,88066,2,0,P|188:366|143:353,1,70.000000298023,8|0,3:2|0:0,0:0:0:0:
67,312,88456,1,0,3:2:0:0:
16,228,88650,1,0,3:2:0:0:
16,228,88748,1,0,0:0:0:0:
16,228,88845,6,0,B|10:123|10:123|36:92,1,140.000000596046,4|0,3:2|0:0,0:0:0:0:
122,57,89430,1,0,0:0:0:0:
218,41,89624,2,0,L|334:41,2,105.000000447034,8|8|8,3:2|3:2|3:2,0:0:0:0:
203,138,90404,6,0,L|344:138,1,140.000000596046,0|8,3:0|3:2,0:0:0:0:
434,102,90988,1,0,3:0:0:0:
434,102,91085,1,0,3:0:0:0:
434,102,91183,2,0,P|441:133|432:181,1,70.000000298023,0|0,3:0|0:0,0:0:0:0:
387,256,91573,2,0,L|350:258,3,35.0000001490115,8|8|8|8,0:0|0:0|0:0|0:0,0:0:0:0:
310,245,91962,6,0,L|304:318,1,62.9999983456133,4|2,3:2|0:0,0:0:0:0:
216,310,92352,2,0,L|210:247,1,62.9999983456133,8|2,0:0|0:0,0:0:0:0:
258,172,92741,1,0,3:0:0:0:
258,172,92936,1,2,0:0:0:0:
210,97,93131,2,0,L|136:97,1,62.9999983456133,8|2,0:0|0:0,0:0:0:0:
27,80,93521,6,0,B|17:174|17:174|30:219,1,125.999996691227,0|8,3:0|0:0,0:0:0:0:
71,280,94105,1,2,0:0:0:0:
154,308,94300,2,0,P|189:314|225:306,1,62.9999983456133,0|2,3:0|0:0,0:0:0:0:
296,274,94689,2,0,P|331:268|367:276,1,62.9999983456133,8|2,0:0|0:0,0:0:0:0:
374,281,94982,1,0,3:2:0:0:
391,289,95079,6,0,P|448:273|436:220,1,125.999996691227,4|8,3:2|0:0,0:0:0:0:
372,157,95663,1,2,0:0:0:0:
295,112,95858,2,0,L|220:112,1,62.9999983456133,0|2,3:2|0:0,0:0:0:0:
143,118,96248,2,0,P|139:104|123:80,3,31.4999991728067,8|8|10|8,0:0|0:0|0:0|0:0,0:0:0:0:
100,57,96637,6,0,L|100:192,1,125.999996691227,0|8,3:2|0:0,0:0:0:0:
118,269,97222,1,2,0:0:0:0:
187,323,97417,2,0,P|215:329|255:322,1,62.9999983456133,0|2,3:0|0:0,0:0:0:0:
332,295,97806,1,8,0:0:0:0:
332,295,98001,1,2,0:0:0:0:
412,206,98196,6,0,L|337:200,1,62.9999983456133,4|2,3:2|0:0,0:0:0:0:
260,200,98585,1,8,0:0:0:0:
260,200,98780,1,2,0:0:0:0:
174,177,98975,2,0,P|168:148|175:110,1,62.9999983456133,0|2,3:2|0:0,0:0:0:0:
232,49,99365,1,8,0:0:0:0:
232,49,99560,1,2,0:0:0:0:
349,74,99754,6,0,L|349:213,1,125.999996691227,0|8,3:0|0:0,0:0:0:0:
321,284,100339,1,2,0:0:0:0:
247,333,100534,2,0,P|215:339|178:333,1,62.9999983456133,0|2,3:0|0:0,0:0:0:0:
99,312,100923,1,8,0:0:0:0:
42,244,101118,1,2,0:0:0:0:
42,244,101215,1,0,0:0:0:0:
42,244,101313,6,0,B|48:149|48:149|78:160,1,125.999996691227,4|8,3:2|0:0,0:0:0:0:
160,186,101897,1,2,0:0:0:0:
246,204,102092,2,0,L|312:204,1,62.9999983456133,0|2,3:0|0:0,0:0:0:0:
397,203,102482,1,8,0:0:0:0:
397,203,102676,1,2,0:0:0:0:
463,261,102871,6,0,P|485:204|460:140,1,125.999996691227,0|8,3:0|0:0,0:0:0:0:
394,90,103456,1,2,3:2:0:0:
394,90,103553,1,0,3:0:0:0:
394,90,103650,2,0,L|353:85,3,31.4999991728067,0|0|2|0,3:0|0:0|0:0|3:3,0:0:0:0:
318,85,104040,2,0,L|286:88,3,31.4999991728067,8|8|8|8,0:0|0:0|0:0|0:0,0:0:0:0:
242,84,104430,5,4,3:2:0:0:
256,192,104527,12,0,109105,0:0:0:0:
