osu file format v14

[General]
AudioFilename: audio.mp3
AudioLeadIn: 0
PreviewTime: 96985
Countdown: 0
SampleSet: Normal
StackLeniency: 0.7
Mode: 3
LetterboxInBreaks: 0
SpecialStyle: 0
WidescreenStoryboard: 0

[Editor]
Bookmarks: 31606,44847,71330,124295,160851,171822
DistanceSpacing: 0.9
BeatDivisor: 4
GridSize: 32
TimelineZoom: 1.01824

[Metadata]
Title:Escapes
TitleUnicode:Escapes
Artist:Draw the Emotional
ArtistUnicode:Draw the Emotional
Creator:puxtu
Version:MX
Source:
Tags:
BeatmapID:1590523
BeatmapSetID:755689

[Difficulty]
HPDrainRate:8.5
CircleSize:4
OverallDifficulty:8.5
ApproachRate:5
SliderMultiplier:1.4
SliderTickRate:1

[Events]
//Background and Video events
0,0,"deja_vu_by_nanomortis-d8r99jv.png",0,0
//Break Periods
//Storyboard Layer 0 (Background)
//Storyboard Layer 1 (Fail)
//Storyboard Layer 2 (Pass)
//Storyboard Layer 3 (Foreground)
//Storyboard Sound Samples

[TimingPoints]
31606,413.793103448276,4,1,1,50,1,0
44847,-100,4,1,1,50,0,1
58088,-100,4,1,1,50,0,0
64709,-100,4,1,1,50,0,1
71330,-100,4,1,1,50,0,0
97812,-100,4,1,1,50,0,1
111054,-100,4,1,1,50,0,0
117674,-100,4,1,1,50,0,1
124295,-100,4,1,1,50,0,0
137537,342.857142857143,4,1,1,50,1,0
137537,-121.951219512195,4,1,1,50,0,0
149879,-121.951219512195,4,1,1,50,0,1
171822,-121.951219512195,4,1,1,50,0,0

[HitObjects]
320,192,31192,5,2,2:0:0:0:
64,192,31606,1,0,0:0:0:0:
448,192,31606,1,2,0:0:0:0:
320,192,31709,1,2,0:0:0:0:
192,192,31709,1,0,0:0:0:0:
64,192,31812,1,0,0:0:0:0:
448,192,31812,1,2,0:0:0:0:
64,192,32019,1,0,0:0:0:0:
192,192,32019,1,4,3:0:0:0:
448,192,32019,1,2,0:0:0:0:
320,192,32226,1,8,0:0:0:0:
192,192,32226,1,0,0:0:0:0:
448,192,32433,1,0,0:0:0:0:
320,192,32433,1,4,3:0:0:0:
64,192,32433,1,2,0:0:0:0:
64,192,32743,1,2,0:0:0:0:
192,192,32743,1,4,3:0:0:0:
448,192,32743,1,0,0:0:0:0:
448,192,33054,1,2,0:0:0:0:
320,192,33054,1,4,3:0:0:0:
64,192,33054,1,0,0:0:0:0:
192,192,33261,1,0,0:0:0:0:
320,192,33261,1,4,3:0:0:0:
448,192,33261,1,2,0:0:0:0:
448,192,33468,1,2,0:0:0:0:
320,192,33468,1,4,3:0:0:0:
192,192,33468,1,0,0:0:0:0:
192,192,33674,1,0,0:0:0:0:
64,192,33674,1,2,0:0:0:0:
448,192,33778,1,2,0:0:0:0:
320,192,33778,1,0,0:0:0:0:
192,192,33881,1,0,0:0:0:0:
64,192,33881,1,8,0:0:0:0:
320,192,34088,1,2,0:0:0:0:
448,192,34088,1,0,0:0:0:0:
64,192,34192,1,0,0:0:0:0:
192,192,34192,1,2,0:0:0:0:
320,192,34295,1,2,0:0:0:0:
448,192,34295,1,0,0:0:0:0:
192,192,34399,1,0,0:0:0:0:
64,192,34502,1,2,0:0:0:0:
448,192,34502,1,0,0:0:0:0:
320,192,34606,1,0,0:0:0:0:
192,192,34606,1,2,0:0:0:0:
64,192,34709,1,2,0:0:0:0:
448,192,34709,1,0,0:0:0:0:
320,192,34812,1,0,0:0:0:0:
192,192,34916,1,0,0:0:0:0:
64,192,34916,1,2,0:0:0:0:
448,192,35019,1,2,0:0:0:0:
320,192,35019,1,0,0:0:0:0:
192,192,35123,1,0,0:0:0:0:
64,192,35123,1,2,0:0:0:0:
448,192,35330,1,0,0:0:0:0:
320,192,35330,1,4,3:0:0:0:
64,192,35330,1,2,0:0:0:0:
192,192,35537,1,8,0:0:0:0:
320,192,35537,1,0,0:0:0:0:
64,192,35743,1,2,0:0:0:0:
192,192,35743,1,4,3:0:0:0:
448,192,35743,1,0,0:0:0:0:
448,192,36054,1,2,0:0:0:0:
320,192,36054,1,4,3:0:0:0:
64,192,36054,1,0,0:0:0:0:
64,192,36364,1,0,0:0:0:0:
192,192,36364,1,4,3:0:0:0:
448,192,36364,1,2,0:0:0:0:
448,192,36571,1,2,0:0:0:0:
320,192,36571,1,4,3:0:0:0:
192,192,36571,1,0,0:0:0:0:
192,192,36778,1,0,0:0:0:0:
320,192,36778,1,4,3:0:0:0:
448,192,36778,1,2,0:0:0:0:
192,192,36985,1,0,0:0:0:0:
64,192,36985,1,2,0:0:0:0:
448,192,37088,1,2,0:0:0:0:
320,192,37088,1,0,0:0:0:0:
192,192,37192,1,0,0:0:0:0:
64,192,37192,1,4,3:0:0:0:
320,192,37399,1,2,0:0:0:0:
448,192,37399,1,8,0:0:0:0:
64,192,37502,1,8,0:0:0:0:
192,192,37502,1,2,0:0:0:0:
320,192,37606,1,2,0:0:0:0:
448,192,37606,1,0,0:0:0:0:
192,192,37709,1,0,0:0:0:0:
64,192,37812,1,2,0:0:0:0:
448,192,37812,1,0,0:0:0:0:
320,192,37916,1,0,0:0:0:0:
192,192,37916,1,2,0:0:0:0:
64,192,38019,1,2,0:0:0:0:
448,192,38019,1,0,0:0:0:0:
320,192,38123,1,0,0:0:0:0:
192,192,38226,1,0,0:0:0:0:
64,192,38226,1,2,0:0:0:0:
448,192,38330,1,2,0:0:0:0:
320,192,38330,1,0,0:0:0:0:
192,192,38433,1,0,0:0:0:0:
64,192,38433,1,2,0:0:0:0:
64,192,38640,1,0,0:0:0:0:
320,192,38640,1,4,3:0:0:0:
448,192,38640,1,2,0:0:0:0:
320,192,38847,1,0,0:0:0:0:
192,192,38847,1,8,0:0:0:0:
448,192,39054,1,2,0:0:0:0:
192,192,39054,1,4,3:0:0:0:
64,192,39054,1,0,0:0:0:0:
64,192,39364,1,0,0:0:0:0:
320,192,39364,1,4,3:0:0:0:
448,192,39364,1,2,0:0:0:0:
448,192,39674,1,2,0:0:0:0:
192,192,39674,1,4,3:0:0:0:
64,192,39674,1,0,0:0:0:0:
192,192,39881,1,0,0:0:0:0:
320,192,39881,1,4,3:0:0:0:
448,192,39881,1,2,0:0:0:0:
448,192,40088,1,2,0:0:0:0:
320,192,40088,1,4,3:0:0:0:
192,192,40088,1,0,0:0:0:0:
64,192,40295,1,2,0:0:0:0:
192,192,40295,1,0,0:0:0:0:
320,192,40399,1,0,0:0:0:0:
448,192,40399,1,2,0:0:0:0:
64,192,40502,1,2,0:0:0:0:
192,192,40502,1,8,0:0:0:0:
448,192,40709,1,0,0:0:0:0:
320,192,40709,1,2,0:0:0:0:
192,192,40812,1,2,0:0:0:0:
64,192,40812,1,0,0:0:0:0:
448,192,40916,1,0,0:0:0:0:
320,192,40916,1,2,0:0:0:0:
192,192,41019,1,0,0:0:0:0:
448,192,41123,1,0,0:0:0:0:
64,192,41123,1,2,0:0:0:0:
192,192,41226,1,2,0:0:0:0:
320,192,41226,1,0,0:0:0:0:
448,192,41330,1,0,0:0:0:0:
64,192,41330,1,2,0:0:0:0:
320,192,41433,1,0,0:0:0:0:
64,192,41537,1,2,0:0:0:0:
192,192,41537,1,0,0:0:0:0:
320,192,41640,1,0,0:0:0:0:
448,192,41640,1,2,0:0:0:0:
64,192,41743,1,2,0:0:0:0:
192,192,41743,1,0,0:0:0:0:
64,192,41950,1,0,0:0:0:0:
320,192,41950,1,4,3:0:0:0:
448,192,41950,1,2,0:0:0:0:
320,192,42157,1,0,0:0:0:0:
192,192,42157,1,8,0:0:0:0:
448,192,42364,1,2,0:0:0:0:
192,192,42364,1,4,3:0:0:0:
64,192,42364,1,0,0:0:0:0:
64,192,42674,1,0,0:0:0:0:
320,192,42674,1,4,3:0:0:0:
448,192,42674,1,2,0:0:0:0:
448,192,42985,1,2,0:0:0:0:
192,192,42985,1,4,3:0:0:0:
64,192,42985,1,0,0:0:0:0:
192,192,43192,1,0,0:0:0:0:
320,192,43192,1,4,3:0:0:0:
448,192,43192,1,2,0:0:0:0:
448,192,43399,1,2,0:0:0:0:
320,192,43399,1,4,3:0:0:0:
192,192,43399,1,0,0:0:0:0:
64,192,43606,1,2,0:0:0:0:
192,192,43606,1,0,0:0:0:0:
320,192,43709,1,0,0:0:0:0:
448,192,43709,1,2,0:0:0:0:
64,192,43812,1,2,0:0:0:0:
192,192,43812,1,8,0:0:0:0:
320,192,43916,1,8,0:0:0:0:
448,192,43916,1,2,0:0:0:0:
64,192,44019,1,0,0:0:0:0:
448,192,44123,1,0,0:0:0:0:
192,192,44226,1,0,0:0:0:0:
320,192,44330,1,0,0:0:0:0:
64,192,44433,1,0,0:0:0:0:
192,192,44485,1,0,0:0:0:0:
320,192,44537,1,0,0:0:0:0:
448,192,44640,1,0,0:0:0:0:
192,192,44743,1,0,0:0:0:0:
64,192,44847,5,0,0:0:0:0:
448,192,44847,1,2,0:0:0:0:
320,192,44847,1,4,0:0:0:0:
192,192,44950,1,0,0:0:0:0:
64,192,45054,1,0,0:0:0:0:
448,192,45054,1,2,0:0:0:0:
320,192,45157,1,0,0:0:0:0:
448,192,45261,1,0,0:0:0:0:
64,192,45261,1,8,0:0:0:0:
192,192,45261,1,2,0:0:0:0:
320,192,45364,1,0,0:0:0:0:
192,192,45468,1,2,0:0:0:0:
448,192,45468,1,0,0:0:0:0:
320,192,45571,1,0,0:0:0:0:
64,192,45674,1,2,0:0:0:0:
192,192,45674,1,0,0:0:0:0:
448,192,45778,1,0,0:0:0:0:
320,192,45881,1,2,0:0:0:0:
192,192,45881,1,0,0:0:0:0:
64,192,45985,1,0,0:0:0:0:
192,192,46088,1,2,0:0:0:0:
320,192,46088,1,0,0:0:0:0:
448,192,46088,1,8,0:0:0:0:
64,192,46192,1,0,0:0:0:0:
448,192,46295,1,2,0:0:0:0:
192,192,46295,1,0,0:0:0:0:
320,192,46399,1,0,0:0:0:0:
64,192,46502,1,0,0:0:0:0:
448,192,46502,1,2,0:0:0:0:
192,192,46606,1,0,0:0:0:0:
320,192,46709,1,0,0:0:0:0:
448,192,46709,1,2,0:0:0:0:
192,192,46812,1,0,0:0:0:0:
64,192,46916,1,8,0:0:0:0:
448,192,46916,1,2,0:0:0:0:
320,192,46916,1,0,0:0:0:0:
192,192,47019,1,0,0:0:0:0:
448,192,47123,1,0,0:0:0:0:
64,192,47123,1,2,0:0:0:0:
320,192,47226,1,0,0:0:0:0:
192,192,47330,1,0,0:0:0:0:
64,192,47330,1,2,0:0:0:0:
448,192,47433,1,0,0:0:0:0:
192,192,47537,1,0,0:0:0:0:
320,192,47537,1,2,0:0:0:0:
64,192,47640,1,0,0:0:0:0:
192,192,47743,1,2,0:0:0:0:
320,192,47743,1,0,0:0:0:0:
448,192,47743,1,8,0:0:0:0:
64,192,47847,1,0,0:0:0:0:
448,192,47950,1,2,0:0:0:0:
320,192,47950,1,0,0:0:0:0:
192,192,48054,1,0,0:0:0:0:
448,192,48157,1,2,0:0:0:0:
64,192,48157,1,0,0:0:0:0:
320,192,48261,1,0,0:0:0:0:
192,192,48364,1,2,0:0:0:0:
64,192,48364,1,0,0:0:0:0:
448,192,48468,1,0,0:0:0:0:
192,192,48571,1,0,0:0:0:0:
64,192,48571,1,8,0:0:0:0:
320,192,48571,1,2,0:0:0:0:
448,192,48674,1,0,0:0:0:0:
320,192,48778,1,0,0:0:0:0:
64,192,48778,1,2,0:0:0:0:
192,192,48881,1,0,0:0:0:0:
448,192,48985,1,0,0:0:0:0:
64,192,48985,1,2,0:0:0:0:
320,192,49088,1,0,0:0:0:0:
192,192,49192,1,0,0:0:0:0:
64,192,49192,1,2,0:0:0:0:
320,192,49295,1,0,0:0:0:0:
448,192,49399,1,8,0:0:0:0:
64,192,49399,1,0,0:0:0:0:
192,192,49399,1,2,0:0:0:0:
320,192,49502,1,0,0:0:0:0:
192,192,49606,1,0,0:0:0:0:
448,192,49606,1,2,0:0:0:0:
64,192,49709,1,0,0:0:0:0:
448,192,49812,1,2,0:0:0:0:
320,192,49812,1,0,0:0:0:0:
192,192,49916,1,0,0:0:0:0:
64,192,50019,1,2,0:0:0:0:
320,192,50019,1,0,0:0:0:0:
192,192,50123,1,0,0:0:0:0:
320,192,50226,1,2,0:0:0:0:
64,192,50226,1,8,0:0:0:0:
448,192,50226,1,0,0:0:0:0:
192,192,50330,1,0,0:0:0:0:
448,192,50433,1,0,0:0:0:0:
64,192,50433,1,2,0:0:0:0:
320,192,50537,1,0,0:0:0:0:
448,192,50640,1,8,0:0:0:0:
64,192,50640,1,0,0:0:0:0:
192,192,50640,1,2,0:0:0:0:
320,192,50743,1,0,0:0:0:0:
448,192,50847,1,0,0:0:0:0:
192,192,50847,1,2,0:0:0:0:
320,192,50950,1,0,0:0:0:0:
64,192,51054,1,0,0:0:0:0:
192,192,51054,1,8,0:0:0:0:
320,192,51157,1,8,0:0:0:0:
448,192,51157,1,0,0:0:0:0:
192,192,51261,1,8,3:0:0:0:
320,192,51364,1,8,3:0:0:0:
448,192,51468,5,0,0:0:0:0:
64,192,51468,1,2,0:0:0:0:
192,192,51468,1,4,0:0:0:0:
320,192,51571,1,0,0:0:0:0:
448,192,51674,1,0,0:0:0:0:
64,192,51674,1,2,0:0:0:0:
192,192,51778,1,0,0:0:0:0:
64,192,51881,1,0,0:0:0:0:
448,192,51881,1,8,0:0:0:0:
320,192,51881,1,2,0:0:0:0:
192,192,51985,1,0,0:0:0:0:
320,192,52088,1,2,0:0:0:0:
64,192,52088,1,0,0:0:0:0:
192,192,52192,1,0,0:0:0:0:
448,192,52295,1,2,0:0:0:0:
320,192,52295,1,0,0:0:0:0:
64,192,52399,1,0,0:0:0:0:
192,192,52502,1,2,0:0:0:0:
320,192,52502,1,0,0:0:0:0:
448,192,52606,1,0,0:0:0:0:
320,192,52709,1,2,0:0:0:0:
192,192,52709,1,0,0:0:0:0:
64,192,52709,1,8,0:0:0:0:
448,192,52812,1,0,0:0:0:0:
64,192,52916,1,2,0:0:0:0:
320,192,52916,1,0,0:0:0:0:
192,192,53019,1,0,0:0:0:0:
448,192,53123,1,0,0:0:0:0:
64,192,53123,1,2,0:0:0:0:
320,192,53226,1,0,0:0:0:0:
192,192,53330,1,0,0:0:0:0:
64,192,53330,1,2,0:0:0:0:
320,192,53433,1,0,0:0:0:0:
448,192,53537,1,8,0:0:0:0:
64,192,53537,1,2,0:0:0:0:
192,192,53537,1,0,0:0:0:0:
320,192,53640,1,0,0:0:0:0:
64,192,53743,1,0,0:0:0:0:
448,192,53743,1,2,0:0:0:0:
192,192,53847,1,0,0:0:0:0:
320,192,53950,1,0,0:0:0:0:
448,192,53950,1,2,0:0:0:0:
64,192,54054,1,0,0:0:0:0:
320,192,54157,1,0,0:0:0:0:
192,192,54157,1,2,0:0:0:0:
448,192,54261,1,0,0:0:0:0:
320,192,54364,1,2,0:0:0:0:
192,192,54364,1,0,0:0:0:0:
64,192,54364,1,8,0:0:0:0:
448,192,54468,1,0,0:0:0:0:
64,192,54571,1,2,0:0:0:0:
192,192,54571,1,0,0:0:0:0:
320,192,54674,1,0,0:0:0:0:
64,192,54778,1,2,0:0:0:0:
448,192,54778,1,0,0:0:0:0:
192,192,54881,1,0,0:0:0:0:
320,192,54985,1,2,0:0:0:0:
448,192,54985,1,0,0:0:0:0:
64,192,55088,1,0,0:0:0:0:
320,192,55192,1,0,0:0:0:0:
448,192,55192,1,8,0:0:0:0:
192,192,55192,1,2,0:0:0:0:
64,192,55295,1,0,0:0:0:0:
192,192,55399,1,0,0:0:0:0:
448,192,55399,1,2,0:0:0:0:
320,192,55502,1,0,0:0:0:0:
192,192,55606,1,0,0:0:0:0:
64,192,55709,1,8,0:0:0:0:
448,192,55709,1,0,0:0:0:0:
320,192,55709,1,2,0:0:0:0:
192,192,55812,1,0,0:0:0:0:
320,192,55916,1,0,0:0:0:0:
448,192,56019,1,2,0:0:0:0:
192,192,56019,1,0,0:0:0:0:
64,192,56019,1,8,0:0:0:0:
320,192,56226,1,0,0:0:0:0:
64,192,56226,1,2,0:0:0:0:
192,192,56330,1,0,0:0:0:0:
320,192,56433,1,8,0:0:0:0:
448,192,56433,1,0,0:0:0:0:
192,192,56537,1,8,0:0:0:0:
64,192,56537,1,0,0:0:0:0:
320,192,56640,1,0,0:0:0:0:
192,192,56743,1,0,0:0:0:0:
448,192,56847,1,8,3:0:0:0:
320,192,56847,1,0,0:0:0:0:
64,192,56950,1,8,3:0:0:0:
192,192,56950,1,0,0:0:0:0:
448,192,57054,1,0,0:0:0:0:
64,192,57157,1,0,0:0:0:0:
320,192,57261,1,8,0:0:0:0:
448,192,57261,1,0,0:0:0:0:
192,192,57330,1,8,3:0:0:0:
64,192,57399,1,8,3:0:0:0:
448,192,57468,1,0,0:0:0:0:
320,192,57571,1,0,0:0:0:0:
64,192,57674,1,8,0:0:0:0:
192,192,57674,1,0,0:0:0:0:
448,192,57778,1,0,0:0:0:0:
320,192,57778,1,8,0:0:0:0:
64,192,57881,1,8,0:0:0:0:
192,192,57881,1,0,0:0:0:0:
320,192,57985,1,8,0:0:0:0:
448,192,57985,1,0,0:0:0:0:
64,192,58088,1,2,0:0:0:0:
192,192,58088,1,4,2:0:0:0:
448,192,58088,1,0,0:0:0:0:
64,192,58295,1,2,0:0:0:0:
448,192,58295,1,0,0:0:0:0:
192,192,58295,1,4,3:0:0:0:
192,192,58709,1,0,0:0:0:0:
64,192,58709,1,2,0:0:0:0:
320,192,58812,1,2,0:0:0:0:
448,192,58812,1,0,0:0:0:0:
192,192,58916,1,4,2:0:0:0:
448,192,58916,1,0,0:0:0:0:
64,192,58916,1,2,0:0:0:0:
320,192,58916,1,8,0:0:0:0:
64,192,59123,1,2,0:0:0:0:
192,192,59123,1,4,3:0:0:0:
448,192,59123,1,0,0:0:0:0:
448,192,59330,1,0,0:0:0:0:
320,192,59330,1,4,3:0:0:0:
64,192,59330,1,2,0:0:0:0:
64,192,59537,1,2,0:0:0:0:
192,192,59537,1,4,3:0:0:0:
448,192,59537,1,0,0:0:0:0:
320,192,59743,1,4,2:0:0:0:
448,192,60157,1,0,0:0:0:0:
192,192,60157,1,4,3:0:0:0:
64,192,60157,1,2,0:0:0:0:
64,192,60364,1,2,0:0:0:0:
320,192,60364,1,4,3:0:0:0:
448,192,60364,1,0,0:0:0:0:
448,192,60571,1,8,0:0:0:0:
192,192,60571,1,4,2:0:0:0:
64,192,60571,1,2,0:0:0:0:
320,192,60571,1,0,0:0:0:0:
64,192,60778,1,2,0:0:0:0:
192,192,60778,1,4,3:0:0:0:
448,192,60778,1,0,0:0:0:0:
448,192,60985,1,0,0:0:0:0:
320,192,60985,1,4,3:0:0:0:
64,192,60985,1,2,0:0:0:0:
448,192,61399,1,2,0:0:0:0:
320,192,61399,1,4,2:0:0:0:
64,192,61399,1,0,0:0:0:0:
448,192,61606,1,2,0:0:0:0:
64,192,61606,1,0,0:0:0:0:
320,192,61606,1,4,3:0:0:0:
320,192,62019,1,0,0:0:0:0:
448,192,62019,1,2,0:0:0:0:
192,192,62123,1,2,0:0:0:0:
64,192,62123,1,0,0:0:0:0:
320,192,62226,1,4,2:0:0:0:
64,192,62226,1,0,0:0:0:0:
448,192,62226,1,2,0:0:0:0:
192,192,62226,1,8,0:0:0:0:
448,192,62433,1,2,0:0:0:0:
320,192,62433,1,4,3:0:0:0:
64,192,62433,1,0,0:0:0:0:
64,192,62640,1,0,0:0:0:0:
192,192,62640,1,4,3:0:0:0:
448,192,62640,1,2,0:0:0:0:
448,192,62847,1,2,0:0:0:0:
320,192,62847,1,4,3:0:0:0:
64,192,62847,1,0,0:0:0:0:
192,192,63054,1,4,2:0:0:0:
64,192,63468,1,0,0:0:0:0:
320,192,63468,1,4,3:0:0:0:
448,192,63468,1,2,0:0:0:0:
448,192,63674,1,2,0:0:0:0:
192,192,63674,1,4,3:0:0:0:
64,192,63674,1,0,0:0:0:0:
64,192,63881,1,8,0:0:0:0:
320,192,63881,1,4,2:0:0:0:
448,192,63881,1,2,0:0:0:0:
192,192,63881,1,0,0:0:0:0:
448,192,64088,1,2,0:0:0:0:
320,192,64088,1,4,3:0:0:0:
64,192,64088,1,0,0:0:0:0:
64,192,64295,1,0,0:0:0:0:
192,192,64295,1,4,3:0:0:0:
448,192,64295,1,2,0:0:0:0:
192,192,64502,1,2,0:0:0:0:
64,192,64502,1,0,0:0:0:0:
320,192,64606,1,2,0:0:0:0:
448,192,64606,1,0,0:0:0:0:
448,192,64709,5,0,0:0:0:0:
64,192,64709,1,2,0:0:0:0:
192,192,64709,1,4,0:0:0:0:
320,192,64812,1,0,0:0:0:0:
448,192,64916,1,0,0:0:0:0:
64,192,64916,1,2,0:0:0:0:
192,192,65019,1,0,0:0:0:0:
64,192,65123,1,0,0:0:0:0:
448,192,65123,1,8,0:0:0:0:
320,192,65123,1,2,0:0:0:0:
192,192,65226,1,0,0:0:0:0:
320,192,65330,1,2,0:0:0:0:
64,192,65330,1,0,0:0:0:0:
192,192,65433,1,0,0:0:0:0:
448,192,65537,1,2,0:0:0:0:
320,192,65537,1,0,0:0:0:0:
64,192,65640,1,0,0:0:0:0:
192,192,65743,1,2,0:0:0:0:
320,192,65743,1,0,0:0:0:0:
448,192,65847,1,0,0:0:0:0:
320,192,65950,1,2,0:0:0:0:
192,192,65950,1,0,0:0:0:0:
64,192,65950,1,8,0:0:0:0:
448,192,66054,1,0,0:0:0:0:
64,192,66157,1,2,0:0:0:0:
320,192,66157,1,0,0:0:0:0:
192,192,66261,1,0,0:0:0:0:
448,192,66364,1,0,0:0:0:0:
64,192,66364,1,2,0:0:0:0:
320,192,66468,1,0,0:0:0:0:
192,192,66571,1,0,0:0:0:0:
64,192,66571,1,2,0:0:0:0:
320,192,66674,1,0,0:0:0:0:
448,192,66778,1,8,0:0:0:0:
64,192,66778,1,2,0:0:0:0:
192,192,66778,1,0,0:0:0:0:
320,192,66881,1,0,0:0:0:0:
64,192,66985,1,0,0:0:0:0:
448,192,66985,1,2,0:0:0:0:
192,192,67088,1,0,0:0:0:0:
320,192,67192,1,0,0:0:0:0:
448,192,67192,1,2,0:0:0:0:
64,192,67295,1,0,0:0:0:0:
320,192,67399,1,0,0:0:0:0:
192,192,67399,1,2,0:0:0:0:
448,192,67502,1,0,0:0:0:0:
320,192,67606,1,2,0:0:0:0:
192,192,67606,1,0,0:0:0:0:
64,192,67606,1,8,0:0:0:0:
448,192,67709,1,0,0:0:0:0:
64,192,67812,1,2,0:0:0:0:
192,192,67812,1,0,0:0:0:0:
320,192,67916,1,0,0:0:0:0:
64,192,68019,1,8,0:0:0:0:
192,192,68019,1,0,0:0:0:0:
448,192,68019,1,2,0:0:0:0:
320,192,68123,1,0,0:0:0:0:
192,192,68226,1,0,0:0:0:0:
320,192,68330,1,2,0:0:0:0:
448,192,68330,1,0,0:0:0:0:
64,192,68330,1,8,0:0:0:0:
192,192,68433,1,0,0:0:0:0:
320,192,68537,1,0,0:0:0:0:
64,192,68640,1,8,0:0:0:0:
192,192,68640,1,0,0:0:0:0:
448,192,68640,1,2,0:0:0:0:
320,192,68743,1,0,0:0:0:0:
192,192,68847,1,0,0:0:0:0:
320,192,68950,1,2,0:0:0:0:
448,192,68950,1,0,0:0:0:0:
64,192,68950,1,8,0:0:0:0:
192,192,69054,1,0,0:0:0:0:
320,192,69157,1,0,0:0:0:0:
64,192,69261,1,8,0:0:0:0:
192,192,69261,1,0,0:0:0:0:
448,192,69261,1,2,0:0:0:0:
320,192,69468,1,0,0:0:0:0:
192,192,69571,1,0,0:0:0:0:
320,192,69674,1,8,0:0:0:0:
448,192,69674,1,0,0:0:0:0:
64,192,69778,1,0,0:0:0:0:
192,192,69778,1,8,0:0:0:0:
320,192,69881,1,0,0:0:0:0:
64,192,69985,1,0,0:0:0:0:
448,192,70088,1,0,0:0:0:0:
320,192,70088,1,2,0:0:0:0:
192,192,70192,1,2,0:0:0:0:
448,192,70295,1,0,0:0:0:0:
64,192,70399,1,0,0:0:0:0:
192,192,70502,1,8,0:0:0:0:
320,192,70502,1,2,0:0:0:0:
448,192,70502,1,0,0:0:0:0:
64,192,70709,1,0,0:0:0:0:
320,192,70709,1,2,0:0:0:0:
64,192,70916,1,0,0:0:0:0:
192,192,70916,1,2,0:0:0:0:
320,192,71123,1,2,0:0:0:0:
448,192,71123,1,0,0:0:0:0:
192,192,71330,1,4,0:0:0:0:
448,192,71330,1,0,0:0:0:0:
64,192,71330,128,0,73812:2:0:0:0:
320,192,72157,1,0,2:0:0:0:
448,192,72985,1,0,2:0:0:0:
192,192,73812,1,0,2:0:0:0:
320,192,74019,1,2,0:0:0:0:
448,192,74019,1,0,0:0:0:0:
192,192,74123,1,2,0:0:0:0:
64,192,74123,1,0,0:0:0:0:
64,192,74226,1,0,0:0:0:0:
320,192,74226,1,2,0:0:0:0:
448,192,74226,1,8,0:0:0:0:
192,192,74433,1,2,0:0:0:0:
320,192,74433,1,0,0:0:0:0:
64,192,74640,1,0,2:0:0:0:
192,192,74640,1,4,0:0:0:0:
448,192,74640,128,0,77123:0:0:0:0:
320,192,75468,1,0,2:0:0:0:
64,192,76295,1,0,2:0:0:0:
64,192,76916,1,2,0:0:0:0:
320,192,76916,1,0,0:0:0:0:
64,192,77123,1,2,0:0:0:0:
192,192,77123,1,8,0:0:0:0:
320,192,77123,1,0,0:0:0:0:
192,192,77330,1,0,0:0:0:0:
448,192,77330,1,2,0:0:0:0:
64,192,77537,1,0,0:0:0:0:
448,192,77537,1,8,3:0:0:0:
320,192,77743,1,2,0:0:0:0:
64,192,77743,1,0,0:0:0:0:
192,192,77950,1,2,0:0:0:0:
320,192,77950,1,4,0:0:0:0:
448,192,77950,1,0,0:0:0:0:
448,192,78364,1,0,2:0:0:0:
192,192,78571,1,2,0:0:0:0:
64,192,78571,1,0,0:0:0:0:
64,192,78778,1,0,0:0:0:0:
320,192,78778,1,2,0:0:0:0:
448,192,78778,1,8,0:0:0:0:
64,192,79088,1,0,0:0:0:0:
448,192,79088,1,8,0:0:0:0:
320,192,79088,1,2,0:0:0:0:
192,192,79399,1,2,0:0:0:0:
64,192,79399,1,0,0:0:0:0:
448,192,79502,1,0,0:0:0:0:
320,192,79502,1,2,0:0:0:0:
192,192,79606,1,2,0:0:0:0:
448,192,79606,1,4,0:0:0:0:
64,192,79606,1,0,0:0:0:0:
320,192,80019,1,0,2:0:0:0:
64,192,80226,1,0,0:0:0:0:
448,192,80226,1,2,0:0:0:0:
192,192,80433,1,2,0:0:0:0:
448,192,80433,1,8,0:0:0:0:
64,192,80433,1,0,0:0:0:0:
64,192,80847,1,0,0:0:0:0:
320,192,80847,1,2,0:0:0:0:
320,192,81261,1,2,0:0:0:0:
448,192,81261,1,4,0:0:0:0:
192,192,81261,1,0,0:0:0:0:
64,192,81674,1,0,2:0:0:0:
192,192,81881,1,0,0:0:0:0:
320,192,81881,1,2,0:0:0:0:
320,192,82088,1,2,0:0:0:0:
448,192,82088,1,8,0:0:0:0:
64,192,82088,1,0,0:0:0:0:
64,192,82399,1,0,0:0:0:0:
448,192,82399,1,8,0:0:0:0:
192,192,82399,1,2,0:0:0:0:
448,192,82709,1,2,0:0:0:0:
64,192,82709,1,0,0:0:0:0:
192,192,82812,1,0,0:0:0:0:
320,192,82812,1,2,0:0:0:0:
192,192,82916,1,2,0:0:0:0:
448,192,82916,1,8,0:0:0:0:
64,192,82916,1,0,0:0:0:0:
64,192,83123,1,0,0:0:0:0:
320,192,83123,1,2,0:0:0:0:
320,192,83330,1,8,3:0:0:0:
192,192,83330,1,0,0:0:0:0:
448,192,83537,1,2,0:0:0:0:
64,192,83537,1,0,0:0:0:0:
192,192,83640,1,2,0:0:0:0:
320,192,83743,1,2,0:0:0:0:
448,192,83743,1,8,0:0:0:0:
448,192,83847,1,2,0:0:0:0:
320,192,83847,1,8,0:0:0:0:
64,192,83950,1,2,0:0:0:0:
192,192,84054,1,2,0:0:0:0:
64,192,84157,1,0,0:0:0:0:
320,192,84157,1,2,0:0:0:0:
448,192,84157,1,8,0:0:0:0:
192,192,84261,1,2,0:0:0:0:
320,192,84364,1,2,0:0:0:0:
64,192,84364,1,0,0:0:0:0:
448,192,84468,1,2,0:0:0:0:
192,192,84571,1,2,0:0:0:0:
64,192,84571,1,0,0:0:0:0:
320,192,84674,1,2,0:0:0:0:
448,192,84674,1,0,0:0:0:0:
192,192,84778,1,2,0:0:0:0:
64,192,84778,1,0,0:0:0:0:
320,192,85192,1,2,0:0:0:0:
448,192,85192,1,0,0:0:0:0:
192,192,85295,1,2,0:0:0:0:
64,192,85295,1,0,0:0:0:0:
448,192,85399,1,0,0:0:0:0:
320,192,85399,1,2,0:0:0:0:
64,192,85399,1,8,0:0:0:0:
192,192,85709,1,0,0:0:0:0:
64,192,85709,1,2,0:0:0:0:
448,192,85709,1,4,3:0:0:0:
320,192,86019,1,2,0:0:0:0:
448,192,86019,1,0,0:0:0:0:
64,192,86019,1,4,3:0:0:0:
64,192,86226,1,2,0:0:0:0:
448,192,86226,1,0,0:0:0:0:
192,192,86330,1,2,0:0:0:0:
320,192,86330,1,0,0:0:0:0:
448,192,86433,1,0,0:0:0:0:
64,192,86433,1,2,0:0:0:0:
448,192,86640,1,0,0:0:0:0:
64,192,86640,1,2,0:0:0:0:
320,192,86709,1,2,0:0:0:0:
192,192,86778,1,2,0:0:0:0:
448,192,86847,1,0,0:0:0:0:
64,192,86847,1,2,0:0:0:0:
64,192,87054,1,2,0:0:0:0:
448,192,87054,1,0,0:0:0:0:
320,192,87054,1,8,0:0:0:0:
192,192,87261,1,2,0:0:0:0:
320,192,87261,1,0,0:0:0:0:
448,192,87468,1,0,0:0:0:0:
64,192,87468,1,2,0:0:0:0:
320,192,87571,1,0,0:0:0:0:
192,192,87571,1,2,0:0:0:0:
448,192,87674,1,0,0:0:0:0:
64,192,87674,1,2,0:0:0:0:
64,192,87881,1,2,0:0:0:0:
192,192,87881,1,0,0:0:0:0:
448,192,87985,1,2,0:0:0:0:
320,192,87985,1,0,0:0:0:0:
64,192,88088,1,2,0:0:0:0:
192,192,88088,1,0,0:0:0:0:
192,192,88502,1,2,0:0:0:0:
448,192,88502,1,0,0:0:0:0:
320,192,88606,1,2,0:0:0:0:
64,192,88606,1,0,0:0:0:0:
64,192,88709,1,0,0:0:0:0:
192,192,88709,1,2,0:0:0:0:
448,192,88709,1,8,0:0:0:0:
320,192,89019,1,0,0:0:0:0:
448,192,89019,1,2,0:0:0:0:
64,192,89019,1,4,3:0:0:0:
192,192,89330,1,2,0:0:0:0:
64,192,89330,1,0,0:0:0:0:
448,192,89330,1,4,3:0:0:0:
448,192,89537,1,2,0:0:0:0:
64,192,89537,1,0,0:0:0:0:
320,192,89640,1,2,0:0:0:0:
192,192,89640,1,0,0:0:0:0:
64,192,89743,1,0,0:0:0:0:
448,192,89743,1,2,0:0:0:0:
64,192,89950,1,0,0:0:0:0:
448,192,89950,1,2,0:0:0:0:
192,192,90019,1,2,0:0:0:0:
320,192,90088,1,2,0:0:0:0:
64,192,90157,1,0,0:0:0:0:
448,192,90157,1,2,0:0:0:0:
448,192,90364,1,2,0:0:0:0:
64,192,90364,1,0,0:0:0:0:
192,192,90364,1,8,0:0:0:0:
320,192,90571,1,2,0:0:0:0:
192,192,90571,1,0,0:0:0:0:
64,192,90674,1,2,0:0:0:0:
320,192,90778,1,2,0:0:0:0:
448,192,90778,1,8,0:0:0:0:
64,192,90881,1,8,0:0:0:0:
192,192,90881,1,2,0:0:0:0:
448,192,90985,1,2,0:0:0:0:
320,192,91088,1,0,0:0:0:0:
192,192,91192,1,4,0:0:0:0:
448,192,91192,1,0,0:0:0:0:
64,192,91192,128,2,92019:0:0:0:0:
320,192,91606,1,0,2:0:0:0:
192,192,91812,1,0,0:0:0:0:
448,192,91812,1,2,0:0:0:0:
192,192,92019,1,0,0:0:0:0:
320,192,92019,1,8,0:0:0:0:
448,192,92019,1,2,0:0:0:0:
192,192,92330,1,8,0:0:0:0:
320,192,92330,1,2,0:0:0:0:
64,192,92330,1,0,0:0:0:0:
320,192,92640,1,0,0:0:0:0:
448,192,92640,1,2,0:0:0:0:
64,192,92743,1,2,0:0:0:0:
192,192,92743,1,0,0:0:0:0:
192,192,92847,1,0,0:0:0:0:
320,192,92847,1,4,0:0:0:0:
448,192,92847,128,2,93674:0:0:0:0:
192,192,93261,1,0,2:0:0:0:
64,192,93468,1,2,0:0:0:0:
320,192,93468,1,0,0:0:0:0:
64,192,93674,1,2,0:0:0:0:
192,192,93674,1,8,0:0:0:0:
320,192,93674,1,0,0:0:0:0:
192,192,93881,1,2,0:0:0:0:
448,192,93881,1,0,0:0:0:0:
64,192,94088,1,0,0:0:0:0:
448,192,94088,1,8,0:0:0:0:
320,192,94088,1,2,0:0:0:0:
64,192,94295,1,0,0:0:0:0:
192,192,94295,1,2,0:0:0:0:
320,192,94399,1,2,0:0:0:0:
192,192,94502,1,2,0:0:0:0:
448,192,94502,1,8,0:0:0:0:
64,192,94502,1,4,0:0:0:0:
320,192,94709,1,2,0:0:0:0:
448,192,94709,1,0,0:0:0:0:
64,192,94916,1,0,0:0:0:0:
192,192,94916,1,8,0:0:0:0:
320,192,94916,1,2,0:0:0:0:
448,192,95123,1,0,0:0:0:0:
64,192,95123,1,2,0:0:0:0:
320,192,95330,1,2,0:0:0:0:
448,192,95330,1,8,0:0:0:0:
192,192,95330,1,0,0:0:0:0:
64,192,95537,1,2,0:0:0:0:
448,192,95537,1,0,0:0:0:0:
192,192,95606,1,2,0:0:0:0:
320,192,95674,1,2,0:0:0:0:
64,192,95743,1,0,0:0:0:0:
448,192,95743,1,8,0:0:0:0:
192,192,95743,1,2,0:0:0:0:
320,192,95950,1,0,0:0:0:0:
192,192,95950,1,2,0:0:0:0:
320,192,96157,1,2,0:0:0:0:
448,192,96157,1,8,0:0:0:0:
64,192,96261,1,2,0:0:0:0:
192,192,96261,1,8,0:0:0:0:
320,192,96364,1,0,0:0:0:0:
448,192,96468,1,0,0:0:0:0:
64,192,96571,1,0,0:0:0:0:
192,192,96640,1,0,0:0:0:0:
320,192,96709,1,0,0:0:0:0:
448,192,96778,1,0,0:0:0:0:
192,192,96881,1,0,0:0:0:0:
64,192,96985,1,8,0:0:0:0:
448,192,96985,1,0,0:0:0:0:
320,192,96985,128,2,97812:0:0:0:0:
448,192,97812,5,0,0:0:0:0:
64,192,97812,1,2,0:0:0:0:
192,192,97812,1,4,0:0:0:0:
320,192,97916,1,0,0:0:0:0:
448,192,98019,1,0,0:0:0:0:
64,192,98019,1,2,0:0:0:0:
192,192,98123,1,0,0:0:0:0:
64,192,98226,1,0,0:0:0:0:
448,192,98226,1,8,0:0:0:0:
320,192,98226,1,2,0:0:0:0:
192,192,98330,1,0,0:0:0:0:
320,192,98433,1,2,0:0:0:0:
64,192,98433,1,0,0:0:0:0:
192,192,98537,1,0,0:0:0:0:
448,192,98640,1,2,0:0:0:0:
320,192,98640,1,0,0:0:0:0:
64,192,98743,1,0,0:0:0:0:
192,192,98847,1,2,0:0:0:0:
320,192,98847,1,0,0:0:0:0:
448,192,98950,1,0,0:0:0:0:
320,192,99054,1,2,0:0:0:0:
192,192,99054,1,0,0:0:0:0:
64,192,99054,1,8,0:0:0:0:
448,192,99157,1,0,0:0:0:0:
64,192,99261,1,2,0:0:0:0:
320,192,99261,1,0,0:0:0:0:
192,192,99364,1,0,0:0:0:0:
448,192,99468,1,0,0:0:0:0:
64,192,99468,1,2,0:0:0:0:
320,192,99571,1,0,0:0:0:0:
192,192,99674,1,0,0:0:0:0:
64,192,99674,1,2,0:0:0:0:
320,192,99778,1,0,0:0:0:0:
448,192,99881,1,8,0:0:0:0:
64,192,99881,1,2,0:0:0:0:
192,192,99881,1,0,0:0:0:0:
320,192,99985,1,0,0:0:0:0:
64,192,100088,1,0,0:0:0:0:
448,192,100088,1,2,0:0:0:0:
192,192,100192,1,0,0:0:0:0:
320,192,100295,1,0,0:0:0:0:
448,192,100295,1,2,0:0:0:0:
64,192,100399,1,0,0:0:0:0:
320,192,100502,1,0,0:0:0:0:
192,192,100502,1,2,0:0:0:0:
448,192,100606,1,0,0:0:0:0:
320,192,100709,1,2,0:0:0:0:
192,192,100709,1,0,0:0:0:0:
64,192,100709,1,8,0:0:0:0:
448,192,100812,1,0,0:0:0:0:
64,192,100916,1,2,0:0:0:0:
192,192,100916,1,0,0:0:0:0:
320,192,101019,1,0,0:0:0:0:
64,192,101123,1,2,0:0:0:0:
448,192,101123,1,0,0:0:0:0:
192,192,101226,1,0,0:0:0:0:
320,192,101330,1,2,0:0:0:0:
448,192,101330,1,0,0:0:0:0:
64,192,101433,1,0,0:0:0:0:
320,192,101537,1,0,0:0:0:0:
448,192,101537,1,8,0:0:0:0:
192,192,101537,1,2,0:0:0:0:
64,192,101640,1,0,0:0:0:0:
192,192,101743,1,0,0:0:0:0:
448,192,101743,1,2,0:0:0:0:
320,192,101847,1,0,0:0:0:0:
64,192,101950,1,0,0:0:0:0:
448,192,101950,1,2,0:0:0:0:
192,192,102054,1,0,0:0:0:0:
320,192,102157,1,0,0:0:0:0:
448,192,102157,1,2,0:0:0:0:
192,192,102261,1,0,0:0:0:0:
64,192,102364,1,8,0:0:0:0:
448,192,102364,1,0,0:0:0:0:
320,192,102364,1,2,0:0:0:0:
192,192,102468,1,0,0:0:0:0:
320,192,102571,1,0,0:0:0:0:
64,192,102571,1,2,0:0:0:0:
448,192,102674,1,0,0:0:0:0:
64,192,102778,1,2,0:0:0:0:
192,192,102778,1,0,0:0:0:0:
320,192,102881,1,0,0:0:0:0:
448,192,102985,1,2,0:0:0:0:
192,192,102985,1,0,0:0:0:0:
320,192,103088,1,0,0:0:0:0:
192,192,103192,1,2,0:0:0:0:
448,192,103192,1,8,0:0:0:0:
64,192,103192,1,0,0:0:0:0:
320,192,103295,1,0,0:0:0:0:
64,192,103399,1,0,0:0:0:0:
448,192,103399,1,2,0:0:0:0:
192,192,103502,1,0,0:0:0:0:
64,192,103606,1,8,0:0:0:0:
448,192,103606,1,0,0:0:0:0:
320,192,103606,1,2,0:0:0:0:
192,192,103709,1,0,0:0:0:0:
64,192,103812,1,0,0:0:0:0:
320,192,103812,1,2,0:0:0:0:
192,192,103916,1,0,0:0:0:0:
448,192,104019,1,0,0:0:0:0:
320,192,104019,1,8,0:0:0:0:
192,192,104123,1,8,0:0:0:0:
64,192,104123,1,0,0:0:0:0:
320,192,104226,1,8,3:0:0:0:
192,192,104330,1,8,3:0:0:0:
64,192,104433,5,0,0:0:0:0:
448,192,104433,1,2,0:0:0:0:
320,192,104433,1,4,0:0:0:0:
192,192,104537,1,0,0:0:0:0:
64,192,104640,1,0,0:0:0:0:
448,192,104640,1,2,0:0:0:0:
320,192,104743,1,0,0:0:0:0:
448,192,104847,1,0,0:0:0:0:
64,192,104847,1,8,0:0:0:0:
192,192,104847,1,2,0:0:0:0:
320,192,104950,1,0,0:0:0:0:
192,192,105054,1,2,0:0:0:0:
448,192,105054,1,0,0:0:0:0:
320,192,105157,1,0,0:0:0:0:
64,192,105261,1,2,0:0:0:0:
192,192,105261,1,0,0:0:0:0:
448,192,105364,1,0,0:0:0:0:
320,192,105468,1,2,0:0:0:0:
192,192,105468,1,0,0:0:0:0:
64,192,105571,1,0,0:0:0:0:
192,192,105674,1,2,0:0:0:0:
320,192,105674,1,0,0:0:0:0:
448,192,105674,1,8,0:0:0:0:
64,192,105778,1,0,0:0:0:0:
448,192,105881,1,2,0:0:0:0:
192,192,105881,1,0,0:0:0:0:
320,192,105985,1,0,0:0:0:0:
64,192,106088,1,0,0:0:0:0:
448,192,106088,1,2,0:0:0:0:
192,192,106192,1,0,0:0:0:0:
320,192,106295,1,0,0:0:0:0:
448,192,106295,1,2,0:0:0:0:
192,192,106399,1,0,0:0:0:0:
64,192,106502,1,8,0:0:0:0:
448,192,106502,1,2,0:0:0:0:
320,192,106502,1,0,0:0:0:0:
192,192,106606,1,0,0:0:0:0:
448,192,106709,1,0,0:0:0:0:
64,192,106709,1,2,0:0:0:0:
320,192,106812,1,0,0:0:0:0:
192,192,106916,1,0,0:0:0:0:
64,192,106916,1,2,0:0:0:0:
448,192,107019,1,0,0:0:0:0:
192,192,107123,1,0,0:0:0:0:
320,192,107123,1,2,0:0:0:0:
64,192,107226,1,0,0:0:0:0:
192,192,107330,1,2,0:0:0:0:
320,192,107330,1,0,0:0:0:0:
448,192,107330,1,8,0:0:0:0:
64,192,107433,1,0,0:0:0:0:
448,192,107537,1,2,0:0:0:0:
320,192,107537,1,0,0:0:0:0:
192,192,107640,1,0,0:0:0:0:
448,192,107743,1,2,0:0:0:0:
64,192,107743,1,0,0:0:0:0:
320,192,107847,1,0,0:0:0:0:
192,192,107950,1,2,0:0:0:0:
64,192,107950,1,0,0:0:0:0:
448,192,108054,1,0,0:0:0:0:
192,192,108157,1,0,0:0:0:0:
64,192,108157,1,8,0:0:0:0:
320,192,108157,1,2,0:0:0:0:
448,192,108261,1,0,0:0:0:0:
320,192,108364,1,0,0:0:0:0:
64,192,108364,1,2,0:0:0:0:
192,192,108468,1,0,0:0:0:0:
320,192,108571,1,0,0:0:0:0:
448,192,108674,1,8,0:0:0:0:
64,192,108674,1,0,0:0:0:0:
192,192,108674,1,2,0:0:0:0:
320,192,108778,1,0,0:0:0:0:
192,192,108881,1,0,0:0:0:0:
64,192,108985,1,2,0:0:0:0:
320,192,108985,1,0,0:0:0:0:
448,192,108985,1,8,0:0:0:0:
192,192,109192,1,0,0:0:0:0:
448,192,109192,1,2,0:0:0:0:
320,192,109295,1,0,0:0:0:0:
192,192,109399,1,8,0:0:0:0:
64,192,109399,1,0,0:0:0:0:
320,192,109502,1,8,0:0:0:0:
448,192,109502,1,0,0:0:0:0:
192,192,109606,1,0,0:0:0:0:
320,192,109709,1,0,0:0:0:0:
64,192,109812,1,8,3:0:0:0:
192,192,109812,1,0,0:0:0:0:
448,192,109916,1,8,3:0:0:0:
320,192,109916,1,0,0:0:0:0:
64,192,110019,1,0,0:0:0:0:
448,192,110123,1,0,0:0:0:0:
192,192,110226,1,8,0:0:0:0:
64,192,110226,1,0,0:0:0:0:
320,192,110295,1,8,3:0:0:0:
448,192,110364,1,8,3:0:0:0:
64,192,110433,1,0,0:0:0:0:
192,192,110537,1,0,0:0:0:0:
448,192,110640,1,8,0:0:0:0:
320,192,110640,1,0,0:0:0:0:
64,192,110743,1,0,0:0:0:0:
192,192,110743,1,8,0:0:0:0:
448,192,110847,1,8,0:0:0:0:
320,192,110847,1,0,0:0:0:0:
192,192,110950,1,8,0:0:0:0:
64,192,110950,1,0,0:0:0:0:
448,192,111054,1,2,0:0:0:0:
320,192,111054,1,4,3:0:0:0:
64,192,111054,1,0,0:0:0:0:
448,192,111261,1,2,0:0:0:0:
64,192,111261,1,0,0:0:0:0:
320,192,111261,1,4,3:0:0:0:
320,192,111674,1,0,0:0:0:0:
448,192,111674,1,2,0:0:0:0:
192,192,111778,1,2,0:0:0:0:
64,192,111778,1,0,0:0:0:0:
320,192,111881,1,4,3:0:0:0:
64,192,111881,1,0,0:0:0:0:
448,192,111881,1,2,0:0:0:0:
192,192,111881,1,8,0:0:0:0:
448,192,112088,1,2,0:0:0:0:
320,192,112088,1,4,3:0:0:0:
64,192,112088,1,0,0:0:0:0:
64,192,112295,1,0,0:0:0:0:
192,192,112295,1,4,3:0:0:0:
448,192,112295,1,2,0:0:0:0:
448,192,112502,1,2,0:0:0:0:
320,192,112502,1,4,3:0:0:0:
64,192,112502,1,0,0:0:0:0:
64,192,113123,1,0,0:0:0:0:
320,192,113123,1,4,3:0:0:0:
448,192,113123,1,2,0:0:0:0:
448,192,113330,1,2,0:0:0:0:
192,192,113330,1,4,3:0:0:0:
64,192,113330,1,0,0:0:0:0:
64,192,113537,1,8,0:0:0:0:
320,192,113537,1,4,3:0:0:0:
448,192,113537,1,2,0:0:0:0:
192,192,113537,1,0,0:0:0:0:
448,192,113743,1,2,0:0:0:0:
320,192,113743,1,4,3:0:0:0:
64,192,113743,1,0,0:0:0:0:
64,192,113950,1,0,0:0:0:0:
192,192,113950,1,4,3:0:0:0:
448,192,113950,1,2,0:0:0:0:
64,192,114364,1,2,0:0:0:0:
192,192,114364,1,4,3:0:0:0:
448,192,114364,1,0,0:0:0:0:
64,192,114571,1,2,0:0:0:0:
448,192,114571,1,0,0:0:0:0:
192,192,114571,1,4,3:0:0:0:
192,192,114985,1,0,0:0:0:0:
64,192,114985,1,2,0:0:0:0:
320,192,115088,1,2,0:0:0:0:
448,192,115088,1,0,0:0:0:0:
192,192,115192,1,4,3:0:0:0:
448,192,115192,1,0,0:0:0:0:
64,192,115192,1,2,0:0:0:0:
320,192,115192,1,8,0:0:0:0:
64,192,115399,1,2,0:0:0:0:
192,192,115399,1,4,3:0:0:0:
448,192,115399,1,0,0:0:0:0:
448,192,115606,1,0,0:0:0:0:
320,192,115606,1,4,3:0:0:0:
64,192,115606,1,2,0:0:0:0:
64,192,115812,1,2,0:0:0:0:
192,192,115812,1,4,3:0:0:0:
448,192,115812,1,0,0:0:0:0:
448,192,116433,1,0,0:0:0:0:
192,192,116433,1,4,3:0:0:0:
64,192,116433,1,2,0:0:0:0:
64,192,116640,1,2,0:0:0:0:
320,192,116640,1,4,3:0:0:0:
448,192,116640,1,0,0:0:0:0:
448,192,116847,1,8,0:0:0:0:
192,192,116847,1,4,3:0:0:0:
64,192,116847,1,2,0:0:0:0:
320,192,116847,1,0,0:0:0:0:
64,192,117054,1,2,0:0:0:0:
192,192,117054,1,4,3:0:0:0:
448,192,117054,1,0,0:0:0:0:
448,192,117261,1,0,0:0:0:0:
320,192,117261,1,4,3:0:0:0:
64,192,117261,1,2,0:0:0:0:
320,192,117468,1,2,0:0:0:0:
448,192,117468,1,0,0:0:0:0:
192,192,117571,1,2,0:0:0:0:
64,192,117571,1,0,0:0:0:0:
64,192,117674,5,0,0:0:0:0:
448,192,117674,1,2,0:0:0:0:
320,192,117674,1,4,0:0:0:0:
192,192,117778,1,0,0:0:0:0:
64,192,117881,1,0,0:0:0:0:
448,192,117881,1,2,0:0:0:0:
320,192,117985,1,0,0:0:0:0:
448,192,118088,1,0,0:0:0:0:
64,192,118088,1,8,0:0:0:0:
192,192,118088,1,2,0:0:0:0:
320,192,118192,1,0,0:0:0:0:
192,192,118295,1,2,0:0:0:0:
448,192,118295,1,0,0:0:0:0:
320,192,118399,1,0,0:0:0:0:
64,192,118502,1,2,0:0:0:0:
192,192,118502,1,0,0:0:0:0:
448,192,118606,1,0,0:0:0:0:
320,192,118709,1,2,0:0:0:0:
192,192,118709,1,0,0:0:0:0:
64,192,118812,1,0,0:0:0:0:
192,192,118916,1,2,0:0:0:0:
320,192,118916,1,0,0:0:0:0:
448,192,118916,1,8,0:0:0:0:
64,192,119019,1,0,0:0:0:0:
448,192,119123,1,2,0:0:0:0:
192,192,119123,1,0,0:0:0:0:
320,192,119226,1,0,0:0:0:0:
64,192,119330,1,0,0:0:0:0:
448,192,119330,1,2,0:0:0:0:
192,192,119433,1,0,0:0:0:0:
320,192,119537,1,0,0:0:0:0:
448,192,119537,1,2,0:0:0:0:
192,192,119640,1,0,0:0:0:0:
64,192,119743,1,8,0:0:0:0:
448,192,119743,1,2,0:0:0:0:
320,192,119743,1,0,0:0:0:0:
192,192,119847,1,0,0:0:0:0:
448,192,119950,1,0,0:0:0:0:
64,192,119950,1,2,0:0:0:0:
320,192,120054,1,0,0:0:0:0:
192,192,120157,1,0,0:0:0:0:
64,192,120157,1,2,0:0:0:0:
448,192,120261,1,0,0:0:0:0:
192,192,120364,1,0,0:0:0:0:
320,192,120364,1,2,0:0:0:0:
64,192,120468,1,0,0:0:0:0:
192,192,120571,1,2,0:0:0:0:
320,192,120571,1,0,0:0:0:0:
448,192,120571,1,8,0:0:0:0:
64,192,120674,1,0,0:0:0:0:
448,192,120778,1,2,0:0:0:0:
320,192,120778,1,0,0:0:0:0:
192,192,120881,1,0,0:0:0:0:
448,192,120985,1,8,0:0:0:0:
320,192,120985,1,0,0:0:0:0:
64,192,120985,1,2,0:0:0:0:
192,192,121088,1,0,0:0:0:0:
320,192,121192,1,0,0:0:0:0:
192,192,121295,1,2,0:0:0:0:
64,192,121295,1,0,0:0:0:0:
448,192,121295,1,8,0:0:0:0:
320,192,121399,1,0,0:0:0:0:
192,192,121502,1,0,0:0:0:0:
448,192,121606,1,8,0:0:0:0:
320,192,121606,1,0,0:0:0:0:
64,192,121606,1,2,0:0:0:0:
192,192,121709,1,0,0:0:0:0:
320,192,121812,1,0,0:0:0:0:
192,192,121916,1,2,0:0:0:0:
64,192,121916,1,0,0:0:0:0:
448,192,121916,1,8,0:0:0:0:
320,192,122019,1,0,0:0:0:0:
192,192,122123,1,0,0:0:0:0:
448,192,122226,1,8,0:0:0:0:
320,192,122226,1,0,0:0:0:0:
64,192,122226,1,2,0:0:0:0:
192,192,122433,1,0,0:0:0:0:
320,192,122537,1,0,0:0:0:0:
192,192,122640,1,8,0:0:0:0:
64,192,122640,1,0,0:0:0:0:
448,192,122743,1,0,0:0:0:0:
320,192,122743,1,8,0:0:0:0:
192,192,122847,1,0,0:0:0:0:
448,192,122950,1,0,0:0:0:0:
64,192,123054,1,0,0:0:0:0:
192,192,123054,1,2,0:0:0:0:
320,192,123157,1,2,0:0:0:0:
64,192,123261,1,0,0:0:0:0:
448,192,123364,1,0,0:0:0:0:
320,192,123468,1,8,0:0:0:0:
192,192,123468,1,2,0:0:0:0:
64,192,123468,1,0,0:0:0:0:
448,192,124295,1,0,0:0:0:0:
64,192,124295,1,2,0:0:0:0:
192,192,124399,1,2,0:0:0:0:
320,192,124399,1,0,0:0:0:0:
448,192,124502,1,0,0:0:0:0:
64,192,124502,1,2,0:0:0:0:
448,192,124709,1,0,0:0:0:0:
320,192,124709,1,4,3:0:0:0:
64,192,124709,1,2,0:0:0:0:
192,192,124916,1,8,0:0:0:0:
320,192,124916,1,0,0:0:0:0:
64,192,125123,1,0,0:0:0:0:
192,192,125123,1,4,3:0:0:0:
448,192,125123,1,2,0:0:0:0:
448,192,125433,1,2,0:0:0:0:
320,192,125433,1,4,3:0:0:0:
64,192,125433,1,0,0:0:0:0:
64,192,125743,1,2,0:0:0:0:
192,192,125743,1,4,3:0:0:0:
448,192,125743,1,0,0:0:0:0:
320,192,125950,1,0,0:0:0:0:
192,192,125950,1,4,3:0:0:0:
64,192,125950,1,2,0:0:0:0:
64,192,126157,1,2,0:0:0:0:
192,192,126157,1,4,3:0:0:0:
320,192,126157,1,0,0:0:0:0:
320,192,126364,1,0,0:0:0:0:
448,192,126364,1,2,0:0:0:0:
64,192,126468,1,2,0:0:0:0:
192,192,126468,1,0,0:0:0:0:
320,192,126571,1,0,0:0:0:0:
448,192,126571,1,8,0:0:0:0:
192,192,126778,1,2,0:0:0:0:
64,192,126778,1,0,0:0:0:0:
448,192,126881,1,0,0:0:0:0:
320,192,126881,1,2,0:0:0:0:
192,192,126985,1,2,0:0:0:0:
64,192,126985,1,0,0:0:0:0:
320,192,127088,1,0,0:0:0:0:
448,192,127192,1,2,0:0:0:0:
64,192,127192,1,0,0:0:0:0:
192,192,127295,1,0,0:0:0:0:
320,192,127295,1,2,0:0:0:0:
448,192,127399,1,2,0:0:0:0:
64,192,127399,1,0,0:0:0:0:
192,192,127502,1,0,0:0:0:0:
320,192,127606,1,0,0:0:0:0:
448,192,127606,1,2,0:0:0:0:
64,192,127709,1,2,0:0:0:0:
192,192,127709,1,0,0:0:0:0:
320,192,127812,1,0,0:0:0:0:
448,192,127812,1,2,0:0:0:0:
64,192,128019,1,0,0:0:0:0:
192,192,128019,1,4,3:0:0:0:
448,192,128019,1,2,0:0:0:0:
320,192,128226,1,8,0:0:0:0:
192,192,128226,1,0,0:0:0:0:
448,192,128433,1,2,0:0:0:0:
320,192,128433,1,4,3:0:0:0:
64,192,128433,1,0,0:0:0:0:
64,192,128743,1,2,0:0:0:0:
192,192,128743,1,4,3:0:0:0:
448,192,128743,1,0,0:0:0:0:
448,192,129054,1,0,0:0:0:0:
320,192,129054,1,4,3:0:0:0:
64,192,129054,1,2,0:0:0:0:
64,192,129261,1,2,0:0:0:0:
192,192,129261,1,4,3:0:0:0:
320,192,129261,1,0,0:0:0:0:
320,192,129468,1,0,0:0:0:0:
192,192,129468,1,4,3:0:0:0:
64,192,129468,1,2,0:0:0:0:
320,192,129674,1,0,0:0:0:0:
448,192,129674,1,2,0:0:0:0:
64,192,129778,1,2,0:0:0:0:
192,192,129778,1,0,0:0:0:0:
320,192,129881,1,0,0:0:0:0:
448,192,129881,1,4,3:0:0:0:
192,192,130088,1,2,0:0:0:0:
64,192,130088,1,8,0:0:0:0:
448,192,130192,1,8,0:0:0:0:
320,192,130192,1,2,0:0:0:0:
192,192,130295,1,2,0:0:0:0:
64,192,130295,1,0,0:0:0:0:
320,192,130399,1,0,0:0:0:0:
448,192,130502,1,2,0:0:0:0:
64,192,130502,1,0,0:0:0:0:
192,192,130606,1,0,0:0:0:0:
320,192,130606,1,2,0:0:0:0:
448,192,130709,1,2,0:0:0:0:
64,192,130709,1,0,0:0:0:0:
192,192,130812,1,0,0:0:0:0:
320,192,130916,1,0,0:0:0:0:
448,192,130916,1,2,0:0:0:0:
64,192,131019,1,2,0:0:0:0:
192,192,131019,1,0,0:0:0:0:
320,192,131123,1,0,0:0:0:0:
448,192,131123,1,2,0:0:0:0:
448,192,131330,1,0,0:0:0:0:
192,192,131330,1,4,3:0:0:0:
64,192,131330,1,2,0:0:0:0:
192,192,131537,1,0,0:0:0:0:
320,192,131537,1,8,0:0:0:0:
64,192,131743,1,2,0:0:0:0:
320,192,131743,1,4,3:0:0:0:
448,192,131743,1,0,0:0:0:0:
448,192,132054,1,0,0:0:0:0:
192,192,132054,1,4,3:0:0:0:
64,192,132054,1,2,0:0:0:0:
64,192,132364,1,2,0:0:0:0:
320,192,132364,1,4,3:0:0:0:
448,192,132364,1,0,0:0:0:0:
320,192,132571,1,0,0:0:0:0:
192,192,132571,1,4,3:0:0:0:
64,192,132571,1,2,0:0:0:0:
64,192,132778,1,2,0:0:0:0:
192,192,132778,1,4,3:0:0:0:
320,192,132778,1,0,0:0:0:0:
448,192,132985,1,2,0:0:0:0:
320,192,132985,1,0,0:0:0:0:
192,192,133088,1,0,0:0:0:0:
64,192,133088,1,2,0:0:0:0:
448,192,133192,1,2,0:0:0:0:
320,192,133192,1,8,0:0:0:0:
64,192,133399,1,0,0:0:0:0:
192,192,133399,1,2,0:0:0:0:
320,192,133502,1,2,0:0:0:0:
448,192,133502,1,0,0:0:0:0:
64,192,133606,1,0,0:0:0:0:
192,192,133606,1,2,0:0:0:0:
320,192,133709,1,0,0:0:0:0:
64,192,133812,1,0,0:0:0:0:
448,192,133812,1,2,0:0:0:0:
320,192,133916,1,2,0:0:0:0:
192,192,133916,1,0,0:0:0:0:
64,192,134019,1,0,0:0:0:0:
448,192,134019,1,2,0:0:0:0:
192,192,134123,1,0,0:0:0:0:
448,192,134226,1,2,0:0:0:0:
320,192,134226,1,0,0:0:0:0:
192,192,134330,1,0,0:0:0:0:
64,192,134330,1,2,0:0:0:0:
448,192,134433,1,2,0:0:0:0:
320,192,134433,1,0,0:0:0:0:
448,192,134640,1,0,0:0:0:0:
192,192,134640,1,4,3:0:0:0:
64,192,134640,1,2,0:0:0:0:
192,192,134847,1,0,0:0:0:0:
320,192,134847,1,8,0:0:0:0:
64,192,135054,1,2,0:0:0:0:
320,192,135054,1,4,3:0:0:0:
448,192,135054,1,0,0:0:0:0:
448,192,135364,1,0,0:0:0:0:
192,192,135364,1,4,3:0:0:0:
64,192,135364,1,2,0:0:0:0:
64,192,135674,1,2,0:0:0:0:
320,192,135674,1,4,3:0:0:0:
448,192,135674,1,0,0:0:0:0:
320,192,135881,1,0,0:0:0:0:
192,192,135881,1,4,3:0:0:0:
64,192,135881,1,2,0:0:0:0:
64,192,136088,1,2,0:0:0:0:
192,192,136088,1,4,3:0:0:0:
320,192,136088,1,0,0:0:0:0:
448,192,136295,1,2,0:0:0:0:
320,192,136295,1,0,0:0:0:0:
192,192,136399,1,0,0:0:0:0:
64,192,136399,1,2,0:0:0:0:
448,192,136502,1,2,0:0:0:0:
320,192,136502,1,8,0:0:0:0:
192,192,136606,1,8,0:0:0:0:
64,192,136606,1,2,0:0:0:0:
320,192,136709,1,2,0:0:0:0:
448,192,136709,1,0,0:0:0:0:
64,192,137537,1,0,0:0:0:0:
192,192,137537,1,0,0:0:0:0:
320,192,137622,1,0,0:0:0:0:
448,192,137622,1,0,0:0:0:0:
192,192,137708,1,0,0:0:0:0:
64,192,137794,1,0,0:0:0:0:
320,192,137879,1,0,0:0:0:0:
448,192,137879,1,2,0:0:0:0:
192,192,137965,1,0,0:0:0:0:
64,192,138051,1,0,0:0:0:0:
320,192,138137,1,0,0:0:0:0:
64,192,138222,1,2,0:0:0:0:
192,192,138222,1,8,0:0:0:0:
448,192,138222,1,0,0:0:0:0:
320,192,138308,1,0,0:0:0:0:
448,192,138394,1,0,0:0:0:0:
192,192,138479,1,0,0:0:0:0:
320,192,138565,1,0,0:0:0:0:
64,192,138565,1,2,0:0:0:0:
448,192,138651,1,0,0:0:0:0:
192,192,138737,1,8,0:0:0:0:
64,192,138737,1,0,0:0:0:0:
320,192,138822,1,8,0:0:0:0:
448,192,138822,1,0,0:0:0:0:
192,192,138908,1,0,0:0:0:0:
64,192,138908,1,0,0:0:0:0:
448,192,138908,128,0,141308:0:0:0:0:
64,192,139251,1,0,2:0:0:0:
64,192,139594,1,0,2:0:0:0:
64,192,139937,1,0,2:0:0:0:
64,192,140279,1,0,2:0:0:0:
64,192,140622,1,0,2:0:0:0:
64,192,140965,1,0,2:0:0:0:
192,192,141308,1,4,3:0:0:0:
320,192,141308,1,2,0:0:0:0:
64,192,141308,1,0,0:0:0:0:
192,192,141479,1,0,0:0:0:0:
320,192,141479,1,4,3:0:0:0:
448,192,141479,1,2,0:0:0:0:
448,192,141651,1,2,0:0:0:0:
192,192,141651,1,4,0:0:0:0:
64,192,141651,128,0,143022:0:0:0:0:
448,192,141994,1,0,2:0:0:0:
448,192,142337,1,0,2:0:0:0:
448,192,142679,1,0,2:0:0:0:
320,192,143022,1,2,0:0:0:0:
448,192,143022,1,8,0:0:0:0:
192,192,143108,1,2,0:0:0:0:
64,192,143108,1,0,0:0:0:0:
448,192,143194,1,0,0:0:0:0:
320,192,143194,1,2,0:0:0:0:
192,192,143365,1,2,0:0:0:0:
320,192,143365,1,0,0:0:0:0:
64,192,143537,1,8,0:0:0:0:
192,192,143537,1,2,0:0:0:0:
448,192,143622,1,0,0:0:0:0:
320,192,143622,1,2,0:0:0:0:
64,192,143708,1,0,0:0:0:0:
192,192,143708,1,2,0:0:0:0:
320,192,143879,1,2,0:0:0:0:
192,192,143879,1,0,0:0:0:0:
320,192,144051,1,2,0:0:0:0:
448,192,144051,1,8,0:0:0:0:
192,192,144137,1,2,0:0:0:0:
64,192,144137,1,0,0:0:0:0:
320,192,144222,1,2,0:0:0:0:
448,192,144222,1,0,0:0:0:0:
192,192,144394,1,0,0:0:0:0:
64,192,144394,1,0,0:0:0:0:
448,192,144394,128,0,146794:0:0:0:0:
64,192,144737,1,0,2:0:0:0:
320,192,144737,1,0,0:0:0:0:
64,192,145079,1,0,2:0:0:0:
320,192,145079,1,0,0:0:0:0:
64,192,145422,1,0,2:0:0:0:
320,192,145422,1,0,0:0:0:0:
64,192,145765,1,0,2:0:0:0:
320,192,145765,1,0,0:0:0:0:
64,192,146108,1,0,2:0:0:0:
320,192,146108,1,0,0:0:0:0:
64,192,146451,1,0,2:0:0:0:
320,192,146451,1,0,0:0:0:0:
192,192,146794,1,4,3:0:0:0:
320,192,146794,1,2,0:0:0:0:
64,192,146794,1,0,0:0:0:0:
448,192,146965,1,2,0:0:0:0:
320,192,147051,1,2,0:0:0:0:
192,192,147137,1,2,0:0:0:0:
64,192,147137,1,8,0:0:0:0:
320,192,147222,1,2,0:0:0:0:
448,192,147222,1,8,0:0:0:0:
192,192,147308,1,2,0:0:0:0:
64,192,147308,1,8,0:0:0:0:
320,192,147394,1,2,0:0:0:0:
448,192,147394,1,8,0:0:0:0:
192,192,147479,1,2,0:0:0:0:
64,192,147565,1,2,0:0:0:0:
192,192,147651,1,2,0:0:0:0:
320,192,147651,1,8,0:0:0:0:
448,192,147737,1,2,0:0:0:0:
64,192,147737,1,8,0:0:0:0:
320,192,147822,1,2,0:0:0:0:
192,192,147822,1,8,0:0:0:0:
448,192,147908,1,2,0:0:0:0:
64,192,147908,1,8,0:0:0:0:
320,192,147994,1,2,0:0:0:0:
192,192,148079,1,2,0:0:0:0:
320,192,148165,1,2,0:0:0:0:
64,192,148165,1,8,0:0:0:0:
192,192,148251,1,2,0:0:0:0:
448,192,148251,1,8,0:0:0:0:
320,192,148337,1,2,0:0:0:0:
192,192,148422,1,2,0:0:0:0:
320,192,148508,1,2,0:0:0:0:
64,192,148508,1,0,0:0:0:0:
448,192,148508,1,8,0:0:0:0:
192,192,148594,1,2,0:0:0:0:
448,192,148679,1,2,0:0:0:0:
64,192,148765,1,2,0:0:0:0:
320,192,148851,1,0,0:0:0:0:
448,192,148851,1,8,0:0:0:0:
192,192,148851,1,2,0:0:0:0:
320,192,149022,1,2,0:0:0:0:
64,192,149022,1,0,0:0:0:0:
320,192,149879,1,0,0:0:0:0:
192,192,149879,1,2,0:0:0:0:
448,192,149879,1,4,0:0:0:0:
64,192,150051,1,8,0:0:0:0:
192,192,150051,1,2,0:0:0:0:
320,192,150051,1,0,0:0:0:0:
448,192,150137,1,0,0:0:0:0:
320,192,150222,1,0,0:0:0:0:
64,192,150222,1,2,0:0:0:0:
192,192,150308,1,0,0:0:0:0:
320,192,150394,1,0,0:0:0:0:
64,192,150394,1,2,0:0:0:0:
448,192,150394,1,8,0:0:0:0:
192,192,150479,1,0,0:0:0:0:
448,192,150565,1,0,0:0:0:0:
64,192,150565,1,2,0:0:0:0:
320,192,150651,1,0,0:0:0:0:
448,192,150737,1,8,0:0:0:0:
192,192,150737,1,2,0:0:0:0:
64,192,150737,1,0,0:0:0:0:
320,192,150822,1,0,0:0:0:0:
192,192,150908,1,0,0:0:0:0:
448,192,150908,1,2,0:0:0:0:
64,192,150994,1,0,0:0:0:0:
320,192,151079,1,0,0:0:0:0:
192,192,151079,1,2,0:0:0:0:
448,192,151079,1,8,0:0:0:0:
64,192,151165,1,0,0:0:0:0:
448,192,151251,1,0,0:0:0:0:
320,192,151251,1,2,0:0:0:0:
64,192,151422,1,8,0:0:0:0:
192,192,151422,1,2,0:0:0:0:
320,192,151422,1,0,0:0:0:0:
448,192,151508,1,0,0:0:0:0:
64,192,151594,1,2,0:0:0:0:
192,192,151594,1,0,0:0:0:0:
320,192,151679,1,0,0:0:0:0:
64,192,151765,1,0,0:0:0:0:
192,192,151765,1,2,0:0:0:0:
448,192,151765,1,8,0:0:0:0:
320,192,151937,1,0,0:0:0:0:
192,192,151937,1,2,0:0:0:0:
448,192,152108,1,8,0:0:0:0:
320,192,152108,1,2,0:0:0:0:
64,192,152108,1,0,0:0:0:0:
192,192,152194,1,0,0:0:0:0:
448,192,152279,1,2,0:0:0:0:
64,192,152279,1,0,0:0:0:0:
320,192,152365,1,0,0:0:0:0:
64,192,152451,1,0,0:0:0:0:
192,192,152451,1,2,0:0:0:0:
448,192,152451,1,8,0:0:0:0:
320,192,152622,1,0,0:0:0:0:
64,192,152622,1,2,0:0:0:0:
64,192,152794,1,8,0:0:0:0:
448,192,152794,1,2,0:0:0:0:
192,192,152794,1,0,0:0:0:0:
320,192,152879,1,0,0:0:0:0:
448,192,152965,1,2,0:0:0:0:
64,192,152965,1,0,0:0:0:0:
192,192,153051,1,0,0:0:0:0:
320,192,153137,1,0,0:0:0:0:
64,192,153137,1,2,0:0:0:0:
448,192,153137,1,8,0:0:0:0:
192,192,153222,1,0,0:0:0:0:
448,192,153308,1,0,0:0:0:0:
64,192,153308,1,2,0:0:0:0:
320,192,153394,1,0,0:0:0:0:
448,192,153479,1,8,0:0:0:0:
192,192,153479,1,2,0:0:0:0:
64,192,153479,1,0,0:0:0:0:
320,192,153565,1,0,0:0:0:0:
448,192,153651,1,2,0:0:0:0:
192,192,153651,1,0,0:0:0:0:
64,192,153737,1,0,0:0:0:0:
320,192,153822,1,0,0:0:0:0:
192,192,153822,1,2,0:0:0:0:
448,192,153822,1,8,0:0:0:0:
64,192,153908,1,0,0:0:0:0:
320,192,153994,1,0,0:0:0:0:
448,192,153994,1,2,0:0:0:0:
64,192,154165,1,8,0:0:0:0:
192,192,154165,1,2,0:0:0:0:
320,192,154165,1,0,0:0:0:0:
448,192,154251,1,0,0:0:0:0:
64,192,154337,1,2,0:0:0:0:
192,192,154337,1,0,0:0:0:0:
320,192,154422,1,0,0:0:0:0:
64,192,154508,1,0,0:0:0:0:
192,192,154508,1,2,0:0:0:0:
448,192,154508,1,8,0:0:0:0:
64,192,154679,1,2,0:0:0:0:
320,192,154679,1,0,0:0:0:0:
448,192,154765,1,0,0:0:0:0:
64,192,154851,1,8,0:0:0:0:
192,192,154851,1,2,0:0:0:0:
320,192,154851,1,0,0:0:0:0:
448,192,154937,1,0,0:0:0:0:
320,192,155022,1,2,0:0:0:0:
192,192,155022,1,0,0:0:0:0:
64,192,155108,1,0,0:0:0:0:
320,192,155194,1,0,0:0:0:0:
192,192,155194,1,2,0:0:0:0:
448,192,155194,1,8,0:0:0:0:
64,192,155279,1,0,0:0:0:0:
192,192,155365,1,0,0:0:0:0:
320,192,155365,1,2,0:0:0:0:
448,192,155365,1,4,0:0:0:0:
448,192,155537,1,8,0:0:0:0:
64,192,155537,1,2,0:0:0:0:
192,192,155537,1,0,0:0:0:0:
320,192,155622,1,0,0:0:0:0:
192,192,155708,1,0,0:0:0:0:
64,192,155708,1,2,0:0:0:0:
320,192,155794,1,0,0:0:0:0:
192,192,155879,1,0,0:0:0:0:
448,192,155879,1,2,0:0:0:0:
64,192,155879,1,8,0:0:0:0:
320,192,155965,1,0,0:0:0:0:
64,192,156051,1,0,0:0:0:0:
448,192,156051,1,2,0:0:0:0:
192,192,156137,1,0,0:0:0:0:
64,192,156222,1,8,0:0:0:0:
320,192,156222,1,2,0:0:0:0:
448,192,156222,1,0,0:0:0:0:
192,192,156308,1,0,0:0:0:0:
320,192,156394,1,0,0:0:0:0:
64,192,156394,1,2,0:0:0:0:
448,192,156479,1,0,0:0:0:0:
192,192,156565,1,0,0:0:0:0:
320,192,156565,1,2,0:0:0:0:
64,192,156565,1,8,0:0:0:0:
448,192,156651,1,0,0:0:0:0:
64,192,156737,1,0,0:0:0:0:
192,192,156737,1,2,0:0:0:0:
448,192,156908,1,8,0:0:0:0:
320,192,156908,1,2,0:0:0:0:
192,192,156908,1,0,0:0:0:0:
64,192,156994,1,0,0:0:0:0:
448,192,157079,1,2,0:0:0:0:
320,192,157079,1,0,0:0:0:0:
192,192,157165,1,0,0:0:0:0:
448,192,157251,1,0,0:0:0:0:
320,192,157251,1,2,0:0:0:0:
64,192,157251,1,8,0:0:0:0:
192,192,157422,1,0,0:0:0:0:
320,192,157422,1,2,0:0:0:0:
64,192,157594,1,8,0:0:0:0:
192,192,157594,1,2,0:0:0:0:
448,192,157594,1,0,0:0:0:0:
320,192,157679,1,0,0:0:0:0:
64,192,157765,1,2,0:0:0:0:
448,192,157765,1,0,0:0:0:0:
192,192,157851,1,0,0:0:0:0:
448,192,157937,1,0,0:0:0:0:
320,192,157937,1,2,0:0:0:0:
64,192,157937,1,8,0:0:0:0:
192,192,158108,1,0,0:0:0:0:
448,192,158108,1,2,0:0:0:0:
448,192,158279,1,8,0:0:0:0:
320,192,158279,1,2,0:0:0:0:
192,192,158279,1,0,0:0:0:0:
64,192,158365,1,0,0:0:0:0:
192,192,158451,1,2,0:0:0:0:
448,192,158451,1,0,0:0:0:0:
320,192,158537,1,0,0:0:0:0:
192,192,158622,1,0,0:0:0:0:
448,192,158622,1,2,0:0:0:0:
64,192,158622,1,8,0:0:0:0:
320,192,158708,1,0,0:0:0:0:
64,192,158794,1,0,0:0:0:0:
448,192,158794,1,2,0:0:0:0:
192,192,158879,1,0,0:0:0:0:
64,192,158965,1,8,0:0:0:0:
320,192,158965,1,2,0:0:0:0:
448,192,158965,1,0,0:0:0:0:
192,192,159051,1,0,0:0:0:0:
64,192,159137,1,2,0:0:0:0:
320,192,159137,1,0,0:0:0:0:
448,192,159222,1,0,0:0:0:0:
192,192,159308,1,0,0:0:0:0:
320,192,159308,1,2,0:0:0:0:
64,192,159308,1,8,0:0:0:0:
448,192,159394,1,0,0:0:0:0:
192,192,159479,1,0,0:0:0:0:
64,192,159479,1,2,0:0:0:0:
448,192,159651,1,8,0:0:0:0:
320,192,159651,1,2,0:0:0:0:
192,192,159651,1,0,0:0:0:0:
64,192,159737,1,0,0:0:0:0:
448,192,159822,1,2,0:0:0:0:
320,192,159822,1,0,0:0:0:0:
192,192,159908,1,0,0:0:0:0:
448,192,159994,1,0,0:0:0:0:
320,192,159994,1,2,0:0:0:0:
64,192,159994,1,8,0:0:0:0:
192,192,160165,1,8,3:0:0:0:
64,192,160165,1,0,0:0:0:0:
320,192,160251,1,0,0:0:0:0:
192,192,160337,1,8,3:0:0:0:
448,192,160337,1,0,0:0:0:0:
64,192,160422,1,0,0:0:0:0:
320,192,160508,1,8,3:0:0:0:
448,192,160508,1,0,0:0:0:0:
192,192,160594,1,8,3:0:0:0:
64,192,160594,1,0,0:0:0:0:
320,192,160679,1,8,3:0:0:0:
448,192,160679,1,0,0:0:0:0:
192,192,160765,1,8,3:0:0:0:
64,192,160765,1,0,0:0:0:0:
320,192,160851,1,2,0:0:0:0:
448,192,160851,1,0,0:0:0:0:
320,192,161022,1,2,0:0:0:0:
192,192,161022,1,0,0:0:0:0:
192,192,161194,1,2,0:0:0:0:
448,192,161194,1,0,0:0:0:0:
64,192,161194,1,8,0:0:0:0:
64,192,161365,1,0,0:0:0:0:
320,192,161365,1,2,0:0:0:0:
192,192,161537,1,0,0:0:0:0:
448,192,161537,1,2,0:0:0:0:
320,192,161708,1,2,0:0:0:0:
64,192,161708,1,0,0:0:0:0:
64,192,161879,1,8,0:0:0:0:
192,192,161879,1,2,0:0:0:0:
448,192,161879,1,0,0:0:0:0:
448,192,162051,1,2,0:0:0:0:
320,192,162051,1,0,0:0:0:0:
64,192,162222,1,0,0:0:0:0:
320,192,162222,1,2,0:0:0:0:
192,192,162222,1,0,2:0:0:0:
448,192,162394,1,0,0:0:0:0:
64,192,162394,1,2,0:0:0:0:
448,192,162565,1,0,0:0:0:0:
320,192,162565,1,2,0:0:0:0:
192,192,162565,1,8,0:0:0:0:
320,192,162737,1,2,0:0:0:0:
64,192,162737,1,0,0:0:0:0:
448,192,162822,1,0,0:0:0:0:
192,192,162822,1,2,0:0:0:0:
320,192,162908,1,2,0:0:0:0:
64,192,162908,1,0,0:0:0:0:
192,192,163079,1,2,0:0:0:0:
448,192,163079,1,0,0:0:0:0:
448,192,163251,1,0,0:0:0:0:
320,192,163251,1,2,0:0:0:0:
64,192,163251,1,8,0:0:0:0:
192,192,163422,1,0,0:0:0:0:
320,192,163422,1,2,0:0:0:0:
448,192,163594,1,0,0:0:0:0:
64,192,163594,1,2,0:0:0:0:
192,192,163594,1,4,0:0:0:0:
64,192,163765,1,2,0:0:0:0:
320,192,163765,1,0,0:0:0:0:
320,192,163937,1,2,0:0:0:0:
192,192,163937,1,0,0:0:0:0:
448,192,163937,1,8,0:0:0:0:
64,192,164108,1,0,0:0:0:0:
192,192,164108,1,2,0:0:0:0:
320,192,164279,1,0,0:0:0:0:
448,192,164279,1,2,0:0:0:0:
192,192,164451,1,2,0:0:0:0:
64,192,164451,1,0,0:0:0:0:
448,192,164622,1,8,0:0:0:0:
320,192,164622,1,2,0:0:0:0:
64,192,164622,1,0,0:0:0:0:
448,192,164794,1,2,0:0:0:0:
192,192,164794,1,0,0:0:0:0:
64,192,164965,1,0,0:0:0:0:
192,192,164965,1,2,0:0:0:0:
320,192,164965,1,0,2:0:0:0:
64,192,165137,1,0,0:0:0:0:
448,192,165137,1,2,0:0:0:0:
448,192,165308,1,0,0:0:0:0:
192,192,165308,1,2,0:0:0:0:
320,192,165308,1,8,0:0:0:0:
192,192,165479,1,2,0:0:0:0:
64,192,165479,1,0,0:0:0:0:
448,192,165565,1,0,0:0:0:0:
320,192,165565,1,2,0:0:0:0:
192,192,165651,1,2,0:0:0:0:
64,192,165651,1,0,0:0:0:0:
320,192,165822,1,2,0:0:0:0:
448,192,165822,1,0,0:0:0:0:
64,192,165994,1,0,0:0:0:0:
192,192,165994,1,2,0:0:0:0:
448,192,165994,1,8,0:0:0:0:
320,192,166165,1,0,0:0:0:0:
192,192,166165,1,2,0:0:0:0:
64,192,166337,1,0,0:0:0:0:
448,192,166337,1,2,0:0:0:0:
320,192,166337,1,4,0:0:0:0:
448,192,166508,1,0,0:0:0:0:
192,192,166508,1,2,0:0:0:0:
192,192,166679,1,8,0:0:0:0:
64,192,166679,1,0,0:0:0:0:
320,192,166679,1,2,0:0:0:0:
64,192,166851,1,2,0:0:0:0:
448,192,166851,1,0,0:0:0:0:
192,192,167022,1,2,0:0:0:0:
320,192,167022,1,0,0:0:0:0:
448,192,167194,1,0,0:0:0:0:
64,192,167194,1,2,0:0:0:0:
192,192,167365,1,0,0:0:0:0:
320,192,167365,1,2,0:0:0:0:
448,192,167365,1,8,0:0:0:0:
448,192,167537,1,0,0:0:0:0:
64,192,167537,1,2,0:0:0:0:
320,192,167708,1,0,2:0:0:0:
64,192,167708,1,2,0:0:0:0:
192,192,167708,1,0,0:0:0:0:
448,192,167879,1,2,0:0:0:0:
192,192,167879,1,0,0:0:0:0:
320,192,168051,1,8,0:0:0:0:
448,192,168051,1,2,0:0:0:0:
64,192,168051,1,0,0:0:0:0:
448,192,168222,1,0,0:0:0:0:
192,192,168222,1,2,0:0:0:0:
320,192,168308,1,2,0:0:0:0:
64,192,168394,1,8,0:0:0:0:
448,192,168394,1,0,0:0:0:0:
192,192,168394,1,2,0:0:0:0:
64,192,168565,1,0,0:0:0:0:
320,192,168565,1,2,0:0:0:0:
448,192,168737,1,8,0:0:0:0:
192,192,168737,1,2,0:0:0:0:
320,192,168737,1,0,0:0:0:0:
448,192,168908,1,2,0:0:0:0:
64,192,168908,1,0,0:0:0:0:
320,192,168994,1,2,0:0:0:0:
192,192,169079,1,8,0:0:0:0:
64,192,169079,1,0,0:0:0:0:
448,192,169165,1,8,0:0:0:0:
320,192,169165,1,0,0:0:0:0:
192,192,169251,1,8,0:0:0:0:
64,192,169251,1,0,0:0:0:0:
320,192,169337,1,0,0:0:0:0:
448,192,169337,1,8,0:0:0:0:
192,192,169422,1,0,0:0:0:0:
320,192,169508,1,0,0:0:0:0:
64,192,169594,1,0,0:0:0:0:
448,192,169594,1,8,0:0:0:0:
192,192,169679,1,0,0:0:0:0:
320,192,169765,1,0,0:0:0:0:
448,192,169765,1,8,0:0:0:0:
192,192,169851,1,0,0:0:0:0:
64,192,169851,1,8,0:0:0:0:
320,192,169937,1,0,0:0:0:0:
448,192,170022,1,0,0:0:0:0:
64,192,170108,1,0,0:0:0:0:
192,192,170108,1,8,0:0:0:0:
320,192,170194,1,0,0:0:0:0:
192,192,170279,1,0,0:0:0:0:
448,192,170365,1,0,0:0:0:0:
64,192,170451,1,0,0:0:0:0:
320,192,170451,1,8,3:0:0:0:
448,192,170537,1,0,0:0:0:0:
192,192,170537,1,8,3:0:0:0:
64,192,170622,1,0,0:0:0:0:
320,192,170708,1,0,0:0:0:0:
192,192,170794,1,0,0:0:0:0:
448,192,170794,1,8,3:0:0:0:
320,192,170879,1,0,0:0:0:0:
64,192,170879,1,8,3:0:0:0:
192,192,170965,1,0,0:0:0:0:
448,192,171051,1,0,0:0:0:0:
64,192,171137,1,0,0:0:0:0:
320,192,171137,1,8,0:0:0:0:
192,192,171222,1,0,0:0:0:0:
448,192,171308,1,0,0:0:0:0:
320,192,171394,1,0,0:0:0:0:
192,192,171479,1,0,0:0:0:0:
64,192,171479,1,8,0:0:0:0:
320,192,171565,1,0,0:0:0:0:
448,192,171565,1,8,0:0:0:0:
192,192,171651,1,0,0:0:0:0:
64,192,171651,1,8,0:0:0:0:
320,192,171737,1,0,0:0:0:0:
448,192,171737,1,8,0:0:0:0:
192,192,171822,1,4,0:0:0:0:
64,192,171822,1,2,0:0:0:0:
448,192,171822,1,0,0:0:0:0:
