osu file format v14

[General]
AudioFilename: audio.mp3
AudioLeadIn: 0
PreviewTime: 136132
Countdown: 0
SampleSet: Normal
StackLeniency: 0.2
Mode: 1
LetterboxInBreaks: 0
EpilepsyWarning: 1
WidescreenStoryboard: 1

[Editor]
Bookmarks: 21483,42816,64149,85466,106799,128132,138799,157465,178799,200132,221465,232132,253465,264132,282799,301382
DistanceSpacing: 1.8
BeatDivisor: 2
GridSize: 32
TimelineZoom: 2.999998

[Metadata]
Title:Endless cycle of rebirth & We cannot get out of here forever
TitleUnicode:Endless cycle of rebirth & We cannot get out of here forever
Artist:Draw the Emotional
ArtistUnicode:Draw the Emotional
Creator:Nepuri
Version:Reincarnation
Source:東方神霊廟 ~ Ten Desires.
Tags:東方Project Touhou ZUN Team Shanghai Alice Can't Cant ゆよゆっぺ Yuyoyuppe DtE TH13 TH 13 Shinreibyou Divine Spirit Mausoleum TD 聖徳伝説 Shoutoku Legend ~ True Administrator Stage 6 Boss Toyosatomimi no Miko Ghost and your heart カドチ Kadochi YYYP-0007 Comiket 81 C81 Merami Teto Meramipop めらみぽっぷ Foreground Eclipse FE Seated with Liquor YPFE-0001 C83 83 Ayyri Noffy
BeatmapID:1363571
BeatmapSetID:643241

[Difficulty]
HPDrainRate:5
CircleSize:2
OverallDifficulty:6
ApproachRate:10
SliderMultiplier:1.4
SliderTickRate:1

[Events]
//Background and Video events
0,0,"miko taiko.jpg",0,0
//Break Periods
//Storyboard Layer 0 (Background)
Sprite,Background,TopLeft,"miko taiko.jpg",0,0
//Storyboard Layer 1 (Fail)
//Storyboard Layer 2 (Pass)
//Storyboard Layer 3 (Foreground)
Sprite,Foreground,Centre,"SB\1.jpg",320,240 M,0,150,,320,900 S,0,150,,0.9 F,0,150,21483,0,1 M,0,21483,81483,320,900,320,-420 C,0,84483,85462,255,255,255,255,0,0 F,0,85462,,0
Sprite,Foreground,Centre,"miko taiko.jpg",320,240 F,0,85462,,1 S,0,85462,,0.455 F,0,100132,,1 F,0,100132,101465,1,0
Sprite,Foreground,BottomCentre,"SB\Miko 671.jpg",320,480 S,0,101465,,0.73 F,0,101465,101632,0,1 M,0,101465,138795,320,480,320,1240 F,0,133465,138460,1,0
Sprite,Foreground,BottomCentre,"SB\Miko 671GLOW.jpg",320,480 L,106799,4 F,0,0,666,1,0 F,0,1333,,1 L,112132,1 F,0,0,666,1,0 L,114799,1 F,0,0,666,1,0 L,117465,12 F,0,0,666,1,0 F,0,1333,,1 L,133465,1 F,0,0,666,1,0 L,136132,1 F,0,0,666,1,0 F,0,101465,,0 S,0,101465,,0.73 M,0,101465,138795,320,480,320,1240 F,0,101965,102382,1,0 F,0,102465,102965,1,0 F,0,104132,104549,1,0 F,0,104632,104965,1,0 F,0,105049,105465,1,0 F,0,106799,,1 F,0,137465,,0.15 F,0,137688,,0.3 F,0,137910,,0.6 F,0,138132,,1 F,0,138132,,1 F,1,138465,138799,1,0
Sprite,Foreground,BottomCentre,"SB\Miko 671.jpg",320,480 M,0,117465,117799,320,805,320,1000 F,0,117465,117799,1,0 S,0,117465,117799,0.73,0.9 M,0,128128,128799,320,1025,320,1200 F,1,128128,128799,1,0 S,0,128128,128799,0.73,0.9
Sprite,Foreground,Centre,"miko taiko.jpg",320,240 S,2,162795,,0.455 F,2,162795,168128,0,1 F,0,189461,191461,1,0
Sprite,Foreground,Centre,"miko taiko.jpg",320,240 F,1,85462,85795,1,0 S,0,85462,85795,0.455,0.6 F,1,96128,96461,1,0 S,0,96128,96461,0.455,0.6
Sprite,Foreground,Centre,"miko taiko.jpg",320,240 M,0,220795,,120,105 F,0,220795,,1 S,0,220795,,0.7 M,0,221017,,550,120 M,0,221239,,120,370 M,0,221461,,320,240 S,0,221461,,0.455 F,0,221461,221628,0,1 F,0,232128,,0
Sprite,Foreground,Centre,"SB\screm.jpg",320,240 F,0,194795,194878,0.3,0 M,0,194961,,320,260 S,0,194961,,0.55 F,0,194961,195045,0.5,0 M,0,198795,,200,300 F,0,198795,,1 S,0,198795,,0.8 M,0,199017,,350,100 M,0,199239,,120,75 M,1,199461,200017,850,100,320,280 S,1,199461,200017,1.5,0.55 M,0,200017,220127,320,280,320,180 S,0,200017,220127,0.55,0.6 M,0,220128,,400,300 S,0,220128,,0.8 M,0,220350,,420,100 M,0,220573,,120,405 F,0,220795,,0
Sprite,Foreground,Centre,"SB\screm.jpg",320,240 F,0,200000,,0 M,0,200017,220127,320,280,320,180 S,0,200017,220127,0.55,0.6 P,0,200127,219965,A T,HitSoundFinish,200127,219965 F,0,0,500,1,0
Sprite,Foreground,BottomCentre,"SB\calm.jpg",320,240 F,0,232128,,1 M,2,232128,253461,270,520,480,620 S,0,232128,253461,0.8,1 F,0,252799,253451,1,0 F,0,253451,,0
Sprite,Foreground,Centre,"SB\chorus.jpg",320,240 F,0,138795,,1 S,0,138795,157461,0.55,0.6 M,0,138795,159461,320,190,280,360 F,1,157461,159461,1,0
Sprite,Foreground,Centre,"SB\chorus.jpg",320,240 M,0,138795,,320,190 F,0,138795,139128,1,0 S,0,138795,139128,0.55,0.65 M,0,157461,159461,284,343,240,390 F,1,157461,159461,1,0 S,0,157461,159461,0.6,0.8
Sprite,Foreground,Centre,"SB\chorus2.jpg",320,240 M,0,253461,,320,675 F,0,253461,,1 S,1,253461,263795,1.1,0.9 F,0,262795,263795,1,0 F,0,264128,,1 M,2,264128,300128,320,675,320,-195 F,0,300128,,1 F,0,301295,301461,1,0
Sprite,Foreground,Centre,"SB\chorus2.jpg",320,240 M,0,253461,253795,320,675,320,800 F,1,253461,253795,1,0 S,0,253461,253795,1.1,1.5 M,0,264128,264461,320,675,320,725 F,0,264128,264461,1,0 S,0,264128,264461,0.9,1.1 M,0,282795,286128,320,440,320,400 F,0,282795,286128,1,0 S,0,282795,286128,0.9,1.4
Sprite,Foreground,Centre,"SB\flish.jpg",320,240 S,0,231795,,0.675 F,6,231795,232128,0,1 F,7,232128,232795,1,0
Sprite,Foreground,Centre,"SB\flish.jpg",320,240 F,0,101465,101799,1,0
Sprite,Foreground,TopCentre,"sb\f\_000.png",320,410 F,0,106000,106200,0,1 S,0,106200,,0.5 F,0,108890,109090,1,0
Sprite,Foreground,TopCentre,"sb\f\_001.png",320,410 F,0,108890,109090,0,1 S,0,109090,,0.5 F,0,111930,112130,1,0
Sprite,Foreground,TopCentre,"sb\f\_002.png",320,410 F,0,111930,112130,0,1 S,0,112130,,0.5 F,0,114200,114400,1,0
Sprite,Foreground,TopCentre,"sb\f\_003.png",320,410 F,0,114200,114400,0,1 S,0,114400,,0.5 F,0,117150,117350,1,0
Sprite,Foreground,TopCentre,"sb\f\_004.png",320,410 F,0,117380,117580,0,1 S,0,117580,,0.5 F,0,119600,119800,1,0
Sprite,Foreground,TopCentre,"sb\f\_005.png",320,410 F,0,119640,119840,0,1 S,0,119840,,0.5 F,0,122460,122660,1,0
Sprite,Foreground,TopCentre,"sb\f\_006.png",320,410 F,0,122460,122660,0,1 S,0,122660,,0.5 F,0,124830,125030,1,0
Sprite,Foreground,TopCentre,"sb\f\_007.png",320,410 F,0,124890,125090,0,1 S,0,125090,,0.5 F,0,130030,130230,1,0
Sprite,Foreground,TopCentre,"sb\f\_008.png",320,410 F,0,130030,130230,0,1 S,0,130230,,0.5 F,0,133170,133370,1,0
Sprite,Foreground,TopCentre,"sb\f\_009.png",320,410 F,0,133350,133550,0,1 S,0,133550,,0.5 F,0,135920,136120,1,0
Sprite,Foreground,TopCentre,"sb\f\_00a.png",320,410 F,0,135920,136120,0,1 S,0,136120,,0.5 F,0,137970,138170,1,0
Sprite,Foreground,TopCentre,"sb\f\_00b.png",320,410 F,0,138599,138799,0,1 S,0,138799,,0.5 F,0,147790,147990,1,0
Sprite,Foreground,TopCentre,"sb\f\_00c.png",320,410 F,0,147790,147990,0,1 S,0,147990,,0.5 F,0,149290,149490,1,0
Sprite,Foreground,TopCentre,"sb\f\_00d.png",320,410 F,0,149290,149490,0,1 S,0,149490,,0.5 F,0,154570,154770,1,0
Sprite,Foreground,TopCentre,"sb\f\_00e.png",320,410 F,0,154590,154790,0,1 S,0,154790,,0.5 F,1,157465,159465,1,0
Sprite,Foreground,TopCentre,"sb\f\_00f.png",320,410 F,0,167390,167590,0,1 S,0,167590,,0.5 F,0,170230,170430,1,0
Sprite,Foreground,TopCentre,"sb\f\_010.png",320,410 F,0,170270,170470,0,1 S,0,170470,,0.5 F,0,172920,173120,1,0
Sprite,Foreground,TopCentre,"sb\f\_002.png",320,410 F,0,172940,173140,0,1 S,0,173140,,0.5 F,0,175690,175890,1,0
Sprite,Foreground,TopCentre,"sb\f\_011.png",320,410 F,0,175690,175890,0,1 S,0,175890,,0.5 F,0,178490,178690,1,0
Sprite,Foreground,TopCentre,"sb\f\_004.png",320,410 F,0,178630,178830,0,1 S,0,178830,,0.5 F,0,180880,181080,1,0
Sprite,Foreground,TopCentre,"sb\f\_005.png",320,410 F,0,180900,181100,0,1 S,0,181100,,0.5 F,0,183690,183890,1,0
Sprite,Foreground,TopCentre,"sb\f\_012.png",320,410 F,0,183690,183890,0,1 S,0,183890,,0.5 F,0,186220,186420,1,0
Sprite,Foreground,TopCentre,"sb\f\_013.png",320,410 F,0,186260,186460,0,1 S,0,186460,,0.5 F,0,191350,191550,1,0
Sprite,Foreground,TopCentre,"sb\f\_014.png",320,410 F,0,221260,221460,0,1 S,0,221460,,0.5 F,0,226440,226640,1,0
Sprite,Foreground,TopCentre,"sb\f\_015.png",320,410 F,0,226640,226840,0,1 S,0,226840,,0.5 F,0,229380,229580,1,0
Sprite,Foreground,TopCentre,"sb\f\_016.png",320,410 F,0,229400,229600,0,1 S,0,229600,,0.5 F,0,231910,232110,1,0
Sprite,Foreground,TopCentre,"sb\f\_017.png",320,410 F,0,231910,232110,0,1 S,0,232110,,0.5 F,0,241830,242030,1,0
Sprite,Foreground,TopCentre,"sb\f\_018.png",320,410 F,0,242660,242860,0,1 S,0,242860,,0.5 F,0,247880,248080,1,0
Sprite,Foreground,TopCentre,"sb\f\_019.png",320,410 F,0,247940,248140,0,1 S,0,248140,,0.5 F,0,252050,252250,1,0
Sprite,Foreground,TopCentre,"sb\f\_00b.png",320,410 F,0,253265,253465,0,1 S,0,253465,,0.5 F,0,262690,262890,1,0
Sprite,Foreground,TopCentre,"sb\f\_00c.png",320,410 F,0,262690,262890,0,1 S,0,262890,,0.5 F,0,263900,264100,1,0
Sprite,Foreground,TopCentre,"sb\f\_00d.png",320,410 F,0,263900,264100,0,1 S,0,264100,,0.5 F,0,269250,269450,1,0
Sprite,Foreground,TopCentre,"sb\f\_00e.png",320,410 F,0,269250,269450,0,1 S,0,269450,,0.5 F,0,273660,273860,1,0
Sprite,Foreground,TopCentre,"sb\f\_01a.png",320,410 F,0,274570,274770,0,1 S,0,274770,,0.5 F,0,279840,280040,1,0
Sprite,Foreground,TopCentre,"sb\f\_01b.png",320,410 F,0,279840,280040,0,1 S,0,280040,,0.5 F,1,282799,286132,1,0
Sprite,Foreground,Centre,"SB\lyric screm\1.png",320,370 S,0,84482,,0.5810909 F,0,84482,84649,0,1 C,0,84483,85462,255,255,255,255,0,0 F,0,85466,85799,0.9880239,0 S,0,85466,85799,0.5810909,1.063471
Sprite,Foreground,Centre,"SB\lyric screm\2.png",320,370 F,0,200132,,1 S,0,200132,,0.65 F,0,202799,,0
Sprite,Foreground,Centre,"SB\lyric screm\3.png",320,370 F,0,202799,,1 S,0,202799,,0.6 F,0,205465,,0
Sprite,Foreground,Centre,"SB\lyric screm\4.png",320,370 F,0,205465,,1 S,0,205465,,0.65 F,0,208132,,0
Sprite,Foreground,Centre,"SB\lyric screm\5.png",320,370 F,0,208132,,1 S,0,208132,,0.5 F,0,210799,213465,1,0 S,1,210799,213465,0.5,1
//Storyboard Sound Samples

[TimingPoints]
159,333.333333333333,4,1,0,25,1,0
1159,417.391304347826,4,1,0,25,1,8
1159,-79.8611111111111,4,1,0,25,0,0
1576,482.897384305835,4,1,0,25,1,8
1576,-69.0277777777778,4,1,0,25,0,8
2058,561.797752808989,4,1,0,25,1,8
2058,-59.3333333333333,4,1,0,25,0,8
2619,595.533498759305,4,1,0,25,1,8
2619,-55.9722222222222,4,1,0,25,0,8
3214,569.53013763645,4,1,0,25,1,8
3214,-58.5277777777778,4,1,0,25,0,8
5492,326.619488296135,4,1,0,25,1,0
5492,-102.055555555556,4,1,0,25,0,0
6798,396.039603960396,4,1,0,25,1,8
6798,-84.1666666666667,4,1,0,25,0,8
7194,470.588235294118,4,1,0,25,1,8
7194,-70.8333333333333,4,1,0,25,0,8
7664,470.588235294118,4,1,0,25,1,8
7664,-70.8333333333333,4,1,0,25,0,8
9075,439.399487367265,4,1,0,25,1,8
9075,-75.8611111111111,4,1,0,25,0,8
10832,322.061191626409,4,1,0,25,1,0
10832,-103.5,4,1,0,25,0,0
12120,407.608695652174,4,1,0,25,1,8
12120,-81.7777777777778,4,1,0,25,0,8
12527,447.761194029851,4,1,0,25,1,8
12527,-74.4444444444444,4,1,0,25,0,8
12976,521.28583840139,4,1,0,25,1,8
12976,-63.9444444444444,4,1,0,25,0,8
13497,474.308300395257,4,1,0,25,1,8
13497,-70.2777777777778,4,1,0,25,0,8
13971,593.765462642256,4,1,0,25,1,8
13971,-56.1388888888889,4,1,0,25,0,8
15158,505.050505050505,4,1,0,25,1,8
15158,-66,4,1,0,25,0,8
16168,435.729847494553,4,1,0,25,1,0
16168,-76.5,4,1,0,25,0,0
17475,522.648083623693,4,1,0,25,1,8
17475,-63.7777777777778,4,1,0,25,0,8
17997,423.878488166726,4,1,0,25,1,8
17997,-78.6388888888889,4,1,0,25,0,8
18844,500,4,1,0,25,1,8
18844,-66.6666666666667,4,1,0,25,0,8
19344,500,4,1,0,25,1,8
19344,-66.6666666666667,4,1,0,25,0,8
19844,334.261838440111,4,1,0,25,1,8
19844,-99.7222222222222,4,1,0,25,0,8
20178,325.732899022801,4,1,0,25,1,8
20178,-102.333333333333,4,1,0,25,0,8
20666,322.754168908015,4,1,0,25,1,8
20666,-103.277777777778,4,1,0,25,0,8
21150,333.333333333333,4,1,0,25,1,8
21150,-100,4,1,0,25,0,8
21483,333.333333333333,4,1,0,50,1,0
64233,-133.333333333333,4,1,0,35,0,0
85466,333.333333333333,4,1,0,100,1,0
138799,-100,4,1,0,100,0,1
157465,-100,4,1,0,100,0,0
210799,-100,4,1,0,100,0,1
221465,-100,4,1,0,100,0,0
232215,-100,4,1,0,50,0,0
252465,-100,4,1,0,100,0,0
253465,-100,4,1,0,100,0,1
263799,-100,4,1,0,100,0,0
264132,-100,4,1,0,100,0,1
282799,-100,4,1,0,100,0,0

[HitObjects]
128,64,159,5,4,0:0:0:0:
192,64,1159,1,0,0:0:0:0:
96,64,1576,1,8,0:0:0:0:
192,128,2058,1,0,0:0:0:0:
128,64,2619,1,8,0:0:0:0:
128,96,3214,1,8,0:0:0:0:
192,32,5492,1,4,0:0:0:0:
217,295,6798,1,0,0:0:0:0:
96,96,7194,1,8,0:0:0:0:
96,64,7664,1,8,0:0:0:0:
128,32,9075,1,8,0:0:0:0:
96,32,10832,1,4,0:0:0:0:
380,255,12120,1,0,0:0:0:0:
96,96,12527,1,8,0:0:0:0:
224,64,12976,1,0,0:0:0:0:
192,32,13497,1,0,0:0:0:0:
224,192,13971,1,8,0:0:0:0:
72,279,15158,37,8,0:0:0:0:
128,64,16168,1,4,0:0:0:0:
254,67,17475,1,8,0:0:0:0:
128,96,17997,1,0,0:0:0:0:
192,32,18844,1,8,0:0:0:0:
160,64,19344,1,8,0:0:0:0:
416,288,19844,1,0,0:0:0:0:
192,32,20177,1,8,0:0:0:0:
96,64,20666,1,0,0:0:0:0:
128,96,21150,1,8,0:0:0:0:
160,160,21483,1,4,0:0:0:0:
320,96,21816,1,0,0:0:0:0:
320,96,22149,1,8,0:0:0:0:
256,192,22649,1,0,0:0:0:0:
256,192,23149,1,0,0:0:0:0:
256,192,23483,1,8,0:0:0:0:
256,128,24149,1,0,0:0:0:0:
64,224,24483,1,0,0:0:0:0:
160,192,24649,1,0,0:0:0:0:
160,64,24816,1,8,0:0:0:0:
32,192,25316,1,0,0:0:0:0:
32,192,25816,1,0,0:0:0:0:
160,32,26149,1,8,0:0:0:0:
192,320,26649,1,8,0:0:0:0:
192,192,26816,1,0,0:0:0:0:
192,192,27149,1,0,0:0:0:0:
192,192,27316,1,0,0:0:0:0:
192,192,27483,1,8,0:0:0:0:
192,128,27816,1,0,0:0:0:0:
64,128,28066,5,8,0:0:0:0:
32,352,28483,1,0,0:0:0:0:
160,160,28816,1,8,0:0:0:0:
480,96,29316,1,8,0:0:0:0:
384,128,29483,1,0,0:0:0:0:
160,160,29816,1,0,0:0:0:0:
288,160,29983,1,0,0:0:0:0:
192,160,30149,1,8,0:0:0:0:
128,192,30483,1,0,0:0:0:0:
64,192,30983,1,8,0:0:0:0:
64,192,31149,1,0,0:0:0:0:
64,192,31483,1,8,0:0:0:0:
160,192,31649,1,0,0:0:0:0:
256,192,31816,1,0,0:0:0:0:
160,192,31983,1,8,0:0:0:0:
256,192,32149,1,0,0:0:0:0:
64,160,32483,1,0,0:0:0:0:
288,96,32816,1,8,0:0:0:0:
96,160,33149,1,8,0:0:0:0:
160,96,33316,1,0,0:0:0:0:
288,96,33733,1,8,0:0:0:0:
256,128,33816,1,0,0:0:0:0:
128,256,34149,1,8,0:0:0:0:
224,192,34316,1,0,0:0:0:0:
256,96,34483,1,8,0:0:0:0:
192,192,34816,1,0,0:0:0:0:
192,192,35149,1,0,0:0:0:0:
192,192,35316,1,0,0:0:0:0:
192,192,35483,1,8,0:0:0:0:
192,160,35816,1,0,0:0:0:0:
192,160,35983,1,8,0:0:0:0:
352,352,36316,1,0,0:0:0:0:
288,256,36483,1,0,0:0:0:0:
128,224,36816,1,8,0:0:0:0:
288,64,37149,1,0,0:0:0:0:
224,128,37316,1,8,0:0:0:0:
160,192,37483,1,0,0:0:0:0:
128,224,37816,1,0,0:0:0:0:
128,224,38066,1,0,0:0:0:0:
128,224,38149,1,8,0:0:0:0:
352,288,38483,1,8,0:0:0:0:
256,256,38649,1,0,0:0:0:0:
64,160,38983,1,8,0:0:0:0:
128,192,39149,1,0,0:0:0:0:
160,32,39399,1,0,0:0:0:0:
320,192,39483,1,8,0:0:0:0:
320,224,39816,1,0,0:0:0:0:
320,224,39983,1,8,0:0:0:0:
320,224,40149,1,0,0:0:0:0:
96,256,40483,1,0,0:0:0:0:
160,224,40649,1,0,0:0:0:0:
320,224,40816,1,8,0:0:0:0:
128,64,41149,1,0,0:0:0:0:
32,160,41316,1,8,0:0:0:0:
320,224,41483,1,0,0:0:0:0:
32,160,41816,1,0,0:0:0:0:
320,224,42149,1,8,0:0:0:0:
32,160,42483,1,0,0:0:0:0:
32,160,42649,1,8,0:0:0:0:
128,160,42816,1,4,0:0:0:0:
192,160,43483,1,0,0:0:0:0:
352,320,43816,1,8,0:0:0:0:
32,0,44483,1,0,0:0:0:0:
192,160,44816,1,8,0:0:0:0:
352,320,45149,1,8,0:0:0:0:
288,256,45316,1,0,0:0:0:0:
192,160,45483,1,0,0:0:0:0:
192,160,46149,1,8,0:0:0:0:
352,320,46483,1,0,0:0:0:0:
192,160,47149,1,0,0:0:0:0:
352,320,47483,1,8,0:0:0:0:
288,256,47649,1,0,0:0:0:0:
192,160,47816,1,8,0:0:0:0:
256,224,47983,1,8,0:0:0:0:
352,320,48149,1,0,0:0:0:0:
96,32,48733,1,0,0:0:0:0:
128,64,48816,1,8,0:0:0:0:
256,224,49149,1,0,0:0:0:0:
192,160,49733,1,0,0:0:0:0:
192,160,49816,1,0,0:0:0:0:
192,160,50149,1,8,0:0:0:0:
192,160,50483,1,8,0:0:0:0:
96,224,50649,1,0,0:0:0:0:
128,64,50816,1,0,0:0:0:0:
416,256,51316,1,0,0:0:0:0:
352,224,51483,1,8,0:0:0:0:
128,64,51816,1,0,0:0:0:0:
192,160,52483,1,0,0:0:0:0:
192,160,52816,1,0,0:0:0:0:
192,160,52983,1,0,0:0:0:0:
192,160,53149,1,8,0:0:0:0:
192,160,53316,1,8,0:0:0:0:
96,160,53483,1,0,0:0:0:0:
416,128,53983,1,0,0:0:0:0:
320,128,54149,1,8,0:0:0:0:
128,192,54483,1,0,0:0:0:0:
224,160,55149,1,0,0:0:0:0:
224,160,55483,1,8,0:0:0:0:
224,160,55816,1,8,0:0:0:0:
224,160,56149,1,0,0:0:0:0:
352,192,56649,1,0,0:0:0:0:
288,256,56816,1,8,0:0:0:0:
448,96,57149,1,0,0:0:0:0:
352,192,57816,1,0,0:0:0:0:
192,320,58149,1,8,0:0:0:0:
256,256,58316,1,0,0:0:0:0:
320,192,58483,1,8,0:0:0:0:
416,224,58649,1,8,0:0:0:0:
288,192,58816,1,0,0:0:0:0:
160,192,59316,1,0,0:0:0:0:
320,192,59483,1,8,0:0:0:0:
96,192,59816,1,0,0:0:0:0:
224,192,60483,1,0,0:0:0:0:
224,192,60816,1,8,0:0:0:0:
224,192,61149,1,8,0:0:0:0:
160,160,61316,1,0,0:0:0:0:
224,192,61483,1,0,0:0:0:0:
224,192,61983,1,0,0:0:0:0:
224,192,62149,1,8,0:0:0:0:
224,192,62233,1,0,0:0:0:0:
224,192,62483,1,0,0:0:0:0:
224,192,63149,1,0,0:0:0:0:
224,192,63483,1,8,0:0:0:0:
224,192,63649,1,0,0:0:0:0:
224,192,63816,1,8,0:0:0:0:
224,192,63983,1,8,0:0:0:0:
224,192,64149,1,4,0:0:0:0:
128,128,65483,1,0,0:0:0:0:
96,160,66816,1,8,0:0:0:0:
96,160,68149,1,0,0:0:0:0:
96,160,68816,1,8,0:0:0:0:
96,160,69483,1,0,0:0:0:0:
96,160,70816,1,0,0:0:0:0:
128,192,72149,1,8,0:0:0:0:
128,192,73483,1,0,0:0:0:0:
128,192,74816,1,8,0:0:0:0:
128,192,76149,1,8,0:0:0:0:
128,192,77483,1,0,0:0:0:0:
128,192,78816,1,8,0:0:0:0:
128,192,79483,1,0,0:0:0:0:
128,192,80149,1,8,0:0:0:0:
128,192,81483,1,0,0:0:0:0:
128,192,82816,1,8,0:0:0:0:
256,192,82983,12,0,84149,0:0:0:0:
192,224,84483,5,0,0:0:0:0:
192,224,84816,1,8,0:0:0:0:
192,224,85149,1,0,0:0:0:0:
32,64,85466,1,12,0:0:0:0:
256,288,85966,1,8,0:0:0:0:
128,128,86299,1,0,0:0:0:0:
160,160,86382,1,0,0:0:0:0:
160,192,86466,1,8,0:0:0:0:
160,192,86966,1,0,0:0:0:0:
160,192,87049,1,0,0:0:0:0:
160,192,87132,1,8,0:0:0:0:
160,192,87299,1,0,0:0:0:0:
160,192,87466,1,0,0:0:0:0:
160,192,87549,1,0,0:0:0:0:
160,192,87632,1,0,0:0:0:0:
160,192,87799,1,8,0:0:0:0:
160,192,87966,1,0,0:0:0:0:
160,192,88132,1,12,0:0:0:0:
384,192,88466,1,8,0:0:0:0:
288,192,88632,1,0,0:0:0:0:
64,192,88966,1,0,0:0:0:0:
96,192,89049,1,0,0:0:0:0:
128,192,89132,1,8,0:0:0:0:
256,192,89299,1,0,0:0:0:0:
192,192,89382,1,0,0:0:0:0:
192,192,89466,1,8,0:0:0:0:
128,96,89549,1,8,0:0:0:0:
192,192,89632,1,0,0:0:0:0:
192,192,89799,1,8,0:0:0:0:
192,192,89966,1,0,0:0:0:0:
256,128,90132,1,8,0:0:0:0:
288,64,90244,1,8,0:0:0:0:
256,96,90355,1,8,0:0:0:0:
288,64,90466,1,0,0:0:0:0:
224,96,90577,1,0,0:0:0:0:
288,64,90688,1,0,0:0:0:0:
224,96,90799,1,12,0:0:0:0:
192,192,91299,1,8,0:0:0:0:
192,192,91632,1,0,0:0:0:0:
192,192,91716,1,0,0:0:0:0:
192,192,91799,1,8,0:0:0:0:
192,192,92299,1,0,0:0:0:0:
192,192,92382,1,0,0:0:0:0:
192,192,92466,1,8,0:0:0:0:
192,192,92632,1,0,0:0:0:0:
192,192,92799,1,0,0:0:0:0:
192,192,92882,1,0,0:0:0:0:
192,192,92966,1,0,0:0:0:0:
192,192,93132,1,8,0:0:0:0:
192,192,93299,1,0,0:0:0:0:
192,192,93465,1,12,0:0:0:0:
192,192,93965,1,8,0:0:0:0:
192,192,94299,1,0,0:0:0:0:
192,192,94382,1,0,0:0:0:0:
192,192,94466,1,8,0:0:0:0:
192,192,94799,1,8,0:0:0:0:
288,192,94966,1,8,0:0:0:0:
224,192,95049,1,8,0:0:0:0:
224,192,95132,1,0,0:0:0:0:
224,192,95299,1,8,0:0:0:0:
224,192,95382,1,8,0:0:0:0:
224,192,95466,1,0,0:0:0:0:
224,192,95632,1,8,0:0:0:0:
224,192,95716,1,8,0:0:0:0:
224,192,95799,1,0,0:0:0:0:
224,192,95882,1,0,0:0:0:0:
224,192,95966,1,8,0:0:0:0:
224,192,96132,1,12,0:0:0:0:
320,160,96299,1,0,0:0:0:0:
320,160,96382,1,0,0:0:0:0:
320,160,96466,1,8,0:0:0:0:
320,160,96632,1,0,0:0:0:0:
320,160,96799,1,8,0:0:0:0:
320,160,96966,1,8,0:0:0:0:
320,160,97132,1,0,0:0:0:0:
320,160,97299,1,0,0:0:0:0:
320,160,97466,1,8,0:0:0:0:
320,160,97632,1,0,0:0:0:0:
320,160,97799,1,8,0:0:0:0:
320,160,97966,1,0,0:0:0:0:
320,160,98049,1,0,0:0:0:0:
320,160,98132,1,8,0:0:0:0:
320,160,98299,1,8,0:0:0:0:
320,160,98466,1,0,0:0:0:0:
320,160,98632,1,0,0:0:0:0:
320,160,98799,1,12,0:0:0:0:
320,160,98966,1,0,0:0:0:0:
320,160,99132,1,8,0:0:0:0:
320,160,99299,1,0,0:0:0:0:
320,160,99382,1,0,0:0:0:0:
320,160,99466,1,8,0:0:0:0:
320,160,99632,1,8,0:0:0:0:
320,160,99799,1,0,0:0:0:0:
320,160,99966,1,0,0:0:0:0:
320,160,100049,1,0,0:0:0:0:
320,160,100132,1,8,0:0:0:0:
320,160,100216,1,8,0:0:0:0:
320,160,100299,1,0,0:0:0:0:
320,160,100466,1,0,0:0:0:0:
320,160,100549,1,0,0:0:0:0:
320,160,100632,1,0,0:0:0:0:
320,160,100716,1,0,0:0:0:0:
320,160,100799,1,8,0:0:0:0:
320,160,100966,1,0,0:0:0:0:
320,160,101049,1,0,0:0:0:0:
320,160,101132,1,8,0:0:0:0:
320,160,101216,1,8,0:0:0:0:
320,160,101299,1,8,0:0:0:0:
320,160,101466,1,12,0:0:0:0:
164,169,101966,1,4,0:0:0:0:
115,93,102466,1,12,0:0:0:0:
338,345,102966,1,0,0:0:0:0:
302,305,103049,1,0,0:0:0:0:
274,272,103132,1,8,0:0:0:0:
161,203,103299,1,0,0:0:0:0:
161,203,103466,1,8,0:0:0:0:
161,203,103549,1,0,0:0:0:0:
161,203,103632,1,0,0:0:0:0:
266,163,103799,1,0,0:0:0:0:
175,198,103966,1,0,0:0:0:0:
175,198,104132,1,12,0:0:0:0:
222,197,104632,1,0,0:0:0:0:
222,197,104966,1,0,0:0:0:0:
222,197,105049,1,0,0:0:0:0:
222,197,105132,1,8,0:0:0:0:
222,197,105299,1,0,0:0:0:0:
222,197,105466,1,8,0:0:0:0:
222,197,105632,1,0,0:0:0:0:
222,197,105716,1,0,0:0:0:0:
222,197,105799,1,0,0:0:0:0:
222,197,105966,1,0,0:0:0:0:
222,197,106132,1,8,0:0:0:0:
302,138,106299,1,0,0:0:0:0:
225,197,106466,1,8,0:0:0:0:
298,141,106632,1,0,0:0:0:0:
222,199,106799,1,12,0:0:0:0:
184,183,107466,1,0,0:0:0:0:
184,183,108132,1,12,0:0:0:0:
184,183,108799,1,0,0:0:0:0:
184,183,109132,1,8,0:0:0:0:
184,183,109465,1,12,0:0:0:0:
234,148,110132,1,12,0:0:0:0:
234,148,110466,1,8,0:0:0:0:
234,148,110632,1,0,0:0:0:0:
234,148,110799,1,8,0:0:0:0:
165,62,110966,1,0,0:0:0:0:
165,62,111132,1,0,0:0:0:0:
165,62,111299,1,0,0:0:0:0:
165,62,111382,1,0,0:0:0:0:
111,40,111466,1,8,0:0:0:0:
90,152,111632,1,0,0:0:0:0:
90,152,111799,1,8,0:0:0:0:
90,152,112132,1,12,0:0:0:0:
289,212,112466,1,0,0:0:0:0:
484,273,112799,1,0,0:0:0:0:
283,210,113132,1,0,0:0:0:0:
386,242,113466,1,0,0:0:0:0:
386,242,113799,1,0,0:0:0:0:
386,242,114132,1,0,0:0:0:0:
386,242,114299,1,8,0:0:0:0:
386,242,114466,1,0,0:0:0:0:
386,242,114632,1,8,0:0:0:0:
386,242,114799,1,12,0:0:0:0:
303,174,114966,1,8,0:0:0:0:
233,117,115132,1,0,0:0:0:0:
189,69,115216,1,0,0:0:0:0:
305,176,115299,1,8,0:0:0:0:
238,121,115466,1,0,0:0:0:0:
317,186,115632,1,8,0:0:0:0:
244,126,115799,1,0,0:0:0:0:
212,92,115882,1,8,0:0:0:0:
244,126,115966,1,8,0:0:0:0:
244,126,116132,1,0,0:0:0:0:
203,82,116216,1,8,0:0:0:0:
132,138,116299,1,8,0:0:0:0:
135,97,116382,1,8,0:0:0:0:
133,114,116466,1,0,0:0:0:0:
138,49,116549,1,8,0:0:0:0:
132,138,116632,1,8,0:0:0:0:
132,138,116799,1,12,0:0:0:0:
132,138,117132,1,0,0:0:0:0:
132,138,117466,1,12,0:0:0:0:
83,255,117632,1,0,0:0:0:0:
124,161,117799,1,8,0:0:0:0:
240,179,117966,1,0,0:0:0:0:
181,170,118049,1,0,0:0:0:0:
181,170,118132,1,0,0:0:0:0:
278,188,118299,1,0,0:0:0:0:
185,170,118466,1,8,0:0:0:0:
185,170,118632,1,0,0:0:0:0:
185,170,118716,1,0,0:0:0:0:
185,170,118799,1,8,0:0:0:0:
192,32,118965,1,8,0:0:0:0:
192,160,119132,1,0,0:0:0:0:
192,32,119299,1,0,0:0:0:0:
192,160,119465,1,8,0:0:0:0:
192,32,119632,1,0,0:0:0:0:
192,160,119799,1,8,0:0:0:0:
217,177,120132,1,12,0:0:0:0:
217,177,120299,1,0,0:0:0:0:
217,177,120466,1,8,0:0:0:0:
217,177,120632,1,0,0:0:0:0:
217,177,120716,1,0,0:0:0:0:
217,177,120799,1,0,0:0:0:0:
217,177,120966,1,0,0:0:0:0:
217,177,121132,1,8,0:0:0:0:
115,159,121299,1,0,0:0:0:0:
115,159,121382,1,0,0:0:0:0:
115,159,121466,1,8,0:0:0:0:
115,159,121632,1,0,0:0:0:0:
115,159,121799,1,8,0:0:0:0:
115,159,121965,1,8,0:0:0:0:
115,159,122132,1,0,0:0:0:0:
115,159,122299,1,0,0:0:0:0:
115,159,122466,1,8,0:0:0:0:
115,159,122799,1,12,0:0:0:0:
115,159,122966,1,0,0:0:0:0:
115,159,123132,1,8,0:0:0:0:
104,203,123216,1,0,0:0:0:0:
115,159,123299,1,0,0:0:0:0:
115,159,123466,1,8,0:0:0:0:
115,159,123632,1,0,0:0:0:0:
115,159,123799,1,8,0:0:0:0:
115,159,123965,1,0,0:0:0:0:
115,159,124132,1,8,0:0:0:0:
115,159,124299,1,8,0:0:0:0:
115,159,124466,1,0,0:0:0:0:
115,159,124632,1,0,0:0:0:0:
115,159,124716,1,0,0:0:0:0:
115,159,124799,1,8,0:0:0:0:
115,159,124966,1,0,0:0:0:0:
115,159,125132,1,8,0:0:0:0:
115,159,125299,1,0,0:0:0:0:
115,159,125466,1,12,0:0:0:0:
115,159,125632,1,0,0:0:0:0:
115,159,125799,1,8,0:0:0:0:
115,159,125966,1,0,0:0:0:0:
115,159,126132,1,8,0:0:0:0:
115,159,126299,1,8,0:0:0:0:
115,159,126466,1,0,0:0:0:0:
115,159,126549,1,0,0:0:0:0:
115,159,126632,1,8,0:0:0:0:
115,159,126966,1,0,0:0:0:0:
115,159,127049,1,0,0:0:0:0:
115,159,127132,1,8,0:0:0:0:
115,159,127216,1,8,0:0:0:0:
115,159,127299,1,0,0:0:0:0:
115,159,127466,1,0,0:0:0:0:
115,159,127549,1,0,0:0:0:0:
115,159,127632,1,0,0:0:0:0:
115,159,127716,1,0,0:0:0:0:
115,159,127799,1,8,0:0:0:0:
115,159,127966,1,8,0:0:0:0:
115,159,128132,1,12,0:0:0:0:
288,288,128466,1,0,0:0:0:0:
128,160,128799,1,0,0:0:0:0:
288,288,129132,1,0,0:0:0:0:
224,224,129299,1,8,0:0:0:0:
128,160,129466,1,0,0:0:0:0:
288,288,129799,1,0,0:0:0:0:
96,160,130132,1,0,0:0:0:0:
288,256,130466,1,8,0:0:0:0:
256,224,130549,1,8,0:0:0:0:
224,192,130632,1,0,0:0:0:0:
128,64,130799,1,12,0:0:0:0:
256,128,131021,1,8,0:0:0:0:
128,160,131244,1,0,0:0:0:0:
256,128,131466,1,8,0:0:0:0:
128,160,131688,1,0,0:0:0:0:
256,128,131910,1,8,0:0:0:0:
128,160,132132,1,0,0:0:0:0:
256,128,132355,1,0,0:0:0:0:
128,160,132577,1,8,0:0:0:0:
256,128,132799,1,8,0:0:0:0:
192,128,132882,1,8,0:0:0:0:
160,160,132966,1,0,0:0:0:0:
160,160,133049,1,0,0:0:0:0:
160,160,133132,1,8,0:0:0:0:
160,160,133466,1,12,0:0:0:0:
352,96,133799,1,0,0:0:0:0:
160,192,134132,1,0,0:0:0:0:
352,96,134466,1,0,0:0:0:0:
256,160,134632,1,8,0:0:0:0:
160,192,134799,1,0,0:0:0:0:
352,96,135132,1,0,0:0:0:0:
256,128,135299,1,8,0:0:0:0:
128,160,135466,1,0,0:0:0:0:
224,160,135632,1,8,0:0:0:0:
128,160,135799,1,8,0:0:0:0:
320,192,136132,1,12,0:0:0:0:
256,128,136299,1,8,0:0:0:0:
224,96,136382,1,8,0:0:0:0:
224,96,136466,1,0,0:0:0:0:
224,96,136632,1,8,0:0:0:0:
224,96,136716,1,8,0:0:0:0:
224,96,136799,1,0,0:0:0:0:
224,96,136966,1,8,0:0:0:0:
224,96,137049,1,8,0:0:0:0:
224,96,137132,1,0,0:0:0:0:
224,96,137216,1,0,0:0:0:0:
224,96,137299,1,8,0:0:0:0:
224,96,137466,1,12,0:0:0:0:
224,96,137688,1,4,0:0:0:0:
224,96,137910,1,4,0:0:0:0:
224,96,138132,1,12,0:0:0:0:
288,160,138799,1,12,0:0:0:0:
160,192,138966,1,8,0:0:0:0:
256,160,139132,1,0,0:0:0:0:
256,160,139466,1,8,0:0:0:0:
256,160,139632,1,0,0:0:0:0:
256,160,139966,1,0,0:0:0:0:
256,160,140049,1,0,0:0:0:0:
256,160,140132,1,8,0:0:0:0:
256,160,140299,1,0,0:0:0:0:
256,160,140466,1,0,0:0:0:0:
256,160,140799,1,8,0:0:0:0:
256,160,140882,1,8,0:0:0:0:
256,160,140966,1,0,0:0:0:0:
256,160,141132,1,8,0:0:0:0:
256,160,141299,1,0,0:0:0:0:
256,160,141466,1,12,0:0:0:0:
256,160,141632,1,8,0:0:0:0:
256,160,141799,1,0,0:0:0:0:
256,160,142132,1,8,0:0:0:0:
256,160,142299,1,0,0:0:0:0:
256,160,142632,1,0,0:0:0:0:
256,160,142716,1,0,0:0:0:0:
256,160,142799,1,8,0:0:0:0:
256,160,142966,1,0,0:0:0:0:
32,128,143299,1,0,0:0:0:0:
64,128,143382,1,0,0:0:0:0:
96,128,143466,1,8,0:0:0:0:
192,160,143632,1,0,0:0:0:0:
192,160,143799,1,8,0:0:0:0:
192,160,144132,1,12,0:0:0:0:
192,160,144299,1,8,0:0:0:0:
192,160,144466,1,0,0:0:0:0:
384,96,144799,1,8,0:0:0:0:
288,128,144966,1,0,0:0:0:0:
288,128,145299,1,0,0:0:0:0:
288,128,145382,1,0,0:0:0:0:
288,128,145466,1,8,0:0:0:0:
288,128,145632,1,0,0:0:0:0:
288,128,145799,1,0,0:0:0:0:
288,128,146132,1,8,0:0:0:0:
288,128,146299,1,0,0:0:0:0:
288,128,146466,1,8,0:0:0:0:
288,128,146799,1,12,0:0:0:0:
288,128,146966,1,8,0:0:0:0:
192,160,147132,1,0,0:0:0:0:
416,192,147466,1,8,0:0:0:0:
320,192,147632,1,0,0:0:0:0:
96,128,147966,1,0,0:0:0:0:
160,128,148049,1,0,0:0:0:0:
192,160,148132,1,8,0:0:0:0:
288,192,148299,1,0,0:0:0:0:
192,160,148466,1,8,0:0:0:0:
288,192,148632,1,0,0:0:0:0:
256,192,148716,1,0,0:0:0:0:
224,160,148799,1,0,0:0:0:0:
224,160,148966,1,8,0:0:0:0:
224,160,149049,1,8,0:0:0:0:
224,160,149132,1,0,0:0:0:0:
224,160,149216,1,8,0:0:0:0:
224,160,149299,1,8,0:0:0:0:
224,160,149466,1,12,0:0:0:0:
128,192,149632,1,0,0:0:0:0:
128,192,149799,1,8,0:0:0:0:
128,192,149966,1,0,0:0:0:0:
128,192,150049,1,0,0:0:0:0:
128,192,150132,1,0,0:0:0:0:
128,192,150299,1,0,0:0:0:0:
128,192,150466,1,8,0:0:0:0:
128,192,150632,1,0,0:0:0:0:
128,192,150799,1,0,0:0:0:0:
128,192,150966,1,0,0:0:0:0:
128,192,151132,1,8,0:0:0:0:
128,192,151299,1,8,0:0:0:0:
128,192,151466,1,0,0:0:0:0:
256,160,151632,1,0,0:0:0:0:
160,192,151799,1,8,0:0:0:0:
192,96,151965,1,0,0:0:0:0:
160,192,152132,1,12,0:0:0:0:
160,192,152299,1,0,0:0:0:0:
160,192,152466,1,8,0:0:0:0:
256,128,152632,1,0,0:0:0:0:
256,128,152716,1,0,0:0:0:0:
256,128,152799,1,0,0:0:0:0:
256,128,152966,1,0,0:0:0:0:
256,128,153132,1,8,0:0:0:0:
256,128,153299,1,0,0:0:0:0:
256,128,153466,1,8,0:0:0:0:
256,128,153632,1,0,0:0:0:0:
256,128,153799,1,8,0:0:0:0:
256,128,153966,1,0,0:0:0:0:
192,96,154049,1,0,0:0:0:0:
256,128,154132,1,8,0:0:0:0:
160,192,154299,1,0,0:0:0:0:
160,192,154382,1,0,0:0:0:0:
160,192,154466,1,8,0:0:0:0:
160,64,154632,1,0,0:0:0:0:
160,64,154799,1,12,0:0:0:0:
160,64,154966,1,0,0:0:0:0:
160,64,155049,1,0,0:0:0:0:
160,64,155132,1,0,0:0:0:0:
160,64,155466,1,8,0:0:0:0:
160,64,155632,1,0,0:0:0:0:
160,64,155966,1,0,0:0:0:0:
160,64,156049,1,0,0:0:0:0:
160,64,156132,1,8,0:0:0:0:
160,64,156299,1,0,0:0:0:0:
160,64,156466,1,0,0:0:0:0:
160,64,156632,1,8,0:0:0:0:
160,64,156799,1,0,0:0:0:0:
160,64,156966,1,8,0:0:0:0:
160,64,157132,1,8,0:0:0:0:
160,64,157466,1,12,0:0:0:0:
224,160,157632,1,0,0:0:0:0:
192,128,157966,1,0,0:0:0:0:
192,128,158049,1,0,0:0:0:0:
192,128,158132,1,8,0:0:0:0:
192,128,158382,1,0,0:0:0:0:
192,128,158632,1,0,0:0:0:0:
192,128,158799,1,8,0:0:0:0:
288,160,158966,5,0,0:0:0:0:
320,160,159049,1,0,0:0:0:0:
320,160,159132,1,0,0:0:0:0:
320,160,159466,1,8,0:0:0:0:
320,160,159549,1,8,0:0:0:0:
320,160,159632,1,0,0:0:0:0:
320,160,159799,1,0,0:0:0:0:
320,160,159882,1,0,0:0:0:0:
320,160,159966,1,0,0:0:0:0:
320,160,160132,1,8,0:0:0:0:
320,160,160299,1,0,0:0:0:0:
320,160,160382,1,0,0:0:0:0:
320,160,160466,1,0,0:0:0:0:
320,160,160799,1,8,0:0:0:0:
320,160,160882,1,8,0:0:0:0:
320,160,160966,1,0,0:0:0:0:
320,160,161132,1,0,0:0:0:0:
320,160,161299,1,0,0:0:0:0:
320,160,161466,1,8,0:0:0:0:
320,160,161549,1,0,0:0:0:0:
320,160,161632,1,0,0:0:0:0:
320,160,161799,1,0,0:0:0:0:
320,160,161966,1,0,0:0:0:0:
320,160,162132,1,8,0:0:0:0:
320,160,162299,1,8,0:0:0:0:
320,160,162466,1,0,0:0:0:0:
320,160,162632,1,0,0:0:0:0:
320,160,162799,1,12,0:0:0:0:
320,160,162966,1,0,0:0:0:0:
320,160,163299,1,0,0:0:0:0:
320,160,163382,1,0,0:0:0:0:
320,160,163466,1,8,0:0:0:0:
320,160,163716,1,0,0:0:0:0:
160,160,163966,1,0,0:0:0:0:
256,160,164132,1,8,0:0:0:0:
128,160,164299,1,0,0:0:0:0:
192,160,164382,1,0,0:0:0:0:
256,160,164466,1,0,0:0:0:0:
128,160,164799,1,8,0:0:0:0:
64,160,164882,1,8,0:0:0:0:
64,160,164966,1,0,0:0:0:0:
64,160,165132,1,0,0:0:0:0:
128,160,165216,1,0,0:0:0:0:
64,160,165299,1,0,0:0:0:0:
160,160,165466,1,8,0:0:0:0:
160,288,165632,1,0,0:0:0:0:
160,224,165716,1,0,0:0:0:0:
160,160,165799,1,0,0:0:0:0:
160,192,166132,1,8,0:0:0:0:
160,192,166216,1,0,0:0:0:0:
160,192,166299,1,0,0:0:0:0:
160,192,166466,1,0,0:0:0:0:
160,192,166632,1,0,0:0:0:0:
160,192,166799,1,8,0:0:0:0:
160,192,166882,1,0,0:0:0:0:
160,192,166966,1,0,0:0:0:0:
160,96,167132,1,0,0:0:0:0:
160,224,167299,1,0,0:0:0:0:
160,128,167466,1,8,0:0:0:0:
160,160,167549,1,0,0:0:0:0:
160,160,167632,1,8,0:0:0:0:
160,160,167716,1,0,0:0:0:0:
160,160,167799,1,8,0:0:0:0:
160,160,167882,1,0,0:0:0:0:
160,160,167966,1,8,0:0:0:0:
32,256,168132,1,12,0:0:0:0:
128,192,168299,1,0,0:0:0:0:
128,192,168632,1,0,0:0:0:0:
128,192,168716,1,0,0:0:0:0:
128,192,168799,1,8,0:0:0:0:
448,256,169632,1,0,0:0:0:0:
448,256,169716,1,0,0:0:0:0:
448,256,169799,1,0,0:0:0:0:
288,256,170132,1,8,0:0:0:0:
256,192,170216,1,0,0:0:0:0:
224,160,170299,1,0,0:0:0:0:
256,192,170466,1,0,0:0:0:0:
256,192,170632,1,0,0:0:0:0:
256,192,170799,1,0,0:0:0:0:
160,128,170966,1,0,0:0:0:0:
128,96,171299,1,0,0:0:0:0:
128,96,171382,1,0,0:0:0:0:
128,96,171466,1,8,0:0:0:0:
128,96,172299,1,0,0:0:0:0:
128,96,172382,1,0,0:0:0:0:
128,96,172466,1,0,0:0:0:0:
128,96,172799,1,8,0:0:0:0:
128,96,172882,1,0,0:0:0:0:
128,96,172966,1,0,0:0:0:0:
128,96,173132,1,8,0:0:0:0:
32,256,173466,1,12,0:0:0:0:
128,192,173633,1,0,0:0:0:0:
128,192,173966,1,0,0:0:0:0:
128,192,174050,1,0,0:0:0:0:
128,192,174133,1,8,0:0:0:0:
448,256,174966,1,0,0:0:0:0:
448,256,175050,1,0,0:0:0:0:
448,256,175133,1,0,0:0:0:0:
288,256,175466,1,8,0:0:0:0:
256,192,175550,1,0,0:0:0:0:
224,160,175633,1,0,0:0:0:0:
256,192,175800,1,0,0:0:0:0:
256,192,175966,1,0,0:0:0:0:
256,192,176133,1,8,0:0:0:0:
160,128,176299,5,8,0:0:0:0:
256,192,176466,1,0,0:0:0:0:
128,96,176633,1,0,0:0:0:0:
128,96,176716,1,0,0:0:0:0:
128,96,176800,1,8,0:0:0:0:
224,160,176966,1,0,0:0:0:0:
128,96,177132,1,0,0:0:0:0:
224,160,177299,1,0,0:0:0:0:
160,96,177466,1,8,0:0:0:0:
192,64,177549,1,8,0:0:0:0:
128,96,177633,1,0,0:0:0:0:
128,96,177716,1,0,0:0:0:0:
128,96,177800,1,0,0:0:0:0:
224,160,177966,1,0,0:0:0:0:
128,96,178133,1,8,0:0:0:0:
128,96,178216,1,8,0:0:0:0:
128,96,178300,1,0,0:0:0:0:
128,96,178466,1,8,0:0:0:0:
224,160,178632,1,0,0:0:0:0:
128,96,178800,1,12,0:0:0:0:
352,96,180132,1,12,0:0:0:0:
352,96,180799,1,4,0:0:0:0:
352,96,181466,1,12,0:0:0:0:
352,96,182132,1,4,0:0:0:0:
352,96,182799,1,12,0:0:0:0:
352,96,183299,1,0,0:0:0:0:
352,96,183382,1,0,0:0:0:0:
352,96,183466,1,8,0:0:0:0:
256,160,183632,1,0,0:0:0:0:
160,192,183799,1,8,0:0:0:0:
192,160,184132,1,12,0:0:0:0:
416,64,184466,1,0,0:0:0:0:
192,160,184799,1,0,0:0:0:0:
416,64,185132,1,0,0:0:0:0:
192,160,185466,1,0,0:0:0:0:
384,64,185799,1,0,0:0:0:0:
160,160,186132,1,0,0:0:0:0:
384,96,186466,1,0,0:0:0:0:
256,128,186632,1,8,0:0:0:0:
256,128,186799,1,0,0:0:0:0:
256,128,186966,1,8,0:0:0:0:
256,128,187132,1,0,0:0:0:0:
256,128,187299,1,8,0:0:0:0:
256,128,187465,1,0,0:0:0:0:
256,128,187632,1,8,0:0:0:0:
256,128,187799,1,8,0:0:0:0:
256,128,187965,1,8,0:0:0:0:
256,128,188132,1,8,0:0:0:0:
224,128,188216,1,8,0:0:0:0:
224,128,188299,1,0,0:0:0:0:
224,128,188382,1,0,0:0:0:0:
224,128,188466,1,0,0:0:0:0:
224,128,188632,1,0,0:0:0:0:
224,128,188716,1,0,0:0:0:0:
224,128,188799,1,8,0:0:0:0:
224,128,188882,1,8,0:0:0:0:
224,128,188966,1,0,0:0:0:0:
224,128,189132,1,8,0:0:0:0:
224,128,189216,1,8,0:0:0:0:
224,128,189299,1,8,0:0:0:0:
224,128,189466,1,4,0:0:0:0:
224,160,192132,5,0,0:0:0:0:
224,160,193465,1,8,0:0:0:0:
192,160,194465,1,8,0:0:0:0:
416,224,194799,5,12,0:0:0:0:
416,224,194966,1,12,0:0:0:0:
32,128,195466,1,8,0:0:0:0:
512,256,196132,1,8,0:0:0:0:
32,128,196799,1,8,0:0:0:0:
224,192,197466,1,4,0:0:0:0:
384,224,197966,1,0,0:0:0:0:
384,224,198049,1,0,0:0:0:0:
384,224,198132,1,8,0:0:0:0:
384,224,198299,1,0,0:0:0:0:
384,224,198466,1,0,0:0:0:0:
192,64,198799,1,12,0:0:0:0:
288,160,199021,1,4,0:0:0:0:
416,256,199244,1,4,0:0:0:0:
448,288,199466,1,12,0:0:0:0:
448,224,200132,1,12,0:0:0:0:
352,256,200299,1,0,0:0:0:0:
352,256,200466,1,0,0:0:0:0:
352,256,200632,1,0,0:0:0:0:
352,256,200799,1,8,0:0:0:0:
352,256,200966,1,0,0:0:0:0:
320,160,201132,1,8,0:0:0:0:
256,64,201299,1,0,0:0:0:0:
320,128,201466,1,8,0:0:0:0:
224,32,201632,1,8,0:0:0:0:
288,128,201799,1,0,0:0:0:0:
256,0,201966,1,0,0:0:0:0:
288,96,202049,1,0,0:0:0:0:
288,96,202132,1,8,0:0:0:0:
288,96,202299,1,8,0:0:0:0:
288,96,202466,1,0,0:0:0:0:
288,96,202632,1,0,0:0:0:0:
288,96,202799,1,12,0:0:0:0:
288,96,202966,1,0,0:0:0:0:
288,96,203132,1,8,0:0:0:0:
288,96,203299,1,0,0:0:0:0:
288,96,203466,1,8,0:0:0:0:
224,192,203632,1,0,0:0:0:0:
288,64,203799,1,8,0:0:0:0:
224,192,203966,1,0,0:0:0:0:
288,96,204132,1,8,0:0:0:0:
224,192,204299,1,8,0:0:0:0:
288,96,204466,1,0,0:0:0:0:
224,192,204632,1,0,0:0:0:0:
256,160,204716,1,0,0:0:0:0:
320,64,204799,1,8,0:0:0:0:
256,160,204966,1,8,0:0:0:0:
256,160,205132,1,0,0:0:0:0:
256,160,205299,1,0,0:0:0:0:
256,160,205466,1,12,0:0:0:0:
256,160,205632,1,0,0:0:0:0:
256,160,205799,1,8,0:0:0:0:
256,160,205966,1,0,0:0:0:0:
256,160,206132,1,8,0:0:0:0:
256,160,206299,1,0,0:0:0:0:
256,160,206466,1,8,0:0:0:0:
256,160,206632,1,8,0:0:0:0:
256,160,206799,1,8,0:0:0:0:
128,128,206966,1,0,0:0:0:0:
256,160,207132,1,8,0:0:0:0:
160,128,207299,1,0,0:0:0:0:
320,192,207465,1,8,0:0:0:0:
256,160,207632,1,0,0:0:0:0:
256,160,207799,1,0,0:0:0:0:
256,160,207966,1,0,0:0:0:0:
256,160,208132,1,12,0:0:0:0:
256,160,208299,1,0,0:0:0:0:
256,160,208466,1,8,0:0:0:0:
256,160,208632,1,0,0:0:0:0:
256,160,208799,1,8,0:0:0:0:
256,160,208966,1,0,0:0:0:0:
256,160,209132,1,8,0:0:0:0:
256,160,209299,1,0,0:0:0:0:
256,160,209466,1,8,0:0:0:0:
256,160,209632,1,0,0:0:0:0:
256,160,209799,1,8,0:0:0:0:
256,160,209966,1,0,0:0:0:0:
256,160,210132,1,8,0:0:0:0:
160,96,210799,1,12,0:0:0:0:
256,160,210966,1,0,0:0:0:0:
288,192,211049,1,0,0:0:0:0:
256,160,211132,1,8,0:0:0:0:
256,160,211299,1,0,0:0:0:0:
256,160,211466,1,8,0:0:0:0:
192,128,211549,1,8,0:0:0:0:
256,160,211632,1,0,0:0:0:0:
256,160,211799,1,8,0:0:0:0:
256,160,211966,1,0,0:0:0:0:
256,160,212132,1,8,0:0:0:0:
256,160,212299,1,0,0:0:0:0:
160,64,212382,1,0,0:0:0:0:
160,64,212466,1,8,0:0:0:0:
256,160,212632,1,0,0:0:0:0:
256,160,212799,1,8,0:0:0:0:
288,96,212882,1,8,0:0:0:0:
256,160,212966,1,0,0:0:0:0:
352,128,213132,1,8,0:0:0:0:
448,128,213299,1,8,0:0:0:0:
352,160,213466,1,12,0:0:0:0:
448,128,213632,1,0,0:0:0:0:
416,128,213715,1,0,0:0:0:0:
320,160,213799,1,8,0:0:0:0:
448,128,213966,1,0,0:0:0:0:
352,160,214132,1,8,0:0:0:0:
384,128,214215,1,8,0:0:0:0:
480,128,214299,1,0,0:0:0:0:
384,192,214466,1,8,0:0:0:0:
384,192,214632,1,0,0:0:0:0:
192,320,214799,1,8,0:0:0:0:
224,288,214882,1,0,0:0:0:0:
256,256,214966,1,0,0:0:0:0:
384,192,215132,1,8,0:0:0:0:
384,192,215216,1,0,0:0:0:0:
384,192,215299,1,0,0:0:0:0:
384,192,215466,1,8,0:0:0:0:
352,224,215549,1,8,0:0:0:0:
352,224,215632,1,0,0:0:0:0:
352,224,215799,1,8,0:0:0:0:
352,224,215882,1,0,0:0:0:0:
352,224,215966,1,8,0:0:0:0:
352,224,216132,1,12,0:0:0:0:
352,224,216299,1,0,0:0:0:0:
320,160,216382,1,0,0:0:0:0:
256,128,216465,1,8,0:0:0:0:
352,224,216632,1,0,0:0:0:0:
352,224,216799,1,8,0:0:0:0:
320,192,216882,1,8,0:0:0:0:
352,224,216966,1,0,0:0:0:0:
352,224,217132,1,8,0:0:0:0:
352,224,217299,1,0,0:0:0:0:
352,224,217466,1,8,0:0:0:0:
352,224,217632,1,0,0:0:0:0:
320,224,217715,1,0,0:0:0:0:
352,224,217799,1,8,0:0:0:0:
256,160,217966,1,0,0:0:0:0:
352,224,218132,1,8,0:0:0:0:
192,128,218215,1,8,0:0:0:0:
352,224,218299,1,0,0:0:0:0:
352,224,218466,1,8,0:0:0:0:
352,224,218632,1,8,0:0:0:0:
352,224,218799,1,12,0:0:0:0:
352,224,218966,1,0,0:0:0:0:
320,224,219049,1,0,0:0:0:0:
352,224,219132,1,8,0:0:0:0:
352,224,219299,1,0,0:0:0:0:
256,192,219466,1,8,0:0:0:0:
320,192,219549,1,8,0:0:0:0:
352,224,219632,1,0,0:0:0:0:
224,256,219799,1,8,0:0:0:0:
352,224,219966,1,0,0:0:0:0:
224,224,220132,1,12,0:0:0:0:
320,96,220355,1,4,0:0:0:0:
224,192,220577,1,4,0:0:0:0:
320,96,220799,1,12,0:0:0:0:
224,224,221021,1,4,0:0:0:0:
320,96,221244,1,4,0:0:0:0:
224,224,221466,1,12,0:0:0:0:
288,160,222132,1,8,0:0:0:0:
288,160,223466,1,8,0:0:0:0:
256,128,224132,1,12,0:0:0:0:
256,128,224799,1,0,0:0:0:0:
256,128,225299,1,0,0:0:0:0:
192,128,225382,1,0,0:0:0:0:
128,128,225466,1,8,0:0:0:0:
192,64,225966,1,0,0:0:0:0:
192,32,226049,1,0,0:0:0:0:
192,32,226132,1,8,0:0:0:0:
256,256,226466,1,0,0:0:0:0:
192,32,226799,1,12,0:0:0:0:
256,128,226966,1,0,0:0:0:0:
288,224,227132,1,0,0:0:0:0:
288,128,227299,1,0,0:0:0:0:
288,224,227466,1,8,0:0:0:0:
288,96,227632,1,0,0:0:0:0:
288,192,227799,1,0,0:0:0:0:
288,192,227966,1,0,0:0:0:0:
288,192,228132,1,8,0:0:0:0:
288,192,228299,1,0,0:0:0:0:
288,192,228466,1,0,0:0:0:0:
288,192,228632,1,0,0:0:0:0:
288,192,228799,1,8,0:0:0:0:
256,96,228966,1,0,0:0:0:0:
288,192,229132,1,8,0:0:0:0:
256,64,229465,1,4,0:0:0:0:
256,64,229632,1,8,0:0:0:0:
256,64,229799,1,0,0:0:0:0:
224,160,229966,1,8,0:0:0:0:
224,160,230049,1,8,0:0:0:0:
224,160,230132,1,0,0:0:0:0:
224,160,230299,1,8,0:0:0:0:
224,160,230382,1,8,0:0:0:0:
224,160,230466,1,0,0:0:0:0:
224,160,230632,1,8,0:0:0:0:
192,224,230716,1,8,0:0:0:0:
224,160,230799,1,0,0:0:0:0:
160,256,230966,1,8,0:0:0:0:
192,192,231049,1,8,0:0:0:0:
192,192,231132,1,0,0:0:0:0:
128,160,231216,1,8,0:0:0:0:
192,192,231299,1,8,0:0:0:0:
160,64,231466,1,0,0:0:0:0:
160,0,231549,1,8,0:0:0:0:
192,96,231632,1,8,0:0:0:0:
192,96,231716,1,8,0:0:0:0:
192,96,231799,1,0,0:0:0:0:
192,96,231882,1,8,0:0:0:0:
192,96,231966,1,8,0:0:0:0:
192,64,232132,1,12,0:0:0:0:
224,192,233466,1,8,0:0:0:0:
224,192,234132,1,8,0:0:0:0:
224,192,234799,1,0,0:0:0:0:
256,192,236132,1,0,0:0:0:0:
256,192,236799,1,0,0:0:0:0:
256,192,237465,1,8,0:0:0:0:
160,192,238799,1,0,0:0:0:0:
160,192,239466,1,8,0:0:0:0:
160,192,240132,1,0,0:0:0:0:
192,128,242799,1,8,0:0:0:0:
384,192,243049,1,8,0:0:0:0:
384,192,243299,1,0,0:0:0:0:
384,192,243466,1,8,0:0:0:0:
160,192,243799,1,8,0:0:0:0:
416,192,244132,1,8,0:0:0:0:
224,192,244382,1,0,0:0:0:0:
384,192,244632,1,0,0:0:0:0:
256,192,244799,1,8,0:0:0:0:
512,256,245132,1,8,0:0:0:0:
288,192,245466,1,0,0:0:0:0:
448,288,245716,1,8,0:0:0:0:
288,192,245965,1,0,0:0:0:0:
384,256,246132,1,8,0:0:0:0:
192,128,246466,1,0,0:0:0:0:
384,256,246799,1,8,0:0:0:0:
224,128,247132,1,8,0:0:0:0:
416,288,247466,1,0,0:0:0:0:
160,128,248132,1,8,0:0:0:0:
288,128,249466,1,0,0:0:0:0:
288,128,250132,1,0,0:0:0:0:
64,96,250799,1,0,0:0:0:0:
192,96,252632,1,0,0:0:0:0:
224,224,252716,1,0,0:0:0:0:
192,96,252799,1,8,0:0:0:0:
128,64,253466,1,12,0:0:0:0:
224,128,254132,1,8,0:0:0:0:
224,128,254799,1,12,0:0:0:0:
224,128,255466,1,12,0:0:0:0:
224,128,256132,1,12,0:0:0:0:
160,128,256799,1,8,0:0:0:0:
96,64,257299,1,0,0:0:0:0:
160,32,257382,1,0,0:0:0:0:
224,32,257466,1,8,0:0:0:0:
224,192,257688,1,8,0:0:0:0:
224,192,257910,1,8,0:0:0:0:
224,192,258132,1,8,0:0:0:0:
192,32,258355,1,0,0:0:0:0:
192,192,258577,1,0,0:0:0:0:
192,32,258799,1,12,0:0:0:0:
256,128,260132,1,12,0:0:0:0:
256,128,260799,1,12,0:0:0:0:
128,0,261299,1,0,0:0:0:0:
160,64,261382,1,0,0:0:0:0:
160,64,261466,1,8,0:0:0:0:
352,224,261799,1,0,0:0:0:0:
256,128,261966,1,8,0:0:0:0:
256,160,262049,1,8,0:0:0:0:
160,96,262132,1,0,0:0:0:0:
224,192,262299,1,8,0:0:0:0:
256,160,262382,1,8,0:0:0:0:
224,192,262466,1,0,0:0:0:0:
224,192,262632,1,8,0:0:0:0:
224,192,262716,1,8,0:0:0:0:
224,192,262799,1,0,0:0:0:0:
192,128,262882,1,8,0:0:0:0:
224,192,262966,1,8,0:0:0:0:
64,96,263049,1,8,0:0:0:0:
224,192,263132,1,0,0:0:0:0:
224,192,263299,1,8,0:0:0:0:
192,128,263382,1,8,0:0:0:0:
224,192,263466,1,0,0:0:0:0:
224,192,263549,1,8,0:0:0:0:
224,192,263632,1,8,0:0:0:0:
192,192,263716,1,8,0:0:0:0:
192,192,263799,1,0,0:0:0:0:
224,160,264132,1,12,0:0:0:0:
128,192,264298,1,0,0:0:0:0:
128,192,264465,1,8,0:0:0:0:
128,192,264632,1,0,0:0:0:0:
128,192,264715,1,0,0:0:0:0:
128,192,264798,1,0,0:0:0:0:
128,192,264965,1,0,0:0:0:0:
128,192,265132,1,8,0:0:0:0:
128,192,265298,1,0,0:0:0:0:
128,192,265465,1,0,0:0:0:0:
128,192,265632,1,0,0:0:0:0:
128,192,265798,1,8,0:0:0:0:
128,192,265965,1,8,0:0:0:0:
128,192,266132,1,0,0:0:0:0:
256,160,266298,1,0,0:0:0:0:
160,192,266465,1,8,0:0:0:0:
256,192,266632,1,0,0:0:0:0:
160,192,266798,1,12,0:0:0:0:
160,192,266965,1,0,0:0:0:0:
160,192,267132,1,8,0:0:0:0:
256,128,267298,1,0,0:0:0:0:
256,128,267382,1,0,0:0:0:0:
256,128,267465,1,0,0:0:0:0:
256,128,267632,1,0,0:0:0:0:
256,128,267798,1,8,0:0:0:0:
256,128,267965,1,0,0:0:0:0:
256,128,268132,1,8,0:0:0:0:
256,128,268298,1,0,0:0:0:0:
256,128,268465,1,8,0:0:0:0:
256,128,268632,1,0,0:0:0:0:
192,96,268715,1,0,0:0:0:0:
256,128,268799,1,8,0:0:0:0:
160,192,268965,1,0,0:0:0:0:
160,192,269048,1,0,0:0:0:0:
160,192,269132,1,8,0:0:0:0:
160,64,269298,1,0,0:0:0:0:
160,64,269465,1,12,0:0:0:0:
160,64,269632,1,0,0:0:0:0:
160,64,269715,1,0,0:0:0:0:
160,64,269798,1,0,0:0:0:0:
160,64,270132,1,8,0:0:0:0:
160,64,270298,1,0,0:0:0:0:
160,64,270632,1,0,0:0:0:0:
160,64,270715,1,0,0:0:0:0:
160,64,270798,1,8,0:0:0:0:
160,64,270965,1,0,0:0:0:0:
160,64,271132,1,0,0:0:0:0:
160,64,271298,1,8,0:0:0:0:
160,64,271465,1,0,0:0:0:0:
160,64,271632,1,8,0:0:0:0:
160,64,271798,1,8,0:0:0:0:
96,128,271966,1,0,0:0:0:0:
32,192,272049,1,0,0:0:0:0:
160,64,272132,1,8,0:0:0:0:
96,160,272299,1,8,0:0:0:0:
160,96,272466,1,0,0:0:0:0:
64,160,272632,1,8,0:0:0:0:
192,160,272799,1,0,0:0:0:0:
256,128,272966,1,0,0:0:0:0:
192,160,273049,1,0,0:0:0:0:
192,160,273132,1,8,0:0:0:0:
96,128,273299,1,8,0:0:0:0:
96,128,273466,1,0,0:0:0:0:
96,128,273632,1,8,0:0:0:0:
224,128,273799,1,0,0:0:0:0:
96,128,273966,1,0,0:0:0:0:
160,128,274049,1,0,0:0:0:0:
96,128,274132,1,8,0:0:0:0:
192,192,274299,1,0,0:0:0:0:
160,160,274382,1,0,0:0:0:0:
160,160,274466,1,8,0:0:0:0:
160,160,274549,1,8,0:0:0:0:
160,160,274632,1,0,0:0:0:0:
64,96,274799,1,12,0:0:0:0:
128,192,274966,1,0,0:0:0:0:
96,64,275132,1,8,0:0:0:0:
160,320,275466,1,8,0:0:0:0:
128,192,275632,1,0,0:0:0:0:
128,192,275966,1,0,0:0:0:0:
128,192,276049,1,0,0:0:0:0:
128,192,276132,1,8,0:0:0:0:
128,192,276299,1,0,0:0:0:0:
128,192,276466,1,8,0:0:0:0:
64,160,276799,1,8,0:0:0:0:
64,160,276966,1,0,0:0:0:0:
64,160,277132,1,8,0:0:0:0:
320,128,277466,1,8,0:0:0:0:
224,160,277632,1,0,0:0:0:0:
96,96,277799,1,8,0:0:0:0:
320,192,278132,1,8,0:0:0:0:
224,160,278299,1,0,0:0:0:0:
192,160,278632,1,0,0:0:0:0:
192,160,278716,1,0,0:0:0:0:
192,160,278799,1,8,0:0:0:0:
192,160,278966,1,0,0:0:0:0:
192,160,279132,1,8,0:0:0:0:
192,160,279466,1,8,0:0:0:0:
192,160,279549,1,8,0:0:0:0:
192,160,279632,1,8,0:0:0:0:
192,160,279799,1,0,0:0:0:0:
192,160,279882,1,0,0:0:0:0:
192,160,279966,1,0,0:0:0:0:
160,32,280132,1,12,0:0:0:0:
160,32,280799,1,8,0:0:0:0:
187,153,281466,1,0,0:0:0:0:
103,129,282132,1,8,0:0:0:0:
108,77,282799,1,12,0:0:0:0:
201,139,282966,1,0,0:0:0:0:
156,250,283132,1,8,0:0:0:0:
207,143,283299,1,0,0:0:0:0:
164,238,283466,1,8,0:0:0:0:
209,122,283632,1,8,0:0:0:0:
124,342,283966,1,8,0:0:0:0:
161,105,284299,1,0,0:0:0:0:
168,55,284382,1,0,0:0:0:0:
168,55,284466,1,8,0:0:0:0:
168,55,284632,1,0,0:0:0:0:
168,55,284716,1,0,0:0:0:0:
168,55,284799,1,0,0:0:0:0:
168,55,284966,1,0,0:0:0:0:
168,55,285132,1,8,0:0:0:0:
168,55,285299,1,0,0:0:0:0:
168,55,285466,1,12,0:0:0:0:
120,166,285632,1,0,0:0:0:0:
164,66,285799,1,8,0:0:0:0:
97,227,285966,1,0,0:0:0:0:
129,109,286132,1,8,0:0:0:0:
129,109,286299,1,8,0:0:0:0:
367,24,286632,1,8,0:0:0:0:
142,104,286966,1,0,0:0:0:0:
142,104,287049,1,0,0:0:0:0:
142,104,287132,1,8,0:0:0:0:
142,104,287299,1,0,0:0:0:0:
142,104,287382,1,0,0:0:0:0:
142,104,287466,1,8,0:0:0:0:
142,104,287549,1,8,0:0:0:0:
142,104,287632,1,8,0:0:0:0:
142,104,287799,1,0,0:0:0:0:
142,104,287882,1,0,0:0:0:0:
142,104,287966,1,0,0:0:0:0:
108,77,288132,1,12,0:0:0:0:
201,139,288299,1,0,0:0:0:0:
156,250,288465,1,8,0:0:0:0:
207,143,288632,1,0,0:0:0:0:
164,238,288799,1,8,0:0:0:0:
209,122,288965,1,8,0:0:0:0:
124,342,289299,1,8,0:0:0:0:
161,105,289632,1,0,0:0:0:0:
168,55,289715,1,0,0:0:0:0:
168,55,289799,1,8,0:0:0:0:
168,55,289965,1,0,0:0:0:0:
168,55,290049,1,0,0:0:0:0:
168,55,290132,1,0,0:0:0:0:
168,55,290299,1,0,0:0:0:0:
168,55,290465,1,8,0:0:0:0:
168,55,290632,1,0,0:0:0:0:
127,153,290799,1,8,0:0:0:0:
127,153,290966,1,0,0:0:0:0:
127,153,291132,1,0,0:0:0:0:
127,153,291299,1,8,0:0:0:0:
127,153,291466,1,0,0:0:0:0:
127,153,291632,1,8,0:0:0:0:
127,153,291799,1,8,0:0:0:0:
127,153,291966,1,0,0:0:0:0:
127,153,292049,1,0,0:0:0:0:
127,153,292132,1,8,0:0:0:0:
127,153,292216,1,8,0:0:0:0:
127,153,292299,1,0,0:0:0:0:
127,153,292466,1,0,0:0:0:0:
127,153,292549,1,0,0:0:0:0:
127,153,292632,1,0,0:0:0:0:
127,153,292799,1,0,0:0:0:0:
127,153,292882,1,0,0:0:0:0:
127,153,292966,1,0,0:0:0:0:
127,153,293049,1,0,0:0:0:0:
127,153,293132,1,8,0:0:0:0:
127,153,293466,1,12,0:0:0:0:
427,138,293882,1,0,0:0:0:0:
224,128,294132,1,8,0:0:0:0:
291,3,294466,1,0,0:0:0:0:
291,3,294799,1,8,0:0:0:0:
291,3,295090,1,8,0:0:0:0:
291,3,295340,1,8,0:0:0:0:
291,3,295549,1,0,0:0:0:0:
291,3,295632,1,0,0:0:0:0:
291,3,295716,1,8,0:0:0:0:
256,192,295965,12,0,299965,0:0:0:0:
160,128,300132,5,12,0:0:0:0:
288,64,301216,5,8,0:0:0:0:
224,64,301299,1,8,0:0:0:0:
160,64,301382,1,0,0:0:0:0:
