osu file format v14

[General]
AudioFilename: audio.mp3
AudioLeadIn: 0
PreviewTime: 136132
Countdown: 0
SampleSet: Normal
StackLeniency: 0.2
Mode: 0
LetterboxInBreaks: 0
EpilepsyWarning: 1
WidescreenStoryboard: 1

[Editor]
Bookmarks: 159,21483,42816,64149,85466,106799,128132,138799,157465,168132,178799,189465,200132,210799,221465,232132,242799,253465,263799,264132,282799,293465,301382
DistanceSpacing: 1.8
BeatDivisor: 4
GridSize: 32
TimelineZoom: 4.799997

[Metadata]
Title:Endless cycle of rebirth & We cannot get out of here forever
TitleUnicode:Endless cycle of rebirth & We cannot get out of here forever
Artist:Draw the Emotional
ArtistUnicode:Draw the Emotional
Creator:Nepuri
Version:Ayyri's Samsara
Source:東方神霊廟 ~ Ten Desires.
Tags:東方Project Touhou ZUN Team Shanghai Alice Can't Cant ゆよゆっぺ Yuyoyuppe DtE TH13 TH 13 Shinreibyou Divine Spirit Mausoleum TD 聖徳伝説 Shoutoku Legend ~ True Administrator Stage 6 Boss Toyosatomimi no Miko Ghost and your heart カドチ Kadochi YYYP-0007 Comiket 81 C81 Merami Teto Meramipop めらみぽっぷ Foreground Eclipse FE Seated with Liquor YPFE-0001 C83 83 Ayyri Noffy
BeatmapID:1363570
BeatmapSetID:643241

[Difficulty]
HPDrainRate:6.5
CircleSize:4.5
OverallDifficulty:8.5
ApproachRate:9.5
SliderMultiplier:1.4
SliderTickRate:1

[Events]
//Background and Video events
0,0,"Miko 7423.jpg",0,0
//Break Periods
//Storyboard Layer 0 (Background)
Sprite,Background,TopLeft,"Miko 7423.jpg",0,0
//Storyboard Layer 1 (Fail)
//Storyboard Layer 2 (Pass)
//Storyboard Layer 3 (Foreground)
Sprite,Foreground,Centre,"SB\1.jpg",320,240 M,0,150,,320,900 S,0,150,,0.9 F,0,150,21483,0,1 M,0,21483,81483,320,900,320,-420 C,0,84483,85462,255,255,255,255,0,0 F,0,85462,,0
Sprite,Foreground,Centre,"Miko 7423.jpg",320,240 F,0,85462,,1 S,0,85462,,0.455 F,0,100132,,1 F,0,100132,101465,1,0
Sprite,Foreground,BottomCentre,"SB\Miko 671.jpg",320,480 S,0,101465,,0.73 F,0,101465,101632,0,1 M,0,101465,138795,320,480,320,1240 F,0,133465,138460,1,0
Sprite,Foreground,BottomCentre,"SB\Miko 671GLOW.jpg",320,480 L,106799,4 F,0,0,666,1,0 F,0,1333,,1 L,112132,1 F,0,0,666,1,0 L,114799,1 F,0,0,666,1,0 L,117465,12 F,0,0,666,1,0 F,0,1333,,1 L,133465,1 F,0,0,666,1,0 L,136132,1 F,0,0,666,1,0 F,0,101465,,0 S,0,101465,,0.73 M,0,101465,138795,320,480,320,1240 F,0,101965,102382,1,0 F,0,102465,102965,1,0 F,0,104132,104549,1,0 F,0,104632,104965,1,0 F,0,105049,105465,1,0 F,0,106799,,1 F,0,137465,,0.15 F,0,137688,,0.3 F,0,137910,,0.6 F,0,138132,,1 F,0,138132,,1 F,1,138465,138799,1,0
Sprite,Foreground,BottomCentre,"SB\Miko 671.jpg",320,480 M,0,117465,117799,320,805,320,1000 F,0,117465,117799,1,0 S,0,117465,117799,0.73,0.9 M,0,128128,128799,320,1025,320,1200 F,1,128128,128799,1,0 S,0,128128,128799,0.73,0.9
Sprite,Foreground,Centre,"Miko 7423.jpg",320,240 S,2,162795,,0.455 F,2,162795,168128,0,1 F,0,189461,191461,1,0
Sprite,Foreground,Centre,"Miko 7423.jpg",320,240 F,1,85462,85795,1,0 S,0,85462,85795,0.455,0.6 F,1,96128,96461,1,0 S,0,96128,96461,0.455,0.6
Sprite,Foreground,Centre,"Miko 7423.jpg",320,240 M,0,220795,,120,105 F,0,220795,,1 S,0,220795,,0.7 M,0,221017,,550,120 M,0,221239,,120,370 M,0,221461,,320,240 S,0,221461,,0.455 F,0,221461,221628,0,1 F,0,232128,,0
Sprite,Foreground,Centre,"SB\screm.jpg",320,240 F,0,194795,194878,0.3,0 M,0,194961,,320,260 S,0,194961,,0.55 F,0,194961,195045,0.5,0 M,0,198795,,200,300 F,0,198795,,1 S,0,198795,,0.8 M,0,199017,,350,100 M,0,199239,,120,75 M,1,199461,200017,850,500,320,210 S,1,199461,200017,1.5,0.55 M,0,200017,220127,320,210,320,280 M,0,220128,,400,300 S,0,220128,,0.8 M,0,220350,,420,100 M,0,220573,,120,405 F,0,220795,,0
Sprite,Foreground,Centre,"SB\screm.jpg",320,240 F,0,200017,,0 M,0,200017,220127,320,210,320,280 P,0,200127,219965,A S,0,200132,,0.55 T,HitSoundFinish,200127,219965 F,0,0,500,1,0
Sprite,Foreground,Centre,"SB\screm.jpg",320,240 M,0,200128,,320,210 F,1,200128,200461,1,0 S,0,200128,200461,0.55,0.8 M,0,210795,211128,320,255,320,320 F,1,210795,211128,1,0 S,0,210795,211128,0.55,0.8
Sprite,Foreground,BottomCentre,"SB\calm.jpg",320,240 F,0,232128,,1 M,2,232128,253461,320,520,480,800 S,0,232128,253461,0.75,1 F,0,252799,253451,1,0 F,0,253451,,0
Sprite,Foreground,Centre,"SB\chorus.jpg",320,240 F,0,138795,,1 S,0,138795,157461,0.55,0.6 M,0,138795,159461,320,190,280,360 F,1,157461,159461,1,0
Sprite,Foreground,Centre,"SB\chorus.jpg",320,240 M,0,138795,,320,190 F,0,138795,139128,1,0 S,0,138795,139128,0.55,0.65 M,0,157461,159461,284,343,240,390 F,1,157461,159461,1,0 S,0,157461,159461,0.6,0.8
Sprite,Foreground,Centre,"SB\chorus2.jpg",320,240 M,0,253461,,320,675 F,0,253461,,1 S,1,253461,263795,1.1,0.9 F,0,262795,263795,1,0 F,0,264128,,1 M,2,264128,300128,320,675,320,-195 F,0,300128,,1 F,0,301295,301461,1,0
Sprite,Foreground,Centre,"SB\chorus2.jpg",320,240 M,0,253461,253795,320,675,320,800 F,1,253461,253795,1,0 S,0,253461,253795,1.1,1.5 M,0,264128,264461,320,675,320,725 F,0,264128,264461,1,0 S,0,264128,264461,0.9,1.1 M,0,282795,286128,320,440,320,400 F,0,282795,286128,1,0 S,0,282795,286128,0.9,1.4
Sprite,Foreground,Centre,"SB\Circle.png",320,240 F,0,64148,,0 T,HitSoundFinish,64109,64189 M,0,0,,320,152 F,22,0,1334,1,0 S,7,0,1334,0.1,0.7
Sprite,Foreground,Centre,"SB\flish.jpg",320,240 S,0,231795,,0.675 F,6,231795,232128,0,1 F,7,232128,232795,1,0
Sprite,Foreground,Centre,"SB\flish.jpg",320,240 F,0,101465,101799,1,0
Sprite,Foreground,TopCentre,"sb\f\_000.png",320,410 F,0,106000,106200,0,1 S,0,106200,,0.5 F,0,108890,109090,1,0
Sprite,Foreground,TopCentre,"sb\f\_001.png",320,410 F,0,108890,109090,0,1 S,0,109090,,0.5 F,0,111930,112130,1,0
Sprite,Foreground,TopCentre,"sb\f\_002.png",320,410 F,0,111930,112130,0,1 S,0,112130,,0.5 F,0,114200,114400,1,0
Sprite,Foreground,TopCentre,"sb\f\_003.png",320,410 F,0,114200,114400,0,1 S,0,114400,,0.5 F,0,117150,117350,1,0
Sprite,Foreground,TopCentre,"sb\f\_004.png",320,410 F,0,117380,117580,0,1 S,0,117580,,0.5 F,0,119600,119800,1,0
Sprite,Foreground,TopCentre,"sb\f\_005.png",320,410 F,0,119640,119840,0,1 S,0,119840,,0.5 F,0,122460,122660,1,0
Sprite,Foreground,TopCentre,"sb\f\_006.png",320,410 F,0,122460,122660,0,1 S,0,122660,,0.5 F,0,124830,125030,1,0
Sprite,Foreground,TopCentre,"sb\f\_007.png",320,410 F,0,124890,125090,0,1 S,0,125090,,0.5 F,0,130030,130230,1,0
Sprite,Foreground,TopCentre,"sb\f\_008.png",320,410 F,0,130030,130230,0,1 S,0,130230,,0.5 F,0,133170,133370,1,0
Sprite,Foreground,TopCentre,"sb\f\_009.png",320,410 F,0,133350,133550,0,1 S,0,133550,,0.5 F,0,135920,136120,1,0
Sprite,Foreground,TopCentre,"sb\f\_00a.png",320,410 F,0,135920,136120,0,1 S,0,136120,,0.5 F,0,137970,138170,1,0
Sprite,Foreground,TopCentre,"sb\f\_00b.png",320,410 F,0,138599,138799,0,1 S,0,138799,,0.5 F,0,147790,147990,1,0
Sprite,Foreground,TopCentre,"sb\f\_00c.png",320,410 F,0,147790,147990,0,1 S,0,147990,,0.5 F,0,149290,149490,1,0
Sprite,Foreground,TopCentre,"sb\f\_00d.png",320,410 F,0,149290,149490,0,1 S,0,149490,,0.5 F,0,154570,154770,1,0
Sprite,Foreground,TopCentre,"sb\f\_00e.png",320,410 F,0,154590,154790,0,1 S,0,154790,,0.5 F,1,157465,159465,1,0
Sprite,Foreground,TopCentre,"sb\f\_00f.png",320,410 F,0,167390,167590,0,1 S,0,167590,,0.5 F,0,170230,170430,1,0
Sprite,Foreground,TopCentre,"sb\f\_010.png",320,410 F,0,170270,170470,0,1 S,0,170470,,0.5 F,0,172920,173120,1,0
Sprite,Foreground,TopCentre,"sb\f\_002.png",320,410 F,0,172940,173140,0,1 S,0,173140,,0.5 F,0,175690,175890,1,0
Sprite,Foreground,TopCentre,"sb\f\_011.png",320,410 F,0,175690,175890,0,1 S,0,175890,,0.5 F,0,178490,178690,1,0
Sprite,Foreground,TopCentre,"sb\f\_004.png",320,410 F,0,178630,178830,0,1 S,0,178830,,0.5 F,0,180880,181080,1,0
Sprite,Foreground,TopCentre,"sb\f\_005.png",320,410 F,0,180900,181100,0,1 S,0,181100,,0.5 F,0,183690,183890,1,0
Sprite,Foreground,TopCentre,"sb\f\_012.png",320,410 F,0,183690,183890,0,1 S,0,183890,,0.5 F,0,186220,186420,1,0
Sprite,Foreground,TopCentre,"sb\f\_013.png",320,410 F,0,186260,186460,0,1 S,0,186460,,0.5 F,0,191350,191550,1,0
Sprite,Foreground,TopCentre,"sb\f\_014.png",320,410 F,0,221260,221460,0,1 S,0,221460,,0.5 F,0,226440,226640,1,0
Sprite,Foreground,TopCentre,"sb\f\_015.png",320,410 F,0,226640,226840,0,1 S,0,226840,,0.5 F,0,229380,229580,1,0
Sprite,Foreground,TopCentre,"sb\f\_016.png",320,410 F,0,229400,229600,0,1 S,0,229600,,0.5 F,0,231910,232110,1,0
Sprite,Foreground,TopCentre,"sb\f\_017.png",320,410 F,0,231910,232110,0,1 S,0,232110,,0.5 F,0,241830,242030,1,0
Sprite,Foreground,TopCentre,"sb\f\_018.png",320,410 F,0,242660,242860,0,1 S,0,242860,,0.5 F,0,247880,248080,1,0
Sprite,Foreground,TopCentre,"sb\f\_019.png",320,410 F,0,247940,248140,0,1 S,0,248140,,0.5 F,0,252050,252250,1,0
Sprite,Foreground,TopCentre,"sb\f\_00b.png",320,410 F,0,253265,253465,0,1 S,0,253465,,0.5 F,0,262690,262890,1,0
Sprite,Foreground,TopCentre,"sb\f\_00c.png",320,410 F,0,262690,262890,0,1 S,0,262890,,0.5 F,0,263900,264100,1,0
Sprite,Foreground,TopCentre,"sb\f\_00d.png",320,410 F,0,263900,264100,0,1 S,0,264100,,0.5 F,0,269250,269450,1,0
Sprite,Foreground,TopCentre,"sb\f\_00e.png",320,410 F,0,269250,269450,0,1 S,0,269450,,0.5 F,0,273660,273860,1,0
Sprite,Foreground,TopCentre,"sb\f\_01a.png",320,410 F,0,274570,274770,0,1 S,0,274770,,0.5 F,0,279840,280040,1,0
Sprite,Foreground,TopCentre,"sb\f\_01b.png",320,410 F,0,279840,280040,0,1 S,0,280040,,0.5 F,1,282799,286132,1,0
Sprite,Foreground,Centre,"SB\lyric screm\1.png",320,240 S,0,84482,,0.5810909 F,0,84482,84649,0,1 C,0,84483,85462,255,255,255,255,0,0 F,0,85466,85799,0.9880239,0 S,0,85466,85799,0.5810909,1.063471
Sprite,Foreground,Centre,"SB\lyric screm\2.png",320,240 F,0,200132,,1 S,0,200132,,0.65 F,0,202799,,0
Sprite,Foreground,Centre,"SB\lyric screm\3.png",320,240 F,0,202799,,1 S,0,202799,,0.6 F,0,205465,,0
Sprite,Foreground,Centre,"SB\lyric screm\4.png",320,240 F,0,205465,,1 S,0,205465,,0.6 F,0,208132,,0
Sprite,Foreground,Centre,"SB\lyric screm\5.png",320,240 F,0,208132,,1 S,0,208132,,0.5 F,0,210799,213465,1,0 S,1,210799,213465,0.5,1
//Storyboard Sound Samples

[TimingPoints]
159,333.333333333333,4,2,1,25,1,0
159,-200,4,2,1,25,0,0
492,-200,4,2,1,5,0,0
575,-200,4,2,1,25,0,0
825,-200,4,2,1,5,0,0
908,-200,4,2,1,25,0,0
1075,-200,4,2,1,5,0,0
1159,417.391304347826,4,2,1,25,1,8
1576,482.897384305835,4,2,1,25,1,8
1576,-120.481927710843,4,2,1,25,0,8
1938,-120.481927710843,4,2,1,5,0,8
2058,561.797752808989,4,2,1,25,1,8
2058,-112.359550561798,4,2,1,25,0,8
2479,-112.359550561798,4,2,1,5,0,8
2619,595.533498759305,4,2,1,25,1,8
2619,-92.5925925925926,4,2,1,25,0,8
3065,-92.5925925925926,4,2,1,5,0,8
3214,569.53013763645,4,2,1,25,1,8
5492,326.619488296135,4,2,1,25,1,0
5492,-208.333333333333,4,2,1,25,0,0
5818,-208.333333333333,4,2,1,5,0,0
5900,-208.333333333333,4,2,1,25,0,0
6145,-208.333333333333,4,2,1,5,0,0
6226,-208.333333333333,4,2,1,25,0,0
6471,-208.333333333333,4,2,1,5,0,0
6553,-208.333333333333,4,2,1,25,0,0
6716,-208.333333333333,4,2,1,5,0,0
6798,396.039603960396,4,2,1,25,1,8
7194,470.588235294118,4,2,1,25,1,8
7194,-163.934426229508,4,2,1,25,0,8
7546,-163.934426229508,4,2,1,5,0,8
7664,470.588235294118,4,2,1,25,1,8
7664,-133.333333333333,4,2,1,25,0,8
8134,-133.333333333333,4,2,1,20,0,8
8605,-133.333333333333,4,2,1,15,0,8
9075,439.399487367265,4,2,1,25,1,8
9075,-163.934426229508,4,2,1,25,0,8
9404,-163.934426229508,4,2,1,5,0,8
9514,-147.058823529412,4,2,1,25,0,8
9953,-147.058823529412,4,2,1,5,0,8
10063,-147.058823529412,4,2,1,25,0,8
10393,-147.058823529412,4,2,1,5,0,8
10503,-147.058823529412,4,2,1,25,0,8
10722,-147.058823529412,4,2,1,5,0,8
10832,322.061191626409,4,2,1,25,1,0
10832,-212.765957446809,4,2,1,25,0,0
11154,-212.765957446809,4,2,1,5,0,0
11234,-212.765957446809,4,2,1,25,0,0
11476,-212.765957446809,4,2,1,5,0,0
11556,-212.765957446809,4,2,1,25,0,0
11798,-212.765957446809,4,2,1,5,0,0
11878,-212.765957446809,4,2,1,25,0,0
12039,-212.765957446809,4,2,1,5,0,0
12120,407.608695652174,4,2,1,25,1,8
12527,447.761194029851,4,2,1,25,1,8
12527,-163.934426229508,4,2,1,25,0,8
12862,-163.934426229508,4,2,1,5,0,8
12976,521.28583840139,4,2,1,25,1,8
12976,-163.934426229508,4,2,1,25,0,8
13366,-163.934426229508,4,2,1,5,0,8
13497,474.308300395257,4,2,1,25,1,8
13497,-106.382978723404,4,2,1,25,0,8
13852,-106.382978723404,4,2,1,5,0,8
13971,593.765462642256,4,2,1,25,1,8
15158,505.050505050505,4,2,1,25,1,8
16168,435.729847494553,4,2,1,25,1,0
16168,-147.058823529412,4,2,1,25,0,0
16603,-147.058823529412,4,2,1,5,0,0
16712,-147.058823529412,4,2,1,25,0,0
17039,-147.058823529412,4,2,1,5,0,0
17148,-147.058823529412,4,2,1,25,0,0
17366,-147.058823529412,4,2,1,5,0,0
17475,522.648083623693,4,2,1,25,1,8
17997,423.878488166726,4,2,1,25,1,8
17997,-175.438596491228,4,2,1,25,0,8
18420,-175.438596491228,4,2,1,5,0,8
18526,-175.438596491228,4,2,1,25,0,8
18738,-175.438596491228,4,2,1,5,0,8
18844,500,4,2,1,25,1,8
18844,-133.333333333333,4,2,1,25,0,8
19344,500,4,2,1,20,1,8
19344,-133.333333333333,4,2,1,20,0,8
19844,334.261838440111,4,2,1,15,1,8
20178,325.732899022801,4,2,1,25,1,8
20178,-200,4,2,1,25,0,8
20503,-200,4,2,1,5,0,8
20666,322.754168908015,4,2,1,25,1,8
20666,-200,4,2,1,25,0,8
20988,-200,4,2,1,5,0,8
21150,333.333333333333,4,2,1,25,1,8
21150,-400,4,2,1,25,0,8
21400,-400,4,2,1,5,0,8
21483,333.333333333333,4,2,1,50,1,0
21483,-133.333333333333,4,2,1,50,0,0
25316,-133.333333333333,4,2,1,25,0,0
25399,-133.333333333333,4,2,1,5,0,0
25649,-133.333333333333,4,2,1,50,0,0
30649,-133.333333333333,4,2,1,25,0,0
30733,-133.333333333333,4,2,1,5,0,0
30816,-133.333333333333,4,2,1,50,0,0
40399,-133.333333333333,4,2,1,5,0,0
40483,-133.333333333333,4,2,1,50,0,0
41066,-133.333333333333,4,2,1,5,0,0
41149,-133.333333333333,4,2,1,50,0,0
41399,-133.333333333333,4,2,1,5,0,0
41483,-133.333333333333,4,2,1,50,0,0
41733,-133.333333333333,4,2,1,5,0,0
41816,-133.333333333333,4,2,1,50,0,0
42066,-133.333333333333,4,2,1,5,0,0
42149,-133.333333333333,4,2,1,50,0,0
42399,-133.333333333333,4,2,1,5,0,0
42483,-133.333333333333,4,2,1,50,0,0
42733,-133.333333333333,4,2,1,5,0,0
42816,-100,4,2,1,75,0,0
46733,-100,4,2,1,5,0,0
46816,-100,4,2,1,75,0,0
64149,-100,4,2,1,50,0,0
84149,-100,4,2,1,5,0,0
85466,333.333333333333,4,1,1,75,1,0
85466,-57.1428571428571,4,1,1,75,0,0
85882,-100,4,1,1,5,0,0
85966,-66.6666666666667,4,1,1,75,0,0
86216,-100,4,1,1,5,0,0
86299,-100,4,1,1,75,0,0
88132,-80,4,1,1,75,0,0
88632,-66.6666666666667,4,1,1,75,0,0
88882,-100,4,1,1,5,0,0
88966,-100,4,1,1,75,0,0
90799,-200,4,1,1,75,0,0
91216,-100,4,1,1,5,0,0
91299,-200,4,1,1,75,0,0
91549,-200,4,1,1,5,0,0
91632,-100,4,1,1,75,0,0
93465,-100,4,1,1,75,0,0
93965,-100,4,1,1,75,0,0
95882,-100,4,1,1,5,0,0
95965,-100,4,1,1,75,0,0
96049,-100,4,1,1,5,0,0
96132,-100,4,1,1,75,0,0
101799,-100,4,1,1,5,0,0
101965,-100,4,1,1,75,0,0
102299,-100,4,1,1,5,0,0
102465,-100,4,1,1,75,0,0
102799,-100,4,1,1,5,0,0
102882,-100,4,1,1,75,0,0
104465,-100,4,1,1,5,0,0
104632,-100,4,1,1,75,0,0
106215,-100,4,1,1,5,0,0
106299,-100,4,1,1,75,0,0
106382,-100,4,1,1,5,0,0
106465,-100,4,1,1,75,0,0
106549,-100,4,1,1,5,0,0
106632,-100,4,1,1,75,0,0
106715,-100,4,1,1,5,0,0
106799,-100,4,1,1,75,0,0
107132,-100,4,1,1,5,0,0
107215,-100,4,1,1,75,0,0
109382,-100,4,1,1,5,0,0
109465,-100,4,1,1,75,0,0
116799,-66.6666666666667,4,1,1,75,0,0
117049,-66.6666666666667,4,1,1,5,0,0
117132,-200,4,1,1,75,0,0
117382,-80,4,1,1,5,0,0
117465,-100,4,1,1,75,0,0
133382,-100,4,1,1,5,0,0
133465,-100,4,1,1,75,0,0
133577,-100,4,1,1,5,0,0
133688,-100,4,1,1,75,0,0
134021,-100,4,1,1,5,0,0
134132,-100,4,1,1,75,0,0
134910,-100,4,1,1,5,0,0
134965,-100,4,1,1,75,0,0
138465,-200,4,1,1,100,0,0
138715,-200,4,1,1,25,0,0
138799,-66.6666666666667,4,1,1,75,0,1
139132,-100,4,1,1,75,0,1
141715,-100,4,1,1,5,0,1
141799,-100,4,1,1,75,0,1
144132,-66.6666666666667,4,1,1,75,0,1
144299,-100,4,1,1,75,0,1
146799,-66.6666666666667,4,1,1,75,0,1
146965,-100,4,1,1,75,0,1
149465,-66.6666666666667,4,1,1,75,0,1
149799,-100,4,1,1,75,0,1
152132,-66.6666666666667,4,1,1,75,0,1
152299,-100,4,1,1,75,0,1
154798,-66.6666666666667,4,1,1,75,0,1
155132,-100,4,1,1,75,0,1
157465,-100,4,1,1,75,0,0
173132,-50,4,1,1,75,0,0
173382,-50,4,1,1,5,0,0
173465,-200,4,1,1,75,0,0
173632,-100,4,1,1,75,0,0
178465,-200,4,1,1,75,0,0
178715,-200,4,1,1,5,0,0
178799,-66.6666666666667,4,1,1,75,0,0
179132,-100,4,1,1,75,0,0
179799,-100,4,1,1,5,0,0
179882,-100,4,1,1,75,0,0
180132,-200,4,1,1,75,0,0
180799,-133.333333333333,4,1,1,75,0,0
181465,-100,4,1,1,75,0,0
183132,-100,4,1,1,5,0,0
183215,-100,4,1,1,75,0,0
184049,-100,4,1,1,5,0,0
184132,-100,4,1,1,75,0,0
191299,-100,4,1,1,5,0,0
194799,-100,4,1,1,100,0,0
195465,-100,4,1,1,25,0,0
196132,-100,4,1,1,50,0,0
196799,-100,4,1,1,75,0,0
197465,-400,4,1,1,100,0,0
197799,-400,4,1,1,5,0,0
197882,-400,4,1,1,100,0,0
198465,-100,4,1,1,75,0,0
198715,-100,4,1,1,5,0,0
198799,-57.1428571428571,4,1,1,75,0,0
198965,-57.1428571428571,4,1,1,5,0,0
199049,-40,4,1,1,75,0,0
199215,-40,4,1,1,5,0,0
199299,-33.3333333333333,4,1,1,75,0,0
199382,-33.3333333333333,4,1,1,5,0,0
199465,-200,4,1,1,75,0,0
199799,-200,4,1,1,5,0,0
199882,-200,4,1,1,75,0,0
200049,-200,4,1,1,5,0,0
200132,-66.6666666666667,4,1,1,75,0,0
200299,-100,4,1,1,75,0,0
202799,-66.6666666666667,4,1,1,75,0,0
202965,-100,4,1,1,75,0,0
205465,-66.6666666666667,4,1,1,75,0,0
205632,-100,4,1,1,75,0,0
208132,-66.6666666666667,4,1,1,75,0,0
208299,-100,4,1,1,75,0,0
210132,-400,4,1,1,75,0,0
210465,-400,4,1,1,5,0,0
210549,-400,4,1,1,75,0,0
210715,-400,4,1,1,5,0,0
210799,-66.6666666666667,4,1,1,75,0,0
210965,-100,4,1,1,75,0,0
213465,-66.6666666666667,4,1,1,75,0,0
213632,-100,4,1,1,75,0,0
216132,-66.6666666666667,4,1,1,75,0,0
216299,-100,4,1,1,75,0,0
218799,-66.6666666666667,4,1,1,75,0,0
218965,-100,4,1,1,75,0,0
221465,-200,4,1,1,75,0,0
221799,-200,4,1,1,5,0,0
221882,-200,4,1,1,75,0,0
222465,-200,4,1,1,5,0,0
222549,-200,4,1,1,75,0,0
222715,-200,4,1,1,5,0,0
222799,-133.333333333333,4,1,1,75,0,0
223132,-133.333333333333,4,1,1,5,0,0
223215,-133.333333333333,4,1,1,75,0,0
224049,-133.333333333333,4,1,1,5,0,0
224132,-100,4,1,1,75,0,0
226465,-200,4,1,1,75,0,0
226715,-200,4,1,1,5,0,0
226799,-66.6666666666667,4,1,1,75,0,0
226965,-100,4,1,1,75,0,0
232132,-133.333333333333,4,1,1,75,0,0
232215,-133.333333333333,4,2,1,75,0,0
232465,-133.333333333333,4,2,1,5,0,0
232549,-133.333333333333,4,2,1,75,0,0
232799,-133.333333333333,4,2,1,5,0,0
232882,-133.333333333333,4,2,1,75,0,0
233132,-133.333333333333,4,2,1,5,0,0
233215,-133.333333333333,4,2,1,75,0,0
233799,-133.333333333333,4,2,1,5,0,0
233882,-133.333333333333,4,2,1,75,0,0
234465,-133.333333333333,4,2,1,5,0,0
234549,-133.333333333333,4,2,1,75,0,0
235132,-133.333333333333,4,2,1,5,0,0
235215,-133.333333333333,4,2,1,75,0,0
235465,-133.333333333333,4,2,1,5,0,0
235549,-133.333333333333,4,2,1,75,0,0
235799,-133.333333333333,4,2,1,5,0,0
235882,-133.333333333333,4,2,1,75,0,0
236465,-133.333333333333,4,2,1,5,0,0
236549,-133.333333333333,4,2,1,75,0,0
237132,-133.333333333333,4,2,1,5,0,0
237215,-133.333333333333,4,2,1,75,0,0
237799,-133.333333333333,4,2,1,5,0,0
237882,-133.333333333333,4,2,1,75,0,0
238132,-133.333333333333,4,2,1,5,0,0
238215,-133.333333333333,4,2,1,75,0,0
239132,-133.333333333333,4,2,1,5,0,0
239215,-133.333333333333,4,2,1,75,0,0
239799,-133.333333333333,4,2,1,5,0,0
239882,-133.333333333333,4,2,1,75,0,0
240465,-133.333333333333,4,2,1,5,0,0
240549,-133.333333333333,4,2,1,75,0,0
240799,-133.333333333333,4,2,1,5,0,0
240882,-133.333333333333,4,2,1,75,0,0
241132,-133.333333333333,4,2,1,5,0,0
241215,-133.333333333333,4,2,1,75,0,0
248132,-100,4,2,1,75,0,0
248465,-100,4,2,1,5,0,0
248549,-100,4,2,1,75,0,0
248799,-100,4,2,1,5,0,0
248882,-100,4,2,1,75,0,0
249132,-100,4,2,1,5,0,0
249243,-100,4,2,1,75,0,0
249465,-133.333333333333,4,2,1,75,0,0
251132,-133.333333333333,4,2,1,5,0,0
251215,-133.333333333333,4,2,1,75,0,0
251465,-133.333333333333,4,2,1,5,0,0
251549,-133.333333333333,4,2,1,75,0,0
251799,-133.333333333333,4,2,1,5,0,0
251882,-133.333333333333,4,2,1,75,0,0
252632,-133.333333333333,4,1,1,75,0,0
252799,-400,4,1,1,75,0,0
253132,-400,4,1,1,5,0,0
253215,-400,4,1,1,75,0,0
253465,-133.333333333333,4,1,1,75,0,1
253799,-133.333333333333,4,1,1,5,0,1
253882,-133.333333333333,4,1,1,75,0,1
255132,-133.333333333333,4,1,1,5,0,1
255215,-133.333333333333,4,1,1,75,0,1
255382,-133.333333333333,4,1,1,5,0,1
255465,-133.333333333333,4,1,1,75,0,1
255799,-133.333333333333,4,1,1,5,0,1
255882,-133.333333333333,4,1,1,75,0,1
256465,-133.333333333333,4,1,1,5,0,1
256549,-133.333333333333,4,1,1,75,0,1
259132,-133.333333333333,4,1,1,5,0,1
259215,-133.333333333333,4,1,1,75,0,1
260465,-133.333333333333,4,1,1,5,0,1
260549,-133.333333333333,4,1,1,75,0,1
261465,-100,4,1,1,75,0,1
263799,-400,4,1,1,75,0,0
264049,-400,4,1,1,5,0,0
264132,-66.6666666666667,4,1,1,75,0,1
264299,-100,4,1,1,75,0,1
266799,-66.6666666666667,4,1,1,75,0,1
266965,-100,4,1,1,75,0,1
269465,-66.6666666666667,4,1,1,75,0,1
269799,-100,4,1,1,75,0,1
274799,-66.6666666666667,4,1,1,75,0,1
274882,-66.6666666666667,4,1,1,5,0,1
274965,-66.6666666666667,4,1,1,75,0,1
275049,-66.6666666666667,4,1,1,5,0,1
275132,-100,4,1,1,75,0,1
276132,-66.6666666666667,4,1,1,75,0,1
276299,-100,4,1,1,75,0,1
277465,-66.6666666666667,4,1,1,75,0,1
277632,-100,4,1,1,75,0,1
280132,-200,4,1,1,75,0,1
280465,-200,4,1,1,5,0,1
280549,-200,4,1,1,75,0,1
281465,-133.333333333333,4,1,1,75,0,1
281799,-133.333333333333,4,1,1,5,0,1
281882,-133.333333333333,4,1,1,75,0,1
282465,-133.333333333333,4,1,1,5,0,1
282549,-133.333333333333,4,1,1,75,0,1
282715,-133.333333333333,4,1,1,5,0,1
282799,-66.6666666666667,4,1,1,75,0,0
282965,-100,4,1,1,75,0,0
285465,-66.6666666666667,4,1,1,75,0,0
285632,-100,4,1,1,75,0,0
288132,-66.6666666666667,4,1,1,75,0,0
288299,-100,4,1,1,75,0,0
301215,-200,4,1,1,75,0,0
301382,-200,4,1,1,100,0,0

[Colours]
Combo1 : 208,88,9
Combo2 : 224,180,169
Combo3 : 167,226,237
Combo4 : 210,13,52
Combo5 : 158,97,131
Combo6 : 244,65,55
Combo7 : 98,168,181
Combo8 : 113,87,166

[HitObjects]
76,277,159,102,0,P|115:334|94:265,1,192.5,6|0,0:0|0:0,0:0:0:0:
88,180,1158,1,2,0:0:0:0:
211,250,1576,2,0,P|224:207|221:155,1,87.1500012633133,2|0,0:0|0:0,0:0:0:0:
243,109,2058,2,0,P|284:104|343:117,1,93.4500000712967,2|0,0:0|0:0,0:0:0:0:
391,176,2619,2,0,L|397:297,1,113.400002768555,2|0,0:0|0:0,0:0:0:0:
346,339,3214,1,2,0:0:0:0:
185,345,5492,70,0,P|163:320|276:302,1,252.000006152344,4|0,0:0|0:0,0:0:0:0:
217,295,6798,1,2,0:0:0:0:
232,148,7194,2,0,P|194:167|168:168,1,64.0499973612214,2|0,0:0|0:0,0:0:0:0:
176,79,7664,2,0,P|187:44|252:29,2,105,2|0|0,0:0|0:0|0:0,0:0:0:0:
172,169,9075,2,0,P|204:164|235:146,1,64.0499973612214,2|0,0:0|0:0,0:0:0:0:
310,108,9514,2,0,B|328:144|308:189|308:189|357:168|388:206|434:234|491:198,1,261.8000015979,2|0,0:0|0:0,0:0:0:0:
478,205,10832,70,0,B|449:385|449:385|422:327,1,246.749996234894,4|0,0:0|0:0,0:0:0:0:
380,255,12120,1,2,0:0:0:0:
325,361,12527,2,0,P|298:332|292:302,1,64.0499973612214,2|0,0:0|0:0,0:0:0:0:
219,309,12976,2,0,P|210:339|187:361,1,64.0499973612214,2|0,0:0|0:0,0:0:0:0:
134,287,13497,2,0,B|96:284|58:296|58:296|73:275,1,98.6999984939576,2|0,0:0|0:0,0:0:0:0:
70,278,13971,1,2,0:0:0:0:
70,278,15158,37,2,0:0:0:0:
209,32,16168,38,0,P|257:126|302:30,1,261.8000015979,4|0,0:0|0:0,0:0:0:0:
302,30,17475,1,2,0:0:0:0:
227,192,17997,2,0,P|158:197|99:243,1,139.649998295288,2|0,0:0|0:0,0:0:0:0:
65,332,18844,2,0,P|54:355|-23:381,2,105,2|0|2,0:0|0:0|0:0,0:0:0:0:
148,301,20178,2,0,P|198:297|243:308,1,87.5,2|0,0:0|0:0,0:0:0:0:
384,351,20666,2,0,P|341:356|295:348,1,87.5,2|0,0:0|0:0,0:0:0:0:
460,332,21150,86,2,L|463:363,1,26.25,2|0,0:0|0:0,0:1:0:0:
474,254,21483,70,0,P|488:220|488:183,1,52.5000020027161,6|0,0:0|0:0,0:0:0:0:
470,104,21816,1,2,0:0:0:0:
382,157,21983,1,0,0:0:0:0:
312,81,22149,2,0,B|272:136|199:109,1,105.000004005432,2|0,0:0|0:0,0:0:0:0:
135,84,22649,1,2,0:0:0:0:
72,201,22983,53,2,0:0:0:0:
219,115,23149,1,0,0:0:0:0:
135,84,23316,1,0,0:0:0:0:
219,115,23483,2,0,B|272:136|310:82,1,105.000004005432,2|0,0:0|0:0,0:0:0:0:
400,33,23983,1,0,0:0:0:0:
442,128,24149,54,0,L|497:130,1,52.5000020027161,6|0,0:0|0:0,0:0:0:0:
389,216,24483,1,2,0:0:0:0:
373,94,24649,1,0,0:0:0:0:
300,190,24816,2,0,L|247:188,1,52.5000020027161,2|0,0:0|0:0,0:0:0:0:
163,246,25149,1,2,0:0:0:0:
109,175,25316,2,2,L|108:139,1,26.2500010013581,2|0,0:0|0:0,0:1:0:0:
407,59,25649,53,2,0:0:0:0:
323,90,25815,1,0,0:0:0:0:
242,51,25982,1,2,0:0:0:0:
175,112,26149,1,2,0:0:0:0:
88,19,26316,1,2,0:0:0:0:
242,51,26483,1,0,0:0:0:0:
108,148,26649,1,2,0:0:0:0:
223,279,26816,54,0,P|256:286|320:242,1,105.000004005432,6|0,0:0|0:0,0:0:0:0:
356,158,27316,1,2,0:0:0:0:
314,64,27483,2,0,P|273:32|222:36,1,105.000004005432,2|0,0:0|0:0,0:0:0:0:
134,90,27982,1,2,0:0:0:0:
113,113,28066,2,0,L|64:118,1,26.2500010013581
314,64,28316,53,2,0:0:0:0:
406,93,28483,2,0,P|404:126|396:157,1,52.5000020027161,2|0,0:0|0:0,0:0:0:0:
362,233,28816,2,0,P|327:206|304:144,1,105.000004005432,2|0,0:0|0:0,0:0:0:0:
314,64,29316,1,2,0:0:0:0:
234,103,29483,54,0,L|175:107,1,52.5000020027161,6|0,0:0|0:0,0:0:0:0:
100,73,29816,1,2,0:0:0:0:
169,17,29983,1,0,0:0:0:0:
118,147,30149,2,0,P|118:183|171:237,1,105.000004005432,2|0,0:0|0:0,0:0:0:0:
249,257,30649,2,2,L|246:301,1,26.2500010013581,2|0,0:0|0:0,0:1:0:0:
234,373,30816,53,0,0:0:0:0:
321,320,30983,1,0,0:0:0:0:
413,373,31149,2,0,P|426:348|432:305,1,52.5000020027161,2|0,0:0|0:0,0:0:0:0:
429,235,31483,1,2,0:0:0:0:
412,146,31649,1,2,0:0:0:0:
387,137,31732,1,2,0:0:0:0:
362,128,31815,1,2,0:0:0:0:
431,54,31983,1,2,0:0:0:0:
343,61,32149,54,0,P|274:76|226:51,1,105.000004005432,6|0,0:0|0:0,0:0:0:0:
173,11,32649,1,2,0:0:0:0:
116,81,32816,2,0,L|102:131,1,52.5000020027161,2|0,0:0|0:0,0:0:0:0:
172,186,33149,1,2,0:0:0:0:
186,275,33316,1,2,0:0:0:0:
186,275,33649,53,2,0:0:0:0:
264,208,33816,2,0,L|324:209,1,52.5000020027161,2|0,0:0|0:0,0:0:0:0:
395,167,34149,2,0,P|411:118|388:53,1,105.000004005432,2|0,0:0|0:0,0:0:0:0:
322,115,34649,1,2,0:0:0:0:
246,68,34816,54,0,P|233:118|249:167,1,105.000004005432,6|0,0:0|0:0,0:0:0:0:
322,115,35316,1,2,0:0:0:0:
246,68,35483,2,0,L|173:69,1,52.5000020027161,2|0,0:0|0:0,0:0:0:0:
129,131,35816,1,2,0:0:0:0:
32,32,35983,1,2,0:0:0:0:
129,253,36316,53,2,0:0:0:0:
175,332,36482,1,0,0:0:0:0:
262,363,36649,1,2,0:0:0:0:
349,331,36816,2,0,P|392:297|449:297,1,105.000004005432,2|0,0:0|0:0,0:0:0:0:
423,382,37316,1,2,0:0:0:0:
404,203,37483,54,0,P|407:254|440:294,1,105.000004005432,6|0,0:0|0:0,0:0:0:0:
423,382,37983,1,2,0:0:0:0:
349,331,38149,2,0,L|282:330,1,52.5000020027161,2|0,0:0|0:0,0:0:0:0:
237,263,38483,1,2,0:0:0:0:
128,352,38649,1,2,0:0:0:0:
395,206,38982,53,2,0:0:0:0:
428,116,39149,1,2,0:0:0:0:
438,140,39233,1,2,0:0:0:0:
340,137,39399,1,2,0:0:0:0:
330,161,39483,1,2,0:0:0:0:
365,47,39649,2,0,L|362:16,3,17.500000667572,2|2|2|2,0:0|0:0|0:0|0:0,0:0:0:0:
340,137,39983,1,2,0:0:0:0:
308,234,40149,54,0,P|265:254|215:250,1,78.7500030040742,2|0,0:0|0:0,0:0:0:0:
200,247,40483,1,2,0:0:0:0:
135,325,40649,1,2,0:0:0:0:
88,234,40816,54,0,L|-4:230,1,78.7500030040742,2|0,0:0|0:0,0:0:0:0:
50,166,41149,2,0,L|128:162,1,78.7500030040742,2|0,0:0|0:0,0:0:0:0:
88,98,41483,54,0,L|9:94,1,78.7500030040742,2|0,0:0|0:0,0:0:0:0:
49,30,41816,2,0,L|127:26,1,78.7500030040742,2|0,0:0|0:0,0:0:0:0:
169,90,42149,54,0,L|223:31,1,78.7500030040742,2|0,0:0|0:0,0:0:0:0:
289,31,42483,2,0,L|343:90,1,78.7500030040742,2|0,0:0|0:0,0:0:0:0:
302,187,42816,102,0,P|255:231|208:188,1,140,6|0,0:0|0:0,0:0:0:0:
253,111,43316,1,2,0:0:0:0:
255,20,43483,1,2,0:0:0:0:
208,188,43816,6,0,P|166:233|64:218,1,140,2|0,0:0|0:0,0:0:0:0:
253,111,44483,1,2,0:0:0:0:
126,153,44816,1,2,0:0:0:0:
126,153,44983,1,2,0:0:0:0:
253,111,45149,2,2,B|244:88|244:88|256:1,1,105,2|0,0:0|0:0,0:1:0:0:
254,8,45483,6,0,P|291:35|388:16,1,140,2|0,0:0|0:0,0:0:0:0:
444,104,45983,1,2,0:0:0:0:
446,121,46066,1,2,0:0:0:0:
446,138,46149,2,0,L|368:149,1,70,2|0,0:0|0:0,0:0:0:0:
262,141,46483,38,0,P|256:189|269:268,1,105,2|0,0:0|0:0,0:0:0:0:
270,274,46816,1,2,0:0:0:0:
240,358,46983,1,0,0:0:0:0:
341,337,47149,1,2,0:0:0:0:
441,357,47316,1,2,0:0:0:0:
405,274,47483,2,0,L|402:231,1,35,2|0,0:0|0:0,0:0:0:0:
467,177,47649,2,0,L|469:142,1,35,2|0,0:0|0:0,0:0:0:0:
400,65,47816,2,2,B|387:90|387:90|286:101,1,105,2|0,0:0|0:0,0:1:0:0:
310,98,48149,22,0,P|279:65|177:59,1,140,2|2,0:0|0:0,0:0:0:0:
162,63,48566,1,2,0:0:0:0:
223,152,48733,1,2,0:0:0:0:
232,182,48816,1,2,0:0:0:0:
194,251,48982,22,0,L|160:252,2,23.3333333333333,2|2|2,0:0|0:0|0:0,0:0:0:0:
232,269,49149,1,2,0:0:0:0:
267,371,49316,1,2,0:0:0:0:
322,278,49482,5,2,0:0:0:0:
247,208,49649,1,2,0:0:0:0:
260,193,49733,1,2,0:0:0:0:
272,182,49816,2,0,P|310:169|408:215,1,140,2|0,0:0|0:0,0:0:0:0:
474,199,50316,1,2,0:0:0:0:
447,295,50483,2,2,B|463:284|463:284|478:173,1,105,2|0,0:0|0:0,0:1:0:0:
474,199,50816,38,0,P|437:170|458:70,1,140,2|0,0:0|0:0,0:0:0:0:
499,0,51316,1,2,0:0:0:0:
376,46,51483,2,0,L|290:50,1,70,2|0,0:0|0:0,0:0:0:0:
306,49,51816,1,2,0:0:0:0:
306,49,51983,1,2,0:0:0:0:
257,156,52149,21,2,0:0:0:0:
306,49,52483,1,2,0:0:0:0:
257,156,52816,2,0,L|175:156,1,70,2|2,0:0|0:0,0:0:0:0:
74,119,53149,2,2,B|72:152|72:152|134:231,1,105,2|0,0:0|0:0,0:1:0:0:
138,235,53483,22,0,P|133:306|73:351,1,140,2|0,0:0|0:0,0:0:0:0:
54,264,53983,1,2,0:0:0:0:
213,307,54149,2,0,L|308:304,1,70,2|0,0:0|0:0,0:0:0:0:
349,208,54483,1,2,0:0:0:0:
349,208,54649,1,2,0:0:0:0:
204,150,54983,5,2,0:0:0:0:
251,306,55149,1,0,0:0:0:0:
349,208,55316,1,2,0:0:0:0:
479,236,55483,1,2,0:0:0:0:
405,312,55649,38,0,L|371:313,2,23.3333333333333,2|2|2,0:0|0:0|0:0,0:0:0:0:
439,327,55816,2,2,B|462:313|462:313|484:215,1,105,2|0,0:0|0:0,0:1:0:0:
504,143,56149,102,0,P|457:144|437:58,1,140,2|0,0:0|0:0,0:0:0:0:
359,14,56649,1,2,0:0:0:0:
431,66,56816,1,2,0:0:0:0:
288,69,56983,1,2,0:0:0:0:
214,145,57149,6,0,P|279:133|288:69,1,140,2|0,0:0|0:0,0:0:0:0:
359,14,57649,1,2,0:0:0:0:
431,66,57816,2,0,L|437:146,1,70,2|2,0:0|0:0,0:0:0:0:
486,211,58149,1,2,0:0:0:0:
398,219,58316,1,2,0:0:0:0:
450,293,58483,2,2,B|441:311|441:311|344:328,1,105,2|0,0:0|0:0,0:1:0:0:
299,252,58816,70,0,P|271:286|285:385,1,140,2|0,0:0|0:0,0:0:0:0:
357,325,59316,1,2,0:0:0:0:
410,247,59483,1,0,0:0:0:0:
373,145,59649,1,2,0:0:0:0:
256,192,59816,22,0,P|212:198|134:135,1,140,2|0,0:0|0:0,0:0:0:0:
256,96,60316,1,2,0:0:0:0:
373,145,60483,38,0,P|323:192|255:191,1,140,2|0,0:0|0:0,0:0:0:0:
256,96,60983,1,2,0:0:0:0:
255,191,61149,2,2,B|263:219|263:219|251:313,1,105,2|0,0:0|0:0,0:1:0:0:
202,347,61483,22,0,P|134:362|55:340,1,140,2|0,0:0|0:0,0:0:0:0:
3,284,61983,1,2,0:0:0:0:
66,221,62149,2,0,P|133:205|201:220,1,140,2|2,0:0|0:0,0:0:0:0:
283,281,62649,1,2,0:0:0:0:
376,235,62816,38,0,L|464:231,1,70,2|0,0:0|0:0,0:0:0:0:
321,179,63149,2,0,L|251:175,1,70,2|0,0:0|0:0,0:0:0:0:
181,178,63483,2,0,L|269:174,1,70,2|0,0:0|0:0,0:0:0:0:
136,235,63816,2,0,L|48:231,1,70,2|0,0:0|0:0,0:0:0:0:
256,96,64149,53,12,0:0:0:0:
256,288,65483,5,2,0:3:0:0:
256,128,66816,5,8,0:0:0:0:
256,256,68149,37,2,0:3:0:0:
256,224,68816,1,2,0:3:0:0:
256,192,69483,21,8,0:0:0:0:
96,192,70816,21,8,0:0:0:0:
416,192,72149,5,8,0:0:0:0:
128,192,73483,37,8,0:0:0:0:
384,192,74816,21,8,0:0:0:0:
160,192,76149,85,2,0:3:0:0:
352,192,77483,21,2,0:3:0:0:
192,192,78816,21,2,0:3:0:0:
224,192,79483,1,2,0:3:0:0:
256,192,80149,5,8,0:0:0:0:
256,64,81483,1,8,0:0:0:0:
256,320,82816,1,8,0:0:0:0:
256,192,82983,12,0,84149,0:0:0:0:
26,353,85466,86,0,B|83:332|83:332|225:355|225:355|163:328|156:242,1,306.250002920628,6|0,0:0|0:0,0:0:0:0:
263,259,85966,86,0,P|285:200|311:257,1,157.500006008148,6|0,0:0|0:0,0:0:0:0:
327,373,86299,85,0,0:0:0:0:
374,367,86382,1,0,0:0:0:0:
421,361,86466,2,0,L|427:266,1,70,10|0,0:0|0:0,0:0:0:0:
425,154,86799,5,2,0:0:0:0:
234,173,86966,1,0,0:0:0:0:
261,208,87049,1,0,0:0:0:0:
308,214,87132,1,10,0:0:0:0:
224,32,87299,1,8,0:0:0:0:
86,109,87466,21,2,0:0:0:0:
106,142,87549,1,0,0:0:0:0:
122,177,87632,2,0,P|130:221|125:264,1,70,0|2,0:0|0:0,0:0:0:0:
116,345,87966,1,0,0:0:0:0:
215,295,88132,6,0,B|281:340|356:313|356:313|323:278,1,175,6|8,0:0|0:0,0:0:0:0:
256,64,88632,86,0,B|249:23|249:23|226:97|255:135,1,157.500006008148,6|0,0:0|0:0,0:0:0:0:
179,231,88966,5,0,0:0:0:0:
143,214,89049,1,0,0:0:0:0:
106,200,89132,2,0,P|70:192|7:204,1,70,2|0,0:0|0:0,0:0:0:0:
162,115,89466,21,10,0:0:0:0:
196,113,89549,1,8,0:0:0:0:
226,95,89632,1,0,0:0:0:0:
243,65,89716,1,0,0:0:0:0:
245,31,89799,2,0,P|291:21|331:27,1,70,10|0,0:0|0:0,0:0:0:0:
386,146,90132,85,8,0:0:0:0:
458,140,90243,1,8,0:0:0:0:
490,74,90354,1,8,0:0:0:0:
447,14,90466,37,0,0:0:0:0:
444,91,90577,1,0,0:0:0:0:
439,168,90688,1,0,0:0:0:0:
435,245,90799,86,0,B|415:305|415:305|399:272,1,87.5,6|0,0:0|0:0,0:0:0:0:
295,170,91299,86,0,P|284:136|261:113,1,52.5,6|0,0:0|0:0,0:0:0:0:
161,218,91632,37,0,0:0:0:0:
120,204,91716,1,0,0:0:0:0:
77,193,91799,2,0,L|64:108,1,70,10|0,0:1|0:0,0:0:0:0:
96,309,92132,1,2,0:0:0:0:
164,72,92299,21,0,0:0:0:0:
190,44,92382,1,0,0:0:0:0:
215,13,92466,2,0,L|308:16,1,70,10|0,0:0|0:0,0:0:0:0:
345,98,92799,1,2,0:0:0:0:
348,115,92882,1,0,0:0:0:0:
351,132,92965,1,0,0:0:0:0:
256,320,93132,1,2,0:0:0:0:
416,256,93299,1,0,0:0:0:0:
271,150,93465,70,0,B|218:121|166:151|166:151|180:108,1,140,6|0,0:0|0:0,0:0:0:0:
231,299,93965,86,0,L|216:207,1,70,6|0,0:0|0:0,0:0:0:0:
64,164,94299,5,0,0:0:0:0:
62,206,94382,1,0,0:0:0:0:
59,250,94465,2,0,P|95:288|128:293,1,70,10|0,0:0|0:0,0:0:0:0:
213,178,94799,1,10,0:0:0:0:
283,349,94965,37,8,0:0:0:0:
316,358,95049,1,0,0:0:0:0:
349,348,95132,1,0,0:0:0:0:
372,322,95215,1,0,0:0:0:0:
377,288,95299,1,8,0:0:0:0:
364,256,95382,1,0,0:0:0:0:
341,231,95465,69,0,0:0:0:0:
327,192,95549,1,0,0:0:0:0:
340,153,95632,1,8,0:0:0:0:
375,131,95715,1,0,0:0:0:0:
416,135,95799,38,0,L|423:86,1,35
332,26,95965,2,0,L|327:60,1,35,8|0,0:0|0:0,0:0:0:0:
248,182,96132,85,14,0:0:0:0:
127,106,96299,1,0,0:0:0:0:
132,237,96465,2,0,P|125:278|113:317,1,70,10|0,0:0|0:0,0:0:0:0:
248,182,96799,2,0,P|238:148|233:113,1,70,10|0,0:0|0:0,0:0:0:0:
267,16,97132,1,10,0:0:0:0:
152,76,97299,1,0,0:0:0:0:
326,138,97465,6,0,P|353:110|361:58,1,70,10|0,0:0|0:0,0:0:0:0:
452,200,97799,2,0,P|417:203|388:221,1,70,10|0,0:0|0:0,0:0:0:0:
298,312,98049,1,0,0:0:0:0:
267,336,98132,2,0,L|182:337,1,70,10|0,0:0|0:0,0:0:0:0:
144,234,98465,2,0,L|213:233,1,70,10|0,0:0|0:0,0:0:0:0:
307,126,98799,5,14,0:0:0:0:
387,221,98965,1,0,0:0:0:0:
442,103,99132,2,0,P|476:115|525:105,1,70,10|0,0:0|0:0,0:0:0:0:
387,221,99382,1,0,0:0:0:0:
356,209,99465,2,0,P|321:205|288:217,1,70,10|0,0:0|0:0,0:0:0:0:
207,299,99799,1,10,0:0:0:0:
179,129,99965,2,0,L|173:87,1,35
82,216,100133,37,10,0:0:0:0:
79,233,100216,1,8,0:0:0:0:
76,250,100299,1,8,0:0:0:0:
280,107,100465,21,10,0:0:0:0:
287,144,100549,1,8,0:0:0:0:
309,175,100632,1,0,0:0:0:0:
341,195,100715,1,0,0:0:0:0:
379,201,100799,2,0,L|389:149,1,35,10|0,0:0|0:0,0:0:0:0:
444,282,100965,2,0,L|450:316,1,35
488,157,101132,69,10,0:0:0:0:
490,132,101215,1,8,0:0:0:0:
493,108,101299,1,8,0:0:0:0:
496,84,101382,1,8,0:0:0:0:
501,58,101465,54,0,B|437:33|376:73|376:73|385:48|367:17,1,175,14|0,0:0|0:0,0:0:0:0:
289,54,101965,38,0,B|274:106|274:106|307:161|307:161|286:230,1,175,6|0,0:0|0:0,0:0:0:0:
203,225,102465,38,0,B|191:207|200:182|200:182|119:231|41:182,1,210,6|0,0:0|0:0,0:0:0:0:
31,173,103049,1,0,0:0:0:0:
20,161,103132,1,10,0:0:0:0:
57,37,103299,1,0,0:0:0:0:
185,46,103465,2,0,L|220:9,2,35,2|0|0,0:0|0:0|0:0,0:0:0:0:
203,225,103799,1,2,0:0:0:0:
203,225,103965,1,0,0:0:0:0:
203,225,104132,22,0,B|225:277|217:342|217:342|234:322|274:321,1,175,6|0,0:0|0:0,0:0:0:0:
336,389,104632,86,0,P|363:326|335:251,1,140,6|0,0:0|0:0,0:0:0:0:
334,248,105049,1,0,0:0:0:0:
325,238,105132,1,10,0:0:0:0:
265,158,105299,1,0,0:0:0:0:
310,50,105465,6,0,P|272:51|223:37,1,70,10|0,0:0|0:0,0:0:0:0:
229,38,105715,1,0,0:0:0:0:
218,30,105799,1,2,0:0:0:0:
112,80,105965,1,0,0:0:0:0:
183,172,106132,38,0,L|226:168,1,35,6|0,0:0|0:0,0:0:0:0:
144,294,106299,2,0,L|101:298,1,35,4|0,0:0|0:0,0:0:0:0:
210,146,106465,2,0,L|244:142,1,35,2|0,0:0|0:0,0:0:0:0:
116,320,106632,2,0,L|81:322,1,35,6|0,0:0|0:0,0:0:0:0:
374,127,106799,86,0,P|457:124|414:22,1,210,6|0,0:0|0:0,0:0:0:0:
415,83,107465,86,0,B|403:121|403:121|428:246,1,140,2|0,0:0|0:0,0:0:0:0:
461,379,108132,2,0,P|481:337|477:288,1,70,6|0,0:0|0:0,0:0:0:0:
301,310,108577,2,0,P|259:291|237:266,1,70,0|2,0:0|0:0,0:0:0:0:
163,339,109132,6,0,P|192:304|250:271,1,105,10|0,0:0|0:0,0:0:0:0:
303,263,109465,2,0,L|300:309,2,46.6666666666667,6|0|0,0:0|0:0|0:0,0:0:0:0:
394,138,109799,2,0,L|391:208,1,70
343,89,110132,38,0,P|387:96|450:72,1,93.3333333333333,2|0,0:0|0:0,0:0:0:0:
261,35,110465,2,0,L|203:34,1,46.6666666666667,10|0,0:0|0:0,0:0:0:0:
226,178,110632,1,0,0:0:0:0:
308,261,110799,37,2,0:0:0:0:
302,66,110965,1,0,0:0:0:0:
381,166,111132,1,0,0:0:0:0:
226,178,111299,1,0,0:0:0:0:
208,178,111382,1,0,0:0:0:0:
191,178,111465,1,10,0:0:0:0:
308,261,111632,1,0,0:0:0:0:
381,166,111799,22,0,P|436:154|483:95,1,105,10|0,0:0|0:0,0:0:0:0:
386,63,112132,69,6,0:0:0:0:
386,63,112465,1,0,0:0:0:0:
386,63,112799,69,0,0:0:0:0:
294,187,112965,1,0,0:0:0:0:
376,60,113132,1,0,0:0:0:0:
304,184,113299,1,0,0:0:0:0:
176,24,113465,37,0,0:0:0:0:
328,4,113632,1,0,0:0:0:0:
133,170,113799,1,0,0:0:0:0:
285,190,113965,1,0,0:0:0:0:
167,18,114132,5,0,0:0:0:0:
124,168,114299,2,0,L|128:215,1,35,2|0,0:0|0:0,0:0:0:0:
72,116,114465,1,0,0:0:0:0:
292,196,114632,2,0,L|288:243,1,35,2|0,0:0|0:0,0:0:0:0:
344,144,114799,1,4,0:0:0:0:
160,12,114965,53,0,0:0:0:0:
159,18,115049,1,0,0:0:0:0:
158,24,115132,1,0,0:0:0:0:
157,30,115215,1,0,0:0:0:0:
156,36,115299,1,0,0:0:0:0:
155,42,115382,1,0,0:0:0:0:
154,48,115465,5,0,0:0:0:0:
195,35,115549,1,0,0:0:0:0:
239,36,115632,1,0,0:0:0:0:
280,50,115715,1,0,0:0:0:0:
316,76,115799,2,0,L|362:74,1,35,8|8,0:0|0:0,0:0:0:0:
248,192,115965,2,0,L|213:193,1,35,8|8,0:0|0:0,0:0:0:0:
344,308,116132,69,0,0:0:0:0:
380,338,116215,1,0,0:0:0:0:
427,339,116299,1,0,0:0:0:0:
466,312,116382,1,0,0:0:0:0:
480,266,116465,1,0,0:0:0:0:
463,222,116549,1,0,0:0:0:0:
423,197,116632,1,0,0:0:0:0:
376,201,116715,1,0,0:0:0:0:
341,234,116799,86,0,B|292:248|292:248|252:288|252:288|204:276,1,157.500006008148
92,216,117132,6,0,P|116:224|140:240,1,52.5,4|0,0:3|0:0,0:0:0:0:
268,168,117465,22,0,P|276:136|272:100,1,70,6|0,0:0|0:0,0:0:0:0:
268,84,117715,1,0,0:0:0:0:
263,69,117799,1,8,0:0:0:0:
203,275,117965,2,0,L|199:318,2,35,0|0|2,0:0|0:0|0:0,0:0:0:0:
184,145,118299,2,0,P|147:161|95:158,1,70,0|8,0:0|0:0,0:0:0:0:
0,116,118632,5,0,0:0:0:0:
4,157,118715,1,0,0:0:0:0:
15,200,118799,2,0,P|26:235|51:271,1,70,2|0,0:0|0:0,0:0:0:0:
154,353,119132,2,0,P|171:295|192:262,1,70,8|0,0:0|0:0,0:0:0:0:
297,212,119465,2,0,P|326:230|359:240,1,70,2|0,0:0|0:0,0:0:0:0:
476,226,119799,1,8,0:0:0:0:
432,334,119965,1,0,0:0:0:0:
402,119,120132,6,0,P|395:62|378:23,2,70,6|0|8,0:0|0:0|0:0,0:0:0:0:
360,240,120632,1,0,0:0:0:0:
351,269,120715,1,0,0:0:0:0:
339,298,120799,2,0,L|261:303,1,70,2|0,0:0|0:0,0:0:0:0:
163,230,121132,1,8,0:0:0:0:
78,362,121299,37,0,0:0:0:0:
66,320,121382,1,0,0:0:0:0:
52,280,121465,2,0,L|31:202,1,70,2|0,0:0|0:0,0:0:0:0:
94,99,121799,2,0,P|126:82|155:40,1,70,2|0,0:0|0:0,0:0:0:0:
256,0,122132,1,0,0:0:0:0:
256,128,122299,1,0,0:0:0:0:
364,56,122465,2,0,P|387:82|418:99,1,70,10|0,0:0|0:0,0:0:0:0:
509,209,122799,70,0,P|467:226|432:264,1,70,6|0,0:0|0:0,0:0:0:0:
353,346,123132,1,8,0:0:0:0:
313,213,123299,1,0,0:0:0:0:
244,324,123465,2,0,P|199:339|147:330,1,70,2|0,0:0|0:0,0:0:0:0:
73,259,123799,1,8,0:0:0:0:
95,144,123965,1,0,0:0:0:0:
221,82,124132,70,0,P|228:46|229:1,1,70,2|0,0:0|0:0,0:0:0:0:
304,143,124465,2,0,P|305:177|312:212,1,70,8|0,0:0|0:0,0:0:0:0:
370,313,124715,1,0,0:0:0:0:
402,322,124799,2,0,L|486:319,1,70,2|0,0:0|0:0,0:0:0:0:
289,367,125132,2,0,L|219:369,1,70,8|0,0:0|0:0,0:0:0:0:
188,252,125465,21,2,0:0:0:0:
324,132,125632,1,0,0:0:0:0:
159,251,125799,5,2,0:0:0:0:
352,132,125965,1,0,0:0:0:0:
124,243,126132,21,2,0:0:0:0:
387,140,126299,1,8,0:0:0:0:
388,147,126465,1,8,0:0:0:0:
412,319,126632,1,2,0:0:0:0:
503,179,126799,1,2,0:0:0:0:
300,193,126965,5,0,0:0:0:0:
258,191,127049,1,0,0:0:0:0:
222,170,127132,1,8,0:0:0:0:
201,135,127215,1,0,0:0:0:0:
199,93,127299,1,0,0:0:0:0:
217,56,127382,1,0,0:0:0:0:
251,32,127465,54,0,L|243:-10,1,35,8|0,0:0|0:0,0:0:0:0:
350,71,127632,2,0,L|357:105,1,35
385,249,127799,1,8,0:0:0:0:
387,259,127882,1,8,0:0:0:0:
389,269,127965,1,8,0:0:0:0:
391,279,128049,1,8,0:0:0:0:
394,290,128132,54,0,L|409:369,1,70,14|0,0:0|0:0,0:0:0:0:
477,160,128465,2,0,L|463:91,1,70
336,2,128799,2,0,L|350:71,1,70
407,358,129132,2,0,L|393:289,1,70
281,84,129465,2,0,L|350:70,1,70
461,275,129799,2,0,L|392:289,1,70
206,223,130132,2,0,L|275:209,1,70
448,207,130465,53,8,0:0:0:0:
420,212,130549,1,8,0:0:0:0:
393,217,130632,1,8,0:0:0:0:
365,223,130715,1,8,0:0:0:0:
338,228,130799,1,6,0:0:0:0:
244,105,131021,5,4,0:0:0:0:
139,209,131243,37,6,0:0:0:0:
22,139,131465,101,4,0:0:0:0:
139,209,131688,69,6,0:0:0:0:
244,105,131910,5,4,0:0:0:0:
279,300,132132,37,6,0:0:0:0:
384,196,132354,101,4,0:0:0:0:
279,300,132577,69,6,0:0:0:0:
22,139,132799,21,0,0:0:0:0:
32,120,132882,1,0,0:0:0:0:
45,104,132965,1,0,0:0:0:0:
61,91,133049,1,0,0:0:0:0:
79,80,133132,2,0,B|115:62|153:59|153:59|190:77,1,105,14|0,0:0|0:0,0:0:0:0:
272,197,133465,70,0,P|323:209|354:197,1,46.6666666666667,6|0,0:0|0:0,0:0:0:0:
365,63,133688,2,0,P|346:78|325:86,1,46.6666666666667
437,226,133910,2,0,P|458:234|476:248,1,46.6666666666667
401,347,134132,70,0,P|347:357|282:352,2,93.3333333333333
437,226,134799,70,0,L|426:160,1,46.6666666666667
426,138,134965,2,0,P|460:111|477:67,2,70
231,57,135465,38,0,L|223:17,1,35
187,177,135632,1,8,0:0:0:0:
343,80,135799,1,8,0:0:0:0:
390,288,136132,22,0,L|340:290,1,35,6|0,0:0|0:0,0:0:0:0:
280,377,136299,5,0,0:0:0:0:
228,384,136382,1,0,0:0:0:0:
180,365,136465,1,0,0:0:0:0:
148,324,136549,1,0,0:0:0:0:
140,273,136632,1,0,0:0:0:0:
162,226,136715,1,0,0:0:0:0:
158,174,136799,101,0,0:0:0:0:
149,124,136882,1,0,0:0:0:0:
109,92,136965,1,0,0:0:0:0:
57,95,137049,1,0,0:0:0:0:
21,130,137132,2,0,L|-18:137,1,35
80,230,137299,2,0,L|114:223,1,35
213,102,137465,37,6,0:0:0:0:
287,239,137688,37,4,0:0:0:0:
386,126,137910,21,6,0:0:0:0:
114,223,138132,21,4,0:0:0:0:
276,349,138465,70,2,L|280:290,1,52.5,4|0,0:3|0:0,0:1:0:0:
286,238,138799,22,0,P|382:223|386:127,1,210.000008010865,6|0,0:0|0:0,0:0:0:0:
256,32,139299,1,0,0:0:0:0:
188,142,139465,2,0,L|94:145,1,70,10|0,0:0|0:0,0:0:0:0:
283,182,139799,2,0,P|290:139|280:99,1,70
229,271,140049,1,0,0:0:0:0:
262,302,140132,2,0,P|305:309|345:299,1,70,2|0,0:0|0:0,0:0:0:0:
425,214,140465,1,0,0:0:0:0:
428,369,140632,1,0,0:0:0:0:
283,182,140799,86,0,P|248:177|214:184,1,70,10|0,0:0|0:0,0:0:0:0:
145,294,141132,2,0,L|100:295,1,35,8|0,0:0|0:0,0:0:0:0:
252,365,141299,2,0,L|286:364,1,35
425,214,141465,70,0,P|412:162|425:92,1,105,6|0,0:0|0:0,0:0:0:0:
427,77,141799,1,0,0:0:0:0:
307,25,141965,1,0,0:0:0:0:
254,158,142132,2,0,P|205:169|171:160,1,70,10|0,0:0|0:0,0:0:0:0:
208,38,142465,1,0,0:0:0:0:
224,224,142632,5,0,0:0:0:0:
229,258,142715,1,0,0:0:0:0:
234,293,142799,2,0,L|244:376,1,70,6|0,0:0|0:0,0:0:0:0:
209,123,143132,1,0,0:0:0:0:
314,172,143299,1,0,0:0:0:0:
348,167,143382,1,0,0:0:0:0:
383,162,143466,2,0,L|466:152,1,70,10|0,0:0|0:0,0:0:0:0:
485,27,143799,1,8,0:0:0:0:
436,263,144132,54,0,B|365:280|365:280|315:269,1,105.000004005432,6|0,0:0|0:0,0:0:0:0:
203,216,144465,2,0,P|171:209|109:218,1,70
45,118,144799,2,0,L|40:74,1,35,10|0,0:0|0:0,0:0:0:0:
61,264,144965,1,0,0:0:0:0:
203,216,145132,1,0,0:0:0:0:
306,350,145299,85,0,0:0:0:0:
352,357,145382,1,0,0:0:0:0:
398,352,145465,2,0,P|427:323|436:287,1,70,6|0,0:0|0:0,0:0:0:0:
436,154,145799,1,0,0:0:0:0:
435,296,145965,1,0,0:0:0:0:
310,222,146132,2,0,P|277:235|243:232,1,70,10|0,0:0|0:0,0:0:0:0:
169,91,146465,1,0,0:0:0:0:
57,339,146799,70,0,B|93:351|93:351|174:293,1,105.000004005432,6|0,0:0|0:0,0:0:0:0:
243,232,147132,2,0,P|277:229|309:242,1,70
429,352,147465,6,0,L|432:304,1,35,10|0,0:0|0:0,0:0:0:0:
436,173,147632,1,0,0:0:0:0:
288,32,147799,1,0,0:0:0:0:
99,46,147965,1,0,0:0:0:0:
87,84,148049,1,0,0:0:0:0:
76,121,148132,2,0,L|52:204,1,70,10|0,0:0|0:0,0:0:0:0:
99,46,148465,1,10,0:0:0:0:
141,312,148632,53,0,0:0:0:0:
153,274,148716,1,0,0:0:0:0:
164,237,148799,2,0,L|209:234,1,35,10|8,0:0|0:0,0:0:0:0:
264,109,148965,2,0,L|229:111,1,35,8|8,0:0|0:0,0:0:0:0:
329,270,149132,1,10,0:0:0:0:
372,296,149215,1,8,0:0:0:0:
422,285,149298,1,8,0:0:0:0:
450,243,149382,1,8,0:0:0:0:
440,192,149465,86,0,B|523:182,1,52.5000020027161,14|0,0:0|0:0,0:0:0:0:
264,109,149632,2,0,L|199:114,1,52.5000020027161
343,22,149799,1,8,0:0:0:0:
329,270,149965,1,0,0:0:0:0:
286,296,150049,1,0,0:0:0:0:
236,285,150132,2,0,P|226:323|214:355,1,70,2|0,0:0|0:0,0:0:0:0:
168,190,150465,2,0,P|195:176|239:169,1,70,8|0,0:0|0:0,0:0:0:0:
375,181,150799,69,2,0:0:0:0:
343,22,150965,1,0,0:0:0:0:
233,169,151132,2,0,P|225:134|212:102,1,70,10|0,0:0|0:0,0:0:0:0:
148,6,151465,1,0,0:0:0:0:
343,22,151632,1,0,0:0:0:0:
233,169,151799,2,0,P|200:181|166:189,1,70,10|0,0:0|0:0,0:0:0:0:
37,67,152132,6,0,P|66:106|62:194,1,105.000004005432,6|0,0:0|0:0,0:0:0:0:
43,284,152465,1,8,0:0:0:0:
166,189,152632,1,0,0:0:0:0:
174,234,152715,1,0,0:0:0:0:
184,277,152799,2,0,L|264:275,1,70,2|0,0:0|0:0,0:0:0:0:
321,179,153132,1,8,0:0:0:0:
371,354,153299,1,0,0:0:0:0:
477,249,153465,53,14,0:0:0:0:
268,209,153632,1,0,0:0:0:0:
477,249,153799,85,14,0:0:0:0:
246,161,153965,1,0,0:0:0:0:
228,159,154048,1,0,0:0:0:0:
211,158,154131,1,14,0:0:0:0:
477,249,154299,69,0,0:0:0:0:
230,101,154465,1,14,0:0:0:0:
477,249,154632,5,0,0:0:0:0:
224,29,154799,2,0,B|154:21|154:21|86:36|86:36|14:26,1,210.000008010865,14|0,0:0|0:0,0:0:0:0:
77,156,155299,1,0,0:0:0:0:
139,302,155465,2,0,P|173:276|192:228,1,70,10|0,0:0|0:0,0:0:0:0:
256,128,155799,1,0,0:0:0:0:
286,324,155965,1,0,0:0:0:0:
288,341,156048,1,0,0:0:0:0:
289,360,156132,54,0,L|337:358,1,35,10|0,0:0|0:0,0:0:0:0:
393,250,156299,1,0,0:0:0:0:
289,360,156465,1,0,0:0:0:0:
159,196,156632,86,0,L|124:197,1,35,10|0,0:0|0:0,0:0:0:0:
275,189,156799,1,0,0:0:0:0:
393,250,156965,70,0,L|400:209,1,35,10|0,0:0|0:0,0:0:0:0:
372,88,157132,2,0,L|379:47,1,35,10|0,0:0|0:0,0:0:0:0:
437,313,157465,6,0,P|405:326|352:316,1,70,6|0,0:0|0:0,0:0:0:0:
134,53,157965,1,0,0:0:0:0:
137,70,158048,1,0,0:0:0:0:
140,88,158131,1,10,0:0:0:0:
116,230,158382,1,0,0:0:0:0:
250,179,158632,1,0,0:0:0:0:
323,347,158799,1,2,0:0:0:0:
323,347,158965,37,0,0:0:0:0:
304,305,159048,1,0,0:0:0:0:
286,263,159131,1,0,0:0:0:0:
54,114,159465,37,10,0:0:0:0:
71,112,159548,1,0,0:0:0:0:
88,110,159631,1,0,0:0:0:0:
177,187,159799,1,0,0:0:0:0:
194,185,159882,1,0,0:0:0:0:
211,183,159965,1,0,0:0:0:0:
458,270,160132,1,2,0:0:0:0:
458,270,160299,69,0,0:0:0:0:
440,271,160382,1,0,0:0:0:0:
423,273,160465,1,0,0:0:0:0:
339,62,160799,2,0,L|341:11,2,35,10|0|0,0:0|0:0|0:0,0:0:0:0:
286,182,161132,1,0,0:0:0:0:
285,192,161299,1,0,0:0:0:0:
143,87,161465,37,10,0:0:0:0:
141,104,161548,1,0,0:0:0:0:
139,121,161631,1,0,0:0:0:0:
119,277,161799,1,0,0:0:0:0:
118,287,161965,1,0,0:0:0:0:
213,160,162132,1,10,0:0:0:0:
293,250,162299,1,0,0:0:0:0:
213,160,162465,69,0,0:0:0:0:
242,302,162632,1,0,0:0:0:0:
372,253,162799,1,4,0:0:0:0:
373,263,162965,1,4,0:0:0:0:
345,60,163299,37,0,0:0:0:0:
327,60,163382,1,0,0:0:0:0:
310,61,163465,1,10,0:0:0:0:
256,268,163715,1,0,0:0:0:0:
108,292,163965,1,0,0:0:0:0:
160,117,164132,1,2,0:0:0:0:
160,117,164299,2,0,L|159:76,2,35
181,345,164799,69,10,0:0:0:0:
198,344,164882,1,0,0:0:0:0:
215,343,164965,1,0,0:0:0:0:
277,243,165132,1,0,0:0:0:0:
294,242,165215,1,0,0:0:0:0:
311,241,165298,1,0,0:0:0:0:
161,254,165465,1,2,0:0:0:0:
161,254,165632,37,0,0:0:0:0:
154,201,165715,1,0,0:0:0:0:
148,149,165798,1,0,0:0:0:0:
140,20,166132,2,0,L|97:9,2,35,10|0|0,0:0|0:0|0:0,0:0:0:0:
367,70,166465,1,0,0:0:0:0:
369,80,166632,1,0,0:0:0:0:
336,221,166799,69,10,0:0:0:0:
319,222,166882,1,0,0:0:0:0:
302,223,166965,1,0,0:0:0:0:
451,211,167132,1,0,0:0:0:0:
423,338,167299,1,0,0:0:0:0:
192,294,167465,37,8,0:0:0:0:
185,224,167632,1,8,0:0:0:0:
178,154,167799,1,8,0:0:0:0:
171,85,167966,1,8,0:0:0:0:
164,16,168132,86,0,P|119:42|88:45,1,70,4|0,0:0|0:0,0:0:0:0:
256,128,168465,1,2,0:0:0:0:
256,128,168632,5,0,0:0:0:0:
273,128,168715,1,0,0:0:0:0:
291,126,168799,2,0,P|333:114|327:20,1,140,2|2,0:0|0:0,0:0:0:0:
348,39,169465,5,2,0:0:0:0:
445,157,169632,2,0,L|488:155,2,35,0|0|2,0:0|0:0|0:0,0:0:0:0:
348,39,169965,5,0,0:0:0:0:
361,191,170132,2,0,L|363:234,2,35,2|0|0,0:0|0:0|0:0,0:0:0:0:
298,122,170465,1,2,0:0:0:0:
206,108,170632,1,0,0:0:0:0:
126,155,170799,1,2,0:0:0:0:
93,242,170965,38,0,P|56:260|13:260,1,70,0|2,0:0|0:0,0:0:0:0:
177,338,171299,2,0,L|224:340,2,35,0|0|2,0:0|0:0|0:0,0:0:0:0:
101,207,171715,1,0,0:0:0:0:
88,184,171799,2,0,P|77:146|82:105,1,70,2|0,0:0|0:0,0:0:0:0:
145,37,172132,2,0,P|184:43|230:35,1,70,2|0,0:0|0:0,0:0:0:0:
230,36,172382,1,0,0:0:0:0:
245,32,172465,1,2,0:0:0:0:
178,335,172799,53,2,0:0:0:0:
152,183,172965,1,0,0:0:0:0:
253,258,173132,86,0,P|336:235|272:151,1,210,2|0,0:0|0:0,0:0:0:0:
290,150,173465,86,0,L|292:105,1,35,6|0,0:0|0:0,0:0:0:0:
453,40,173799,1,2,0:0:0:0:
453,40,173965,5,0,0:0:0:0:
452,57,174048,1,0,0:0:0:0:
451,74,174131,1,2,0:0:0:0:
291,115,174465,1,2,0:0:0:0:
292,126,174799,22,0,P|245:142|213:138,1,70,2|0,0:0|0:0,0:0:0:0:
112,114,175049,1,0,0:0:0:0:
114,129,175132,2,0,P|116:171|109:203,1,70,2|0,0:0|0:0,0:0:0:0:
186,269,175465,1,2,0:0:0:0:
217,254,175548,1,0,0:0:0:0:
251,247,175631,1,0,0:0:0:0:
363,282,175799,1,2,0:0:0:0:
365,291,175965,1,0,0:0:0:0:
368,303,176132,54,0,P|375:264|370:217,1,70,6|0,0:0|0:0,0:0:0:0:
358,103,176465,1,2,0:0:0:0:
255,191,176632,1,0,0:0:0:0:
448,218,176799,1,6,0:0:0:0:
324,365,176965,1,0,0:0:0:0:
305,147,177132,1,2,0:0:0:0:
457,313,177299,1,0,0:0:0:0:
357,35,177465,53,10,0:0:0:0:
320,71,177548,1,8,0:0:0:0:
270,85,177631,1,0,0:0:0:0:
219,73,177715,1,0,0:0:0:0:
181,38,177799,5,10,0:0:0:0:
187,90,177882,1,0,0:0:0:0:
177,141,177965,1,0,0:0:0:0:
153,187,178049,1,0,0:0:0:0:
116,225,178132,2,0,L|64:213,1,35,10|0,0:0|0:0,0:0:0:0:
181,322,178299,2,0,L|215:329,1,35
329,360,178465,54,0,P|344:333|365:313,1,52.5,2|0,0:0|0:0,0:0:0:0:
450,249,178799,22,0,P|394:209|468:72,1,210.000008010865,6|0,0:0|0:0,0:0:0:0:
470,162,179299,1,0,0:0:0:0:
321,225,179465,2,0,B|269:212|219:233|219:233|162:258|123:224|101:199,1,233.333333333333
182,143,180132,6,0,P|186:118|180:93,2,46.6666666666667,4|0|0,0:0|0:0|0:0,0:0:0:0:
274,39,180799,2,0,P|296:60|383:62,1,105.000004005432,10|0,0:0|0:0,0:0:0:0:
465,32,181299,1,0,0:0:0:0:
410,164,181465,6,0,L|405:262,1,70,4|0,0:0|0:0,0:0:0:0:
347,335,181799,2,0,P|311:320|265:323,1,70
188,275,182132,2,0,P|149:285|93:280,2,93.3333333333333,14|0|0,0:0|0:0|0:0,0:0:0:0:
267,189,182799,6,0,B|344:174|344:174|477:243,1,210,6|0,0:0|0:0,0:0:0:0:
470,228,183382,1,0,0:0:0:0:
480,220,183465,1,10,0:0:0:0:
374,318,183632,1,0,0:0:0:0:
267,189,183799,2,0,P|217:185|183:127,1,105,10|0,0:0|0:0,0:0:0:0:
184,144,184132,6,0,P|185:178|173:211,1,70,6|0,0:0|0:0,0:0:0:0:
108,306,184465,1,0,0:0:0:0:
57,203,184799,1,0,0:0:0:0:
57,203,185132,1,0,0:0:0:0:
108,306,185465,5,0,0:0:0:0:
108,306,185799,1,0,0:0:0:0:
173,211,186132,1,0,0:0:0:0:
224,384,186465,1,0,0:0:0:0:
231,293,186632,1,0,0:0:0:0:
334,347,186799,53,8,0:0:0:0:
369,202,186965,1,4,0:0:0:0:
479,382,187132,1,2,0:0:0:0:
303,261,187299,1,0,0:0:0:0:
497,220,187465,85,8,0:0:0:0:
402,384,187632,1,4,0:0:0:0:
440,149,187799,1,2,0:0:0:0:
479,382,187965,1,0,0:0:0:0:
285,175,188132,37,8,0:0:0:0:
284,188,188215,1,8,0:0:0:0:
283,202,188298,1,0,0:0:0:0:
282,216,188382,1,0,0:0:0:0:
283,231,188465,69,8,0:0:0:0:
244,231,188548,1,0,0:0:0:0:
208,243,188631,1,0,0:0:0:0:
177,266,188715,1,0,0:0:0:0:
155,298,188799,2,0,L|104:301,1,35,8|0,0:0|0:0,0:0:0:0:
48,195,188965,2,0,L|82:193,1,35
194,53,189132,37,8,0:0:0:0:
208,96,189215,1,8,0:0:0:0:
235,132,189298,1,8,0:0:0:0:
271,159,189382,1,8,0:0:0:0:
314,173,189465,1,14,0:0:0:0:
256,192,189632,12,0,191299,0:0:0:0:
160,288,194799,21,6,0:0:0:0:
352,96,194965,1,6,0:0:0:0:
351,113,195465,1,6,0:0:0:0:
351,130,196132,1,6,0:0:0:0:
350,147,196799,1,6,0:0:0:0:
214,344,197465,38,2,L|211:286,1,52.5,0|0,0:0|0:0,0:1:0:0:
210,280,198049,1,0,0:0:0:0:
209,269,198132,1,10,0:0:0:0:
200,153,198299,1,0,0:0:0:0:
316,190,198465,38,0,P|354:182|406:229,1,105,4|0,0:3|0:0,0:0:0:0:
427,260,198799,86,2,P|377:263|403:220,1,122.500001168251,6|0,0:0|0:0,0:1:0:0:
456,367,199049,86,2,P|368:382|289:289,1,175,6|0,0:0|0:0,0:1:0:0:
250,86,199299,70,2,P|280:125|276:207,1,105.000004005432,6|0,0:0|0:0,0:1:0:0:
328,264,199465,38,2,P|269:273|216:245,1,122.5,12|0,0:0|0:0,0:1:0:0:
289,75,200132,22,0,L|285:216,1,105.000004005432,6|0,0:0|0:0,0:0:0:0:
219,20,200465,1,0,0:0:0:0:
377,131,200632,1,0,0:0:0:0:
164,200,200799,54,0,P|199:224|224:257,1,70,2|0,0:0|0:0,0:0:0:0:
290,367,201132,1,0,0:0:0:0:
286,179,201299,1,0,0:0:0:0:
372,304,201465,2,0,P|395:329|424:348,1,70,10|0,0:0|0:0,0:0:0:0:
472,240,201799,1,0,0:0:0:0:
374,59,201965,69,0,0:0:0:0:
347,82,202049,1,0,0:0:0:0:
319,103,202132,2,0,L|238:106,1,70,2|0,0:0|0:0,0:0:0:0:
69,54,202465,1,0,0:0:0:0:
7,200,202632,1,0,0:0:0:0:
34,223,202716,1,0,0:0:0:0:
62,244,202799,2,0,P|116:249|186:209,1,105.000004005432,6|0,0:0|0:0,0:0:0:0:
257,46,203132,85,0,0:0:0:0:
103,157,203299,1,0,0:0:0:0:
334,151,203466,2,0,L|329:247,1,70,10|0,0:0|0:0,0:0:0:0:
190,338,203799,2,0,P|234:335|274:312,1,70
84,291,204132,37,10,0:0:0:0:
330,220,204299,1,0,0:0:0:0:
176,190,204465,2,0,L|172:120,1,70
257,324,204715,1,0,0:0:0:0:
293,328,204799,2,0,L|362:331,1,70,10|0,0:0|0:0,0:0:0:0:
471,242,205132,1,0,0:0:0:0:
392,89,205299,1,0,0:0:0:0:
256,232,205465,22,0,P|317:208|367:203,1,105.000004005432,6|0,0:0|0:0,0:0:0:0:
187,136,205799,1,0,0:0:0:0:
161,305,205965,1,0,0:0:0:0:
12,197,206132,2,0,P|42:206|90:210,1,70,2|0,0:0|0:0,0:0:0:0:
162,374,206465,2,0,P|158:339|161:305,1,70
256,96,206799,2,0,P|258:130|254:165,1,70,10|0,0:0|0:0,0:0:0:0:
130,129,207132,5,0,0:0:0:0:
254,165,207299,1,0,0:0:0:0:
36,106,207465,2,0,L|26:10,1,70,2|0,0:0|0:0,0:0:0:0:
118,197,207799,2,0,P|129:155|129:124,1,70
55,305,208049,1,0,0:0:0:0:
80,328,208132,2,0,B|120:363|209:350,1,105.000004005432,6|0,0:0|0:0,0:0:0:0:
277,258,208465,86,0,P|309:256|362:259,1,70
412,147,208799,2,0,P|377:148|342:146,1,70,10|0,0:0|0:0,0:0:0:0:
251,54,209132,2,0,P|283:52|336:55,1,70
448,77,209465,1,10,0:0:0:0:
486,215,209632,1,0,0:0:0:0:
342,146,209799,2,0,L|259:151,1,70
139,230,210049,1,0,0:0:0:0:
151,259,210132,38,0,L|145:321,1,61.25,14|0,0:0|0:0,0:0:0:0:
243,215,210799,22,0,P|184:161|133:158,1,105,6|0,0:0|0:0,0:0:0:0:
327,104,211132,2,0,P|380:106|428:97,1,70,2|0,0:0|0:0,0:0:0:0:
233,4,211465,1,10,0:0:0:0:
161,156,211632,1,0,0:0:0:0:
100,11,211799,2,0,L|13:9,1,70,2|0,0:0|0:0,0:0:0:0:
243,215,212132,5,2,0:0:0:0:
333,25,212299,1,0,0:0:0:0:
373,231,212465,1,2,0:0:0:0:
467,109,212632,1,0,0:0:0:0:
229,143,212799,2,0,P|173:156|134:151,1,70,10|0,0:0|0:0,0:0:0:0:
30,9,213132,2,0,P|47:51|51:102,1,70,2|0,0:0|0:0,0:0:0:0:
29,298,213465,6,0,P|38:245|66:170,1,105.000004005432,6|0,0:0|0:0,0:0:0:0:
157,41,213799,1,2,0:0:0:0:
330,115,213965,1,0,0:0:0:0:
365,302,214132,2,0,P|314:303|284:312,1,70,10|0,0:0|0:0,0:0:0:0:
452,357,214465,1,2,0:0:0:0:
328,175,214632,1,0,0:0:0:0:
486,223,214799,5,6,0:0:0:0:
487,174,214882,1,0,0:0:0:0:
488,125,214965,1,0,0:0:0:0:
230,173,215132,1,2,0:0:0:0:
279,174,215215,1,0,0:0:0:0:
328,175,215298,1,0,0:0:0:0:
180,302,215465,5,10,0:0:0:0:
131,301,215548,1,0,0:0:0:0:
82,300,215631,1,0,0:0:0:0:
24,125,215799,1,2,0:0:0:0:
25,174,215882,1,0,0:0:0:0:
26,223,215965,1,0,0:0:0:0:
144,51,216132,70,0,P|192:86|260:89,1,105.000004005432,6|0,0:0|0:0,0:0:0:0:
351,207,216465,2,0,P|332:170|298:143,1,70,2|0,0:0|0:0,0:0:0:0:
434,68,216799,2,0,L|512:69,1,70,10|0,0:0|0:0,0:0:0:0:
420,207,217132,2,0,L|350:206,1,70,2|0,0:0|0:0,0:0:0:0:
236,92,217465,5,2,0:0:0:0:
263,283,217632,1,0,0:0:0:0:
146,207,217799,1,2,0:0:0:0:
352,286,217965,1,0,0:0:0:0:
311,135,218132,2,0,P|325:100|353:51,1,70,10|0,0:0|0:0,0:0:0:0:
263,283,218465,1,2,0:0:0:0:
236,92,218632,1,0,0:0:0:0:
173,329,218799,6,0,P|111:348|46:330,1,105.000004005432,6|0,0:0|0:0,0:0:0:0:
4,218,219132,1,2,0:0:0:0:
146,207,219299,1,0,0:0:0:0:
66,98,219465,2,0,P|57:46|42:17,1,70,10|0,0:0|0:0,0:0:0:0:
174,123,219799,2,0,P|202:103|235:91,1,70,2|0,0:0|0:0,0:0:0:0:
314,230,220132,5,14,0:0:0:0:
256,8,220354,37,4,0:0:0:0:
384,128,220577,37,6,0:0:0:0:
192,224,220799,21,4,0:0:0:0:
352,384,221021,37,6,0:0:0:0:
314,230,221243,37,4,0:0:0:0:
224,128,221465,86,0,P|150:155|186:42,1,262.5,6|0,0:0|0:0,0:0:0:0:
172,100,222799,86,0,L|163:325,1,210.000008010865,0|2,0:0|0:0,0:0:0:0:
345,75,223799,2,0,P|385:72|428:51,1,78.7500030040742
409,190,224132,6,0,P|363:199|324:224,2,93.3333333333333,4|0|0,0:0|0:0|0:0,0:0:0:0:
196,180,224799,2,0,P|241:172|281:147,2,93.3333333333333,8|0|0,0:0|0:0|0:0,0:0:0:0:
65,99,225299,38,0,L|55:48,2,35,0|0|10,0:0|0:0|0:0,0:0:0:0:
87,214,225688,69,0,0:0:0:0:
58,64,225965,38,0,L|48:13,2,35,0|0|10,0:0|0:0|0:0,0:0:0:0:
208,249,226465,54,0,P|223:280|229:311,1,52.5,4|0,0:3|0:0,0:0:0:0:
282,352,226799,22,0,P|291:272|304:249,1,105.000004005432,4|0,0:0|0:0,0:0:0:0:
378,143,227132,1,0,0:0:0:0:
227,203,227299,1,0,0:0:0:0:
375,135,227465,1,8,0:0:0:0:
230,195,227632,1,0,0:0:0:0:
265,57,227799,1,0,0:0:0:0:
367,240,227965,1,0,0:0:0:0:
472,139,228132,5,0,0:0:0:0:
281,128,228299,1,0,0:0:0:0:
451,213,228465,1,0,0:0:0:0:
288,288,228632,1,0,0:0:0:0:
346,75,228799,2,0,L|348:23,1,35,10|0,0:0|0:0,0:0:0:0:
434,293,228965,1,0,0:0:0:0:
205,189,229132,2,0,L|150:191,1,35,10|0,0:0|0:0,0:0:0:0:
432,87,229299,1,0,0:0:0:0:
345,187,229465,5,6,0:0:0:0:
343,204,229548,1,0,0:0:0:0:
342,221,229631,1,0,0:0:0:0:
340,239,229715,1,0,0:0:0:0:
339,257,229799,5,0,0:0:0:0:
300,254,229882,1,0,0:0:0:0:
263,261,229965,1,0,0:0:0:0:
228,279,230049,1,0,0:0:0:0:
200,305,230132,5,0,0:0:0:0:
146,325,230215,1,0,0:0:0:0:
96,297,230298,1,0,0:0:0:0:
84,241,230382,1,0,0:0:0:0:
119,195,230465,2,0,L|98:147,1,35
165,63,230632,2,0,L|179:94,1,35
263,261,230799,5,0,0:0:0:0:
300,291,230882,1,0,0:0:0:0:
348,296,230965,1,0,0:0:0:0:
391,274,231049,1,0,0:0:0:0:
414,231,231132,1,0,0:0:0:0:
411,183,231215,1,0,0:0:0:0:
381,145,231299,2,0,L|427:112,1,35
293,97,231465,2,0,L|264:117,1,35
146,204,231632,5,0,0:0:0:0:
131,219,231715,1,0,0:0:0:0:
121,237,231798,1,0,0:0:0:0:
116,257,231882,1,0,0:0:0:0:
115,278,231965,1,0,0:0:0:0:
119,299,232048,1,0,0:0:0:0:
128,319,232132,86,0,B|205:278|273:347|273:347|319:336|341:258|299:215|299:215|278:239|277:282,1,367.500014019013,6|0,0:0|0:0,0:0:0:0:
372,146,233465,2,0,P|310:117|224:155,1,157.500006008148,2|0,0:0|0:0,0:0:0:0:
156,222,234132,2,0,B|125:249|86:241|86:241|55:199|84:157,1,157.500006008148,2|0,0:0|0:0,0:0:0:0:
149,57,234799,6,0,B|230:130|327:83|307:19|272:-20|205:-16|187:43|236:161,1,367.500014019013,2|0,0:0|0:0,0:0:0:0:
254,276,236132,102,0,P|282:304|409:310,1,157.500006008148,2|0,0:0|0:0,0:0:0:0:
413,215,236799,2,0,P|345:243|296:188,1,157.500006008148,2|0,0:0|0:0,0:0:0:0:
295,70,237465,6,0,B|234:44|167:117|129:89|129:89|143:60|143:60|114:45|114:45|140:6,1,262.500010013581,2|0,0:0|0:0,0:0:0:0:
43,296,238799,102,0,P|128:296|190:344,1,157.500006008148,2|0,0:0|0:0,0:0:0:0:
249,255,239465,2,0,P|188:194|178:117,1,157.500006008148,2|0,0:0|0:0,0:0:0:0:
275,125,240132,6,0,B|286:212|389:220|460:159|408:63|408:63|450:57|450:57|452:22|452:22|483:0|530:6,1,420.000016021729,2|0,0:0|0:0,0:0:0:0:
438,329,241799,21,2,0:0:0:0:
373,266,242132,2,0,P|348:260|322:258,1,52.5000020027161
222,250,242465,2,0,P|200:235|181:216,1,52.5000020027161,2|0,0:0|0:0,0:0:0:0:
137,116,242799,70,0,P|172:124|206:123,2,70.0000026702882,10|0|0,0:0|0:0|0:0,0:0:0:0:
53,66,243465,2,0,P|53:111|46:158,1,87.5000033378602,2|0,0:0|0:0,0:0:0:0:
374,267,244132,6,0,P|339:259|305:260,2,70.0000026702882,10|0|0,0:0|0:0|0:0,0:0:0:0:
459,318,244799,2,0,P|459:273|466:226,1,87.5000033378602,2|0,0:0|0:0,0:0:0:0:
224,64,245465,102,0,P|213:105|186:136,2,70.0000026702882,10|0|0,0:0|0:0|0:0,0:0:0:0:
288,147,246132,2,0,P|299:188|337:228,1,87.5000033378602,2|0,0:0|0:0,0:0:0:0:
55,297,246799,6,0,P|90:313|127:352,1,70.0000026702882,10|0,0:0|0:0,0:0:0:0:
181,296,247132,2,0,P|178:261|166:229,1,70.0000026702882,10|0,0:0|0:0,0:0:0:0:
285,282,247465,2,0,P|271:314|249:341,1,70.0000026702882,10|0,0:0|0:0,0:0:0:0:
266,195,248132,102,0,B|346:184|373:264|373:264|396:234|396:234|448:237|493:201|490:116|473:71|473:71|459:117|428:137,1,466.666666666667,10|0,0:0|0:0,0:0:0:0:
223,355,249465,6,0,P|208:322|212:242,1,105.000004005432,2|0,0:0|0:0,0:0:0:0:
304,254,250132,2,0,P|307:306|289:355,1,105.000004005432,2|0,0:0|0:0,0:0:0:0:
127,159,250799,2,0,P|255:64|383:159,1,341.250013017655,10|0,0:0|0:0,0:0:0:0:
188,315,252632,5,0,0:0:0:0:
186,328,252715,1,0,0:0:0:0:
184,341,252799,2,2,L|126:345,1,52.5000020027161,14|0,0:0|0:0,0:1:0:0:
288,192,253465,22,0,P|317:195|346:59,1,210.000008010865,6|2,0:0|0:0,0:0:0:0:
367,77,254799,86,0,P|369:163|287:191,1,183.750007009506,6|0,0:0|0:0,0:0:0:0:
287,191,255465,2,0,P|219:152|142:153,1,157.500006008148,6|0,0:0|0:0,0:0:0:0:
102,359,256132,2,0,L|144:142,1,210.000008010865,6|2,0:0|0:0,0:0:0:0:
372,232,257299,85,0,0:0:0:0:
374,244,257382,1,0,0:0:0:0:
377,260,257465,2,0,P|413:271|453:269,2,70.0000026702882,14|12|14,0:0|0:0|0:0,0:0:0:0:
269,216,258132,2,0,P|234:215|200:226,2,70.0000026702882,12|10|12,0:0|0:0|0:0,0:0:0:0:
424,109,258799,54,0,P|382:117|270:9,1,210.000008010865,6|0,0:0|0:0,0:0:0:0:
256,192,259799,1,2,0:0:0:0:
286,62,260132,86,0,P|346:110|423:109,1,157.500006008148,6|0,0:0|0:0,0:0:0:0:
435,213,260799,2,0,L|423:109,1,105.000004005432,6|0,0:0|0:0,0:0:0:0:
349,328,261299,1,0,0:0:0:0:
347,314,261382,1,0,0:0:0:0:
345,302,261465,86,0,L|247:311,1,70,4|0,0:0|0:0,0:0:0:0:
221,220,261799,2,0,L|290:213,1,70
237,126,262132,2,0,L|167:132,1,70
113,44,262465,2,0,L|177:37,1,35
167,131,262632,2,0,L|132:134,1,35
67,208,262799,101,0,0:0:0:0:
82,238,262882,1,0,0:0:0:0:
110,258,262965,1,0,0:0:0:0:
145,262,263048,1,0,0:0:0:0:
177,248,263132,1,0,0:0:0:0:
198,221,263215,1,0,0:0:0:0:
204,187,263299,53,0,0:0:0:0:
206,207,263382,1,0,0:0:0:0:
209,228,263465,1,0,0:0:0:0:
212,249,263548,1,0,0:0:0:0:
214,270,263632,1,0,0:0:0:0:
217,291,263715,1,0,0:0:0:0:
275,345,263799,102,0,L|301:342,1,26.25,4|4,0:3|0:3,0:0:0:0:
163,364,264132,22,0,P|110:337|94:275,1,105.000004005432,6|0,0:0|0:0,0:0:0:0:
94,171,264465,1,8,0:0:0:0:
256,192,264632,1,0,0:0:0:0:
270,182,264715,1,0,0:0:0:0:
282,170,264799,2,0,L|293:85,1,70
367,249,265132,2,0,L|375:318,1,70,8|0,0:0|0:0,0:0:0:0:
404,153,265465,85,0,0:0:0:0:
302,289,265632,1,0,0:0:0:0:
256,192,265799,2,0,L|199:192,1,35,10|0,0:0|0:0,0:0:0:0:
363,100,265965,1,0,0:0:0:0:
100,127,266132,1,0,0:0:0:0:
216,23,266299,1,0,0:0:0:0:
221,192,266465,2,0,L|221:249,1,35,10|0,0:0|0:0,0:0:0:0:
363,100,266631,1,0,0:0:0:0:
216,23,266799,86,0,P|246:77|248:133,1,105.000004005432,6|0,0:0|0:0,0:0:0:0:
221,311,267132,2,0,P|268:307|318:323,1,70,8|0,0:0|0:0,0:0:0:0:
412,354,267382,1,0,0:0:0:0:
405,322,267465,2,0,P|400:287|404:252,1,70
249,119,267799,1,8,0:0:0:0:
290,311,267966,1,0,0:0:0:0:
477,249,268132,53,14,0:0:0:0:
263,322,268299,1,0,0:0:0:0:
477,249,268466,85,14,0:0:0:0:
192,215,268632,1,0,0:0:0:0:
210,213,268715,1,0,0:0:0:0:
227,212,268798,1,14,0:0:0:0:
477,249,268966,69,0,0:0:0:0:
149,116,269132,1,14,0:0:0:0:
310,383,269299,5,0,0:0:0:0:
224,29,269466,2,0,B|154:21|154:21|86:36|86:36|14:26,1,210.000008010865,14|0,0:0|0:0,0:0:0:0:
77,156,269965,1,0,0:0:0:0:
139,302,270132,2,0,P|173:276|192:228,1,70,10|0,0:0|0:0,0:0:0:0:
256,128,270466,1,0,0:0:0:0:
286,324,270632,1,0,0:0:0:0:
288,341,270715,1,0,0:0:0:0:
289,360,270799,54,0,L|337:358,1,35,10|0,0:0|0:0,0:0:0:0:
393,250,270966,1,0,0:0:0:0:
289,360,271132,1,0,0:0:0:0:
159,196,271299,86,0,L|124:197,1,35,10|0,0:0|0:0,0:0:0:0:
275,189,271466,1,0,0:0:0:0:
393,250,271632,70,0,L|400:209,1,35,10|0,0:0|0:0,0:0:0:0:
372,88,271799,2,0,L|379:47,1,35,10|0,0:0|0:0,0:0:0:0:
472,248,271965,5,0,0:0:0:0:
462,285,272049,1,0,0:0:0:0:
437,313,272132,2,0,P|405:326|352:316,1,70,6|0,0:0|0:0,0:0:0:0:
256,192,272465,1,0,0:0:0:0:
74,312,272632,2,0,P|107:326|141:323,1,70,6|0,0:0|0:0,0:0:0:0:
256,192,272965,53,0,0:0:0:0:
255,157,273048,1,0,0:0:0:0:
255,120,273132,2,0,L|165:121,1,70,6|0,0:0|0:0,0:0:0:0:
57,125,273465,1,0,0:0:0:0:
116,16,273632,1,10,0:0:0:0:
141,215,273799,1,0,0:0:0:0:
240,48,273965,85,0,0:0:0:0:
241,65,274048,1,0,0:0:0:0:
243,83,274132,2,0,L|292:82,1,35
329,201,274299,2,0,L|294:201,1,35
176,353,274465,85,8,0:0:0:0:
128,361,274548,1,8,0:0:0:0:
83,344,274631,1,8,0:0:0:0:
54,306,274714,1,8,0:0:0:0:
49,257,274799,102,0,P|12:248|-15:244,1,52.5000020027161,6|0,0:0|0:0,0:0:0:0:
108,192,274965,2,0,P|133:186|158:179,1,52.5000020027161,4|0,0:0|0:0,0:0:0:0:
202,69,275132,1,0,0:0:0:0:
205,78,275299,1,0,0:0:0:0:
318,195,275465,2,0,P|341:168|354:124,1,70,10|0,0:0|0:0,0:0:0:0:
435,34,275799,2,0,P|446:66|469:93,1,70
445,223,276049,1,0,0:0:0:0:
440,261,276132,6,0,P|385:285|333:277,1,105.000004005432,6|4,0:0|0:0,0:0:0:0:
236,162,276465,1,0,0:0:0:0:
234,171,276632,1,0,0:0:0:0:
153,357,276799,2,0,P|177:332|190:300,1,70,10|0,0:0|0:0,0:0:0:0:
114,161,277132,2,0,P|129:206|121:248,1,70,4|0,0:0|0:0,0:0:0:0:
47,102,277465,22,0,P|94:74|159:82,1,105.000004005432,6|4,0:0|0:0,0:0:0:0:
263,121,277799,2,0,P|305:118|340:96,1,70
401,14,278132,1,10,0:0:0:0:
472,133,278299,1,0,0:0:0:0:
390,235,278465,2,0,L|394:146,1,70
324,5,278715,1,0,0:0:0:0:
326,35,278799,2,0,L|329:104,1,70,6|0,0:0|0:0,0:0:0:0:
164,151,279132,1,0,0:0:0:0:
164,151,279465,5,8,0:0:0:0:
94,158,279576,1,8,0:0:0:0:
24,165,279687,1,8,0:0:0:0:
54,101,279799,53,0,0:0:0:0:
60,170,279910,1,0,0:0:0:0:
66,240,280021,1,0,0:0:0:0:
73,310,280132,6,0,B|188:298|188:298|165:328,1,140,6|2,0:0|0:0,0:0:0:0:
329,109,281465,22,0,B|390:156|455:124|455:124|440:88,1,157.500006008148,6|0,0:0|0:0,0:0:0:0:
430,286,282132,2,0,L|446:97,1,183.750007009506,14|0,0:0|0:0,0:0:0:0:
324,31,282799,22,0,P|294:76|236:94,1,105.000004005432,6|0,0:0|0:0,0:0:0:0:
120,86,283132,1,8,0:0:0:0:
168,221,283299,1,0,0:0:0:0:
185,0,283465,1,8,0:0:0:0:
214,163,283632,1,0,0:0:0:0:
38,209,283799,2,0,L|125:165,1,70,0|8,0:0|0:0,0:0:0:0:
321,180,284132,6,0,L|259:212,1,70
162,361,284382,1,0,0:0:0:0:
146,338,284465,2,0,L|114:275,1,70,8|0,0:0|0:0,0:0:0:0:
173,41,284716,1,0,0:0:0:0:
189,64,284799,2,0,L|221:127,1,70
311,279,285132,1,8,0:0:0:0:
474,200,285299,1,0,0:0:0:0:
283,158,285465,86,0,P|346:162|392:185,1,105.000004005432,6|0,0:0|0:0,0:0:0:0:
447,346,285799,2,0,P|428:304|422:266,1,70,8|0,0:0|0:0,0:0:0:0:
511,119,286132,2,0,P|502:152|487:184,1,70,8|0,0:0|0:0,0:0:0:0:
423,280,286465,1,0,0:0:0:0:
390,121,286632,1,8,0:0:0:0:
319,249,286799,38,0,P|274:253|223:238,1,70
233,244,287049,1,0,0:0:0:0:
218,238,287132,1,8,0:0:0:0:
148,114,287299,21,0,0:0:0:0:
146,131,287382,1,0,0:0:0:0:
145,149,287465,1,0,0:0:0:0:
109,176,287548,1,0,0:0:0:0:
65,175,287631,1,0,0:0:0:0:
32,145,287714,1,0,0:0:0:0:
26,101,287799,2,0,L|-18:97,1,35,8|8,0:0|0:0,0:0:0:0:
130,26,287965,2,0,L|164:29,1,35,8|8,0:0|0:0,0:0:0:0:
299,101,288132,38,0,P|376:83|404:48,1,105.000004005432,6|0,0:0|0:0,0:0:0:0:
472,187,288465,2,0,P|443:215|430:270,1,70,8|0,0:0|0:0,0:0:0:0:
300,294,288799,2,0,P|328:322|341:377,1,70,8|0,0:0|0:0,0:0:0:0:
352,160,289132,1,0,0:0:0:0:
192,223,289299,2,0,P|176:180|177:129,1,70,8|0,0:0|0:0,0:0:0:0:
299,101,289632,21,0,0:0:0:0:
338,93,289715,1,0,0:0:0:0:
378,85,289799,2,0,L|456:86,1,70,8|0,0:0|0:0,0:0:0:0:
486,227,290049,1,0,0:0:0:0:
446,235,290133,2,0,L|368:234,1,70
282,148,290465,2,0,P|255:117|199:95,1,70,8|0,0:0|0:0,0:0:0:0:
90,74,290799,6,0,L|81:19,1,35,14|0,0:0|0:0,0:0:0:0:
114,204,290965,1,0,0:0:0:0:
230,102,291132,1,0,0:0:0:0:
246,258,291299,2,0,L|191:267,1,35,14|0,0:0|0:0,0:0:0:0:
376,234,291465,1,0,0:0:0:0:
269,147,291632,102,0,L|310:154,1,35,14|0,0:0|0:0,0:0:0:0:
431,126,291799,2,0,L|472:133,3,35,14|0|0|0,0:0|0:0|0:0|0:0,0:0:0:0:
426,292,292132,1,8,0:0:0:0:
423,298,292215,1,8,0:0:0:0:
421,305,292298,1,0,0:0:0:0:
419,312,292381,1,0,0:0:0:0:
416,321,292465,5,8,0:0:0:0:
386,339,292548,1,0,0:0:0:0:
352,345,292631,1,0,0:0:0:0:
317,338,292714,1,0,0:0:0:0:
288,319,292799,69,8,0:0:0:0:
258,269,292882,1,0,0:0:0:0:
206,242,292965,1,0,0:0:0:0:
147,246,293048,1,0,0:0:0:0:
100,281,293132,2,0,P|82:246|45:209,1,70,6|0,0:0|0:0,0:0:0:0:
128,96,293465,1,6,0:0:0:0:
256,192,293632,12,6,300132,0:0:0:0:
191,150,301215,102,0,L|187:121,2,17.5,8|8|0,0:0|0:0|0:0,0:0:0:0:
