osu file format v14

[General]
AudioFilename: audio.mp3
AudioLeadIn: 0
PreviewTime: 66487
Countdown: 0
SampleSet: None
StackLeniency: 0.7
Mode: 3
LetterboxInBreaks: 0
SpecialStyle: 0
WidescreenStoryboard: 0

[Editor]
DistanceSpacing: 1
BeatDivisor: 4
GridSize: 4
TimelineZoom: 2.5

[Metadata]
Title:Stay by my side
TitleUnicode:Stay by my side
Artist:Draw the Emotional & Foreground Eclipse
ArtistUnicode:Draw the Emotional & Foreground Eclipse
Creator:[ Blaze ]
Version:540's Hard
Source:東方Project
Tags:seated with liquor ゆよゆっぺ yuyoyuppe 柿チョコ withered leaf ティアオイエツォン perfect cherry blossom 東方妖々夢 ~ touhou atian540
BeatmapID:1390619
BeatmapSetID:473736

[Difficulty]
HPDrainRate:7.5
CircleSize:4
OverallDifficulty:8
ApproachRate:8
SliderMultiplier:1.6
SliderTickRate:1

[Events]
//Background and Video events
0,0,"burning chen.jpg",0,0
//Break Periods
//Storyboard Layer 0 (Background)
//Storyboard Layer 1 (Fail)
//Storyboard Layer 2 (Pass)
//Storyboard Layer 3 (Foreground)
//Storyboard Sound Samples
Sample,18487,0,"boom.wav",35
Sample,42487,0,"boom.wav",35
Sample,49237,0,"finish2.wav",35
Sample,50737,0,"finish2.wav",35
Sample,60862,0,"finish2.wav",35
Sample,61237,0,"finish2.wav",35
Sample,61612,0,"finish2.wav",35
Sample,61987,0,"finish2.wav",35
Sample,62362,0,"finish2.wav",35
Sample,62737,0,"finish2.wav",35
Sample,66487,0,"boom.wav",35
Sample,66862,0,"finish2.wav",35
Sample,67612,0,"finish2.wav",35
Sample,67987,0,"finish2.wav",35
Sample,68362,0,"finish2.wav",35
Sample,69112,0,"finish2.wav",35
Sample,69862,0,"finish2.wav",35
Sample,70612,0,"finish2.wav",35
Sample,71362,0,"finish2.wav",35
Sample,72862,0,"finish2.wav",35
Sample,73612,0,"finish2.wav",35
Sample,74362,0,"finish2.wav",35
Sample,75112,0,"finish2.wav",35
Sample,75862,0,"finish2.wav",35
Sample,76612,0,"finish2.wav",35
Sample,76987,0,"finish2.wav",35
Sample,90487,0,"finish1.wav",35
Sample,93487,0,"finish4.wav",35
Sample,99487,0,"finish4.wav",35
Sample,115237,0,"finish2.wav",35
Sample,116737,0,"finish2.wav",35
Sample,117487,0,"finish2.wav",35
Sample,118237,0,"finish2.wav",35
Sample,121237,0,"finish2.wav",35
Sample,122737,0,"finish2.wav",35
Sample,132862,0,"finish2.wav",35
Sample,133237,0,"finish2.wav",35
Sample,133612,0,"finish2.wav",35
Sample,133987,0,"finish2.wav",35
Sample,134362,0,"finish2.wav",35
Sample,134737,0,"finish2.wav",35
Sample,147653,0,"finish2.wav",35
Sample,148987,0,"finish2.wav",35
Sample,149431,0,"finish2.wav",35
Sample,150320,0,"finish2.wav",35
Sample,167653,0,"finish2.wav",35
Sample,168542,0,"finish2.wav",35
Sample,168986,0,"finish2.wav",35
Sample,169431,0,"finish2.wav",35
Sample,170320,0,"finish2.wav",35
Sample,170764,0,"finish2.wav",35
Sample,171209,0,"finish2.wav",35
Sample,172098,0,"finish2.wav",35
Sample,172986,0,"finish2.wav",35
Sample,174320,0,"finish2.wav",35
Sample,174764,0,"finish2.wav",35
Sample,175653,0,"finish2.wav",35
Sample,176098,0,"finish2.wav",35
Sample,176542,0,"finish2.wav",35
Sample,177431,0,"finish2.wav",35
Sample,177875,0,"finish2.wav",35
Sample,178320,0,"finish2.wav",35
Sample,179209,0,"finish2.wav",35
Sample,180098,0,"finish2.wav",35
Sample,181875,0,"finish2.wav",35
Sample,182764,0,"finish2.wav",35
Sample,183209,0,"finish2.wav",35
Sample,183653,0,"finish2.wav",35
Sample,184542,0,"finish2.wav",35
Sample,185431,0,"finish2.wav",35
Sample,186320,0,"finish2.wav",35
Sample,187209,0,"finish2.wav",35
Sample,188986,0,"finish2.wav",35
Sample,189875,0,"finish2.wav",35
Sample,190320,0,"finish2.wav",35
Sample,190764,0,"finish2.wav",35
Sample,191653,0,"finish2.wav",35
Sample,192098,0,"finish2.wav",35
Sample,192542,0,"finish2.wav",35
Sample,193431,0,"finish2.wav",35
Sample,195653,0,"boom.wav",35

[TimingPoints]
487,375,4,3,0,30,1,0
66487,-100,4,3,0,30,0,1
90487,-100,4,3,0,30,0,0
102862,-100,4,3,0,15,0,0
112987,-100,4,3,0,30,0,0
136987,444.444444444444,4,3,0,30,1,0
136987,-100,4,3,0,30,0,0
167209,-84.0336134453781,4,3,0,30,0,1
195653,-84.0336134453781,4,3,0,30,0,0

[HitObjects]
448,192,487,128,0,5737:0:0:0:35:boom.wav
320,192,487,1,0,0:0:0:35:
64,192,1987,1,0,0:0:0:35:
320,192,2362,1,0,0:0:0:35:
192,192,2737,1,0,0:0:0:35:
320,192,3112,1,0,0:0:0:35:
64,192,3487,1,0,0:0:0:35:
320,192,3862,1,0,0:0:0:35:
64,192,4237,1,0,0:0:0:35:
192,192,4612,1,0,0:0:0:35:
320,192,4987,1,0,0:0:0:35:
192,192,5362,1,0,0:0:0:35:
64,192,5737,1,0,0:0:0:35:tak.wav
192,192,5737,1,0,0:0:0:35:
320,192,5830,1,0,0:0:0:35:tak.wav
448,192,5924,1,0,0:0:0:35:dung.wav
64,192,5924,1,0,0:0:0:0:
192,192,6018,1,0,0:0:0:35:dung.wav
448,192,6112,1,0,0:0:0:35:tak.wav
320,192,6112,1,0,0:0:0:35:
448,192,6487,1,0,0:0:0:35:finish1.wav
320,192,6487,1,0,0:0:0:35:dung.wav
192,192,6487,1,0,0:0:0:35:boom.wav
64,192,6674,1,0,0:0:0:35:
192,192,6862,1,0,0:0:0:35:tak.wav
448,192,6862,1,0,0:0:0:35:finish3.wav
64,192,7049,1,0,0:0:0:35:dung.wav
320,192,7237,1,0,0:0:0:35:tak.wav
448,192,7237,1,0,0:0:0:35:finish3.wav
192,192,7424,1,0,0:0:0:35:dung.wav
64,192,7612,1,0,0:0:0:35:tak.wav
320,192,7612,1,0,0:0:0:35:finish3.wav
448,192,7799,1,0,0:0:0:35:dung.wav
192,192,7987,1,0,0:0:0:35:tak.wav
64,192,7987,1,0,0:0:0:35:finish3.wav
320,192,8174,1,0,0:0:0:35:dung.wav
448,192,8362,1,0,0:0:0:35:tak.wav
192,192,8362,1,0,0:0:0:35:finish3.wav
64,192,8549,1,0,0:0:0:35:dung.wav
192,192,8643,1,0,0:0:0:35:dung.wav
320,192,8737,1,0,0:0:0:35:tak.wav
448,192,8737,1,0,0:0:0:35:finish3.wav
192,192,8924,1,0,0:0:0:35:dung.wav
64,192,9112,1,0,0:0:0:35:tak.wav
448,192,9112,1,0,0:0:0:35:finish3.wav
192,192,9299,1,0,0:0:0:35:dung.wav
64,192,9487,1,0,0:0:0:35:tak.wav
320,192,9487,1,0,0:0:0:35:finish3.wav
448,192,9674,1,0,0:0:0:35:dung.wav
320,192,9862,1,0,0:0:0:35:tak.wav
192,192,9862,1,0,0:0:0:35:finish3.wav
64,192,10049,1,0,0:0:0:35:dung.wav
192,192,10143,1,0,0:0:0:35:dung.wav
320,192,10237,1,0,0:0:0:35:tak.wav
448,192,10237,1,0,0:0:0:35:finish3.wav
64,192,10424,1,0,0:0:0:35:dung.wav
192,192,10612,1,0,0:0:0:35:tak.wav
448,192,10612,1,0,0:0:0:35:finish3.wav
320,192,10799,1,0,0:0:0:35:dung.wav
192,192,10987,1,0,0:0:0:35:tak.wav
64,192,10987,1,0,0:0:0:35:
320,192,11080,1,0,0:0:0:35:tak.wav
448,192,11174,1,0,0:0:0:35:dung.wav
64,192,11268,1,0,0:0:0:35:dung.wav
192,192,11362,1,0,0:0:0:35:dung.wav
448,192,11455,1,0,0:0:0:35:dung.wav
320,192,11549,1,0,0:0:0:35:dung.wav
192,192,11643,1,0,0:0:0:35:dung.wav
64,192,11737,1,0,0:0:0:35:tak.wav
448,192,11737,1,0,0:0:0:35:
320,192,11830,1,0,0:0:0:35:dung.wav
64,192,11924,1,0,0:0:0:35:dung.wav
192,192,12018,1,0,0:0:0:35:dung.wav
448,192,12112,1,0,0:0:0:35:tak.wav
320,192,12112,1,0,0:0:0:35:
192,192,12205,1,0,0:0:0:35:tak.wav
64,192,12205,1,0,0:0:0:35:
320,192,12299,1,0,0:0:0:35:tak.wav
448,192,12299,1,0,0:0:0:35:
192,192,12393,1,0,0:0:0:35:tak.wav
320,192,12487,1,0,0:0:0:35:dung.wav
448,192,12487,1,0,0:0:0:35:finish1.wav
64,192,12487,1,0,0:0:0:35:
192,192,12674,1,0,0:0:0:35:
64,192,12862,1,0,0:0:0:35:tak.wav
448,192,12862,1,0,0:0:0:35:finish3.wav
320,192,13049,1,0,0:0:0:35:dung.wav
448,192,13237,1,0,0:0:0:35:tak.wav
192,192,13237,1,0,0:0:0:35:finish3.wav
64,192,13424,1,0,0:0:0:35:dung.wav
320,192,13612,1,0,0:0:0:35:tak.wav
448,192,13612,1,0,0:0:0:35:finish3.wav
192,192,13799,1,0,0:0:0:35:dung.wav
64,192,13987,1,0,0:0:0:35:tak.wav
448,192,13987,1,0,0:0:0:35:finish3.wav
320,192,14174,1,0,0:0:0:35:dung.wav
448,192,14362,1,0,0:0:0:35:tak.wav
192,192,14362,1,0,0:0:0:35:finish3.wav
64,192,14549,1,0,0:0:0:35:dung.wav
192,192,14643,1,0,0:0:0:35:dung.wav
448,192,14737,1,0,0:0:0:35:tak.wav
320,192,14737,1,0,0:0:0:35:finish3.wav
64,192,14924,1,0,0:0:0:35:dung.wav
448,192,15112,1,0,0:0:0:35:tak.wav
192,192,15112,1,0,0:0:0:35:finish3.wav
320,192,15299,1,0,0:0:0:35:dung.wav
192,192,15487,1,0,0:0:0:35:tak.wav
64,192,15487,1,0,0:0:0:35:finish1.wav
448,192,15674,1,0,0:0:0:35:dung.wav
64,192,15862,1,0,0:0:0:35:dung.wav
320,192,16049,1,0,0:0:0:35:tak.wav
192,192,16049,1,0,0:0:0:35:finish4.wav
64,192,16237,1,0,0:0:0:35:dung.wav
320,192,16424,1,0,0:0:0:35:tak.wav
448,192,16424,1,0,0:0:0:35:finish1.wav
192,192,16612,1,0,0:0:0:35:tak.wav
64,192,16612,1,0,0:0:0:35:finish1.wav
448,192,16799,1,0,0:0:0:35:dung.wav
320,192,16893,1,0,0:0:0:35:dung.wav
64,192,16987,1,0,0:0:0:35:dung.wav
192,192,17049,1,0,0:0:0:35:dung.wav
320,192,17112,1,0,0:0:0:35:dung.wav
448,192,17174,1,0,0:0:0:35:dung.wav
64,192,17268,1,0,0:0:0:35:dung.wav
448,192,17362,1,0,0:0:0:35:tak.wav
320,192,17362,1,0,0:0:0:35:
64,192,17455,1,0,0:0:0:35:tak.wav
192,192,17455,1,0,0:0:0:35:
320,192,17549,1,0,0:0:0:35:dung.wav
448,192,17643,1,0,0:0:0:35:dung.wav
64,192,17737,128,0,18112:0:0:0:35:
448,192,18112,128,0,18487:0:0:0:35:
192,192,18487,1,0,0:0:0:35:finish1.wav
64,192,18487,1,0,0:0:0:35:dung.wav
448,192,18674,1,0,0:0:0:0:
64,192,18862,1,0,0:0:0:35:dung.wav
320,192,18862,1,0,0:0:0:35:finish2.wav
192,192,19049,1,0,0:0:0:0:
320,192,19237,1,0,0:0:0:35:tak.wav
448,192,19237,1,0,0:0:0:35:finish2.wav
64,192,19424,1,0,0:0:0:35:dung.wav
448,192,19612,1,0,0:0:0:35:dung.wav
192,192,19612,1,0,0:0:0:35:finish2.wav
320,192,19799,1,0,0:0:0:35:dung.wav
64,192,19987,1,0,0:0:0:35:dung.wav
192,192,19987,1,0,0:0:0:35:finish2.wav
448,192,20174,1,0,0:0:0:35:dung.wav
320,192,20362,1,0,0:0:0:0:
192,192,20362,1,0,0:0:0:35:finish2.wav
64,192,20549,1,0,0:0:0:0:
192,192,20737,1,0,0:0:0:35:tak.wav
448,192,20737,1,0,0:0:0:35:finish2.wav
320,192,20924,1,0,0:0:0:35:dung.wav
64,192,21112,1,0,0:0:0:35:dung.wav
192,192,21112,1,0,0:0:0:35:finish2.wav
448,192,21299,1,0,0:0:0:35:dung.wav
64,192,21487,1,0,0:0:0:35:dung.wav
320,192,21487,1,0,0:0:0:35:finish2.wav
192,192,21674,1,0,0:0:0:35:dung.wav
448,192,21862,1,0,0:0:0:35:dung.wav
320,192,21862,1,0,0:0:0:35:finish2.wav
64,192,22049,1,0,0:0:0:35:dung.wav
448,192,22237,1,0,0:0:0:35:tak.wav
192,192,22237,1,0,0:0:0:35:finish2.wav
320,192,22424,1,0,0:0:0:35:dung.wav
64,192,22612,1,0,0:0:0:0:
192,192,22612,1,0,0:0:0:35:finish2.wav
448,192,22799,1,0,0:0:0:35:dung.wav
320,192,22987,1,0,0:0:0:35:dung.wav
64,192,22987,1,0,0:0:0:35:finish2.wav
192,192,23174,1,0,0:0:0:35:dung.wav
448,192,23362,1,0,0:0:0:35:finish2.wav
192,192,23549,1,0,0:0:0:0:
64,192,23737,1,0,0:0:0:35:tak.wav
448,192,23737,1,0,0:0:0:35:
320,192,23830,1,0,0:0:0:35:dung.wav
192,192,23924,1,0,0:0:0:35:dung.wav
64,192,24018,1,0,0:0:0:35:dung.wav
320,192,24112,1,0,0:0:0:35:tak.wav
448,192,24112,1,0,0:0:0:35:
192,192,24205,1,0,0:0:0:0:
64,192,24299,1,0,0:0:0:35:tak.wav
320,192,24299,1,0,0:0:0:35:
448,192,24393,1,0,0:0:0:35:tak.wav
64,192,24487,1,0,0:0:0:35:finish1.wav
192,192,24487,1,0,0:0:0:35:dung.wav
320,192,24674,1,0,0:0:0:0:
192,192,24862,1,0,0:0:0:35:tak.wav
448,192,24862,1,0,0:0:0:35:finish2.wav
64,192,25049,1,0,0:0:0:0:
448,192,25237,1,0,0:0:0:35:dung.wav
320,192,25237,1,0,0:0:0:35:finish2.wav
192,192,25424,1,0,0:0:0:35:dung.wav
448,192,25612,1,0,0:0:0:35:tak.wav
64,192,25612,1,0,0:0:0:35:finish2.wav
192,192,25799,1,0,0:0:0:35:dung.wav
64,192,25987,1,0,0:0:0:35:dung.wav
320,192,25987,1,0,0:0:0:35:finish2.wav
448,192,26174,1,0,0:0:0:35:dung.wav
192,192,26362,1,0,0:0:0:35:tak.wav
64,192,26362,1,0,0:0:0:35:finish2.wav
320,192,26549,1,0,0:0:0:35:dung.wav
192,192,26737,1,0,0:0:0:35:dung.wav
448,192,26737,1,0,0:0:0:35:finish2.wav
64,192,26924,1,0,0:0:0:35:dung.wav
448,192,27112,1,0,0:0:0:35:tak.wav
320,192,27112,1,0,0:0:0:35:finish2.wav
64,192,27299,1,0,0:0:0:35:dung.wav
192,192,27487,1,0,0:0:0:35:dung.wav
320,192,27487,1,0,0:0:0:35:finish2.wav
448,192,27674,1,0,0:0:0:35:dung.wav
320,192,27862,1,0,0:0:0:35:tak.wav
64,192,27862,1,0,0:0:0:35:finish2.wav
192,192,28049,1,0,0:0:0:35:dung.wav
448,192,28237,1,0,0:0:0:35:dung.wav
320,192,28237,1,0,0:0:0:35:finish2.wav
64,192,28424,1,0,0:0:0:35:dung.wav
448,192,28612,1,0,0:0:0:35:tak.wav
192,192,28612,1,0,0:0:0:35:finish2.wav
320,192,28799,1,0,0:0:0:35:dung.wav
192,192,28987,1,0,0:0:0:35:dung.wav
64,192,28987,1,0,0:0:0:35:finish2.wav
448,192,29174,1,0,0:0:0:35:dung.wav
320,192,29362,1,0,0:0:0:35:tak.wav
64,192,29362,1,0,0:0:0:35:finish2.wav
192,192,29549,1,0,0:0:0:35:dung.wav
448,192,29737,1,0,0:0:0:35:tak.wav
64,192,29737,1,0,0:0:0:35:finish2.wav
320,192,29830,1,0,0:0:0:35:tak.wav
192,192,29924,1,0,0:0:0:35:dung.wav
64,192,30018,1,0,0:0:0:35:dung.wav
448,192,30112,1,0,0:0:0:35:dung.wav
320,192,30205,1,0,0:0:0:35:dung.wav
64,192,30299,1,0,0:0:0:35:tak.wav
192,192,30393,1,0,0:0:0:35:dung.wav
320,192,30487,1,0,0:0:0:35:dung.wav
448,192,30487,1,0,0:0:0:35:finish1.wav
192,192,30674,1,0,0:0:0:35:dung.wav
64,192,30674,1,0,0:0:0:35:
448,192,30862,1,0,0:0:0:35:dung.wav
192,192,30862,1,0,0:0:0:35:
320,192,31049,1,0,0:0:0:35:dung.wav
64,192,31049,1,0,0:0:0:35:
448,192,31424,1,0,0:0:0:35:dung.wav
192,192,31424,1,0,0:0:0:35:
320,192,31612,1,0,0:0:0:35:dung.wav
64,192,31612,1,0,0:0:0:35:
320,192,31799,1,0,0:0:0:35:dung.wav
448,192,31799,1,0,0:0:0:35:
192,192,31987,1,0,0:0:0:35:tak.wav
64,192,31987,1,0,0:0:0:35:finish4.wav
448,192,32174,128,0,33487:0:0:0:35:
320,192,32924,1,0,0:0:0:35:dung.wav
192,192,33112,1,0,0:0:0:35:dung.wav
64,192,33299,1,0,0:0:0:35:dung.wav
320,192,33487,1,0,0:0:0:35:finish4.wav
192,192,33487,1,0,0:0:0:35:dung.wav
448,192,33674,1,0,0:0:0:35:dung.wav
64,192,33674,1,0,0:0:0:35:
64,192,33862,1,0,0:0:0:35:dung.wav
320,192,33862,1,0,0:0:0:35:
448,192,34049,1,0,0:0:0:35:dung.wav
192,192,34049,1,0,0:0:0:35:
448,192,34424,1,0,0:0:0:35:dung.wav
192,192,34424,1,0,0:0:0:35:
64,192,34612,1,0,0:0:0:35:dung.wav
320,192,34612,1,0,0:0:0:35:
192,192,34799,1,0,0:0:0:35:dung.wav
320,192,34799,1,0,0:0:0:35:
64,192,34987,128,0,35737:0:0:0:35:finish4.wav
448,192,34987,1,0,0:0:0:35:tak.wav
192,192,35549,1,0,0:0:0:35:dung.wav
320,192,35643,1,0,0:0:0:35:dung.wav
448,192,35737,1,0,0:0:0:35:tak.wav
192,192,35830,1,0,0:0:0:35:dung.wav
320,192,35924,1,0,0:0:0:35:dung.wav
64,192,36018,1,0,0:0:0:35:dung.wav
320,192,36112,1,0,0:0:0:35:finish1.wav
448,192,36112,128,0,36487:0:0:0:35:tak.wav
192,192,36487,1,0,0:0:0:35:finish4.wav
64,192,36487,1,0,0:0:0:35:dung.wav
320,192,36674,1,0,0:0:0:35:dung.wav
448,192,36674,1,0,0:0:0:35:
64,192,36862,1,0,0:0:0:35:dung.wav
320,192,36862,1,0,0:0:0:35:
192,192,37049,1,0,0:0:0:35:dung.wav
448,192,37049,1,0,0:0:0:35:
64,192,37424,1,0,0:0:0:35:dung.wav
320,192,37424,1,0,0:0:0:35:
192,192,37612,1,0,0:0:0:35:dung.wav
448,192,37612,1,0,0:0:0:35:
192,192,37799,1,0,0:0:0:35:dung.wav
64,192,37799,1,0,0:0:0:35:
320,192,37987,1,0,0:0:0:35:finish4.wav
448,192,37987,1,0,0:0:0:35:tak.wav
64,192,38174,128,0,39487:0:0:0:35:
192,192,38924,1,0,0:0:0:35:dung.wav
320,192,39112,1,0,0:0:0:35:dung.wav
448,192,39299,1,0,0:0:0:35:dung.wav
192,192,39487,1,0,0:0:0:35:finish4.wav
320,192,39487,1,0,0:0:0:35:dung.wav
64,192,39674,1,0,0:0:0:35:dung.wav
448,192,39674,1,0,0:0:0:35:
448,192,39862,1,0,0:0:0:35:dung.wav
192,192,39862,1,0,0:0:0:35:
64,192,40049,1,0,0:0:0:35:dung.wav
320,192,40049,1,0,0:0:0:35:
64,192,40424,1,0,0:0:0:35:dung.wav
320,192,40424,1,0,0:0:0:35:
448,192,40612,1,0,0:0:0:35:dung.wav
192,192,40612,1,0,0:0:0:35:
320,192,40799,1,0,0:0:0:35:dung.wav
192,192,40799,1,0,0:0:0:35:
448,192,40987,128,0,41737:0:0:0:35:finish4.wav
64,192,40987,1,0,0:0:0:35:tak.wav
64,192,41549,1,0,0:0:0:35:dung.wav
192,192,41643,1,0,0:0:0:35:dung.wav
320,192,41737,1,0,0:0:0:35:tak.wav
64,192,41830,1,0,0:0:0:35:dung.wav
192,192,41924,1,0,0:0:0:35:dung.wav
320,192,42018,1,0,0:0:0:35:dung.wav
448,192,42112,1,0,0:0:0:35:tak.wav
64,192,42112,1,0,0:0:0:35:
192,192,42205,1,0,0:0:0:35:tak.wav
320,192,42299,1,0,0:0:0:35:tak.wav
448,192,42393,1,0,0:0:0:35:tak.wav
64,192,42487,1,0,0:0:0:35:dung.wav
192,192,42487,1,0,0:0:0:35:finish1.wav
320,192,42862,1,0,0:0:0:35:tak.wav
192,192,42862,1,0,0:0:0:35:finish2.wav
64,192,43049,1,0,0:0:0:35:dung.wav
192,192,43143,1,0,0:0:0:35:dung.wav
448,192,43237,1,0,0:0:0:35:dung.wav
320,192,43424,1,0,0:0:0:35:dung.wav
64,192,43612,1,0,0:0:0:35:tak.wav
192,192,43612,1,0,0:0:0:35:finish2.wav
448,192,43799,1,0,0:0:0:35:dung.wav
320,192,43987,1,0,0:0:0:35:finish2.wav
64,192,44174,1,0,0:0:0:35:dung.wav
448,192,44362,1,0,0:0:0:35:tak.wav
320,192,44362,1,0,0:0:0:35:finish2.wav
192,192,44549,1,0,0:0:0:35:
64,192,44737,1,0,0:0:0:35:dung.wav
448,192,44924,1,0,0:0:0:35:dung.wav
320,192,45112,1,0,0:0:0:35:tak.wav
192,192,45112,1,0,0:0:0:35:finish2.wav
64,192,45299,1,0,0:0:0:35:dung.wav
448,192,45487,1,0,0:0:0:35:dung.wav
192,192,45674,1,0,0:0:0:35:
64,192,45862,1,0,0:0:0:35:tak.wav
320,192,45862,1,0,0:0:0:35:finish2.wav
192,192,46049,1,0,0:0:0:35:dung.wav
320,192,46143,1,0,0:0:0:35:dung.wav
448,192,46237,1,0,0:0:0:35:dung.wav
64,192,46424,1,0,0:0:0:35:dung.wav
192,192,46612,1,0,0:0:0:35:tak.wav
320,192,46612,1,0,0:0:0:35:finish2.wav
448,192,46799,1,0,0:0:0:35:dung.wav
64,192,46987,1,0,0:0:0:35:finish2.wav
192,192,47174,1,0,0:0:0:35:dung.wav
448,192,47362,1,0,0:0:0:35:tak.wav
320,192,47362,1,0,0:0:0:35:finish2.wav
64,192,47549,1,0,0:0:0:35:
448,192,47737,1,0,0:0:0:35:dung.wav
320,192,47830,1,0,0:0:0:35:dung.wav
192,192,47924,1,0,0:0:0:35:dung.wav
320,192,48112,1,0,0:0:0:35:tak.wav
448,192,48112,1,0,0:0:0:35:finish2.wav
64,192,48205,1,0,0:0:0:35:dung.wav
320,192,48299,1,0,0:0:0:35:dung.wav
448,192,48487,1,0,0:0:0:35:dung.wav
192,192,48487,1,0,0:0:0:35:finish1.wav
64,192,48487,1,0,0:0:0:0:
320,192,48674,1,0,0:0:0:35:
192,192,48862,1,0,0:0:0:35:tak.wav
64,192,48862,1,0,0:0:0:35:finish2.wav
448,192,49049,1,0,0:0:0:35:dung.wav
320,192,49143,1,0,0:0:0:35:dung.wav
192,192,49237,1,0,0:0:0:35:dung.wav
64,192,49424,1,0,0:0:0:35:dung.wav
192,192,49612,1,0,0:0:0:35:tak.wav
320,192,49612,1,0,0:0:0:35:finish2.wav
448,192,49799,1,0,0:0:0:35:dung.wav
64,192,49987,1,0,0:0:0:35:finish2.wav
192,192,50174,1,0,0:0:0:35:dung.wav
320,192,50362,1,0,0:0:0:35:tak.wav
448,192,50362,1,0,0:0:0:35:finish2.wav
64,192,50549,1,0,0:0:0:35:
192,192,50737,1,0,0:0:0:35:dung.wav
448,192,50924,1,0,0:0:0:35:dung.wav
64,192,51112,1,0,0:0:0:35:tak.wav
192,192,51112,1,0,0:0:0:35:finish2.wav
320,192,51299,1,0,0:0:0:35:dung.wav
192,192,51393,1,0,0:0:0:35:
320,192,51487,1,0,0:0:0:35:tak.wav
448,192,51487,1,0,0:0:0:35:
192,192,51580,1,0,0:0:0:35:tak.wav
64,192,51580,1,0,0:0:0:35:
320,192,51674,1,0,0:0:0:35:dung.wav
64,192,51768,1,0,0:0:0:35:dung.wav
320,192,51862,1,0,0:0:0:35:tak.wav
448,192,51862,1,0,0:0:0:35:
64,192,51955,1,0,0:0:0:35:tak.wav
192,192,51955,1,0,0:0:0:35:
320,192,52049,1,0,0:0:0:35:tak.wav
448,192,52049,1,0,0:0:0:35:
192,192,52143,1,0,0:0:0:35:tak.wav
64,192,52143,1,0,0:0:0:35:
448,192,52237,1,0,0:0:0:35:dung.wav
192,192,52330,1,0,0:0:0:35:dung.wav
448,192,52424,1,0,0:0:0:35:tak.wav
320,192,52424,1,0,0:0:0:35:
192,192,52518,1,0,0:0:0:35:tak.wav
64,192,52518,1,0,0:0:0:35:
448,192,52612,1,0,0:0:0:35:tak.wav
320,192,52612,1,0,0:0:0:35:
192,192,52705,1,0,0:0:0:35:dung.wav
64,192,52705,1,0,0:0:0:35:dung.wav
320,192,52799,1,0,0:0:0:35:dung.wav
64,192,52893,1,0,0:0:0:35:dung.wav
320,192,52987,1,0,0:0:0:35:tak.wav
448,192,52987,1,0,0:0:0:35:
64,192,53080,1,0,0:0:0:35:tak.wav
192,192,53080,1,0,0:0:0:35:
448,192,53174,1,0,0:0:0:35:dung.wav
64,192,53268,1,0,0:0:0:35:dung.wav
448,192,53362,1,0,0:0:0:35:tak.wav
320,192,53424,1,0,0:0:0:35:dung.wav
192,192,53487,1,0,0:0:0:35:dung.wav
64,192,53549,1,0,0:0:0:35:dung.wav
192,192,53643,1,0,0:0:0:35:
448,192,53737,1,0,0:0:0:35:tak.wav
320,192,53737,1,0,0:0:0:35:
64,192,53830,1,0,0:0:0:35:dung.wav
192,192,53924,1,0,0:0:0:35:dung.wav
320,192,54018,1,0,0:0:0:35:dung.wav
64,192,54112,1,0,0:0:0:35:tak.wav
192,192,54112,1,0,0:0:0:35:
448,192,54112,1,0,0:0:0:35:
320,192,54487,1,0,0:0:0:35:dung.wav
192,192,54487,1,0,0:0:0:35:finish2.wav
448,192,54487,1,0,0:0:0:0:
64,192,54674,1,8,0:0:0:35:
192,192,54674,1,0,0:0:0:0:
448,192,54862,1,0,0:0:0:35:dung.wav
320,192,55049,1,0,0:0:0:35:dung.wav
192,192,55237,1,0,0:0:0:35:tak.wav
64,192,55237,1,0,0:0:0:35:
448,192,55424,1,0,0:0:0:35:
320,192,55612,1,0,0:0:0:35:dung.wav
192,192,55799,1,0,0:0:0:35:dung.wav
64,192,55987,1,0,0:0:0:35:dung.wav
448,192,56174,1,8,0:0:0:35:
192,192,56174,1,0,0:0:0:0:
320,192,56362,1,0,0:0:0:35:dung.wav
64,192,56549,1,0,0:0:0:35:dung.wav
448,192,56737,1,0,0:0:0:35:tak.wav
320,192,56737,1,0,0:0:0:35:
192,192,56924,1,0,0:0:0:35:
64,192,57112,1,0,0:0:0:35:dung.wav
448,192,57299,1,0,0:0:0:35:dung.wav
320,192,57487,1,0,0:0:0:35:dung.wav
64,192,57674,1,8,0:0:0:35:
192,192,57674,1,0,0:0:0:0:
448,192,57862,1,0,0:0:0:35:dung.wav
192,192,58049,1,0,0:0:0:35:dung.wav
320,192,58237,1,0,0:0:0:35:tak.wav
64,192,58237,1,0,0:0:0:35:finish2.wav
448,192,58424,1,0,0:0:0:35:
192,192,58612,1,0,0:0:0:35:dung.wav
320,192,58799,1,0,0:0:0:35:dung.wav
64,192,58987,1,0,0:0:0:35:dung.wav
448,192,59174,1,0,0:0:0:35:tak.wav
320,192,59174,1,0,0:0:0:35:finish3.wav
64,192,59362,1,0,0:0:0:35:tak.wav
192,192,59362,1,0,0:0:0:35:finish3.wav
448,192,59549,1,0,0:0:0:35:dung.wav
320,192,59643,1,0,0:0:0:35:dung.wav
64,192,59737,1,0,0:0:0:35:tak.wav
192,192,59737,1,0,0:0:0:35:
448,192,59830,1,0,0:0:0:35:dung.wav
320,192,59924,1,0,0:0:0:35:dung.wav
192,192,60018,1,0,0:0:0:35:dung.wav
64,192,60112,1,0,0:0:0:35:tak.wav
448,192,60112,1,0,0:0:0:35:
448,192,60487,1,0,0:0:0:35:dung.wav
192,192,60487,1,0,0:0:0:35:finish2.wav
320,192,60862,1,0,0:0:0:35:dung.wav
192,192,61237,1,0,0:0:0:35:dung.wav
64,192,61612,1,0,0:0:0:35:dung.wav
320,192,61799,1,0,0:0:0:35:tak.wav
192,192,61799,1,0,0:0:0:35:
448,192,61987,1,0,0:0:0:35:dung.wav
320,192,62362,1,0,0:0:0:35:dung.wav
64,192,62549,1,0,0:0:0:35:tak.wav
192,192,62549,1,0,0:0:0:35:
320,192,62737,1,0,0:0:0:35:dung.wav
192,192,62924,1,0,0:0:0:35:tak.wav
448,192,62924,1,0,0:0:0:35:
320,192,63112,1,0,0:0:0:35:tak.wav
64,192,63112,1,0,0:0:0:35:finish2.wav
448,192,63299,1,0,0:0:0:35:dung.wav
192,192,63393,1,0,0:0:0:35:dung.wav
320,192,63487,1,0,0:0:0:35:tak.wav
448,192,63487,1,0,0:0:0:35:finish3.wav
192,192,63674,1,0,0:0:0:35:dung.wav
64,192,63862,1,0,0:0:0:35:dung.wav
192,192,64049,1,0,0:0:0:35:tak.wav
448,192,64049,1,0,0:0:0:35:finish3.wav
320,192,64237,1,0,0:0:0:35:dung.wav
192,192,64424,1,0,0:0:0:35:dung.wav
64,192,64612,1,0,0:0:0:35:tak.wav
320,192,64612,1,0,0:0:0:35:finish3.wav
448,192,64799,1,0,0:0:0:35:dung.wav
192,192,64893,1,0,0:0:0:35:dung.wav
448,192,64987,1,0,0:0:0:35:tak.wav
320,192,64987,128,0,65362:0:0:0:35:finish3.wav
64,192,64987,128,0,65737:0:0:0:35:
192,192,65362,128,0,65737:0:0:0:35:
448,192,65737,128,0,66112:0:0:0:35:
320,192,65737,128,0,66487:0:0:0:0:
64,192,66112,128,0,66487:0:0:0:35:
192,192,66487,1,0,0:0:0:35:dung.wav
448,192,66487,128,0,69487:0:0:0:35:finish1.wav
64,192,66674,1,0,0:0:0:35:dung.wav
320,192,66862,1,0,0:0:0:35:dung.wav
64,192,67049,1,0,0:0:0:35:dung.wav
192,192,67237,1,0,0:0:0:35:tak.wav
320,192,67237,1,0,0:0:0:35:finish2.wav
64,192,67424,1,0,0:0:0:35:dung.wav
320,192,67612,1,0,0:0:0:35:dung.wav
192,192,67799,1,0,0:0:0:35:dung.wav
64,192,67987,1,0,0:0:0:35:dung.wav
320,192,68174,1,0,0:0:0:35:dung.wav
64,192,68362,1,0,0:0:0:35:dung.wav
320,192,68549,1,0,0:0:0:35:dung.wav
64,192,68737,1,0,0:0:0:35:tak.wav
192,192,68737,1,0,0:0:0:35:finish2.wav
320,192,68924,1,0,0:0:0:35:dung.wav
192,192,69112,1,0,0:0:0:35:dung.wav
64,192,69299,1,0,0:0:0:35:dung.wav
320,192,69487,1,0,0:0:0:35:dung.wav
192,192,69487,128,0,70987:0:0:0:35:finish2.wav
64,192,69674,1,0,0:0:0:35:dung.wav
448,192,69862,1,0,0:0:0:35:dung.wav
320,192,70049,1,0,0:0:0:35:dung.wav
64,192,70237,1,0,0:0:0:35:tak.wav
448,192,70237,1,0,0:0:0:35:finish2.wav
320,192,70424,1,0,0:0:0:35:dung.wav
64,192,70612,1,0,0:0:0:35:dung.wav
448,192,70799,1,0,0:0:0:35:dung.wav
64,192,70987,1,0,0:0:0:35:dung.wav
320,192,70987,128,0,72487:0:0:0:35:finish2.wav
192,192,71174,1,0,0:0:0:35:dung.wav
64,192,71362,1,0,0:0:0:35:dung.wav
448,192,71549,1,0,0:0:0:35:dung.wav
192,192,71737,1,0,0:0:0:35:tak.wav
64,192,71737,1,0,0:0:0:35:finish3.wav
64,192,71924,1,0,0:0:0:35:dung.wav
192,192,72112,1,0,0:0:0:35:tak.wav
448,192,72112,1,0,0:0:0:35:finish3.wav
448,192,72299,1,0,0:0:0:35:dung.wav
64,192,72487,1,0,0:0:0:35:dung.wav
192,192,72487,128,0,73987:0:0:0:35:finish1.wav
448,192,72674,1,0,0:0:0:35:dung.wav
320,192,72862,1,0,0:0:0:35:dung.wav
64,192,73049,1,0,0:0:0:35:dung.wav
320,192,73237,1,0,0:0:0:35:tak.wav
448,192,73237,1,0,0:0:0:35:finish2.wav
64,192,73424,1,0,0:0:0:35:dung.wav
448,192,73612,1,0,0:0:0:35:dung.wav
320,192,73799,1,0,0:0:0:35:dung.wav
448,192,73987,1,0,0:0:0:35:dung.wav
64,192,73987,128,0,75487:0:0:0:35:finish2.wav
192,192,74174,1,0,0:0:0:35:dung.wav
320,192,74362,1,0,0:0:0:35:dung.wav
448,192,74549,1,0,0:0:0:35:dung.wav
320,192,74737,1,0,0:0:0:35:tak.wav
192,192,74737,1,0,0:0:0:35:finish2.wav
448,192,74924,1,0,0:0:0:35:dung.wav
192,192,75112,1,0,0:0:0:35:dung.wav
320,192,75299,1,0,0:0:0:35:dung.wav
192,192,75487,1,0,0:0:0:35:dung.wav
448,192,75487,128,0,77737:0:0:0:35:finish2.wav
64,192,75674,1,0,0:0:0:35:dung.wav
320,192,75862,1,0,0:0:0:35:dung.wav
192,192,76049,1,0,0:0:0:35:dung.wav
64,192,76237,1,0,0:0:0:35:tak.wav
320,192,76237,1,0,0:0:0:35:finish2.wav
192,192,76424,1,0,0:0:0:35:dung.wav
64,192,76612,1,0,0:0:0:35:dung.wav
320,192,76799,1,0,0:0:0:35:dung.wav
192,192,76893,1,0,0:0:0:35:dung.wav
64,192,76987,1,0,0:0:0:35:dung.wav
320,192,77174,1,0,0:0:0:35:dung.wav
320,192,77362,1,0,0:0:0:35:tak.wav
64,192,77362,1,0,0:0:0:35:finish3.wav
192,192,77549,1,0,0:0:0:35:dung.wav
320,192,77737,1,0,0:0:0:35:tak.wav
192,192,77830,1,0,0:0:0:35:dung.wav
64,192,77924,1,0,0:0:0:35:dung.wav
448,192,78112,1,0,0:0:0:35:dung.wav
320,192,78205,1,0,0:0:0:35:dung.wav
192,192,78299,1,0,0:0:0:35:dung.wav
64,192,78487,1,0,0:0:0:35:dung.wav
320,192,78487,1,0,0:0:0:35:finish1.wav
448,192,78487,1,0,0:0:0:0:
192,192,78674,1,0,0:0:0:35:dung.wav
448,192,78862,1,0,0:0:0:35:tak.wav
320,192,78862,1,0,0:0:0:35:finish2.wav
64,192,79049,1,0,0:0:0:35:dung.wav
448,192,79237,1,0,0:0:0:35:dung.wav
192,192,79237,1,0,0:0:0:35:finish2.wav
320,192,79424,1,0,0:0:0:35:dung.wav
192,192,79612,1,0,0:0:0:35:tak.wav
64,192,79612,1,0,0:0:0:35:finish2.wav
448,192,79799,1,0,0:0:0:35:dung.wav
320,192,79987,1,0,0:0:0:35:dung.wav
192,192,79987,1,0,0:0:0:35:finish2.wav
64,192,80174,1,0,0:0:0:35:dung.wav
192,192,80362,1,0,0:0:0:35:tak.wav
448,192,80362,1,0,0:0:0:35:finish2.wav
64,192,80549,1,0,0:0:0:35:dung.wav
320,192,80737,1,0,0:0:0:35:dung.wav
448,192,80737,1,0,0:0:0:35:finish2.wav
192,192,80924,1,0,0:0:0:35:dung.wav
320,192,81112,1,0,0:0:0:35:tak.wav
64,192,81112,1,0,0:0:0:35:finish2.wav
448,192,81299,1,0,0:0:0:35:dung.wav
192,192,81487,1,0,0:0:0:35:dung.wav
64,192,81487,1,0,0:0:0:35:finish2.wav
320,192,81674,1,0,0:0:0:35:dung.wav
448,192,81862,1,0,0:0:0:35:tak.wav
192,192,81862,1,0,0:0:0:35:finish2.wav
64,192,82049,1,0,0:0:0:35:dung.wav
320,192,82237,1,0,0:0:0:35:dung.wav
192,192,82237,1,0,0:0:0:35:finish2.wav
448,192,82424,1,0,0:0:0:35:dung.wav
64,192,82612,1,0,0:0:0:35:tak.wav
320,192,82612,1,0,0:0:0:35:finish2.wav
192,192,82799,1,0,0:0:0:35:dung.wav
320,192,82987,1,0,0:0:0:35:dung.wav
448,192,82987,1,0,0:0:0:35:finish2.wav
192,192,83174,1,0,0:0:0:35:dung.wav
64,192,83362,1,0,0:0:0:35:tak.wav
320,192,83362,1,0,0:0:0:35:finish2.wav
192,192,83549,1,0,0:0:0:35:dung.wav
320,192,83643,1,0,0:0:0:35:dung.wav
64,192,83737,1,0,0:0:0:35:tak.wav
448,192,83737,1,0,0:0:0:35:finish3.wav
320,192,83924,1,0,0:0:0:35:dung.wav
448,192,84112,1,0,0:0:0:35:tak.wav
192,192,84112,1,0,0:0:0:35:finish3.wav
64,192,84299,1,0,0:0:0:35:dung.wav
320,192,84393,1,0,0:0:0:35:dung.wav
192,192,84487,1,0,0:0:0:35:dung.wav
64,192,84487,1,0,0:0:0:35:finish2.wav
448,192,84674,1,0,0:0:0:35:dung.wav
320,192,84862,1,0,0:0:0:35:dung.wav
64,192,84862,1,0,0:0:0:35:finish2.wav
192,192,85049,1,0,0:0:0:35:dung.wav
448,192,85237,1,0,0:0:0:35:tak.wav
64,192,85237,1,0,0:0:0:35:finish2.wav
192,192,85424,1,0,0:0:0:35:dung.wav
448,192,85612,1,0,0:0:0:35:dung.wav
320,192,85612,1,0,0:0:0:35:finish2.wav
64,192,85799,1,0,0:0:0:35:dung.wav
192,192,85987,1,0,0:0:0:35:tak.wav
320,192,85987,1,0,0:0:0:35:finish3.wav
448,192,86174,1,0,0:0:0:35:dung.wav
192,192,86362,1,0,0:0:0:35:dung.wav
320,192,86549,1,0,0:0:0:35:tak.wav
64,192,86549,1,0,0:0:0:35:finish3.wav
192,192,86737,1,0,0:0:0:35:dung.wav
448,192,86924,1,0,0:0:0:35:tak.wav
320,192,86924,1,0,0:0:0:35:finish3.wav
64,192,87112,1,0,0:0:0:35:tak.wav
192,192,87112,1,0,0:0:0:35:finish3.wav
448,192,87299,1,0,0:0:0:35:dung.wav
64,192,87487,1,0,0:0:0:35:tak.wav
320,192,87487,1,0,0:0:0:35:finish2.wav
192,192,87674,1,0,0:0:0:35:dung.wav
448,192,87862,1,0,0:0:0:35:tak.wav
320,192,87862,1,0,0:0:0:35:finish2.wav
64,192,88049,1,0,0:0:0:35:dung.wav
192,192,88237,1,0,0:0:0:35:tak.wav
448,192,88237,1,0,0:0:0:35:finish2.wav
320,192,88424,1,0,0:0:0:35:dung.wav
192,192,88612,1,0,0:0:0:35:tak.wav
64,192,88612,1,0,0:0:0:35:finish2.wav
448,192,88799,1,0,0:0:0:35:dung.wav
320,192,88893,1,0,0:0:0:35:dung.wav
64,192,88987,128,0,89362:0:0:0:35:tak.wav
192,192,88987,1,0,0:0:0:35:
448,192,88987,128,0,89737:0:0:0:0:
320,192,89362,128,0,89737:0:0:0:35:dung.wav
192,192,89737,128,0,90112:0:0:0:35:tak.wav
64,192,89737,128,0,90487:0:0:0:35:
320,192,90112,128,0,90487:0:0:0:35:
448,192,90112,1,0,0:0:0:0:
448,192,90487,1,0,0:0:0:35:dung.wav
320,192,90580,1,0,0:0:0:35:dung.wav
192,192,90674,1,0,0:0:0:35:dung.wav
64,192,90862,1,0,0:0:0:35:dung.wav
448,192,91049,1,0,0:0:0:35:dung.wav
320,192,91237,1,0,0:0:0:35:tak.wav
192,192,91237,1,0,0:0:0:35:finish4.wav
64,192,91518,1,0,0:0:0:35:dung.wav
192,192,91799,1,0,0:0:0:35:dung.wav
448,192,92080,1,0,0:0:0:35:dung.wav
320,192,92362,1,0,0:0:0:35:dung.wav
64,192,92643,1,0,0:0:0:35:dung.wav
448,192,92737,1,0,0:0:0:35:tak.wav
320,192,92737,1,0,0:0:0:35:finish4.wav
192,192,92924,1,0,0:0:0:35:dung.wav
64,192,93112,1,0,0:0:0:35:dung.wav
192,192,93205,1,0,0:0:0:35:dung.wav
320,192,93299,1,0,0:0:0:35:dung.wav
448,192,93487,1,0,0:0:0:35:dung.wav
320,192,93580,1,0,0:0:0:35:dung.wav
192,192,93674,1,0,0:0:0:35:dung.wav
320,192,93862,1,0,0:0:0:35:dung.wav
192,192,93955,1,0,0:0:0:35:dung.wav
64,192,94049,1,0,0:0:0:35:dung.wav
448,192,94237,1,0,0:0:0:35:tak.wav
192,192,94237,1,0,0:0:0:35:finish4.wav
320,192,94518,1,0,0:0:0:35:dung.wav
64,192,94799,1,0,0:0:0:35:dung.wav
192,192,95080,1,0,0:0:0:35:dung.wav
448,192,95362,1,0,0:0:0:35:dung.wav
64,192,95643,1,0,0:0:0:35:dung.wav
192,192,95737,1,0,0:0:0:35:tak.wav
448,192,95737,1,0,0:0:0:35:finish4.wav
320,192,95830,1,0,0:0:0:35:dung.wav
192,192,95924,1,0,0:0:0:35:dung.wav
64,192,96018,1,0,0:0:0:35:tak.wav
448,192,96018,1,0,0:0:0:35:
320,192,96112,1,0,0:0:0:35:dung.wav
192,192,96205,1,0,0:0:0:35:dung.wav
320,192,96299,1,0,0:0:0:35:tak.wav
448,192,96299,1,0,0:0:0:35:
192,192,96393,1,0,0:0:0:35:dung.wav
64,192,96393,1,0,0:0:0:35:
448,192,96487,1,0,0:0:0:35:dung.wav
320,192,96487,1,0,0:0:0:35:finish1.wav
64,192,96580,1,0,0:0:0:35:dung.wav
192,192,96674,1,0,0:0:0:35:dung.wav
320,192,96862,1,0,0:0:0:35:dung.wav
448,192,97049,1,0,0:0:0:35:dung.wav
320,192,97237,1,0,0:0:0:35:tak.wav
192,192,97237,1,0,0:0:0:35:finish4.wav
448,192,97518,1,0,0:0:0:35:dung.wav
192,192,97799,1,0,0:0:0:35:dung.wav
64,192,98080,1,0,0:0:0:35:dung.wav
192,192,98362,1,0,0:0:0:35:dung.wav
448,192,98643,1,0,0:0:0:35:dung.wav
192,192,98737,1,0,0:0:0:35:tak.wav
64,192,98737,1,0,0:0:0:35:finish4.wav
320,192,98924,1,0,0:0:0:35:dung.wav
448,192,99112,1,0,0:0:0:35:dung.wav
320,192,99205,1,0,0:0:0:35:dung.wav
192,192,99299,1,0,0:0:0:35:dung.wav
64,192,99487,1,0,0:0:0:35:dung.wav
192,192,99580,1,0,0:0:0:35:dung.wav
320,192,99674,1,0,0:0:0:35:dung.wav
192,192,99862,1,0,0:0:0:35:dung.wav
320,192,99955,1,0,0:0:0:35:dung.wav
448,192,100049,1,0,0:0:0:35:dung.wav
320,192,100237,1,0,0:0:0:35:tak.wav
64,192,100237,1,0,0:0:0:35:finish4.wav
192,192,100518,1,0,0:0:0:35:dung.wav
448,192,100799,1,0,0:0:0:35:dung.wav
64,192,101080,1,0,0:0:0:35:dung.wav
320,192,101362,1,0,0:0:0:35:dung.wav
448,192,101643,1,0,0:0:0:35:dung.wav
192,192,101737,1,0,0:0:0:35:tak.wav
64,192,101737,128,0,102487:0:0:0:35:finish4.wav
320,192,102487,1,0,0:0:0:35:dung.wav
448,192,102487,1,0,0:0:0:35:boom.wav
192,192,102862,128,0,103237:0:0:0:35:
64,192,103237,128,0,103612:0:0:0:35:
448,192,103612,128,0,103987:0:0:0:35:
320,192,103987,128,0,104362:0:0:0:35:
192,192,104362,128,0,104737:0:0:0:35:
64,192,104737,128,0,105112:0:0:0:35:
448,192,105112,128,0,105487:0:0:0:35:
192,192,105487,128,0,106237:0:0:0:35:
320,192,105862,1,0,0:0:0:35:
64,192,106237,128,0,107362:0:0:0:35:
320,192,106612,1,0,0:0:0:35:
448,192,106987,1,0,0:0:0:35:
192,192,107362,1,0,0:0:0:35:
448,192,107737,1,0,0:0:0:35:
64,192,108112,1,0,0:0:0:35:
320,192,108487,1,0,0:0:0:35:
192,192,108862,1,0,0:0:0:35:
448,192,109237,1,0,0:0:0:35:
64,192,109612,1,0,0:0:0:35:
448,192,109987,1,0,0:0:0:35:
320,192,110080,1,0,0:0:0:35:
192,192,110174,1,0,0:0:0:35:
64,192,110362,1,0,0:0:0:35:
192,192,110455,1,0,0:0:0:35:
320,192,110549,1,0,0:0:0:35:
448,192,110737,1,0,0:0:0:35:
64,192,110830,1,0,0:0:0:35:
192,192,110924,1,0,0:0:0:35:
64,192,111112,1,0,0:0:0:35:
448,192,111205,1,0,0:0:0:35:
320,192,111299,1,0,0:0:0:35:
64,192,111487,1,0,0:0:0:35:
192,192,111580,1,0,0:0:0:35:
320,192,111674,1,0,0:0:0:35:
448,192,111862,1,0,0:0:0:35:
320,192,111955,1,0,0:0:0:35:
192,192,112049,1,0,0:0:0:35:
64,192,112237,1,0,0:0:0:35:
320,192,112330,1,0,0:0:0:35:
192,192,112424,1,0,0:0:0:35:
448,192,112612,1,0,0:0:0:35:
192,192,112705,1,0,0:0:0:35:
320,192,112799,1,0,0:0:0:35:
448,192,112987,1,0,0:0:0:35:tak.wav
192,192,112987,1,0,0:0:0:35:
320,192,113080,1,0,0:0:0:35:tak.wav
64,192,113080,1,0,0:0:0:35:
192,192,113174,1,0,0:0:0:35:dung.wav
64,192,113268,1,0,0:0:0:35:dung.wav
448,192,113362,1,0,0:0:0:35:dung.wav
320,192,113424,1,0,0:0:0:35:dung.wav
192,192,113487,1,0,0:0:0:35:dung.wav
64,192,113549,1,0,0:0:0:35:dung.wav
192,192,113643,1,0,0:0:0:35:dung.wav
320,192,113737,1,0,0:0:0:35:tak.wav
448,192,113737,1,0,0:0:0:35:
64,192,113830,1,0,0:0:0:35:dung.wav
192,192,113924,1,0,0:0:0:35:dung.wav
320,192,114018,1,0,0:0:0:35:dung.wav
64,192,114112,1,0,0:0:0:35:tak.wav
448,192,114112,128,0,114487:0:0:0:35:
64,192,114487,1,0,0:0:0:35:dung.wav
320,192,114487,1,0,0:0:0:35:finish1.wav
192,192,114487,1,0,0:0:0:35:boom.wav
448,192,114674,1,0,0:0:0:35:
320,192,114862,1,0,0:0:0:35:tak.wav
192,192,114862,1,0,0:0:0:35:finish2.wav
64,192,115049,1,0,0:0:0:35:dung.wav
192,192,115143,1,0,0:0:0:35:dung.wav
320,192,115237,1,0,0:0:0:35:dung.wav
448,192,115424,1,0,0:0:0:35:dung.wav
64,192,115612,1,0,0:0:0:35:tak.wav
320,192,115612,1,0,0:0:0:35:finish2.wav
192,192,115799,1,0,0:0:0:35:dung.wav
64,192,115987,1,0,0:0:0:35:finish2.wav
192,192,116174,1,0,0:0:0:35:dung.wav
320,192,116362,1,0,0:0:0:35:tak.wav
448,192,116362,1,0,0:0:0:35:finish2.wav
64,192,116549,1,0,0:0:0:35:
448,192,116737,1,0,0:0:0:35:dung.wav
192,192,116924,1,0,0:0:0:35:dung.wav
64,192,117112,1,0,0:0:0:35:tak.wav
320,192,117112,1,0,0:0:0:35:finish2.wav
448,192,117299,1,0,0:0:0:35:dung.wav
192,192,117487,1,0,0:0:0:35:dung.wav
320,192,117674,1,0,0:0:0:35:
192,192,117862,1,0,0:0:0:35:tak.wav
64,192,117862,1,0,0:0:0:35:finish2.wav
448,192,118049,1,0,0:0:0:35:dung.wav
320,192,118143,1,0,0:0:0:35:dung.wav
192,192,118237,1,0,0:0:0:35:dung.wav
448,192,118424,1,0,0:0:0:35:dung.wav
320,192,118612,1,0,0:0:0:35:tak.wav
64,192,118612,1,0,0:0:0:35:finish2.wav
448,192,118799,1,0,0:0:0:35:dung.wav
320,192,118987,1,0,0:0:0:35:finish2.wav
64,192,119174,1,0,0:0:0:35:dung.wav
448,192,119362,1,0,0:0:0:35:tak.wav
192,192,119362,1,0,0:0:0:35:finish2.wav
64,192,119549,1,0,0:0:0:35:
448,192,119737,1,0,0:0:0:35:dung.wav
320,192,119830,1,0,0:0:0:35:dung.wav
192,192,119924,1,0,0:0:0:35:dung.wav
64,192,120112,1,0,0:0:0:35:tak.wav
320,192,120112,1,0,0:0:0:35:finish2.wav
192,192,120205,1,0,0:0:0:35:dung.wav
448,192,120299,1,0,0:0:0:35:dung.wav
192,192,120487,1,0,0:0:0:35:dung.wav
64,192,120487,1,0,0:0:0:35:finish1.wav
320,192,120674,1,0,0:0:0:35:
192,192,120862,1,0,0:0:0:35:tak.wav
448,192,120862,1,0,0:0:0:35:finish2.wav
64,192,121049,1,0,0:0:0:35:dung.wav
192,192,121143,1,0,0:0:0:35:dung.wav
320,192,121237,1,0,0:0:0:35:dung.wav
192,192,121424,1,0,0:0:0:35:dung.wav
64,192,121612,1,0,0:0:0:35:tak.wav
320,192,121612,1,0,0:0:0:35:finish2.wav
448,192,121799,1,0,0:0:0:35:dung.wav
192,192,121987,1,0,0:0:0:35:finish2.wav
320,192,122174,1,0,0:0:0:35:dung.wav
64,192,122362,1,0,0:0:0:35:tak.wav
448,192,122362,1,0,0:0:0:35:finish2.wav
192,192,122549,1,0,0:0:0:35:
320,192,122737,1,0,0:0:0:35:dung.wav
448,192,122924,1,0,0:0:0:35:dung.wav
320,192,123112,1,0,0:0:0:35:tak.wav
192,192,123112,1,0,0:0:0:35:finish2.wav
64,192,123299,1,0,0:0:0:35:dung.wav
448,192,123487,1,0,0:0:0:35:tak.wav
320,192,123487,1,0,0:0:0:35:
192,192,123580,1,0,0:0:0:35:dung.wav
64,192,123580,1,0,0:0:0:0:
320,192,123674,1,0,0:0:0:35:dung.wav
448,192,123768,1,0,0:0:0:35:dung.wav
64,192,123862,1,0,0:0:0:35:tak.wav
192,192,123862,1,0,0:0:0:35:
320,192,123955,1,0,0:0:0:35:tak.wav
448,192,123955,1,0,0:0:0:35:
192,192,124049,1,0,0:0:0:35:tak.wav
64,192,124049,1,0,0:0:0:35:
448,192,124143,1,0,0:0:0:35:tak.wav
320,192,124143,1,0,0:0:0:35:
192,192,124237,1,0,0:0:0:35:dung.wav
448,192,124330,1,0,0:0:0:35:dung.wav
64,192,124424,1,0,0:0:0:35:tak.wav
192,192,124424,1,0,0:0:0:35:
448,192,124518,1,0,0:0:0:35:tak.wav
320,192,124518,1,0,0:0:0:35:
64,192,124612,1,0,0:0:0:35:tak.wav
192,192,124612,1,0,0:0:0:35:
320,192,124705,1,0,0:0:0:35:tak.wav
448,192,124705,1,0,0:0:0:35:
64,192,124799,1,0,0:0:0:35:dung.wav
320,192,124893,1,0,0:0:0:35:dung.wav
64,192,124987,1,0,0:0:0:35:tak.wav
192,192,124987,1,0,0:0:0:35:
320,192,125080,1,0,0:0:0:35:tak.wav
448,192,125080,1,0,0:0:0:35:
192,192,125174,1,0,0:0:0:35:dung.wav
64,192,125268,1,0,0:0:0:35:dung.wav
448,192,125362,1,0,0:0:0:35:dung.wav
320,192,125424,1,0,0:0:0:35:dung.wav
192,192,125487,1,0,0:0:0:35:dung.wav
64,192,125549,1,0,0:0:0:35:dung.wav
448,192,125643,1,0,0:0:0:35:dung.wav
320,192,125737,1,0,0:0:0:35:tak.wav
192,192,125737,1,0,0:0:0:35:
64,192,125830,1,0,0:0:0:35:dung.wav
192,192,125924,1,0,0:0:0:35:dung.wav
320,192,126018,1,0,0:0:0:35:dung.wav
448,192,126112,1,0,0:0:0:35:tak.wav
64,192,126112,1,0,0:0:0:35:
192,192,126487,1,0,0:0:0:35:dung.wav
448,192,126487,1,0,0:0:0:35:finish1.wav
64,192,126674,1,0,0:0:0:35:dung.wav
320,192,126674,1,0,0:0:0:35:
192,192,126862,1,0,0:0:0:35:hithat.wav
320,192,127049,1,0,0:0:0:0:
64,192,127237,1,0,0:0:0:35:tak.wav
448,192,127237,1,0,0:0:0:35:hithat.wav
192,192,127424,1,0,0:0:0:0:
320,192,127612,1,0,0:0:0:35:hithat.wav
64,192,127799,1,0,0:0:0:35:dung.wav
448,192,127799,1,0,0:0:0:35:
192,192,127987,1,0,0:0:0:35:hithat.wav
64,192,128174,1,0,0:0:0:35:dung.wav
320,192,128174,1,0,0:0:0:35:hithat.wav
192,192,128362,1,0,0:0:0:35:dung.wav
448,192,128362,1,0,0:0:0:35:hithat.wav
320,192,128549,1,0,0:0:0:0:
448,192,128737,1,0,0:0:0:35:tak.wav
64,192,128737,1,0,0:0:0:35:hithat.wav
320,192,128924,1,0,0:0:0:0:
64,192,129112,1,0,0:0:0:35:dung.wav
192,192,129112,1,0,0:0:0:35:hithat.wav
448,192,129299,1,0,0:0:0:0:
192,192,129487,1,0,0:0:0:35:dung.wav
64,192,129487,1,0,0:0:0:35:hithat.wav
320,192,129674,1,0,0:0:0:35:dung.wav
448,192,129674,1,0,0:0:0:35:
192,192,129862,1,0,0:0:0:35:hithat.wav
320,192,130049,1,0,0:0:0:35:
448,192,130237,1,0,0:0:0:35:tak.wav
64,192,130237,1,0,0:0:0:35:hithat.wav
192,192,130424,1,0,0:0:0:0:
320,192,130612,1,0,0:0:0:35:hithat.wav
448,192,130799,1,0,0:0:0:35:dung.wav
192,192,130799,1,0,0:0:0:35:
64,192,130987,1,0,0:0:0:35:hithat.wav
320,192,131174,1,0,0:0:0:35:dung.wav
192,192,131174,1,0,0:0:0:35:
448,192,131362,1,0,0:0:0:35:tak.wav
64,192,131362,1,0,0:0:0:35:hithat.wav
320,192,131549,1,0,0:0:0:35:dung.wav
192,192,131643,1,0,0:0:0:35:dung.wav
64,192,131737,1,0,0:0:0:35:tak.wav
448,192,131737,1,0,0:0:0:35:
320,192,131830,1,0,0:0:0:35:dung.wav
192,192,131924,1,0,0:0:0:35:dung.wav
448,192,132018,1,0,0:0:0:35:tak.wav
64,192,132018,1,0,0:0:0:35:
320,192,132112,1,0,0:0:0:35:dung.wav
192,192,132205,1,0,0:0:0:35:dung.wav
64,192,132299,1,0,0:0:0:35:tak.wav
320,192,132299,1,0,0:0:0:35:
192,192,132393,1,0,0:0:0:35:tak.wav
448,192,132393,1,0,0:0:0:35:
320,192,132487,1,0,0:0:0:35:dung.wav
64,192,132487,1,0,0:0:0:35:finish1.wav
192,192,132862,1,0,0:0:0:35:dung.wav
448,192,133237,1,0,0:0:0:35:dung.wav
64,192,133612,1,0,0:0:0:35:dung.wav
448,192,133799,1,0,0:0:0:35:tak.wav
320,192,133799,1,0,0:0:0:35:
192,192,133987,1,0,0:0:0:35:dung.wav
448,192,134362,1,0,0:0:0:35:dung.wav
64,192,134549,1,0,0:0:0:35:tak.wav
320,192,134549,1,0,0:0:0:35:
192,192,134737,1,0,0:0:0:35:dung.wav
448,192,134924,1,0,0:0:0:35:tak.wav
320,192,134924,1,0,0:0:0:35:finish3.wav
64,192,135112,1,0,0:0:0:35:tak.wav
192,192,135112,1,0,0:0:0:35:finish3.wav
320,192,135299,1,0,0:0:0:35:dung.wav
192,192,135393,1,0,0:0:0:35:dung.wav
64,192,135487,1,0,0:0:0:35:tak.wav
448,192,135487,1,0,0:0:0:35:finish3.wav
320,192,135487,1,0,0:0:0:0:
192,192,135674,1,0,0:0:0:35:dung.wav
320,192,135862,1,0,0:0:0:35:dung.wav
64,192,136049,1,0,0:0:0:35:tak.wav
192,192,136049,1,0,0:0:0:35:finish3.wav
448,192,136237,1,0,0:0:0:35:dung.wav
320,192,136424,1,0,0:0:0:35:dung.wav
448,192,136612,1,0,0:0:0:35:tak.wav
64,192,136612,1,0,0:0:0:35:finish3.wav
192,192,136799,1,0,0:0:0:35:dung.wav
320,192,136987,128,0,137431:0:0:0:35:tak.wav
448,192,136987,1,0,0:0:0:35:finish4.wav
64,192,136987,128,0,138764:0:0:0:35:
192,192,137431,128,0,137875:0:0:0:0:
448,192,137875,128,0,138320:0:0:0:35:
192,192,138320,128,0,138764:0:0:0:35:tak.wav
320,192,138320,1,0,0:0:0:35:
448,192,138764,128,0,144098:0:0:0:35:dung.wav
320,192,138764,1,0,0:0:0:35:boom.wav
64,192,139209,1,0,0:0:0:35:finish2.wav
320,192,140098,1,0,0:0:0:35:finish2.wav
192,192,140987,1,0,0:0:0:35:finish2.wav
64,192,141875,1,0,0:0:0:35:finish2.wav
192,192,142320,1,0,0:0:0:35:dung.wav
320,192,142320,1,0,0:0:0:35:hithat.wav
64,192,142764,1,0,0:0:0:35:finish2.wav
192,192,143653,1,0,0:0:0:35:finish2.wav
320,192,144098,1,0,0:0:0:35:dung.wav
64,192,144320,1,0,0:0:0:35:tak.wav
192,192,144320,1,0,0:0:0:35:finish3.wav
320,192,144542,1,0,0:0:0:35:tak.wav
448,192,144542,1,0,0:0:0:35:finish3.wav
64,192,144764,1,0,0:0:0:35:dung.wav
192,192,144987,1,0,0:0:0:35:tak.wav
448,192,144987,1,0,0:0:0:35:finish2.wav
320,192,145209,1,0,0:0:0:35:dung.wav
448,192,145431,1,0,0:0:0:35:dung.wav
64,192,145431,1,0,0:0:0:35:
192,192,145653,1,0,0:0:0:35:dung.wav
448,192,145875,1,0,0:0:0:35:dung.wav
64,192,145875,1,0,0:0:0:35:finish1.wav
320,192,145875,1,0,0:0:0:35:
448,192,146098,1,0,0:0:0:35:
192,192,146320,128,0,149431:0:0:0:35:finish2.wav
320,192,146320,1,0,0:0:0:35:
64,192,146542,1,0,0:0:0:35:
448,192,146764,1,0,0:0:0:35:finish2.wav
320,192,146987,1,0,0:0:0:35:
448,192,147209,1,0,0:0:0:35:finish2.wav
64,192,147431,1,0,0:0:0:35:
448,192,147653,1,0,0:0:0:35:dung.wav
320,192,147875,1,0,0:0:0:35:
64,192,148098,1,0,0:0:0:35:finish2.wav
448,192,148320,1,0,0:0:0:35:
320,192,148542,1,0,0:0:0:35:tak.wav
64,192,148542,1,0,0:0:0:35:hithat.wav
448,192,148764,1,0,0:0:0:35:
320,192,148987,1,0,0:0:0:35:dung.wav
64,192,149209,1,0,0:0:0:35:
320,192,149431,1,0,0:0:0:35:dung.wav
192,192,149653,1,0,0:0:0:35:
64,192,149875,1,0,0:0:0:35:finish2.wav
448,192,149875,128,0,151209:0:0:0:35:dung.wav
192,192,150098,1,0,0:0:0:35:
320,192,150320,1,0,0:0:0:35:dung.wav
192,192,150542,1,0,0:0:0:35:
320,192,150764,1,0,0:0:0:35:tak.wav
64,192,150987,1,0,0:0:0:35:dung.wav
320,192,151098,1,0,0:0:0:35:dung.wav
64,192,151209,128,0,152986:0:0:0:35:dung.wav
192,192,151209,1,0,0:0:0:0:
320,192,151283,1,0,0:0:0:35:dung.wav
448,192,151357,1,0,0:0:0:35:dung.wav
192,192,151431,1,0,0:0:0:35:dung.wav
320,192,151542,1,0,0:0:0:35:dung.wav
192,192,151653,1,0,0:0:0:35:tak.wav
448,192,151764,1,0,0:0:0:35:tak.wav
320,192,151875,1,0,0:0:0:35:dung.wav
448,192,151987,1,0,0:0:0:35:dung.wav
192,192,152098,1,0,0:0:0:35:tak.wav
320,192,152209,1,0,0:0:0:35:dung.wav
448,192,152320,1,0,0:0:0:35:dung.wav
320,192,152431,1,0,0:0:0:35:dung.wav
192,192,152542,1,0,0:0:0:35:tak.wav
448,192,152653,1,0,0:0:0:35:tak.wav
320,192,152764,1,0,0:0:0:35:dung.wav
192,192,152875,1,0,0:0:0:35:dung.wav
448,192,152986,128,0,153209:0:0:0:35:dung.wav
320,192,152986,1,0,0:0:0:35:finish1.wav
192,192,153209,128,0,153431:0:0:0:35:
320,192,153431,128,0,153653:0:0:0:35:dung.wav
64,192,153431,1,0,0:0:0:35:finish2.wav
192,192,153653,128,0,153875:0:0:0:35:
448,192,153875,128,0,154098:0:0:0:35:dung.wav
64,192,153875,1,0,0:0:0:35:finish2.wav
192,192,154098,128,0,154320:0:0:0:35:
320,192,154320,128,0,154542:0:0:0:35:dung.wav
448,192,154320,1,0,0:0:0:35:finish2.wav
64,192,154542,128,0,154764:0:0:0:35:
192,192,154764,128,0,154986:0:0:0:35:dung.wav
448,192,154764,1,0,0:0:0:35:finish2.wav
320,192,154986,128,0,155209:0:0:0:35:
64,192,155209,128,0,155431:0:0:0:35:dung.wav
192,192,155209,1,0,0:0:0:35:finish2.wav
448,192,155431,128,0,155653:0:0:0:35:
320,192,155653,128,0,155875:0:0:0:35:dung.wav
192,192,155653,1,0,0:0:0:35:finish2.wav
64,192,155875,128,0,156098:0:0:0:35:
320,192,156098,128,0,156320:0:0:0:35:dung.wav
448,192,156098,1,0,0:0:0:35:finish2.wav
192,192,156320,128,0,156542:0:0:0:35:
64,192,156542,128,0,156764:0:0:0:35:dung.wav
320,192,156542,1,0,0:0:0:35:finish1.wav
448,192,156542,1,0,0:0:0:0:
448,192,156764,128,0,156986:0:0:0:35:
320,192,156986,128,0,157209:0:0:0:35:dung.wav
192,192,156986,1,0,0:0:0:35:finish2.wav
64,192,157209,128,0,157431:0:0:0:35:
192,192,157431,128,0,157653:0:0:0:35:dung.wav
448,192,157431,1,0,0:0:0:35:finish2.wav
320,192,157653,128,0,157875:0:0:0:35:
448,192,157875,128,0,158098:0:0:0:35:dung.wav
192,192,157875,1,0,0:0:0:35:finish2.wav
64,192,158098,128,0,158320:0:0:0:35:
320,192,158320,128,0,158542:0:0:0:35:dung.wav
192,192,158320,1,0,0:0:0:35:finish2.wav
448,192,158542,128,0,158764:0:0:0:35:tak.wav
192,192,158542,1,0,0:0:0:35:finish3.wav
64,192,158542,1,0,0:0:0:35:
64,192,158764,128,0,158986:0:0:0:35:tak.wav
320,192,158764,1,0,0:0:0:35:finish3.wav
192,192,158764,1,0,0:0:0:35:
448,192,158986,128,0,159209:0:0:0:35:dung.wav
320,192,158986,1,0,0:0:0:35:
320,192,159209,128,0,159431:0:0:0:35:tak.wav
192,192,159209,1,0,0:0:0:35:finish3.wav
64,192,159209,1,0,0:0:0:35:
448,192,159431,128,0,159653:0:0:0:35:dung.wav
192,192,159431,1,0,0:0:0:35:
320,192,159653,128,0,159875:0:0:0:35:dung.wav
64,192,159653,1,0,0:0:0:35:
64,192,159875,128,0,160098:0:0:0:35:dung.wav
320,192,160098,128,0,160320:0:0:0:35:dung.wav
192,192,160098,1,0,0:0:0:35:finish1.wav
448,192,160098,1,0,0:0:0:35:
64,192,160320,128,0,160542:0:0:0:35:
448,192,160542,128,0,160764:0:0:0:35:dung.wav
192,192,160542,1,0,0:0:0:35:finish2.wav
320,192,160764,128,0,160986:0:0:0:35:
192,192,160986,128,0,161209:0:0:0:35:dung.wav
64,192,160986,1,0,0:0:0:35:finish2.wav
320,192,161209,128,0,161431:0:0:0:35:
64,192,161431,128,0,161653:0:0:0:35:dung.wav
448,192,161431,1,0,0:0:0:35:finish2.wav
448,192,161653,128,0,161875:0:0:0:35:
320,192,161875,128,0,162098:0:0:0:35:dung.wav
192,192,161875,1,0,0:0:0:35:finish2.wav
64,192,162098,128,0,162320:0:0:0:35:
192,192,162320,128,0,162542:0:0:0:35:dung.wav
448,192,162320,1,0,0:0:0:35:finish2.wav
320,192,162542,128,0,162764:0:0:0:35:
64,192,162764,128,0,162986:0:0:0:35:dung.wav
192,192,162764,1,0,0:0:0:35:finish2.wav
448,192,162986,1,0,0:0:0:35:dung.wav
320,192,163061,1,0,0:0:0:35:dung.wav
64,192,163135,1,0,0:0:0:35:dung.wav
320,192,163209,128,0,163431:0:0:0:35:tak.wav
192,192,163209,1,0,0:0:0:35:finish3.wav
64,192,163431,128,0,163653:0:0:0:35:dung.wav
192,192,163653,1,0,0:0:0:35:tak.wav
320,192,163653,1,0,0:0:0:35:finish3.wav
448,192,163653,1,0,0:0:0:35:
192,192,163875,1,0,0:0:0:35:tak.wav
320,192,163875,1,0,0:0:0:35:finish3.wav
448,192,163875,1,0,0:0:0:35:
64,192,164098,1,0,0:0:0:35:dung.wav
64,192,164320,1,0,0:0:0:35:tak.wav
192,192,164320,1,0,0:0:0:35:finish3.wav
320,192,164320,1,0,0:0:0:35:
64,192,164542,1,0,0:0:0:35:tak.wav
192,192,164542,1,0,0:0:0:35:finish3.wav
320,192,164542,1,0,0:0:0:35:
192,192,164764,1,0,0:0:0:35:dung.wav
64,192,164986,1,0,0:0:0:35:tak.wav
320,192,164986,1,0,0:0:0:35:dung.wav
448,192,164986,1,0,0:0:0:35:
64,192,165209,1,0,0:0:0:35:tak.wav
320,192,165209,1,0,0:0:0:35:dung.wav
448,192,165209,1,0,0:0:0:35:
320,192,165431,1,0,0:0:0:35:dung.wav
64,192,165653,1,8,0:0:0:35:tak.wav
192,192,165653,1,0,0:0:0:35:dung.wav
448,192,165653,1,0,0:0:0:35:
64,192,165875,1,8,0:0:0:35:tak.wav
192,192,165875,1,0,0:0:0:35:dung.wav
448,192,165875,1,0,0:0:0:35:
320,192,166098,1,0,0:0:0:35:dung.wav
192,192,166172,1,0,0:0:0:35:dung.wav
64,192,166246,1,0,0:0:0:35:dung.wav
320,192,166320,128,0,167209:0:0:0:35:tak.wav
448,192,166320,1,0,0:0:0:35:
64,192,167209,1,0,0:0:0:35:dung.wav
448,192,167209,1,0,0:0:0:35:finish1.wav
192,192,167431,1,0,0:0:0:35:dung.wav
448,192,167653,1,0,0:0:0:35:dung.wav
320,192,167875,1,0,0:0:0:35:dung.wav
192,192,168098,1,0,0:0:0:35:tak.wav
448,192,168098,1,0,0:0:0:35:finish2.wav
64,192,168320,1,0,0:0:0:35:dung.wav
192,192,168542,1,0,0:0:0:35:dung.wav
320,192,168764,1,0,0:0:0:35:dung.wav
448,192,168986,1,0,0:0:0:35:dung.wav
64,192,169209,1,0,0:0:0:35:dung.wav
448,192,169431,1,0,0:0:0:35:dung.wav
320,192,169653,1,0,0:0:0:35:dung.wav
64,192,169875,1,0,0:0:0:35:tak.wav
448,192,169875,1,0,0:0:0:35:finish2.wav
320,192,170098,1,0,0:0:0:35:dung.wav
64,192,170320,1,0,0:0:0:35:dung.wav
448,192,170542,1,0,0:0:0:35:dung.wav
192,192,170764,1,0,0:0:0:35:dung.wav
320,192,170986,1,0,0:0:0:35:dung.wav
448,192,171209,1,0,0:0:0:35:dung.wav
64,192,171431,1,0,0:0:0:35:dung.wav
192,192,171653,1,0,0:0:0:35:tak.wav
320,192,171653,1,0,0:0:0:35:finish2.wav
448,192,171875,1,0,0:0:0:35:dung.wav
64,192,172098,1,0,0:0:0:35:dung.wav
192,192,172320,1,0,0:0:0:35:dung.wav
320,192,172542,1,0,0:0:0:35:tak.wav
448,192,172542,1,0,0:0:0:35:finish2.wav
64,192,172764,1,0,0:0:0:35:dung.wav
192,192,172986,1,0,0:0:0:35:dung.wav
448,192,173209,1,0,0:0:0:35:dung.wav
320,192,173431,1,0,0:0:0:35:finish2.wav
192,192,173431,1,0,0:0:0:35:tak.wav
64,192,173653,1,0,0:0:0:35:dung.wav
192,192,173727,1,0,0:0:0:35:dung.wav
320,192,173801,1,0,0:0:0:35:dung.wav
448,192,173875,1,0,0:0:0:35:finish2.wav
64,192,173875,1,0,0:0:0:35:tak.wav
320,192,174098,1,0,0:0:0:35:dung.wav
192,192,174320,1,0,0:0:0:35:dung.wav
64,192,174542,1,0,0:0:0:35:dung.wav
448,192,174764,1,0,0:0:0:35:dung.wav
320,192,174986,1,0,0:0:0:35:dung.wav
192,192,175209,1,0,0:0:0:35:tak.wav
64,192,175209,1,0,0:0:0:35:finish2.wav
448,192,175431,1,0,0:0:0:35:dung.wav
192,192,175653,1,0,0:0:0:35:dung.wav
64,192,175875,1,0,0:0:0:35:dung.wav
448,192,176098,1,0,0:0:0:35:dung.wav
320,192,176320,1,0,0:0:0:35:dung.wav
64,192,176542,1,0,0:0:0:35:dung.wav
192,192,176764,1,0,0:0:0:35:dung.wav
320,192,176986,1,0,0:0:0:35:tak.wav
448,192,176986,1,0,0:0:0:35:finish2.wav
64,192,177209,1,0,0:0:0:35:dung.wav
192,192,177431,1,0,0:0:0:35:dung.wav
448,192,177653,1,0,0:0:0:35:dung.wav
320,192,177875,1,0,0:0:0:35:dung.wav
64,192,178098,1,0,0:0:0:35:dung.wav
192,192,178320,1,0,0:0:0:35:dung.wav
320,192,178542,1,0,0:0:0:35:dung.wav
64,192,178764,1,0,0:0:0:35:tak.wav
448,192,178764,1,0,0:0:0:35:finish2.wav
192,192,178986,1,0,0:0:0:35:dung.wav
320,192,179209,1,0,0:0:0:35:dung.wav
192,192,179431,1,0,0:0:0:35:dung.wav
64,192,179653,1,0,0:0:0:35:tak.wav
320,192,179653,1,0,0:0:0:35:finish2.wav
448,192,179875,1,0,0:0:0:35:dung.wav
64,192,180098,1,0,0:0:0:35:dung.wav
448,192,180320,1,0,0:0:0:35:tak.wav
320,192,180320,1,0,0:0:0:35:finish3.wav
192,192,180542,1,0,0:0:0:35:dung.wav
64,192,180764,1,0,0:0:0:35:tak.wav
320,192,180764,1,0,0:0:0:35:finish3.wav
192,192,180986,1,0,0:0:0:35:tak.wav
448,192,180986,1,0,0:0:0:35:finish3.wav
320,192,181209,1,0,0:0:0:35:dung.wav
192,192,181320,1,0,0:0:0:35:dung.wav
320,192,181431,1,0,0:0:0:35:dung.wav
64,192,181431,1,0,0:0:0:35:finish1.wav
448,192,181431,1,0,0:0:0:35:
192,192,181653,1,0,0:0:0:35:dung.wav
448,192,181875,1,0,0:0:0:35:dung.wav
192,192,182098,1,0,0:0:0:35:dung.wav
64,192,182320,1,0,0:0:0:35:tak.wav
320,192,182320,1,0,0:0:0:35:finish2.wav
448,192,182542,1,0,0:0:0:35:dung.wav
320,192,182764,1,0,0:0:0:35:dung.wav
192,192,182986,1,0,0:0:0:35:dung.wav
64,192,183209,1,0,0:0:0:35:dung.wav
448,192,183431,1,0,0:0:0:35:dung.wav
64,192,183653,1,0,0:0:0:35:dung.wav
320,192,183875,1,0,0:0:0:35:dung.wav
64,192,184098,1,0,0:0:0:35:tak.wav
448,192,184098,1,0,0:0:0:35:finish2.wav
192,192,184320,1,0,0:0:0:35:dung.wav
448,192,184542,1,0,0:0:0:35:dung.wav
64,192,184764,1,0,0:0:0:35:dung.wav
320,192,184986,1,0,0:0:0:35:dung.wav
448,192,184986,1,0,0:0:0:35:finish1.wav
192,192,185209,1,0,0:0:0:35:dung.wav
64,192,185431,1,0,0:0:0:35:dung.wav
448,192,185653,1,0,0:0:0:35:dung.wav
192,192,185875,1,0,0:0:0:35:tak.wav
320,192,185875,1,0,0:0:0:35:finish2.wav
64,192,186098,1,0,0:0:0:35:dung.wav
448,192,186320,1,0,0:0:0:35:dung.wav
320,192,186542,1,0,0:0:0:35:dung.wav
64,192,186764,1,0,0:0:0:35:tak.wav
192,192,186764,1,0,0:0:0:35:finish2.wav
448,192,186986,1,0,0:0:0:35:dung.wav
320,192,187209,1,0,0:0:0:35:dung.wav
192,192,187431,1,0,0:0:0:35:dung.wav
64,192,187653,1,0,0:0:0:35:tak.wav
320,192,187653,1,0,0:0:0:35:finish2.wav
448,192,187875,1,0,0:0:0:35:dung.wav
320,192,187949,1,0,0:0:0:35:dung.wav
192,192,188024,1,0,0:0:0:35:dung.wav
448,192,188098,1,0,0:0:0:35:dung.wav
64,192,188098,1,0,0:0:0:35:finish2.wav
320,192,188320,1,0,0:0:0:35:dung.wav
192,192,188542,1,0,0:0:0:35:dung.wav
64,192,188542,1,0,0:0:0:35:finish1.wav
448,192,188764,1,0,0:0:0:35:dung.wav
64,192,188986,1,0,0:0:0:35:dung.wav
192,192,189209,1,0,0:0:0:35:dung.wav
448,192,189431,1,0,0:0:0:35:tak.wav
320,192,189431,1,0,0:0:0:35:finish2.wav
64,192,189653,1,0,0:0:0:35:dung.wav
320,192,189875,1,0,0:0:0:35:dung.wav
448,192,190098,1,0,0:0:0:35:dung.wav
64,192,190320,1,0,0:0:0:35:dung.wav
192,192,190542,1,0,0:0:0:35:dung.wav
448,192,190764,1,0,0:0:0:35:dung.wav
320,192,190986,1,0,0:0:0:35:dung.wav
64,192,191209,1,0,0:0:0:35:tak.wav
192,192,191209,1,0,0:0:0:35:finish2.wav
448,192,191431,1,0,0:0:0:35:dung.wav
320,192,191653,1,0,0:0:0:35:dung.wav
64,192,191875,1,0,0:0:0:35:dung.wav
192,192,192098,1,0,0:0:0:35:dung.wav
448,192,192320,1,0,0:0:0:35:dung.wav
320,192,192542,1,0,0:0:0:35:dung.wav
192,192,192764,1,0,0:0:0:35:dung.wav
64,192,192986,1,0,0:0:0:35:tak.wav
448,192,192986,1,0,0:0:0:35:finish2.wav
320,192,193209,1,0,0:0:0:35:dung.wav
192,192,193431,1,0,0:0:0:35:dung.wav
320,192,193653,1,0,0:0:0:35:dung.wav
192,192,193875,1,0,0:0:0:35:tak.wav
448,192,193875,1,0,0:0:0:35:finish3.wav
64,192,194098,1,0,0:0:0:35:dung.wav
448,192,194320,1,0,0:0:0:35:dung.wav
192,192,194542,1,0,0:0:0:35:tak.wav
64,192,194542,1,0,0:0:0:35:finish3.wav
320,192,194764,1,0,0:0:0:35:dung.wav
192,192,194986,1,0,0:0:0:35:tak.wav
448,192,194986,1,0,0:0:0:35:finish3.wav
64,192,195209,1,0,0:0:0:35:tak.wav
320,192,195209,1,0,0:0:0:35:finish3.wav
192,192,195431,1,0,0:0:0:35:dung.wav
320,192,195542,1,0,0:0:0:35:dung.wav
64,192,195653,1,0,0:0:0:35:dung.wav
448,192,195653,128,0,199653:0:0:0:35:finish1.wav
