osu file format v14

[General]
AudioFilename: audio.mp3
AudioLeadIn: 0
PreviewTime: 45697
Countdown: 0
SampleSet: Normal
StackLeniency: 0.7
Mode: 0
LetterboxInBreaks: 0
WidescreenStoryboard: 0

[Editor]
Bookmarks: 3958,14393,24828,35262,45697,56132,66567,73985,77001,111585,159676,170111,180546
DistanceSpacing: 1.1
BeatDivisor: 4
GridSize: 4
TimelineZoom: 1.6

[Metadata]
Title:Sad Spring
TitleUnicode:Sad Spring
Artist:Draw the Emotional & Foreground Eclipse
ArtistUnicode:Draw the Emotional & Foreground Eclipse
Creator:strickluke
Version:
Source:東方妖々夢 ~ Perfect Cherry Blossom.
Tags:
BeatmapID:1672467
BeatmapSetID:796451

[Difficulty]
HPDrainRate:5
CircleSize:4
OverallDifficulty:8
ApproachRate:9
SliderMultiplier:1.9
SliderTickRate:1

[Events]
//Background and Video events
//Break Periods
//Storyboard Layer 0 (Background)
//Storyboard Layer 1 (Fail)
//Storyboard Layer 2 (Pass)
//Storyboard Layer 3 (Foreground)
//Storyboard Sound Samples

[TimingPoints]
1350,326.086158437331,4,1,0,80,1,0
3958,-200,4,1,0,80,0,0
11458,-133.333333333333,4,1,0,80,0,0
14393,-100,4,1,0,80,0,0
23523,-133.333333333333,4,1,0,80,0,0
24828,-133.333333333333,4,1,0,80,0,0
35262,-100,4,1,0,80,0,0
37871,-83.3333333333333,4,1,0,80,0,0
40480,-100,4,1,0,80,0,0
45697,-80,4,1,0,80,0,1
66567,-100,4,1,0,80,0,0
94936,-200,4,1,0,80,0,0
95262,-100,4,1,0,80,0,0
97219,-133.333333333333,4,1,0,80,0,0
97871,428.571428571429,4,1,0,80,1,0
97871,-200,4,1,0,80,0,0
111585,-100,4,1,0,80,0,0
138156,326.086956521739,4,1,0,80,1,8
138807,326.086956521739,4,1,0,80,1,0

[Colours]
Combo1 : 0,128,64
Combo2 : 192,192,192
Combo3 : 128,128,128
Combo4 : 242,24,57
Combo5 : 255,128,0
Combo6 : 255,100,255
Combo7 : 79,255,123
Combo8 : 155,0,155

[HitObjects]
426,75,1350,5,8,0:0:0:0:
202,47,1513,1,8,0:0:0:0:
362,195,1676,2,0,L|375:321,1,95
247,343,2002,2,0,L|263:250,1,95
103,237,2328,5,8,0:0:0:0:
126,54,2491,1,8,0:0:0:0:
274,132,2654,2,0,L|139:145,2,95
131,228,3143,1,8,0:0:0:0:
228,45,3306,101,0,0:0:0:0:
273,34,3387,1,0,0:0:0:0:
319,45,3469,1,0,0:0:0:0:
355,76,3550,1,0,0:0:0:0:
372,119,3632,1,0,0:0:0:0:
271,256,3795,5,0,0:0:0:0:
264,246,3876,1,0,0:0:0:0:
258,238,3958,6,0,B|234:200|240:169|240:169|213:134|213:134|219:94|183:51,3,190
91,292,6241,1,0,0:0:0:0:
62,168,6404,1,0,0:0:0:0:
196,318,6567,6,0,P|287:329|357:269,3,190
257,237,8686,1,0,0:0:0:0:
460,179,8849,1,0,0:0:0:0:
252,144,9013,1,0,0:0:0:0:
337,51,9176,102,0,B|242:41|242:41|141:68,3,190
150,65,11295,1,0,0:0:0:0:
206,164,11458,6,0,L|279:168,1,71.2500027179719
66,72,11784,101,0,0:0:0:0:
66,72,11866,1,0,0:0:0:0:
66,72,11947,1,0,0:0:0:0:
28,148,12110,1,0,0:0:0:0:
272,152,12273,5,0,0:0:0:0:
272,152,12355,1,0,0:0:0:0:
272,152,12436,1,0,0:0:0:0:
283,236,12599,1,0,0:0:0:0:
180,224,12763,101,0,0:0:0:0:
180,224,12845,1,0,0:0:0:0:
180,224,12926,1,0,0:0:0:0:
169,308,13089,1,0,0:0:0:0:
382,217,13252,5,0,0:0:0:0:
382,217,13334,1,0,0:0:0:0:
382,217,13415,1,0,0:0:0:0:
382,217,13496,1,0,0:0:0:0:
382,217,13578,1,0,0:0:0:0:
382,217,13659,1,0,0:0:0:0:
382,217,13741,1,0,0:0:0:0:
151,303,14393,70,0,L|143:360,2,47.5
219,230,14719,2,0,L|211:166,2,47.5
66,108,15045,2,0,L|14:132,2,47.5
79,245,15371,2,0,L|94:198,2,47.5
156,133,15697,6,0,L|174:186,2,47.5
235,247,16023,2,0,L|252:192,2,47.5
387,52,16349,2,0,L|348:79,2,47.5
408,185,16676,2,0,L|399:131,2,47.5
262,88,17002,101,0,0:0:0:0:
262,88,17083,1,0,0:0:0:0:
262,88,17165,1,0,0:0:0:0:
283,211,17328,1,0,0:0:0:0:
283,211,17409,1,0,0:0:0:0:
283,211,17491,1,0,0:0:0:0:
156,233,17654,1,0,0:0:0:0:
156,233,17735,1,0,0:0:0:0:
156,233,17817,1,0,0:0:0:0:
132,113,17980,1,0,0:0:0:0:
132,113,18061,1,0,0:0:0:0:
132,113,18143,1,0,0:0:0:0:
314,206,18306,5,0,0:0:0:0:
314,206,18387,1,0,0:0:0:0:
314,206,18469,1,0,0:0:0:0:
293,329,18632,1,0,0:0:0:0:
293,329,18713,1,0,0:0:0:0:
293,329,18795,1,0,0:0:0:0:
424,344,18958,6,0,L|480:355,2,47.5
436,215,19284,1,0,0:0:0:0:
421,182,19366,1,0,0:0:0:0:
396,157,19447,1,0,0:0:0:0:
364,143,19529,1,0,0:0:0:0:
327,142,19610,86,0,L|347:68,2,47.5
258,239,19936,2,0,L|235:155,2,47.5
134,167,20262,2,0,L|82:181,2,47.5
192,87,20589,2,0,L|242:100,2,47.5
59,108,20915,6,0,L|47:58,2,47.5
109,221,21241,2,0,L|121:171,2,47.5
2,172,21567,2,0,L|8:220,2,47.5
75,298,21893,2,0,L|63:347,2,47.5
213,248,22219,101,0,0:0:0:0:
229,249,22301,1,0,0:0:0:0:
246,250,22382,1,0,0:0:0:0:
309,167,22545,1,0,0:0:0:0:
326,168,22627,1,0,0:0:0:0:
343,169,22708,1,0,0:0:0:0:
347,262,22871,1,0,0:0:0:0:
364,263,22953,1,0,0:0:0:0:
381,264,23034,1,0,0:0:0:0:
444,181,23197,1,0,0:0:0:0:
461,182,23279,1,0,0:0:0:0:
478,183,23360,1,0,0:0:0:0:
211,102,23523,38,0,P|162:224|176:313,1,213.750008153916
172,302,24094,1,0,0:0:0:0:
172,302,24176,1,0,0:0:0:0:
144,225,24339,1,0,0:0:0:0:
342,309,24502,1,0,0:0:0:0:
341,273,24583,1,0,0:0:0:0:
365,243,24665,1,0,0:0:0:0:
361,205,24746,1,0,0:0:0:0:
384,176,24828,6,0,L|225:187,1,142.500005435944
130,70,25317,2,0,L|143:169,1,71.2500027179719
100,244,25643,1,0,0:0:0:0:
17,101,25806,1,0,0:0:0:0:
131,333,25969,6,0,P|184:270|169:192,1,142.500005435944
270,98,26458,2,0,L|256:186,1,71.2500027179719
158,95,26784,1,0,0:0:0:0:
373,125,26947,1,0,0:0:0:0:
158,95,27110,1,0,0:0:0:0:
267,303,27436,101,0,0:0:0:0:
433,274,27599,1,0,0:0:0:0:
267,303,27762,2,0,P|209:245|124:242,1,142.500005435944
81,302,28252,1,0,0:0:0:0:
175,345,28415,1,0,0:0:0:0:
25,210,28578,6,0,L|6:68,1,142.500005435944
6,68,28985,1,0,0:0:0:0:
6,68,29067,1,0,0:0:0:0:
226,147,29393,101,0,0:0:0:0:
249,233,29556,1,0,0:0:0:0:
453,35,29719,2,0,L|446:115,1,71.2500027179719
446,105,29964,1,0,0:0:0:0:
446,105,30045,6,0,P|473:178|440:258,2,142.500005435944
351,179,30860,1,0,0:0:0:0:
311,15,31023,1,0,0:0:0:0:
252,146,31186,102,0,L|109:156,1,142.500005435944
29,93,31676,2,0,P|12:172|16:194,1,71.2500027179719
88,308,32002,1,0,0:0:0:0:
314,293,32165,1,0,0:0:0:0:
88,308,32328,1,0,0:0:0:0:
192,188,32654,5,0,0:0:0:0:
464,206,32817,1,0,0:0:0:0:
192,188,32980,2,0,L|207:354,1,142.500005435944
287,367,33469,1,0,0:0:0:0:
115,277,33632,1,0,0:0:0:0:
319,272,33795,102,0,B|392:247|450:188|325:214,1,142.500005435944
359,208,34203,1,0,0:0:0:0:
359,208,34284,1,0,0:0:0:0:
410,331,34447,5,0,0:0:0:0:
426,325,34529,1,0,0:0:0:0:
440,318,34610,1,0,0:0:0:0:
435,282,34691,1,0,0:0:0:0:
433,247,34773,1,0,0:0:0:0:
436,211,34854,1,0,0:0:0:0:
457,198,34936,1,0,0:0:0:0:
448,163,35017,1,0,0:0:0:0:
435,130,35099,1,0,0:0:0:0:
420,97,35180,1,0,0:0:0:0:
402,67,35262,70,0,L|396:121,2,47.5
333,183,35589,1,0,0:0:0:0:
223,43,35752,2,0,L|238:140,1,95
113,41,36078,21,0,0:0:0:0:
124,130,36241,1,0,0:0:0:0:
137,223,36404,1,0,0:0:0:0:
39,96,36567,1,0,0:0:0:0:
126,216,36730,5,0,0:0:0:0:
215,227,36893,1,0,0:0:0:0:
308,240,37056,1,0,0:0:0:0:
451,152,37219,1,0,0:0:0:0:
305,148,37382,101,0,0:0:0:0:
294,237,37545,1,0,0:0:0:0:
281,330,37708,1,0,0:0:0:0:
389,306,37871,102,0,L|453:310,2,56.9999982604981
207,291,38197,1,0,0:0:0:0:
266,173,38360,2,0,L|128:194,1,113.999996520996
68,331,38686,21,0,0:0:0:0:
60,211,38849,1,0,0:0:0:0:
52,91,39012,1,0,0:0:0:0:
118,15,39175,1,0,0:0:0:0:
49,198,39339,101,0,0:0:0:0:
169,206,39502,1,0,0:0:0:0:
289,214,39665,1,0,0:0:0:0:
365,148,39828,5,0,0:0:0:0:
289,305,39991,1,0,0:0:0:0:
304,86,40154,1,0,0:0:0:0:
380,243,40317,1,0,0:0:0:0:
380,243,40398,1,0,0:0:0:0:
380,243,40480,70,0,L|436:248,2,47.5
307,123,40806,1,0,0:0:0:0:
307,123,40969,1,0,0:0:0:0:
447,154,41132,1,0,0:0:0:0:
149,193,41295,21,0,0:0:0:0:
183,104,41458,1,0,0:0:0:0:
82,119,41621,1,0,0:0:0:0:
249,183,41784,1,0,0:0:0:0:
56,136,41947,6,0,L|48:42,2,95
215,330,42436,1,0,0:0:0:0:
252,224,42599,85,0,0:0:0:0:
41,311,42762,1,0,0:0:0:0:
49,287,42843,1,0,0:0:0:0:
54,262,42925,1,0,0:0:0:0:
98,246,43006,1,0,0:0:0:0:
145,254,43088,1,0,0:0:0:0:
427,147,43741,69,0,0:0:0:0:
427,147,44067,1,0,0:0:0:0:
275,39,44393,1,0,0:0:0:0:
275,39,44719,1,0,0:0:0:0:
328,253,45045,1,0,0:0:0:0:
412,56,45371,5,8,0:0:0:0:
261,335,45697,6,0,L|111:324,1,118.75
284,194,46023,2,0,L|310:337,1,118.75
188,183,46349,2,0,L|46:194,1,118.75
240,49,46675,1,0,0:0:0:0:
110,95,46839,1,0,0:0:0:0:
176,214,47002,2,0,L|319:225,2,118.75
384,185,47491,1,0,0:0:0:0:
215,135,47654,2,0,L|204:285,1,118.75
357,107,47980,2,0,L|173:119,1,178.125
130,57,48306,6,0,L|141:232,1,118.75
323,232,48632,2,0,L|333:90,1,118.75
203,178,48958,2,0,L|193:320,1,118.75
53,265,49284,1,0,0:0:0:0:
72,176,49447,1,0,0:0:0:0:
125,305,49610,2,0,L|268:296,1,118.75
456,196,49936,2,0,L|313:186,1,118.75
170,70,50262,2,0,L|160:212,1,118.75
435,275,50589,2,0,L|426:133,1,118.75
426,133,50833,1,0,0:0:0:0:
425,132,50915,102,0,P|335:145|278:127,1,118.75
195,59,51241,2,0,P|182:149|200:206,1,118.75
331,222,51567,2,0,P|261:206|192:221,2,118.75
266,99,52056,1,0,0:0:0:0:
157,121,52219,2,0,B|105:107|105:107|18:119,1,118.75
252,222,52545,2,0,B|264:135|264:135|250:83,1,118.75
123,302,52871,2,0,B|210:313|210:313|262:299,2,118.75
325,215,53360,1,0,0:0:0:0:
224,220,53523,6,0,L|227:53,1,118.75
125,268,53849,2,0,L|137:125,1,118.75
49,350,54175,2,0,L|36:181,2,118.75
164,335,54665,1,0,0:0:0:0:
199,330,54746,1,0,0:0:0:0:
234,325,54828,2,0,L|326:187,1,118.75
168,242,55154,2,0,L|247:360,1,118.75
218,164,55480,1,0,0:0:0:0:
440,100,55643,1,0,0:0:0:0:
305,96,55806,1,0,0:0:0:0:
352,160,55969,1,0,0:0:0:0:
96,65,56132,102,0,L|76:232,1,118.75
219,161,56458,2,0,L|378:138,1,118.75
201,316,56784,2,0,L|192:142,1,118.75
317,312,57110,1,0,0:0:0:0:
282,200,57273,1,0,0:0:0:0:
139,344,57436,6,0,L|50:234,1,118.75
259,191,57762,2,0,L|234:331,1,118.75
49,233,58088,2,0,L|66:91,1,118.75
259,191,58414,2,0,L|144:285,1,118.75
255,62,58741,102,0,P|336:54|414:74,1,118.75
238,169,59067,2,0,P|167:160|98:174,1,118.75
235,323,59393,2,0,P|244:252|231:183,1,118.75
153,98,59719,1,0,0:0:0:0:
143,215,59882,1,0,0:0:0:0:
291,341,60045,6,0,L|434:331,1,118.75
431,203,60371,1,0,0:0:0:0:
302,102,60534,2,0,L|286:250,1,118.75
291,82,60860,2,0,L|380:58,1,59.375
397,82,61023,2,0,L|276:76,1,118.75
418,310,61349,101,0,0:0:0:0:
441,283,61430,1,0,0:0:0:0:
457,252,61512,1,0,0:0:0:0:
464,217,61593,1,0,0:0:0:0:
461,181,61675,1,0,0:0:0:0:
449,148,61756,1,0,0:0:0:0:
428,119,61838,1,0,0:0:0:0:
400,98,61919,1,0,0:0:0:0:
368,84,62001,5,0,0:0:0:0:
353,117,62083,1,0,0:0:0:0:
331,145,62164,1,0,0:0:0:0:
303,166,62246,1,0,0:0:0:0:
270,178,62327,1,0,0:0:0:0:
234,181,62409,1,0,0:0:0:0:
199,175,62490,1,0,0:0:0:0:
168,159,62572,1,0,0:0:0:0:
141,135,62654,101,0,0:0:0:0:
140,161,62735,1,0,0:0:0:0:
139,188,62817,1,0,0:0:0:0:
138,215,62898,1,0,0:0:0:0:
138,241,62980,1,0,0:0:0:0:
137,268,63061,1,0,0:0:0:0:
137,292,63143,5,0,0:0:0:0:
110,280,63224,1,0,0:0:0:0:
88,263,63306,1,0,0:0:0:0:
70,240,63387,1,0,0:0:0:0:
59,214,63469,102,0,L|140:202,1,59.375
212,194,63632,2,0,L|228:347,1,118.75
358,77,63958,5,0,0:0:0:0:
421,245,64121,1,0,0:0:0:0:
429,144,64284,101,0,0:0:0:0:
366,312,64447,1,0,0:0:0:0:
205,46,64610,5,0,0:0:0:0:
205,46,64773,1,0,0:0:0:0:
162,175,64936,1,0,0:0:0:0:
335,78,65099,2,0,L|353:276,1,142.500005435944
98,58,65425,101,0,0:0:0:0:
98,58,65588,1,0,0:0:0:0:
131,324,65752,5,0,0:0:0:0:
121,289,65833,1,0,0:0:0:0:
118,253,65915,1,0,0:0:0:0:
151,264,65996,1,0,0:0:0:0:
186,271,66078,1,0,0:0:0:0:
222,274,66159,1,0,0:0:0:0:
246,248,66241,1,0,0:0:0:0:
281,255,66322,1,0,0:0:0:0:
315,266,66404,1,0,0:0:0:0:
347,282,66485,1,0,0:0:0:0:
376,302,66567,70,0,L|384:375,2,47.5
386,189,66893,2,0,L|398:136,2,47.5
466,260,67219,2,0,L|499:293,2,47.5
301,178,67545,2,0,L|267:142,2,47.5
426,40,67871,6,0,L|499:41,2,47.5
260,89,68197,2,0,L|284:131,2,47.5
389,176,68523,2,0,L|395:128,2,47.5
236,210,68849,2,0,L|243:258,2,47.5
322,298,69175,101,0,0:0:0:0:
317,320,69257,1,0,0:0:0:0:
314,343,69338,1,0,0:0:0:0:
183,349,69502,1,0,0:0:0:0:
183,331,69584,1,0,0:0:0:0:
182,314,69665,1,0,0:0:0:0:
274,174,69828,1,0,0:0:0:0:
271,197,69909,1,0,0:0:0:0:
266,219,69991,1,0,0:0:0:0:
150,222,70154,1,0,0:0:0:0:
148,188,70235,1,0,0:0:0:0:
148,153,70317,1,0,0:0:0:0:
229,50,70480,5,0,0:0:0:0:
252,50,70561,1,0,0:0:0:0:
275,50,70643,1,0,0:0:0:0:
328,127,70806,1,0,0:0:0:0:
305,127,70888,1,0,0:0:0:0:
282,127,70969,1,0,0:0:0:0:
114,63,71132,5,0,0:0:0:0:
105,94,71213,1,0,0:0:0:0:
99,125,71295,1,0,0:0:0:0:
98,157,71376,1,0,0:0:0:0:
101,189,71458,2,0,L|166:196,2,47.5
74,346,71784,85,0,0:0:0:0:
102,308,71865,1,0,0:0:0:0:
144,287,71947,1,0,0:0:0:0:
191,287,72028,1,0,0:0:0:0:
235,308,72110,2,0,L|237:364,1,47.5
308,231,72273,5,0,0:0:0:0:
308,231,72354,1,0,0:0:0:0:
308,231,72436,1,0,0:0:0:0:
330,189,72517,1,0,0:0:0:0:
372,168,72599,1,0,0:0:0:0:
419,168,72680,1,0,0:0:0:0:
461,191,72762,2,0,L|411:202,1,47.5
315,92,72925,101,0,0:0:0:0:
315,92,73007,1,0,0:0:0:0:
315,92,73088,1,0,0:0:0:0:
267,88,73169,1,0,0:0:0:0:
220,84,73251,1,0,0:0:0:0:
172,80,73332,1,0,0:0:0:0:
125,76,73415,2,0,L|117:22,1,47.5
64,157,73578,5,0,0:0:0:0:
64,157,73659,1,0,0:0:0:0:
64,157,73741,1,0,0:0:0:0:
59,203,73822,1,0,0:0:0:0:
78,246,73904,1,0,0:0:0:0:
121,227,73986,1,0,0:0:0:0:
168,232,74067,1,0,0:0:0:0:
187,275,74149,1,0,0:0:0:0:
182,322,74230,2,0,L|124:321,1,47.5
291,264,74393,101,0,0:0:0:0:
291,264,74474,1,0,0:0:0:0:
291,264,74556,1,0,0:0:0:0:
385,210,74719,1,0,0:0:0:0:
348,324,74882,1,0,0:0:0:0:
293,158,75045,5,0,0:0:0:0:
293,158,75126,1,0,0:0:0:0:
293,158,75208,1,0,0:0:0:0:
443,45,75371,1,0,0:0:0:0:
239,64,75534,1,0,0:0:0:0:
202,243,75697,21,0,0:0:0:0:
200,195,75778,1,0,0:0:0:0:
177,155,75860,1,0,0:0:0:0:
137,130,75941,1,0,0:0:0:0:
90,127,76023,1,0,0:0:0:0:
47,147,76104,1,0,0:0:0:0:
19,184,76186,1,0,0:0:0:0:
62,204,76267,1,0,0:0:0:0:
109,208,76349,1,0,0:0:0:0:
323,67,77001,5,0,0:0:0:0:
323,67,77083,1,0,0:0:0:0:
323,67,77165,1,0,0:0:0:0:
316,162,77328,1,0,0:0:0:0:
309,257,77491,1,0,0:0:0:0:
405,117,77817,1,0,0:0:0:0:
412,212,77980,1,0,0:0:0:0:
419,307,78143,1,0,0:0:0:0:
474,54,78306,1,0,0:0:0:0:
167,67,79284,5,0,0:0:0:0:
167,67,79447,1,0,0:0:0:0:
167,67,79610,1,0,0:0:0:0:
174,162,79773,1,0,0:0:0:0:
181,257,79936,1,0,0:0:0:0:
191,352,80099,1,0,0:0:0:0:
85,117,80425,1,0,0:0:0:0:
78,212,80588,1,0,0:0:0:0:
71,307,80751,1,0,0:0:0:0:
16,54,80915,1,0,0:0:0:0:
16,54,81730,101,0,0:0:0:0:
102,96,81893,1,0,0:0:0:0:
187,139,82056,1,0,0:0:0:0:
178,43,82219,1,0,0:0:0:0:
178,43,82300,1,0,0:0:0:0:
178,43,82382,1,0,0:0:0:0:
147,133,82545,1,0,0:0:0:0:
51,145,82708,1,0,0:0:0:0:
312,43,83034,1,0,0:0:0:0:
343,133,83197,1,0,0:0:0:0:
439,145,83360,1,0,0:0:0:0:
254,121,83523,1,0,0:0:0:0:
178,351,84501,5,0,0:0:0:0:
178,351,84665,1,0,0:0:0:0:
178,351,84828,1,0,0:0:0:0:
147,261,84991,1,0,0:0:0:0:
51,249,85154,1,0,0:0:0:0:
73,341,85317,1,0,0:0:0:0:
312,351,85643,1,0,0:0:0:0:
343,261,85806,1,0,0:0:0:0:
439,249,85969,1,0,0:0:0:0:
409,341,86132,69,0,0:0:0:0:
381,177,86295,1,0,0:0:0:0:
312,351,86458,1,0,0:0:0:0:
284,187,86621,5,0,0:0:0:0:
284,163,86703,1,0,0:0:0:0:
290,140,86784,1,0,0:0:0:0:
432,90,86947,1,0,0:0:0:0:
284,48,87110,1,0,0:0:0:0:
249,59,87191,1,0,0:0:0:0:
217,76,87273,1,0,0:0:0:0:
137,260,87436,6,0,L|129:364,2,95
39,190,87925,2,0,L|47:294,2,95
157,142,88415,2,0,L|261:134,1,95
62,85,88741,85,0,0:0:0:0:
220,236,88904,2,0,P|248:160|248:130,1,95
144,290,89230,1,0,0:0:0:0:
327,218,89393,2,0,P|403:190|433:190,1,95
310,301,89719,2,0,P|234:329|204:329,1,95
426,194,90045,38,0,L|434:319,1,95
304,152,90371,2,0,L|261:48,1,95
214,242,90697,2,0,L|206:349,1,95
133,139,91023,1,0,0:0:0:0:
97,259,91186,2,0,P|25:206|10:178,1,95
75,45,91512,85,0,0:0:0:0:
75,45,91675,1,0,0:0:0:0:
103,181,91838,1,0,0:0:0:0:
220,33,92001,1,0,0:0:0:0:
191,252,92164,1,0,0:0:0:0:
311,81,92328,2,0,P|421:117|439:130,1,95
401,105,92572,1,0,0:0:0:0:
401,105,92654,1,0,0:0:0:0:
458,199,94936,70,0,L|376:205,1,71.25
386,204,95262,22,0,L|397:314,1,95
307,130,95588,1,0,0:0:0:0:
307,130,95751,1,0,0:0:0:0:
242,303,95914,1,0,0:0:0:0:
212,82,96078,1,0,0:0:0:0:
212,82,96241,1,0,0:0:0:0:
141,225,96404,5,0,0:0:0:0:
118,219,96485,1,0,0:0:0:0:
94,216,96567,1,0,0:0:0:0:
107,261,96648,1,0,0:0:0:0:
132,301,96730,1,0,0:0:0:0:
167,332,96811,1,0,0:0:0:0:
210,354,96893,1,0,0:0:0:0:
244,321,96974,1,0,0:0:0:0:
288,303,97056,1,0,0:0:0:0:
335,298,97137,1,0,0:0:0:0:
382,307,97219,2,0,B|414:324|432:351|432:351|434:307|445:267,1,142.500005435944
351,103,97871,38,0,L|309:107,2,23.75
262,168,98299,1,0,0:0:0:0:
250,166,98406,1,0,0:0:0:0:
238,165,98513,1,0,0:0:0:0:
149,88,99156,5,0,0:0:0:0:
140,110,99263,1,0,0:0:0:0:
137,133,99371,1,0,0:0:0:0:
175,223,99585,2,0,L|178:290,1,47.5
102,342,100013,1,0,0:0:0:0:
286,274,100228,101,0,0:0:0:0:
286,274,100335,1,0,0:0:0:0:
286,274,100442,1,0,0:0:0:0:
339,354,100656,1,0,0:0:0:0:
466,221,100871,1,0,0:0:0:0:
230,191,101085,1,0,0:0:0:0:
359,88,101299,6,0,L|317:92,2,23.75
246,49,101727,1,0,0:0:0:0:
244,61,101834,1,0,0:0:0:0:
243,73,101941,1,0,0:0:0:0:
125,134,102585,101,0,0:0:0:0:
147,143,102691,1,0,0:0:0:0:
170,146,102799,1,0,0:0:0:0:
70,221,103013,1,0,0:0:0:0:
164,64,103228,1,0,0:0:0:0:
102,342,103441,1,0,0:0:0:0:
262,272,103656,5,0,0:0:0:0:
204,138,103871,1,0,0:0:0:0:
246,354,104084,1,0,0:0:0:0:
466,200,104299,1,0,0:0:0:0:
448,353,104513,1,0,0:0:0:0:
349,196,104728,102,0,P|352:182|362:155,2,23.75
421,97,105156,1,0,0:0:0:0:
397,94,105263,1,0,0:0:0:0:
373,91,105371,1,0,0:0:0:0:
265,173,106013,1,0,0:0:0:0:
241,176,106121,1,0,0:0:0:0:
217,179,106228,1,0,0:0:0:0:
230,345,106442,5,0,0:0:0:0:
192,279,106656,1,0,0:0:0:0:
121,251,106871,1,0,0:0:0:0:
49,277,107085,1,0,0:0:0:0:
49,277,107192,1,0,0:0:0:0:
49,277,107299,1,0,0:0:0:0:
117,359,107513,101,0,0:0:0:0:
80,94,107728,1,0,0:0:0:0:
49,277,107942,5,0,0:0:0:0:
265,53,108156,1,0,0:0:0:0:
221,208,111156,37,0,0:0:0:0:
442,52,111585,53,0,0:0:0:0:
446,127,111692,1,0,0:0:0:0:
450,202,111799,1,0,0:0:0:0:
362,175,112013,1,0,0:0:0:0:
373,170,112228,1,0,0:0:0:0:
344,348,112442,5,0,0:0:0:0:
252,243,113299,1,0,0:0:0:0:
104,306,113942,53,0,0:0:0:0:
127,312,114013,1,0,0:0:0:0:
153,314,114085,1,0,0:0:0:0:
179,314,114156,1,0,0:0:0:0:
245,259,114371,101,0,0:0:0:0:
23,228,114585,1,0,0:0:0:0:
24,32,114799,1,0,0:0:0:0:
188,124,115013,53,0,0:0:0:0:
183,200,115121,1,0,0:0:0:0:
179,275,115228,1,0,0:0:0:0:
293,185,115442,1,0,0:0:0:0:
295,196,115656,1,0,0:0:0:0:
401,42,115871,5,0,0:0:0:0:
440,150,116728,1,0,0:0:0:0:
430,312,117371,54,0,L|373:327,1,47.5
428,362,117585,1,0,0:0:0:0:
365,330,117728,1,0,0:0:0:0:
295,334,117871,1,0,0:0:0:0:
174,204,118013,1,0,0:0:0:0:
61,371,118442,37,0,0:0:0:0:
65,296,118549,1,0,0:0:0:0:
69,221,118656,1,0,0:0:0:0:
158,296,118871,1,0,0:0:0:0:
141,299,119085,1,0,0:0:0:0:
196,127,119299,5,0,0:0:0:0:
302,76,120156,1,0,0:0:0:0:
389,234,120799,37,0,0:0:0:0:
395,211,120870,1,0,0:0:0:0:
397,185,120942,1,0,0:0:0:0:
397,159,121013,1,0,0:0:0:0:
457,51,121228,5,0,0:0:0:0:
272,85,121442,1,0,0:0:0:0:
257,262,121656,1,0,0:0:0:0:
447,371,121871,37,0,0:0:0:0:
443,296,121978,1,0,0:0:0:0:
439,221,122085,1,0,0:0:0:0:
350,296,122300,1,0,0:0:0:0:
367,299,122514,1,0,0:0:0:0:
227,359,122728,5,0,0:0:0:0:
138,265,123585,1,0,0:0:0:0:
131,114,124228,38,0,L|184:118,1,47.5
64,65,124442,1,0,0:0:0:0:
32,128,124585,1,0,0:0:0:0:
36,198,124728,1,0,0:0:0:0:
72,257,124871,1,0,0:0:0:0:
143,205,125013,1,0,0:0:0:0:
232,205,125156,1,0,0:0:0:0:
314,239,125299,53,0,0:0:0:0:
294,329,125406,1,0,0:0:0:0:
314,239,125514,1,0,0:0:0:0:
417,356,125727,1,0,0:0:0:0:
397,266,125942,1,0,0:0:0:0:
175,315,126156,6,0,B|190:281|190:281|190:236|190:236|168:196|168:196|133:173|133:173|81:172|81:172|56:192|56:192|39:214|39:214|56:189|56:189|66:158|66:158|69:112|69:112|53:71|53:71|63:50|63:50|67:28|67:28|95:38|95:38|127:34|127:34|174:45|174:45,1,570
233,129,127656,53,0,0:0:0:0:
267,137,127728,1,0,0:0:0:0:
301,142,127799,1,0,0:0:0:0:
336,142,127871,1,0,0:0:0:0:
418,78,128085,101,0,0:0:0:0:
278,282,128299,1,0,0:0:0:0:
348,340,128406,1,0,0:0:0:0:
366,250,128513,1,0,0:0:0:0:
353,257,128728,53,0,0:0:0:0:
407,184,128835,1,0,0:0:0:0:
316,170,128942,1,0,0:0:0:0:
353,257,129156,1,0,0:0:0:0:
230,138,129371,1,0,0:0:0:0:
342,306,129585,6,0,B|335:334|356:262|356:262|375:253|375:253|386:218|386:218|424:189|424:189|459:179|459:179|420:156|420:156|379:160|379:160|359:182|359:182|312:206|312:206|253:197|253:197|208:170|208:170|157:160|157:160|112:175,1,570
98,278,131085,54,0,L|32:281,1,47.5
118,250,131299,1,0,0:0:0:0:
191,247,131442,1,0,0:0:0:0:
260,274,131585,1,0,0:0:0:0:
297,118,131728,1,0,0:0:0:0:
409,303,132156,37,0,0:0:0:0:
419,207,132263,1,0,0:0:0:0:
409,303,132371,1,0,0:0:0:0:
322,120,132585,1,0,0:0:0:0:
332,216,132799,1,0,0:0:0:0:
458,50,133013,6,0,B|422:83|422:83|377:93|377:93|329:85|329:85|303:65|303:65|311:95|311:95|275:78|275:78|237:77|237:77|192:93|192:93|151:123|151:123|145:150|145:150|158:173|158:173|168:189|168:189|159:206|159:206|149:231|149:231|158:253|158:253|154:285|154:285|163:322|163:322,1,570
