osu file format v14

[General]
AudioFilename: audio.mp3
AudioLeadIn: 0
PreviewTime: 45616
Countdown: 0
SampleSet: Normal
StackLeniency: 1
Mode: 1
LetterboxInBreaks: 0
WidescreenStoryboard: 0

[Editor]
DistanceSpacing: 0.6
BeatDivisor: 4
GridSize: 4
TimelineZoom: 1

[Metadata]
Title:Sad Spring
TitleUnicode:Sad Spring
Artist:Draw the Emotional & Foreground Eclipse
ArtistUnicode:Draw the Emotional & Foreground Eclipse
Creator:Nifty
Version:Oni
Source:東方妖々夢 ~ Perfect Cherry Blossom.
Tags:Ayyri 東方Project Touhou ZUN Team Shanghai Alice PCB TH07 TH 07 Youyoumu Ghostly Dream ゆよゆっぺ Yuyoyuppe ルシュカ LUSCHKA Nico neko ネクロファンタジア Necrofantasia 八雲 紫 Yukari Yakumo 幽雅に咲かせ、墨染の桜 ~ Border of Life 西行寺 幽々子 Yuyuko Saigyouji Bloom Nobly, of Sumizome Seated with Liquor Comiket 83 C83 DtE FE YPFE-0001
BeatmapID:1438772
BeatmapSetID:680446

[Difficulty]
HPDrainRate:6
CircleSize:2
OverallDifficulty:5
ApproachRate:10
SliderMultiplier:1.4
SliderTickRate:1

[Events]
//Background and Video events
0,0,"Touhou.full.1143671.jpg",0,0
//Break Periods
//Storyboard Layer 0 (Background)
//Storyboard Layer 1 (Fail)
//Storyboard Layer 2 (Pass)
//Storyboard Layer 3 (Foreground)
//Storyboard Sound Samples

[TimingPoints]
1350,326.086158437331,4,1,0,80,1,0
45697,-100,4,1,0,80,0,1
55480,-100,4,1,0,80,0,0
56132,-100,4,1,0,80,0,1
66567,-100,4,1,0,80,0,0
97871,428.571428571429,4,1,0,80,1,0
136871,-98.0392156862745,4,1,0,80,0,0
136978,-96.1538461538461,4,1,0,80,0,0
137085,-94.3396226415094,4,1,0,80,0,0
137192,-92.5925925925926,4,1,0,80,0,0
137299,-90.9090909090909,4,1,0,80,0,0
137513,-87.719298245614,4,1,0,80,0,0
137621,-86.2068965517241,4,1,0,80,0,0
137728,-84.7457627118644,4,1,0,80,0,0
137942,-80.6451612903226,4,1,0,80,0,0
138156,326.086956521739,4,1,0,80,1,8
138156,-105.263157894737,4,1,0,80,0,0
138807,326.086956521739,4,1,0,80,1,0
138807,-105.263157894737,4,1,0,80,0,0
138970,-102.564102564103,4,1,0,80,0,0
139133,-100,4,1,0,80,0,0
157230,-100,4,1,0,50,0,0
159350,-100,4,1,0,80,0,0
170111,-100,4,1,0,80,0,1
180546,-100,4,1,0,80,0,0
191062,-100,4,1,0,5,0,0

[HitObjects]
240,104,1350,5,8,0:0:0:0:
248,104,1513,1,8,0:0:0:0:
252,96,1839,1,0,0:0:0:0:
256,108,2002,1,0,0:0:0:0:
256,104,2328,1,8,0:0:0:0:
256,100,2491,1,8,0:0:0:0:
252,96,2817,1,0,0:0:0:0:
256,100,2980,1,0,0:0:0:0:
256,100,3143,1,8,0:0:0:0:
256,104,3306,1,8,0:0:0:0:
256,100,3388,1,8,0:0:0:0:
256,100,3469,1,0,0:0:0:0:
256,100,3551,1,0,0:0:0:0:
256,100,3632,1,8,0:0:0:0:
260,88,3795,1,0,0:0:0:0:
260,88,3959,1,12,0:0:0:0:
260,88,4611,1,8,0:0:0:0:
256,100,5263,1,8,0:0:0:0:
256,100,5915,1,8,0:0:0:0:
256,100,6241,1,0,0:0:0:0:
256,100,6404,1,0,0:0:0:0:
256,100,6567,1,12,0:0:0:0:
256,100,7219,1,8,0:0:0:0:
256,100,7872,1,8,0:0:0:0:
256,100,8524,1,8,0:0:0:0:
272,108,8687,1,8,0:0:0:0:
272,108,8850,1,0,0:0:0:0:
272,108,9013,1,8,0:0:0:0:
272,108,9176,1,4,0:0:0:0:
256,100,10480,1,8,0:0:0:0:
256,100,10806,1,8,0:0:0:0:
256,100,11132,1,8,0:0:0:0:
256,100,11295,1,0,0:0:0:0:
256,100,11458,1,8,0:0:0:0:
256,100,11622,1,8,0:0:0:0:
256,100,11785,1,0,0:0:0:0:
256,100,11948,1,0,0:0:0:0:
256,100,12111,1,0,0:0:0:0:
256,100,12274,1,8,0:0:0:0:
264,100,12355,1,0,0:0:0:0:
256,100,12437,1,0,0:0:0:0:
256,100,12600,1,0,0:0:0:0:
256,100,12763,1,0,0:0:0:0:
256,100,12926,1,0,0:0:0:0:
256,100,13089,1,0,0:0:0:0:
256,100,13252,1,8,0:0:0:0:
256,100,13333,1,0,0:0:0:0:
256,100,13415,1,0,0:0:0:0:
260,92,13578,1,0,0:0:0:0:
260,92,13741,1,8,0:0:0:0:
256,100,13904,1,8,0:0:0:0:
256,92,13986,1,8,0:0:0:0:
256,100,14067,1,8,0:0:0:0:
260,88,14393,1,8,0:0:0:0:
260,92,14475,1,0,0:0:0:0:
260,92,14556,1,0,0:0:0:0:
260,92,14719,1,8,0:0:0:0:
256,92,14882,1,0,0:0:0:0:
256,88,15045,1,8,0:0:0:0:
260,88,15372,1,8,0:0:0:0:
260,84,15535,1,0,0:0:0:0:
260,84,15698,1,0,0:0:0:0:
264,80,15779,1,0,0:0:0:0:
268,76,15861,1,0,0:0:0:0:
264,80,16024,1,8,0:0:0:0:
264,80,16187,1,0,0:0:0:0:
272,96,16350,1,8,0:0:0:0:
264,80,16676,1,8,0:0:0:0:
272,92,16839,1,0,0:0:0:0:
276,84,17002,1,0,0:0:0:0:
276,84,17083,1,0,0:0:0:0:
276,84,17165,1,0,0:0:0:0:
276,84,17328,1,8,0:0:0:0:
276,84,17491,1,0,0:0:0:0:
276,84,17654,1,8,0:0:0:0:
276,84,17980,1,8,0:0:0:0:
276,84,18143,1,0,0:0:0:0:
276,84,18306,1,0,0:0:0:0:
276,84,18388,1,0,0:0:0:0:
276,84,18469,1,0,0:0:0:0:
276,84,18632,1,8,0:0:0:0:
272,84,18795,1,0,0:0:0:0:
276,84,18958,1,8,0:0:0:0:
276,84,19040,1,8,0:0:0:0:
276,84,19122,1,0,0:0:0:0:
276,84,19203,1,0,0:0:0:0:
276,84,19285,1,8,0:0:0:0:
276,84,19448,1,0,0:0:0:0:
288,80,19611,1,8,0:0:0:0:
272,84,19692,1,0,0:0:0:0:
272,84,19774,1,0,0:0:0:0:
288,80,19937,1,8,0:0:0:0:
288,80,20100,1,0,0:0:0:0:
288,76,20263,1,8,0:0:0:0:
280,76,20589,1,8,0:0:0:0:
296,76,20752,1,0,0:0:0:0:
296,76,20915,1,0,0:0:0:0:
296,76,20997,1,0,0:0:0:0:
296,76,21078,1,0,0:0:0:0:
288,76,21241,1,8,0:0:0:0:
288,76,21404,1,0,0:0:0:0:
296,72,21567,1,8,0:0:0:0:
280,76,21893,1,8,0:0:0:0:
296,76,22056,1,0,0:0:0:0:
296,76,22219,1,0,0:0:0:0:
296,76,22301,1,0,0:0:0:0:
296,76,22382,1,0,0:0:0:0:
288,76,22545,1,8,0:0:0:0:
288,76,22708,1,0,0:0:0:0:
296,72,22871,1,8,0:0:0:0:
280,76,23198,1,8,0:0:0:0:
296,76,23361,1,0,0:0:0:0:
288,76,23524,1,8,0:0:0:0:
296,76,24013,1,8,0:0:0:0:
300,72,24094,1,8,0:0:0:0:
300,72,24176,1,0,0:0:0:0:
304,68,24339,1,8,0:0:0:0:
300,68,24502,1,0,0:0:0:0:
316,72,24583,1,0,0:0:0:0:
300,68,24665,1,8,0:0:0:0:
300,68,24746,1,8,0:0:0:0:
300,68,24828,1,0,0:0:0:0:
300,72,25154,1,8,0:0:0:0:
296,72,25317,1,0,0:0:0:0:
300,68,25643,1,0,0:0:0:0:
300,68,25806,1,8,0:0:0:0:
300,72,25969,1,0,0:0:0:0:
312,68,26132,1,0,0:0:0:0:
312,64,26458,1,8,0:0:0:0:
300,68,26621,1,8,0:0:0:0:
300,68,26785,1,0,0:0:0:0:
304,64,26948,1,0,0:0:0:0:
304,64,27111,1,8,0:0:0:0:
304,72,27437,1,0,0:0:0:0:
312,80,27599,1,0,0:0:0:0:
312,68,27763,1,8,0:0:0:0:
312,68,28089,1,8,0:0:0:0:
312,68,28252,1,0,0:0:0:0:
312,68,28415,1,8,0:0:0:0:
312,68,28578,1,0,0:0:0:0:
312,68,28904,1,0,0:0:0:0:
312,68,28986,1,0,0:0:0:0:
312,68,29067,1,8,0:0:0:0:
312,68,29393,1,0,0:0:0:0:
312,68,29556,1,0,0:0:0:0:
304,68,29719,1,8,0:0:0:0:
312,68,29882,1,0,0:0:0:0:
304,68,29964,1,0,0:0:0:0:
304,68,30045,1,0,0:0:0:0:
300,68,30371,1,8,0:0:0:0:
300,68,30535,1,0,0:0:0:0:
304,68,30861,1,0,0:0:0:0:
304,68,31024,1,8,0:0:0:0:
300,68,31187,1,0,0:0:0:0:
300,68,31350,1,0,0:0:0:0:
304,68,31676,1,8,0:0:0:0:
304,68,31839,1,0,0:0:0:0:
300,68,32165,1,0,0:0:0:0:
300,68,32328,1,8,0:0:0:0:
312,76,32654,1,8,0:0:0:0:
312,76,32817,1,0,0:0:0:0:
308,72,32980,1,8,0:0:0:0:
312,72,33306,1,0,0:0:0:0:
312,76,33469,1,0,0:0:0:0:
312,76,33632,1,8,0:0:0:0:
312,76,33795,1,0,0:0:0:0:
312,72,34121,1,0,0:0:0:0:
312,72,34203,1,0,0:0:0:0:
312,72,34285,1,8,0:0:0:0:
312,76,34448,1,0,0:0:0:0:
312,76,34611,1,8,0:0:0:0:
320,72,34692,1,8,0:0:0:0:
320,72,34774,1,0,0:0:0:0:
320,72,34855,1,0,0:0:0:0:
320,72,34937,1,8,0:0:0:0:
312,72,35100,1,0,0:0:0:0:
312,72,35263,1,8,0:0:0:0:
312,76,35344,1,0,0:0:0:0:
312,76,35426,1,0,0:0:0:0:
312,76,35589,1,0,0:0:0:0:
308,64,35752,1,8,0:0:0:0:
312,72,36241,1,8,0:0:0:0:
312,68,36404,1,0,0:0:0:0:
312,68,36567,1,8,0:0:0:0:
312,72,36893,1,0,0:0:0:0:
304,84,37056,1,8,0:0:0:0:
312,68,37545,1,8,0:0:0:0:
312,68,37708,1,0,0:0:0:0:
312,72,37871,1,8,0:0:0:0:
304,68,37953,1,0,0:0:0:0:
304,68,38035,1,0,0:0:0:0:
304,72,38198,1,0,0:0:0:0:
304,72,38361,1,8,0:0:0:0:
320,68,38850,1,8,0:0:0:0:
316,64,39013,1,0,0:0:0:0:
312,68,39176,1,8,0:0:0:0:
312,84,39502,1,0,0:0:0:0:
332,80,39665,1,0,0:0:0:0:
332,80,39746,1,0,0:0:0:0:
332,80,39828,1,0,0:0:0:0:
336,80,39991,1,8,0:0:0:0:
340,80,40154,1,0,0:0:0:0:
336,80,40317,1,8,0:0:0:0:
332,80,40480,1,8,0:0:0:0:
332,80,40562,1,0,0:0:0:0:
332,80,40643,1,0,0:0:0:0:
340,76,40806,1,0,0:0:0:0:
324,80,40969,1,8,0:0:0:0:
344,76,41458,1,8,0:0:0:0:
344,76,41621,1,0,0:0:0:0:
340,76,41784,1,8,0:0:0:0:
344,76,42111,1,0,0:0:0:0:
352,72,42274,1,8,0:0:0:0:
344,76,42600,1,0,0:0:0:0:
340,76,42763,1,8,0:0:0:0:
344,76,42926,1,0,0:0:0:0:
344,76,43089,1,0,0:0:0:0:
344,76,43415,1,0,0:0:0:0:
348,72,43741,1,8,0:0:0:0:
344,76,44067,1,8,0:0:0:0:
344,76,44393,1,8,0:0:0:0:
348,72,44719,1,8,0:0:0:0:
344,76,45045,1,0,0:0:0:0:
344,76,45371,1,12,0:0:0:0:
272,112,45698,1,0,0:0:0:0:
272,112,45861,1,0,0:0:0:0:
296,116,45942,1,0,0:0:0:0:
280,116,46024,1,8,0:0:0:0:
288,112,46187,1,0,0:0:0:0:
288,112,46350,1,8,0:0:0:0:
288,112,46676,1,0,0:0:0:0:
308,112,46839,1,8,0:0:0:0:
308,112,47002,1,0,0:0:0:0:
308,112,47083,1,0,0:0:0:0:
308,112,47165,1,0,0:0:0:0:
308,112,47328,1,8,0:0:0:0:
268,120,47491,1,0,0:0:0:0:
280,120,47654,1,0,0:0:0:0:
280,112,47817,1,0,0:0:0:0:
264,96,47980,1,8,0:0:0:0:
272,104,48306,1,0,0:0:0:0:
276,104,48469,1,0,0:0:0:0:
280,96,48551,1,0,0:0:0:0:
276,104,48632,1,8,0:0:0:0:
276,104,48795,1,0,0:0:0:0:
276,104,48958,1,8,0:0:0:0:
272,104,49121,1,0,0:0:0:0:
272,104,49284,1,0,0:0:0:0:
276,104,49448,1,8,0:0:0:0:
276,104,49774,1,0,0:0:0:0:
276,104,49937,1,8,0:0:0:0:
280,104,50100,1,0,0:0:0:0:
280,104,50181,1,0,0:0:0:0:
280,104,50263,1,8,0:0:0:0:
276,104,50426,1,0,0:0:0:0:
276,104,50589,1,8,0:0:0:0:
276,104,50752,1,0,0:0:0:0:
276,104,50833,1,0,0:0:0:0:
276,104,50915,1,0,0:0:0:0:
272,100,51078,1,0,0:0:0:0:
272,100,51241,1,8,0:0:0:0:
276,104,51567,1,0,0:0:0:0:
272,96,51730,1,0,0:0:0:0:
272,96,51893,1,8,0:0:0:0:
272,100,52056,1,8,0:0:0:0:
272,100,52219,1,0,0:0:0:0:
272,96,52382,1,0,0:0:0:0:
280,92,52464,1,0,0:0:0:0:
280,92,52545,1,8,0:0:0:0:
272,96,52871,1,0,0:0:0:0:
272,100,53034,1,0,0:0:0:0:
272,100,53198,1,8,0:0:0:0:
272,96,53361,1,0,0:0:0:0:
272,96,53442,1,0,0:0:0:0:
272,96,53524,1,0,0:0:0:0:
272,96,53687,1,0,0:0:0:0:
272,96,53850,1,8,0:0:0:0:
280,88,54176,1,0,0:0:0:0:
288,100,54339,1,0,0:0:0:0:
280,88,54502,1,8,0:0:0:0:
284,88,54665,1,0,0:0:0:0:
284,88,54746,1,0,0:0:0:0:
284,88,54828,1,8,0:0:0:0:
280,88,54991,1,0,0:0:0:0:
280,88,55154,1,8,0:0:0:0:
276,68,55236,1,8,0:0:0:0:
280,72,55317,1,0,0:0:0:0:
280,72,55480,1,8,0:0:0:0:
280,68,55643,1,0,0:0:0:0:
280,68,55806,1,0,0:0:0:0:
272,60,55969,1,0,0:0:0:0:
280,68,56132,1,12,0:0:0:0:
280,72,56295,1,0,0:0:0:0:
280,72,56458,1,8,0:0:0:0:
280,68,56784,1,8,0:0:0:0:
272,60,56948,1,0,0:0:0:0:
288,56,57111,1,8,0:0:0:0:
288,56,57274,1,8,0:0:0:0:
288,56,57355,1,0,0:0:0:0:
288,56,57437,1,0,0:0:0:0:
280,44,57600,1,0,0:0:0:0:
284,44,57763,1,8,0:0:0:0:
280,44,58089,1,8,0:0:0:0:
280,44,58252,1,0,0:0:0:0:
280,44,58415,1,8,0:0:0:0:
280,44,58496,1,8,0:0:0:0:
280,44,58578,1,0,0:0:0:0:
284,44,58741,1,0,0:0:0:0:
280,44,58904,1,0,0:0:0:0:
280,44,59067,1,8,0:0:0:0:
280,44,59393,1,8,0:0:0:0:
280,44,59556,1,0,0:0:0:0:
284,44,59719,1,0,0:0:0:0:
280,44,59882,1,8,0:0:0:0:
280,44,59964,1,0,0:0:0:0:
280,44,60045,1,0,0:0:0:0:
264,64,60208,1,0,0:0:0:0:
252,68,60371,1,0,0:0:0:0:
252,68,60534,1,8,0:0:0:0:
268,60,60861,1,8,0:0:0:0:
268,60,61024,1,8,0:0:0:0:
264,64,61187,1,0,0:0:0:0:
264,64,61350,1,0,0:0:0:0:
264,60,61431,1,0,0:0:0:0:
264,60,61513,1,0,0:0:0:0:
248,60,61676,1,8,0:0:0:0:
268,60,62002,1,8,0:0:0:0:
264,64,62083,1,8,0:0:0:0:
264,64,62165,1,0,0:0:0:0:
264,64,62246,1,0,0:0:0:0:
264,64,62328,1,8,0:0:0:0:
264,60,62491,1,0,0:0:0:0:
268,60,62654,1,8,0:0:0:0:
268,60,62736,1,0,0:0:0:0:
268,60,62817,1,0,0:0:0:0:
268,60,62980,1,0,0:0:0:0:
272,64,63143,1,8,0:0:0:0:
272,56,63469,1,8,0:0:0:0:
272,56,63551,1,0,0:0:0:0:
272,56,63632,1,8,0:0:0:0:
268,60,63795,1,0,0:0:0:0:
272,56,63958,1,8,0:0:0:0:
272,56,64121,1,0,0:0:0:0:
272,56,64284,1,8,0:0:0:0:
272,56,64447,1,0,0:0:0:0:
272,56,64611,1,8,0:0:0:0:
268,60,64774,1,8,0:0:0:0:
272,56,65100,1,8,0:0:0:0:
272,56,65263,1,0,0:0:0:0:
272,56,65426,1,8,0:0:0:0:
272,56,65589,1,8,0:0:0:0:
268,60,65752,1,0,0:0:0:0:
272,56,65833,1,0,0:0:0:0:
272,56,65915,1,8,0:0:0:0:
272,56,65996,1,8,0:0:0:0:
272,56,66078,1,0,0:0:0:0:
272,56,66241,1,8,0:0:0:0:
272,56,66322,1,8,0:0:0:0:
272,56,66404,1,8,0:0:0:0:
272,56,66567,1,0,0:0:0:0:
272,56,66893,1,8,0:0:0:0:
272,56,67056,1,0,0:0:0:0:
268,44,67219,1,8,0:0:0:0:
268,44,67301,1,0,0:0:0:0:
268,44,67382,1,0,0:0:0:0:
268,44,67545,1,8,0:0:0:0:
268,44,67708,1,0,0:0:0:0:
268,60,68034,1,0,0:0:0:0:
272,56,68197,1,8,0:0:0:0:
272,56,68360,1,0,0:0:0:0:
268,44,68523,1,8,0:0:0:0:
268,44,68605,1,0,0:0:0:0:
268,44,68686,1,0,0:0:0:0:
268,44,68849,1,8,0:0:0:0:
268,44,69012,1,0,0:0:0:0:
272,56,69176,1,0,0:0:0:0:
272,56,69502,1,8,0:0:0:0:
272,56,69665,1,0,0:0:0:0:
268,44,69828,1,8,0:0:0:0:
268,44,69910,1,0,0:0:0:0:
268,44,69991,1,0,0:0:0:0:
268,44,70154,1,8,0:0:0:0:
268,44,70317,1,0,0:0:0:0:
268,48,70480,1,8,0:0:0:0:
268,60,70643,1,0,0:0:0:0:
268,44,70806,1,0,0:0:0:0:
268,44,71132,1,8,0:0:0:0:
268,44,71214,1,8,0:0:0:0:
268,44,71295,1,0,0:0:0:0:
268,48,71377,1,0,0:0:0:0:
268,44,71458,1,8,0:0:0:0:
268,44,71621,1,0,0:0:0:0:
272,56,71784,1,0,0:0:0:0:
268,60,71866,1,0,0:0:0:0:
268,60,71947,1,0,0:0:0:0:
272,56,72110,1,8,0:0:0:0:
276,60,72274,1,0,0:0:0:0:
268,44,72599,1,0,0:0:0:0:
268,44,72762,1,8,0:0:0:0:
268,44,72925,1,0,0:0:0:0:
80,132,73089,1,8,0:0:0:0:
268,60,73171,1,0,0:0:0:0:
268,60,73252,1,0,0:0:0:0:
264,64,73415,1,8,0:0:0:0:
272,56,73578,1,0,0:0:0:0:
272,56,73904,1,8,0:0:0:0:
268,60,73986,1,8,0:0:0:0:
268,60,74067,1,0,0:0:0:0:
268,60,74149,1,0,0:0:0:0:
268,60,74230,1,8,0:0:0:0:
268,44,74393,1,8,0:0:0:0:
268,44,74556,1,0,0:0:0:0:
268,44,74719,1,8,0:0:0:0:
272,56,74882,1,8,0:0:0:0:
268,44,75208,1,0,0:0:0:0:
264,36,75371,1,8,0:0:0:0:
280,36,75534,1,0,0:0:0:0:
276,36,75697,1,8,0:0:0:0:
280,36,75779,1,8,0:0:0:0:
280,36,75860,1,0,0:0:0:0:
280,36,75942,1,0,0:0:0:0:
280,36,76024,1,8,0:0:0:0:
280,36,76187,1,0,0:0:0:0:
276,36,76268,1,0,0:0:0:0:
280,36,76350,1,8,0:0:0:0:
268,72,77002,1,0,0:0:0:0:
268,72,77083,1,0,0:0:0:0:
268,72,77165,1,0,0:0:0:0:
268,72,77328,1,0,0:0:0:0:
268,72,77491,1,0,0:0:0:0:
268,72,77817,1,0,0:0:0:0:
276,76,77980,1,0,0:0:0:0:
276,76,78143,1,0,0:0:0:0:
276,76,78306,1,8,0:0:0:0:
272,68,79284,1,0,0:0:0:0:
272,68,79447,1,0,0:0:0:0:
272,68,79610,1,8,0:0:0:0:
264,56,79774,1,8,0:0:0:0:
264,56,79937,1,8,0:0:0:0:
256,64,80100,1,8,0:0:0:0:
264,56,80426,1,0,0:0:0:0:
264,56,80589,1,8,0:0:0:0:
264,56,80752,1,0,0:0:0:0:
264,56,80915,1,8,0:0:0:0:
264,56,81730,1,8,0:0:0:0:
272,64,81893,1,8,0:0:0:0:
272,64,82056,1,8,0:0:0:0:
272,64,82219,1,0,0:0:0:0:
272,64,82301,1,0,0:0:0:0:
272,64,82382,1,0,0:0:0:0:
272,64,82545,1,0,0:0:0:0:
272,64,82708,1,0,0:0:0:0:
272,64,83034,1,0,0:0:0:0:
272,64,83197,1,0,0:0:0:0:
272,64,83360,1,0,0:0:0:0:
164,272,83524,1,8,0:0:0:0:
272,136,84502,1,0,0:0:0:0:
272,136,84665,1,0,0:0:0:0:
272,136,84828,1,8,0:0:0:0:
272,136,84991,1,8,0:0:0:0:
272,136,85154,1,8,0:0:0:0:
272,136,85317,1,8,0:0:0:0:
264,132,85643,1,8,0:0:0:0:
272,136,85806,1,8,0:0:0:0:
264,132,85969,1,0,0:0:0:0:
272,136,86132,1,8,0:0:0:0:
272,136,86295,1,0,0:0:0:0:
272,136,86458,1,8,0:0:0:0:
264,132,86621,1,0,0:0:0:0:
264,132,86703,1,0,0:0:0:0:
264,132,86784,1,8,0:0:0:0:
272,128,86866,1,8,0:0:0:0:
272,128,86947,1,0,0:0:0:0:
272,128,87110,1,8,0:0:0:0:
272,128,87274,1,0,0:0:0:0:
272,128,87355,1,0,0:0:0:0:
272,128,87437,1,8,0:0:0:0:
280,128,87763,1,8,0:0:0:0:
280,128,87926,1,0,0:0:0:0:
280,128,88252,1,0,0:0:0:0:
280,124,88415,1,8,0:0:0:0:
280,128,88578,1,0,0:0:0:0:
288,132,88741,1,0,0:0:0:0:
264,132,88904,1,8,0:0:0:0:
272,128,89067,1,8,0:0:0:0:
272,128,89230,1,0,0:0:0:0:
272,128,89393,1,8,0:0:0:0:
280,128,89556,1,0,0:0:0:0:
276,128,89719,1,8,0:0:0:0:
280,132,90045,1,8,0:0:0:0:
280,132,90208,1,0,0:0:0:0:
280,132,90371,1,8,0:0:0:0:
280,128,90534,1,0,0:0:0:0:
284,128,90697,1,0,0:0:0:0:
280,132,91024,1,8,0:0:0:0:
280,132,91187,1,0,0:0:0:0:
288,128,91350,1,0,0:0:0:0:
280,128,91513,1,8,0:0:0:0:
284,128,91676,1,8,0:0:0:0:
288,128,91839,1,0,0:0:0:0:
288,128,92002,1,8,0:0:0:0:
296,116,92328,1,8,0:0:0:0:
296,116,92491,1,0,0:0:0:0:
296,116,92572,1,0,0:0:0:0:
296,116,92654,1,8,0:0:0:0:
256,112,95263,1,8,0:0:0:0:
256,112,95426,1,0,0:0:0:0:
256,112,95589,1,8,0:0:0:0:
256,112,95752,1,8,0:0:0:0:
260,104,95915,1,0,0:0:0:0:
260,104,96078,1,8,0:0:0:0:
260,104,96241,1,8,0:0:0:0:
260,104,96404,1,0,0:0:0:0:
260,104,96485,1,0,0:0:0:0:
260,104,96567,1,8,0:0:0:0:
260,104,96648,1,8,0:0:0:0:
260,104,96730,1,0,0:0:0:0:
260,104,96893,1,8,0:0:0:0:
260,104,97056,1,0,0:0:0:0:
260,104,97138,1,0,0:0:0:0:
260,104,97219,1,8,0:0:0:0:
260,104,97871,1,0,0:0:0:0:
260,104,97978,1,0,0:0:0:0:
260,104,98085,1,0,0:0:0:0:
260,104,98299,1,8,0:0:0:0:
260,104,98513,1,0,0:0:0:0:
268,112,98728,1,0,0:0:0:0:
268,112,99156,1,8,0:0:0:0:
268,112,99263,1,0,0:0:0:0:
268,112,99371,1,0,0:0:0:0:
268,112,99585,1,0,0:0:0:0:
268,112,99799,1,0,0:0:0:0:
268,112,100013,1,8,0:0:0:0:
260,108,100228,1,0,0:0:0:0:
260,108,100656,1,0,0:0:0:0:
260,108,100871,1,8,0:0:0:0:
260,108,101085,1,0,0:0:0:0:
260,108,101299,1,0,0:0:0:0:
268,108,101406,1,0,0:0:0:0:
260,108,101513,1,0,0:0:0:0:
268,104,101728,1,8,0:0:0:0:
260,108,101942,1,0,0:0:0:0:
256,104,102156,1,0,0:0:0:0:
256,104,102585,1,8,0:0:0:0:
256,104,102799,1,0,0:0:0:0:
256,104,103013,1,0,0:0:0:0:
256,104,103228,1,8,0:0:0:0:
256,104,103442,1,8,0:0:0:0:
256,92,103656,1,0,0:0:0:0:
256,92,103871,1,8,0:0:0:0:
256,92,104085,1,0,0:0:0:0:
256,92,104299,1,8,0:0:0:0:
256,92,104513,1,8,0:0:0:0:
256,92,104728,1,0,0:0:0:0:
256,92,104835,1,0,0:0:0:0:
256,92,104942,1,0,0:0:0:0:
256,92,105156,1,8,0:0:0:0:
256,92,105371,1,0,0:0:0:0:
256,92,105585,1,0,0:0:0:0:
256,92,106013,1,8,0:0:0:0:
256,92,106228,1,0,0:0:0:0:
256,92,106442,1,8,0:0:0:0:
256,92,106656,1,0,0:0:0:0:
256,92,106871,1,0,0:0:0:0:
256,92,107085,1,0,0:0:0:0:
256,92,107192,1,0,0:0:0:0:
256,92,107299,1,8,0:0:0:0:
256,92,107513,1,0,0:0:0:0:
256,92,107728,1,8,0:0:0:0:
256,92,107942,1,0,0:0:0:0:
256,92,108156,1,4,0:0:0:0:
260,92,111156,1,12,0:0:0:0:
260,92,111585,1,0,0:0:0:0:
260,92,111692,1,0,0:0:0:0:
260,92,111799,1,0,0:0:0:0:
260,92,112013,1,0,0:0:0:0:
260,92,112228,1,0,0:0:0:0:
260,92,112442,1,8,0:0:0:0:
260,92,113299,1,8,0:0:0:0:
260,92,113942,1,0,0:0:0:0:
240,92,114049,1,0,0:0:0:0:
260,92,114156,1,8,0:0:0:0:
260,92,114371,1,0,0:0:0:0:
260,92,114585,1,0,0:0:0:0:
260,92,114799,1,0,0:0:0:0:
268,88,115013,1,8,0:0:0:0:
268,88,115121,1,0,0:0:0:0:
268,88,115228,1,0,0:0:0:0:
268,88,115442,1,0,0:0:0:0:
272,88,115656,1,0,0:0:0:0:
268,88,115871,1,8,0:0:0:0:
268,100,116728,1,8,0:0:0:0:
264,104,117371,1,0,0:0:0:0:
264,104,117478,1,0,0:0:0:0:
264,104,117585,1,8,0:0:0:0:
260,104,117728,1,0,0:0:0:0:
264,104,117871,1,0,0:0:0:0:
264,104,118013,1,8,0:0:0:0:
264,96,118442,1,0,0:0:0:0:
264,96,118549,1,0,0:0:0:0:
264,96,118656,1,0,0:0:0:0:
264,96,118871,1,0,0:0:0:0:
264,96,119085,1,0,0:0:0:0:
264,96,119299,1,8,0:0:0:0:
264,96,120156,1,8,0:0:0:0:
260,80,120799,1,0,0:0:0:0:
264,96,120906,1,0,0:0:0:0:
264,84,121013,1,8,0:0:0:0:
280,84,121228,1,0,0:0:0:0:
280,84,121442,1,0,0:0:0:0:
276,84,121656,1,0,0:0:0:0:
276,84,121871,1,8,0:0:0:0:
276,84,121978,1,0,0:0:0:0:
280,84,122085,1,0,0:0:0:0:
288,80,122299,1,0,0:0:0:0:
288,80,122513,1,0,0:0:0:0:
284,76,122728,1,8,0:0:0:0:
284,76,123585,1,8,0:0:0:0:
284,76,124228,1,0,0:0:0:0:
284,76,124335,1,0,0:0:0:0:
284,76,124442,1,8,0:0:0:0:
284,76,124871,1,0,0:0:0:0:
284,76,125013,1,8,0:0:0:0:
284,76,125156,1,8,0:0:0:0:
284,76,125299,1,0,0:0:0:0:
264,84,125406,1,0,0:0:0:0:
268,80,125513,1,0,0:0:0:0:
272,80,125728,1,0,0:0:0:0:
264,84,125942,1,0,0:0:0:0:
280,92,126156,1,12,0:0:0:0:
284,84,127013,1,8,0:0:0:0:
284,84,127656,1,0,0:0:0:0:
312,72,127763,1,0,0:0:0:0:
284,84,127871,1,8,0:0:0:0:
292,88,128085,1,0,0:0:0:0:
284,84,128299,1,8,0:0:0:0:
284,84,128406,1,0,0:0:0:0:
284,84,128513,1,0,0:0:0:0:
284,84,128728,1,0,0:0:0:0:
284,84,128835,1,0,0:0:0:0:
288,80,128942,1,0,0:0:0:0:
280,76,129156,1,0,0:0:0:0:
288,72,129371,1,0,0:0:0:0:
288,72,129585,1,12,0:0:0:0:
288,72,130442,1,8,0:0:0:0:
288,72,131085,1,0,0:0:0:0:
288,72,131192,1,0,0:0:0:0:
288,72,131299,1,8,0:0:0:0:
284,64,131442,1,0,0:0:0:0:
284,64,131585,1,0,0:0:0:0:
284,64,131728,1,8,0:0:0:0:
288,72,132156,1,0,0:0:0:0:
288,72,132263,1,0,0:0:0:0:
292,64,132371,1,0,0:0:0:0:
296,64,132585,1,0,0:0:0:0:
296,64,132799,1,0,0:0:0:0:
288,64,133013,1,12,0:0:0:0:
296,64,133871,1,8,0:0:0:0:
276,168,134513,1,0,0:0:0:0:
284,56,134621,1,0,0:0:0:0:
288,60,134728,1,8,0:0:0:0:
296,64,134942,1,0,0:0:0:0:
296,64,135156,1,0,0:0:0:0:
296,64,135263,1,0,0:0:0:0:
296,64,135371,1,0,0:0:0:0:
300,56,135585,1,8,0:0:0:0:
296,64,135799,1,0,0:0:0:0:
280,88,136013,1,0,0:0:0:0:
280,88,136121,1,0,0:0:0:0:
280,88,136228,1,0,0:0:0:0:
272,84,136442,1,8,0:0:0:0:
280,84,136656,1,0,0:0:0:0:
280,88,136871,1,8,0:0:0:0:
276,80,136978,1,8,0:0:0:0:
276,80,137085,1,0,0:0:0:0:
276,80,137192,1,0,0:0:0:0:
276,80,137299,1,8,0:0:0:0:
280,84,137513,1,0,0:0:0:0:
280,84,137621,1,0,0:0:0:0:
280,88,137728,1,8,0:0:0:0:
276,80,137942,1,0,0:0:0:0:
276,80,138156,1,8,0:0:0:0:
276,80,138237,1,8,0:0:0:0:
276,80,138319,1,0,0:0:0:0:
280,84,138400,1,0,0:0:0:0:
280,84,138482,1,8,0:0:0:0:
280,84,138645,1,0,0:0:0:0:
280,88,138726,1,0,0:0:0:0:
280,88,138807,1,8,0:0:0:0:
276,96,138970,1,0,0:0:0:0:
276,96,139133,1,8,0:0:0:0:
280,92,139459,1,8,0:0:0:0:
280,92,139622,1,0,0:0:0:0:
280,88,139785,1,8,0:0:0:0:
276,96,139948,1,8,0:0:0:0:
288,88,140111,1,0,0:0:0:0:
288,88,140274,1,8,0:0:0:0:
288,88,140437,1,0,0:0:0:0:
288,88,140763,1,0,0:0:0:0:
288,88,140926,1,8,0:0:0:0:
288,88,141089,1,0,0:0:0:0:
288,88,141252,1,0,0:0:0:0:
288,88,141415,1,8,0:0:0:0:
288,88,141578,1,0,0:0:0:0:
288,88,141741,1,8,0:0:0:0:
288,88,142067,1,8,0:0:0:0:
288,88,142230,1,0,0:0:0:0:
288,88,142393,1,8,0:0:0:0:
288,88,142557,1,8,0:0:0:0:
288,88,142720,1,0,0:0:0:0:
288,88,142883,1,0,0:0:0:0:
288,88,143046,1,8,0:0:0:0:
288,88,143372,1,8,0:0:0:0:
288,88,143535,1,0,0:0:0:0:
288,88,143698,1,8,0:0:0:0:
288,88,143861,1,8,0:0:0:0:
288,88,143942,1,0,0:0:0:0:
288,88,144024,1,0,0:0:0:0:
288,88,144187,1,0,0:0:0:0:
288,88,144350,1,8,0:0:0:0:
288,88,144676,1,8,0:0:0:0:
288,88,144839,1,0,0:0:0:0:
288,88,145002,1,8,0:0:0:0:
288,88,145165,1,8,0:0:0:0:
288,88,145328,1,0,0:0:0:0:
288,88,145491,1,0,0:0:0:0:
288,88,145654,1,8,0:0:0:0:
288,88,145980,1,0,0:0:0:0:
288,88,146143,1,8,0:0:0:0:
288,88,146307,1,0,0:0:0:0:
288,88,146470,1,0,0:0:0:0:
288,88,146633,1,8,0:0:0:0:
296,92,146796,1,8,0:0:0:0:
296,92,146959,1,0,0:0:0:0:
296,92,147285,1,0,0:0:0:0:
296,92,147448,1,0,0:0:0:0:
296,92,147611,1,8,0:0:0:0:
308,96,147774,1,8,0:0:0:0:
296,92,148100,1,0,0:0:0:0:
296,92,148263,1,0,0:0:0:0:
296,92,148426,1,8,0:0:0:0:
296,92,148589,1,0,0:0:0:0:
296,92,148752,1,8,0:0:0:0:
296,92,148915,1,8,0:0:0:0:
296,92,149078,1,0,0:0:0:0:
296,92,149160,1,0,0:0:0:0:
296,92,149241,1,0,0:0:0:0:
296,92,149404,1,0,0:0:0:0:
296,92,149567,1,8,0:0:0:0:
296,92,149730,1,0,0:0:0:0:
300,88,150057,1,0,0:0:0:0:
296,92,150220,1,8,0:0:0:0:
296,92,150546,1,8,0:0:0:0:
296,92,150709,1,0,0:0:0:0:
296,92,150872,1,8,0:0:0:0:
296,92,151035,1,0,0:0:0:0:
296,92,151361,1,8,0:0:0:0:
296,92,151524,1,8,0:0:0:0:
296,92,151687,1,0,0:0:0:0:
296,92,151768,1,0,0:0:0:0:
296,92,151850,1,8,0:0:0:0:
296,92,152176,1,8,0:0:0:0:
296,92,152339,1,0,0:0:0:0:
296,92,152502,1,8,0:0:0:0:
296,92,152828,1,0,0:0:0:0:
296,92,152991,1,8,0:0:0:0:
296,92,153154,1,0,0:0:0:0:
296,92,153317,1,0,0:0:0:0:
296,92,153480,1,8,0:0:0:0:
296,92,153807,1,0,0:0:0:0:
296,92,153970,1,0,0:0:0:0:
296,92,154133,1,8,0:0:0:0:
296,92,154296,1,8,0:0:0:0:
296,92,154459,1,0,0:0:0:0:
296,92,154785,1,8,0:0:0:0:
296,92,154948,1,8,0:0:0:0:
296,92,155274,1,0,0:0:0:0:
296,92,155437,1,0,0:0:0:0:
296,92,155600,1,8,0:0:0:0:
296,92,155763,1,0,0:0:0:0:
308,92,156089,1,8,0:0:0:0:
304,88,156252,1,0,0:0:0:0:
304,88,156415,1,8,0:0:0:0:
304,88,156497,1,8,0:0:0:0:
304,88,156578,1,0,0:0:0:0:
304,88,156660,1,0,0:0:0:0:
296,92,156741,1,8,0:0:0:0:
304,92,156904,1,0,0:0:0:0:
300,88,156986,1,0,0:0:0:0:
300,88,157067,1,8,0:0:0:0:
256,192,157393,12,0,159024,0:0:0:0:
256,112,159350,5,8,0:0:0:0:
256,112,159676,1,4,0:0:0:0:
272,108,160980,1,8,0:0:0:0:
272,108,161143,1,0,0:0:0:0:
272,108,161307,1,0,0:0:0:0:
272,108,161470,1,8,0:0:0:0:
272,108,161633,1,0,0:0:0:0:
272,108,161796,1,8,0:0:0:0:
272,108,161959,1,8,0:0:0:0:
272,108,162122,1,0,0:0:0:0:
272,108,162203,1,0,0:0:0:0:
272,108,162285,1,0,0:0:0:0:
272,108,163589,1,8,0:0:0:0:
272,108,163671,1,8,0:0:0:0:
272,108,163752,1,8,0:0:0:0:
272,108,163915,1,0,0:0:0:0:
272,108,164078,1,8,0:0:0:0:
272,108,164160,1,8,0:0:0:0:
272,108,164241,1,0,0:0:0:0:
272,108,164323,1,0,0:0:0:0:
272,108,164404,1,8,0:0:0:0:
272,108,164567,1,0,0:0:0:0:
272,108,164649,1,0,0:0:0:0:
272,108,164730,1,0,0:0:0:0:
272,108,164893,1,12,0:0:0:0:
272,108,165872,1,8,0:0:0:0:
272,108,166198,1,4,0:0:0:0:
272,108,166850,1,4,0:0:0:0:
260,104,167502,1,8,0:0:0:0:
260,104,167665,1,8,0:0:0:0:
260,104,167828,1,0,0:0:0:0:
260,104,167910,1,0,0:0:0:0:
260,104,167991,1,8,0:0:0:0:
272,108,168154,1,8,0:0:0:0:
272,108,168317,1,0,0:0:0:0:
272,108,168480,1,8,0:0:0:0:
260,104,168643,1,8,0:0:0:0:
264,100,168807,1,0,0:0:0:0:
264,100,168888,1,0,0:0:0:0:
264,100,168970,1,8,0:0:0:0:
264,100,169133,1,8,0:0:0:0:
264,100,169296,1,0,0:0:0:0:
264,100,169377,1,0,0:0:0:0:
268,100,169459,1,0,0:0:0:0:
272,112,170111,1,0,0:0:0:0:
272,112,170274,1,0,0:0:0:0:
296,116,170355,1,0,0:0:0:0:
280,116,170437,1,8,0:0:0:0:
288,112,170600,1,0,0:0:0:0:
288,112,170763,1,8,0:0:0:0:
288,112,171089,1,0,0:0:0:0:
308,112,171252,1,8,0:0:0:0:
308,112,171415,1,0,0:0:0:0:
308,112,171496,1,0,0:0:0:0:
308,112,171578,1,0,0:0:0:0:
308,112,171741,1,8,0:0:0:0:
268,120,171904,1,0,0:0:0:0:
280,120,172067,1,0,0:0:0:0:
280,112,172230,1,0,0:0:0:0:
264,96,172393,1,8,0:0:0:0:
272,104,172719,1,0,0:0:0:0:
276,104,172882,1,0,0:0:0:0:
280,96,172964,1,0,0:0:0:0:
276,104,173045,1,8,0:0:0:0:
276,104,173208,1,0,0:0:0:0:
276,104,173371,1,8,0:0:0:0:
272,104,173534,1,0,0:0:0:0:
272,104,173697,1,0,0:0:0:0:
276,104,173861,1,8,0:0:0:0:
276,104,174187,1,0,0:0:0:0:
276,104,174350,1,8,0:0:0:0:
280,104,174513,1,0,0:0:0:0:
280,104,174594,1,0,0:0:0:0:
280,104,174676,1,8,0:0:0:0:
276,104,174839,1,0,0:0:0:0:
276,104,175002,1,8,0:0:0:0:
276,104,175165,1,0,0:0:0:0:
276,104,175246,1,0,0:0:0:0:
276,104,175328,1,0,0:0:0:0:
272,100,175491,1,0,0:0:0:0:
272,100,175654,1,8,0:0:0:0:
276,104,175980,1,0,0:0:0:0:
272,96,176143,1,0,0:0:0:0:
272,96,176306,1,8,0:0:0:0:
272,100,176469,1,8,0:0:0:0:
272,100,176632,1,0,0:0:0:0:
272,96,176795,1,0,0:0:0:0:
280,92,176877,1,0,0:0:0:0:
280,92,176958,1,8,0:0:0:0:
272,96,177284,1,0,0:0:0:0:
272,100,177447,1,0,0:0:0:0:
272,100,177611,1,8,0:0:0:0:
272,96,177774,1,0,0:0:0:0:
272,96,177855,1,0,0:0:0:0:
272,96,177937,1,0,0:0:0:0:
272,96,178100,1,0,0:0:0:0:
272,96,178263,1,8,0:0:0:0:
280,88,178589,1,0,0:0:0:0:
288,88,178752,1,0,0:0:0:0:
280,88,178915,1,8,0:0:0:0:
284,88,179078,1,0,0:0:0:0:
284,88,179159,1,0,0:0:0:0:
284,88,179241,1,8,0:0:0:0:
280,88,179404,1,0,0:0:0:0:
280,88,179567,1,8,0:0:0:0:
280,72,179730,1,0,0:0:0:0:
280,88,179812,1,0,0:0:0:0:
280,72,179893,1,8,0:0:0:0:
284,88,179975,1,8,0:0:0:0:
280,68,180056,1,0,0:0:0:0:
280,68,180219,1,0,0:0:0:0:
280,68,180301,1,0,0:0:0:0:
272,60,180382,5,0,0:0:0:0:
280,68,180545,1,0,0:0:0:0:
280,72,180709,5,0,0:0:0:0:
280,72,180872,1,8,0:0:0:0:
280,64,181198,1,0,0:0:0:0:
280,64,181361,1,0,0:0:0:0:
288,64,181524,1,8,0:0:0:0:
288,64,181687,1,8,0:0:0:0:
268,76,181850,1,0,0:0:0:0:
256,72,182176,1,8,0:0:0:0:
256,72,182339,1,8,0:0:0:0:
256,72,182502,1,0,0:0:0:0:
256,72,182665,1,8,0:0:0:0:
256,72,182828,1,8,0:0:0:0:
256,72,182991,1,0,0:0:0:0:
256,72,183154,1,0,0:0:0:0:
264,64,183317,1,0,0:0:0:0:
264,64,183480,1,8,0:0:0:0:
256,72,183807,1,8,0:0:0:0:
264,64,183970,1,0,0:0:0:0:
264,64,184133,1,8,0:0:0:0:
264,64,184296,1,8,0:0:0:0:
264,64,184622,1,0,0:0:0:0:
264,64,184785,1,0,0:0:0:0:
264,64,184948,1,8,0:0:0:0:
264,64,185111,1,0,0:0:0:0:
264,64,185274,1,8,0:0:0:0:
264,64,185437,1,8,0:0:0:0:
264,64,185600,1,0,0:0:0:0:
264,64,185763,1,0,0:0:0:0:
264,64,185845,1,0,0:0:0:0:
264,64,185926,1,0,0:0:0:0:
264,64,186089,1,8,0:0:0:0:
264,64,186252,1,0,0:0:0:0:
260,68,186415,1,8,0:0:0:0:
264,64,186497,1,8,0:0:0:0:
264,64,186578,1,0,0:0:0:0:
264,64,186660,1,0,0:0:0:0:
264,64,186741,1,8,0:0:0:0:
264,64,186904,1,8,0:0:0:0:
252,64,187067,1,0,0:0:0:0:
252,64,187149,1,0,0:0:0:0:
264,64,187230,1,0,0:0:0:0:
264,64,187393,1,8,0:0:0:0:
264,64,187557,1,0,0:0:0:0:
264,64,187720,1,8,0:0:0:0:
264,64,187883,1,0,0:0:0:0:
264,64,187964,1,0,0:0:0:0:
264,64,188046,1,8,0:0:0:0:
264,64,188127,1,8,0:0:0:0:
268,72,188209,1,0,0:0:0:0:
280,72,188372,1,0,0:0:0:0:
264,64,188535,1,0,0:0:0:0:
264,64,188698,1,8,0:0:0:0:
264,64,188861,1,0,0:0:0:0:
264,64,188942,1,0,0:0:0:0:
272,64,189024,1,8,0:0:0:0:
272,64,189187,1,0,0:0:0:0:
272,64,189350,1,8,0:0:0:0:
264,64,189676,1,8,0:0:0:0:
264,64,189758,1,8,0:0:0:0:
264,64,189839,1,0,0:0:0:0:
264,60,190002,1,0,0:0:0:0:
264,64,190165,1,0,0:0:0:0:
264,64,190328,1,8,0:0:0:0:
264,64,190410,1,8,0:0:0:0:
264,64,190491,1,0,0:0:0:0:
264,64,190573,1,0,0:0:0:0:
264,64,190654,1,8,0:0:0:0:
264,64,190817,1,8,0:0:0:0:
268,72,190980,1,4,0:0:0:0:
256,192,191143,12,0,197502,0:0:0:0:
