osu file format v14

[General]
AudioFilename: audio.mp3
AudioLeadIn: 0
PreviewTime: 45616
Countdown: 0
SampleSet: Normal
StackLeniency: 1
Mode: 1
LetterboxInBreaks: 0
WidescreenStoryboard: 0

[Editor]
DistanceSpacing: 0.6
BeatDivisor: 4
GridSize: 4
TimelineZoom: 1

[Metadata]
Title:Sad Spring
TitleUnicode:Sad Spring
Artist:Draw the Emotional & Foreground Eclipse
ArtistUnicode:Draw the Emotional & Foreground Eclipse
Creator:Nifty
Version:Futsuu
Source:東方妖々夢 ~ Perfect Cherry Blossom.
Tags:Ayyri 東方Project Touhou ZUN Team Shanghai Alice PCB TH07 TH 07 Youyoumu Ghostly Dream ゆよゆっぺ Yuyoyuppe ルシュカ LUSCHKA Nico neko ネクロファンタジア Necrofantasia 八雲 紫 Yukari Yakumo 幽雅に咲かせ、墨染の桜 ~ Border of Life 西行寺 幽々子 Yuyuko Saigyouji Bloom Nobly, of Sumizome Seated with Liquor Comiket 83 C83 DtE FE YPFE-0001
BeatmapID:1438769
BeatmapSetID:680446

[Difficulty]
HPDrainRate:6
CircleSize:2
OverallDifficulty:4
ApproachRate:10
SliderMultiplier:1.4
SliderTickRate:1

[Events]
//Background and Video events
0,0,"Touhou.full.1143671.jpg",0,0
//Break Periods
//Storyboard Layer 0 (Background)
//Storyboard Layer 1 (Fail)
//Storyboard Layer 2 (Pass)
//Storyboard Layer 3 (Foreground)
//Storyboard Sound Samples

[TimingPoints]
1350,326.086158437331,4,1,0,80,1,0
45697,-100,4,1,0,80,0,1
55480,-100,4,1,0,80,0,0
56132,-100,4,1,0,80,0,1
66567,-100,4,1,0,80,0,0
97871,428.571428571429,4,1,0,80,1,0
97871,-80,4,1,0,80,0,0
98299,-81.6326530612245,4,1,0,80,0,0
98728,-83.3333333333333,4,1,0,80,0,0
99585,-85.4700854700855,4,1,0,80,0,0
99799,-86.9565217391304,4,1,0,80,0,0
100228,-88.4955752212389,4,1,0,80,0,0
100656,-90.9090909090909,4,1,0,80,0,0
100871,-93.4579439252336,4,1,0,80,0,0
101299,-97.0873786407767,4,1,0,80,0,0
101728,-100,4,1,0,80,0,0
137299,-97.0873786407767,4,1,0,80,0,0
137728,-93.4579439252336,4,1,0,80,0,0
138156,326.086956521739,4,1,0,80,1,8
138156,-117.647058823529,4,1,0,80,0,0
138807,326.086956521739,4,1,0,80,1,0
159350,-100,4,1,0,80,0,0
170111,-100,4,1,0,80,0,1
180546,-100,4,1,0,80,0,0
191062,-100,4,1,0,15,0,0

[HitObjects]
256,120,1349,5,8,0:0:0:0:
264,112,2001,1,0,0:0:0:0:
256,120,2327,1,8,0:0:0:0:
264,112,2979,1,0,0:0:0:0:
256,120,3305,1,0,0:0:0:0:
264,112,3631,1,8,0:0:0:0:
264,116,3958,1,12,0:0:0:0:
264,104,4610,1,8,0:0:0:0:
264,112,5262,1,8,0:0:0:0:
264,104,5914,1,8,0:0:0:0:
264,112,6240,1,0,0:0:0:0:
264,112,6566,1,12,0:0:0:0:
268,104,7218,1,8,0:0:0:0:
272,108,7871,1,8,0:0:0:0:
272,108,8523,1,0,0:0:0:0:
272,108,8849,1,8,0:0:0:0:
272,108,9175,1,4,0:0:0:0:
280,108,10479,1,8,0:0:0:0:
288,104,11131,1,0,0:0:0:0:
272,96,11457,1,8,0:0:0:0:
288,104,11784,1,0,0:0:0:0:
296,104,12273,1,8,0:0:0:0:
288,104,12762,1,0,0:0:0:0:
296,104,13251,1,8,0:0:0:0:
288,104,13740,1,8,0:0:0:0:
280,92,14392,1,0,0:0:0:0:
272,96,14718,1,0,0:0:0:0:
280,92,15044,1,8,0:0:0:0:
272,88,15371,1,0,0:0:0:0:
276,88,16023,1,0,0:0:0:0:
272,88,16349,1,8,0:0:0:0:
276,88,17001,1,0,0:0:0:0:
288,96,17164,1,8,0:0:0:0:
288,92,17327,1,0,0:0:0:0:
276,88,17653,1,8,0:0:0:0:
276,88,17979,1,0,0:0:0:0:
276,88,18305,1,8,0:0:0:0:
276,88,18957,1,8,0:0:0:0:
276,88,19284,1,8,0:0:0:0:
276,88,19610,1,0,0:0:0:0:
284,88,19936,1,0,0:0:0:0:
276,88,20262,1,8,0:0:0:0:
280,72,20588,1,0,0:0:0:0:
284,76,21240,1,0,0:0:0:0:
280,72,21566,1,8,0:0:0:0:
284,76,22218,1,0,0:0:0:0:
284,88,22544,1,8,0:0:0:0:
284,76,22870,1,8,0:0:0:0:
284,76,23197,1,0,0:0:0:0:
284,76,23523,1,8,0:0:0:0:
284,76,24175,1,0,0:0:0:0:
284,76,24827,1,0,0:0:0:0:
288,88,25153,1,8,0:0:0:0:
248,104,25317,1,0,0:0:0:0:
292,76,25805,1,8,0:0:0:0:
300,80,26131,1,0,0:0:0:0:
300,80,26457,1,8,0:0:0:0:
296,88,26621,1,0,0:0:0:0:
304,76,27110,1,8,0:0:0:0:
304,88,27436,1,8,0:0:0:0:
296,72,27599,1,0,0:0:0:0:
304,76,27762,1,0,0:0:0:0:
300,80,28089,1,8,0:0:0:0:
304,88,28415,1,0,0:0:0:0:
296,84,28578,1,8,0:0:0:0:
288,72,28740,1,8,0:0:0:0:
300,80,29066,1,8,0:0:0:0:
300,80,29392,1,0,0:0:0:0:
288,76,30044,1,0,0:0:0:0:
288,76,30370,1,8,0:0:0:0:
284,68,30534,1,0,0:0:0:0:
288,76,31023,1,8,0:0:0:0:
288,76,31349,1,0,0:0:0:0:
288,76,31675,1,8,0:0:0:0:
284,64,31839,1,0,0:0:0:0:
288,76,32001,1,0,0:0:0:0:
296,68,32327,1,8,0:0:0:0:
296,72,32653,1,0,0:0:0:0:
288,76,32979,1,8,0:0:0:0:
284,68,33631,1,8,0:0:0:0:
296,68,33957,1,0,0:0:0:0:
284,68,34284,1,8,0:0:0:0:
284,68,34447,1,0,0:0:0:0:
284,68,34610,1,8,0:0:0:0:
296,68,34936,1,0,0:0:0:0:
296,68,35262,1,0,0:0:0:0:
296,68,36241,1,0,0:0:0:0:
292,56,36567,1,8,0:0:0:0:
300,68,37544,1,0,0:0:0:0:
288,60,37871,1,0,0:0:0:0:
288,76,38523,1,8,0:0:0:0:
288,76,38849,1,0,0:0:0:0:
292,64,39175,1,8,0:0:0:0:
292,64,39827,1,0,0:0:0:0:
280,68,39990,1,8,0:0:0:0:
292,64,40154,1,0,0:0:0:0:
292,64,40479,1,0,0:0:0:0:
272,64,41457,1,0,0:0:0:0:
284,64,41783,1,8,0:0:0:0:
268,76,42762,1,8,0:0:0:0:
280,88,43088,1,0,0:0:0:0:
276,84,43740,1,8,0:0:0:0:
276,84,44392,1,8,0:0:0:0:
276,84,45044,1,0,0:0:0:0:
276,84,45370,1,12,0:0:0:0:
276,84,45697,1,0,0:0:0:0:
284,80,46023,1,8,0:0:0:0:
284,80,46349,1,0,0:0:0:0:
284,80,46512,1,0,0:0:0:0:
284,80,46675,1,8,0:0:0:0:
276,84,47001,1,8,0:0:0:0:
284,80,47164,1,0,0:0:0:0:
284,80,47327,1,8,0:0:0:0:
284,80,47653,1,0,0:0:0:0:
276,84,48305,1,0,0:0:0:0:
292,72,48631,1,8,0:0:0:0:
276,84,48957,1,8,0:0:0:0:
264,80,49121,1,0,0:0:0:0:
276,84,49283,1,0,0:0:0:0:
292,72,49610,1,0,0:0:0:0:
280,76,49936,1,8,0:0:0:0:
288,72,50262,1,8,0:0:0:0:
288,72,50425,1,0,0:0:0:0:
284,76,50588,1,8,0:0:0:0:
280,80,50914,1,8,0:0:0:0:
288,72,51240,1,8,0:0:0:0:
280,80,51566,1,0,0:0:0:0:
280,80,51892,1,0,0:0:0:0:
284,64,52055,1,8,0:0:0:0:
280,80,52218,1,8,0:0:0:0:
284,64,52544,1,8,0:0:0:0:
280,80,52870,1,0,0:0:0:0:
284,64,53197,1,0,0:0:0:0:
284,64,53360,1,8,0:0:0:0:
280,80,53523,1,8,0:0:0:0:
280,80,54501,1,0,0:0:0:0:
280,80,54827,1,8,0:0:0:0:
260,64,55153,1,8,0:0:0:0:
280,80,55479,1,8,0:0:0:0:
280,80,56131,1,12,0:0:0:0:
280,80,56783,1,8,0:0:0:0:
288,72,57110,1,0,0:0:0:0:
280,80,57436,1,0,0:0:0:0:
280,80,58088,1,8,0:0:0:0:
288,72,58414,1,8,0:0:0:0:
280,80,58740,1,0,0:0:0:0:
280,80,59392,1,8,0:0:0:0:
280,80,60044,1,0,0:0:0:0:
288,72,60370,1,0,0:0:0:0:
284,60,60533,1,8,0:0:0:0:
272,72,60860,1,8,0:0:0:0:
280,80,61023,1,8,0:0:0:0:
280,80,61349,1,0,0:0:0:0:
276,84,61675,1,8,0:0:0:0:
280,80,62001,1,0,0:0:0:0:
276,72,62327,1,8,0:0:0:0:
276,72,62490,1,0,0:0:0:0:
280,80,62653,1,8,0:0:0:0:
280,72,62979,1,8,0:0:0:0:
288,64,63305,1,0,0:0:0:0:
288,64,63631,1,8,0:0:0:0:
288,64,63794,1,0,0:0:0:0:
288,72,63957,1,8,0:0:0:0:
272,116,64284,1,8,0:0:0:0:
288,72,64610,1,0,0:0:0:0:
288,72,65262,1,0,0:0:0:0:
288,72,65425,1,8,0:0:0:0:
288,72,65588,1,8,0:0:0:0:
288,72,65915,1,0,0:0:0:0:
296,68,66241,1,8,0:0:0:0:
288,72,66566,1,0,0:0:0:0:
288,76,66892,1,8,0:0:0:0:
280,80,67218,1,0,0:0:0:0:
284,64,67544,1,8,0:0:0:0:
280,80,67870,1,8,0:0:0:0:
284,64,68196,1,0,0:0:0:0:
280,80,68523,1,8,0:0:0:0:
280,80,69175,1,0,0:0:0:0:
280,64,69501,1,8,0:0:0:0:
280,64,69664,1,0,0:0:0:0:
280,72,69827,1,8,0:0:0:0:
280,60,70153,1,0,0:0:0:0:
280,72,70479,1,8,0:0:0:0:
288,80,71131,1,0,0:0:0:0:
288,80,71783,1,0,0:0:0:0:
284,64,72110,1,8,0:0:0:0:
288,64,72436,1,0,0:0:0:0:
284,68,72762,1,8,0:0:0:0:
284,64,73088,1,8,0:0:0:0:
288,64,73414,1,0,0:0:0:0:
284,68,73577,1,0,0:0:0:0:
284,84,73740,1,8,0:0:0:0:
272,68,74393,1,8,0:0:0:0:
284,84,74719,1,0,0:0:0:0:
284,84,75044,1,8,0:0:0:0:
284,68,75370,1,0,0:0:0:0:
284,68,75533,1,0,0:0:0:0:
284,84,75696,1,8,0:0:0:0:
284,84,76023,1,0,0:0:0:0:
284,84,76349,1,8,0:0:0:0:
284,84,77001,1,0,0:0:0:0:
284,84,78305,1,8,0:0:0:0:
284,84,79283,1,0,0:0:0:0:
288,84,79609,1,0,0:0:0:0:
288,84,80914,1,8,0:0:0:0:
296,80,81892,1,8,0:0:0:0:
288,84,82218,1,0,0:0:0:0:
288,84,83196,1,0,0:0:0:0:
296,92,83523,5,8,0:0:0:0:
288,88,84827,1,0,0:0:0:0:
288,88,85805,1,0,0:0:0:0:
288,88,86131,1,8,0:0:0:0:
288,88,86783,1,8,0:0:0:0:
288,88,87109,1,8,0:0:0:0:
288,88,87436,1,0,0:0:0:0:
288,88,87762,1,8,0:0:0:0:
280,80,88414,1,8,0:0:0:0:
288,88,88740,1,0,0:0:0:0:
280,80,88903,1,8,0:0:0:0:
280,80,89066,1,8,0:0:0:0:
280,80,89392,1,0,0:0:0:0:
288,88,89718,1,8,0:0:0:0:
280,80,90044,1,0,0:0:0:0:
280,80,90370,1,8,0:0:0:0:
280,80,91023,1,8,0:0:0:0:
288,84,91349,1,0,0:0:0:0:
288,84,91512,1,8,0:0:0:0:
280,72,91675,1,0,0:0:0:0:
280,72,92001,1,8,0:0:0:0:
288,84,92327,1,8,0:0:0:0:
280,72,92653,1,0,0:0:0:0:
284,80,95262,1,0,0:0:0:0:
284,80,95588,1,8,0:0:0:0:
272,72,95751,1,8,0:0:0:0:
272,68,96077,1,8,0:0:0:0:
284,80,96240,1,8,0:0:0:0:
284,80,96566,1,0,0:0:0:0:
272,68,96892,1,0,0:0:0:0:
276,72,97218,1,0,0:0:0:0:
284,80,97871,1,0,0:0:0:0:
284,80,98299,1,8,0:0:0:0:
284,80,98728,1,8,0:0:0:0:
284,80,99585,1,8,0:0:0:0:
284,80,99799,1,8,0:0:0:0:
284,80,100228,1,8,0:0:0:0:
284,80,100656,1,8,0:0:0:0:
288,80,100871,1,8,0:0:0:0:
276,88,101299,1,0,0:0:0:0:
288,80,101728,1,8,0:0:0:0:
276,88,102155,1,8,0:0:0:0:
288,80,102584,1,8,0:0:0:0:
276,88,103012,1,0,0:0:0:0:
288,80,103227,1,8,0:0:0:0:
276,88,103441,1,8,0:0:0:0:
276,76,103870,1,8,0:0:0:0:
288,80,104084,1,0,0:0:0:0:
276,72,104298,1,8,0:0:0:0:
276,88,104727,1,0,0:0:0:0:
276,72,105155,1,8,0:0:0:0:
276,88,105584,1,8,0:0:0:0:
276,88,106441,1,0,0:0:0:0:
280,72,106870,1,8,0:0:0:0:
280,72,107084,1,0,0:0:0:0:
276,88,107298,1,8,0:0:0:0:
280,80,107727,1,8,0:0:0:0:
276,88,108155,1,4,0:0:0:0:
260,104,111155,1,12,0:0:0:0:
260,104,111584,1,0,0:0:0:0:
264,88,111798,1,0,0:0:0:0:
256,96,112012,1,0,0:0:0:0:
248,84,112441,1,8,0:0:0:0:
256,96,113298,1,8,0:0:0:0:
256,80,113941,1,0,0:0:0:0:
248,88,114155,1,0,0:0:0:0:
256,80,114584,1,0,0:0:0:0:
248,88,115012,1,0,0:0:0:0:
256,80,115227,1,0,0:0:0:0:
248,88,115441,1,0,0:0:0:0:
256,80,115870,1,8,0:0:0:0:
248,88,116727,1,8,0:0:0:0:
256,80,117370,1,0,0:0:0:0:
248,88,117584,1,8,0:0:0:0:
256,80,118012,1,8,0:0:0:0:
248,88,118441,1,0,0:0:0:0:
248,72,118655,1,0,0:0:0:0:
248,88,118870,1,0,0:0:0:0:
256,72,119298,1,8,0:0:0:0:
244,88,120155,1,8,0:0:0:0:
240,80,120798,1,0,0:0:0:0:
240,72,121012,1,0,0:0:0:0:
240,72,121441,1,0,0:0:0:0:
244,88,121870,1,0,0:0:0:0:
240,80,122084,1,0,0:0:0:0:
244,88,122298,1,0,0:0:0:0:
248,68,122727,1,8,0:0:0:0:
244,88,123584,1,8,0:0:0:0:
248,72,124227,1,0,0:0:0:0:
244,80,124441,1,8,0:0:0:0:
248,72,124870,1,8,0:0:0:0:
244,80,125298,1,0,0:0:0:0:
248,72,125512,1,0,0:0:0:0:
244,80,125727,1,0,0:0:0:0:
244,80,126155,1,8,0:0:0:0:
248,72,127012,1,8,0:0:0:0:
240,56,127655,1,0,0:0:0:0:
248,60,127870,1,8,0:0:0:0:
248,60,128298,1,0,0:0:0:0:
256,72,128727,1,0,0:0:0:0:
248,60,128941,1,0,0:0:0:0:
244,80,129155,1,0,0:0:0:0:
244,80,129584,1,8,0:0:0:0:
244,80,130441,1,8,0:0:0:0:
244,64,131084,1,0,0:0:0:0:
244,64,131298,1,8,0:0:0:0:
244,76,131727,1,8,0:0:0:0:
252,80,132155,1,0,0:0:0:0:
240,68,132370,1,0,0:0:0:0:
252,80,132584,1,0,0:0:0:0:
252,80,133012,1,8,0:0:0:0:
248,72,133870,1,8,0:0:0:0:
248,72,134512,1,0,0:0:0:0:
248,72,134727,1,8,0:0:0:0:
248,72,135155,1,0,0:0:0:0:
252,80,135584,1,0,0:0:0:0:
248,72,135798,1,0,0:0:0:0:
252,80,136012,1,8,0:0:0:0:
252,80,136441,1,0,0:0:0:0:
248,72,136870,1,8,0:0:0:0:
260,80,137299,1,8,0:0:0:0:
260,80,137727,1,0,0:0:0:0:
260,80,138155,1,8,0:0:0:0:
252,72,138807,1,0,0:0:0:0:
256,64,139295,1,0,0:0:0:0:
252,72,139784,1,8,0:0:0:0:
252,72,140110,1,0,0:0:0:0:
256,76,140600,1,0,0:0:0:0:
256,80,141088,1,8,0:0:0:0:
252,72,141414,1,8,0:0:0:0:
252,72,141740,1,0,0:0:0:0:
252,72,142066,1,8,0:0:0:0:
256,76,142392,1,8,0:0:0:0:
252,72,142556,1,8,0:0:0:0:
252,72,142719,1,0,0:0:0:0:
248,60,143697,1,8,0:0:0:0:
256,72,144023,1,0,0:0:0:0:
260,72,144512,1,0,0:0:0:0:
256,72,145001,1,8,0:0:0:0:
260,72,145327,1,0,0:0:0:0:
276,72,145817,1,0,0:0:0:0:
260,80,146307,1,8,0:0:0:0:
260,72,146632,1,8,0:0:0:0:
268,80,146958,1,0,0:0:0:0:
268,80,147284,1,8,0:0:0:0:
260,72,147610,1,0,0:0:0:0:
268,72,147773,1,8,0:0:0:0:
268,80,147936,1,0,0:0:0:0:
260,72,148425,1,8,0:0:0:0:
272,80,148751,1,0,0:0:0:0:
268,80,148914,1,8,0:0:0:0:
268,80,149240,1,0,0:0:0:0:
272,80,149566,1,8,0:0:0:0:
268,68,149729,1,0,0:0:0:0:
268,80,150219,1,8,0:0:0:0:
268,80,150545,1,0,0:0:0:0:
272,68,150871,1,8,0:0:0:0:
268,80,151035,1,0,0:0:0:0:
280,68,151523,1,0,0:0:0:0:
256,72,151687,1,8,0:0:0:0:
280,68,151849,1,0,0:0:0:0:
280,64,152175,1,8,0:0:0:0:
268,80,152501,1,0,0:0:0:0:
280,68,152827,1,8,0:0:0:0:
280,64,152990,1,0,0:0:0:0:
268,80,153153,1,8,0:0:0:0:
268,80,153479,1,8,0:0:0:0:
268,80,153806,1,0,0:0:0:0:
268,80,154458,1,0,0:0:0:0:
268,80,154784,1,8,0:0:0:0:
268,80,154947,1,0,0:0:0:0:
268,68,155436,1,0,0:0:0:0:
268,68,155599,1,8,0:0:0:0:
268,80,155762,1,0,0:0:0:0:
268,68,156088,1,8,0:0:0:0:
268,80,156414,1,8,0:0:0:0:
268,68,156577,1,0,0:0:0:0:
268,80,156740,1,8,0:0:0:0:
268,68,156903,1,0,0:0:0:0:
268,80,157066,1,8,0:0:0:0:
264,76,159349,1,8,0:0:0:0:
264,76,159675,1,4,0:0:0:0:
268,84,160979,1,8,0:0:0:0:
268,84,161306,1,0,0:0:0:0:
268,84,161632,1,0,0:0:0:0:
280,84,161795,1,8,0:0:0:0:
280,84,161958,1,8,0:0:0:0:
280,84,162121,1,0,0:0:0:0:
268,84,162284,1,8,0:0:0:0:
268,84,163588,1,8,0:0:0:0:
268,64,163751,1,0,0:0:0:0:
268,84,163914,1,8,0:0:0:0:
268,84,164240,1,0,0:0:0:0:
264,64,164403,1,0,0:0:0:0:
264,64,164566,1,8,0:0:0:0:
268,64,164729,1,8,0:0:0:0:
268,84,164892,1,0,0:0:0:0:
264,72,165871,1,8,0:0:0:0:
268,92,166197,1,8,0:0:0:0:
268,92,166849,1,8,0:0:0:0:
268,92,167501,1,0,0:0:0:0:
276,92,167665,1,0,0:0:0:0:
268,92,167990,1,8,0:0:0:0:
260,92,168154,1,8,0:0:0:0:
268,92,168479,1,0,0:0:0:0:
268,92,168806,1,8,0:0:0:0:
268,84,169132,1,8,0:0:0:0:
268,84,169295,1,0,0:0:0:0:
268,92,169458,1,8,0:0:0:0:
276,84,170110,1,4,0:0:0:0:
284,80,170436,1,8,0:0:0:0:
284,80,170762,1,0,0:0:0:0:
284,80,170925,1,0,0:0:0:0:
284,80,171088,1,8,0:0:0:0:
276,84,171414,1,8,0:0:0:0:
284,80,171577,1,0,0:0:0:0:
284,80,171740,1,8,0:0:0:0:
284,80,172066,1,0,0:0:0:0:
276,84,172720,1,0,0:0:0:0:
292,72,173046,1,8,0:0:0:0:
276,84,173372,1,8,0:0:0:0:
288,72,173535,1,8,0:0:0:0:
276,84,173698,1,0,0:0:0:0:
292,72,174023,1,0,0:0:0:0:
288,76,174350,1,0,0:0:0:0:
288,72,174675,1,8,0:0:0:0:
284,76,175001,1,8,0:0:0:0:
280,80,175327,1,8,0:0:0:0:
280,80,175979,1,0,0:0:0:0:
280,80,176307,1,0,0:0:0:0:
284,64,176470,1,0,0:0:0:0:
280,80,176633,1,8,0:0:0:0:
280,80,177285,1,0,0:0:0:0:
284,64,177610,1,0,0:0:0:0:
284,64,177773,1,8,0:0:0:0:
280,80,177936,1,8,0:0:0:0:
280,80,178914,1,0,0:0:0:0:
280,80,179240,1,8,0:0:0:0:
272,64,179403,1,0,0:0:0:0:
260,64,179566,1,8,0:0:0:0:
272,68,179729,1,0,0:0:0:0:
280,80,179892,1,8,0:0:0:0:
288,68,180545,1,4,0:0:0:0:
288,68,180871,1,8,0:0:0:0:
276,88,181197,5,8,0:0:0:0:
276,88,181849,1,0,0:0:0:0:
276,88,182175,1,0,0:0:0:0:
276,88,182501,1,8,0:0:0:0:
292,88,182827,1,8,0:0:0:0:
288,88,182990,1,8,0:0:0:0:
276,88,183153,1,0,0:0:0:0:
276,88,183479,1,0,0:0:0:0:
276,88,183806,1,8,0:0:0:0:
276,88,184458,1,0,0:0:0:0:
276,88,184947,1,8,0:0:0:0:
276,80,185273,1,8,0:0:0:0:
276,80,185436,1,8,0:0:0:0:
276,88,185762,1,0,0:0:0:0:
276,80,186088,1,0,0:0:0:0:
276,80,186251,1,0,0:0:0:0:
276,80,186414,1,8,0:0:0:0:
280,80,186740,1,0,0:0:0:0:
276,88,187066,1,8,0:0:0:0:
276,80,187392,1,8,0:0:0:0:
280,80,187556,1,0,0:0:0:0:
276,88,187719,1,8,0:0:0:0:
276,80,188371,1,8,0:0:0:0:
276,88,188697,1,0,0:0:0:0:
280,80,188860,1,0,0:0:0:0:
276,88,189023,1,8,0:0:0:0:
276,80,189349,1,0,0:0:0:0:
276,88,189675,1,8,0:0:0:0:
280,80,189838,1,8,0:0:0:0:
276,88,190001,1,0,0:0:0:0:
276,80,190164,1,0,0:0:0:0:
276,88,190327,1,8,0:0:0:0:
276,88,190653,1,8,0:0:0:0:
276,88,190979,1,4,0:0:0:0:
256,192,191305,12,0,197501,0:0:0:0:
