osu file format v14

[General]
AudioFilename: audio.mp3
AudioLeadIn: 0
PreviewTime: 45616
Countdown: 0
SampleSet: Normal
StackLeniency: 0.7
Mode: 1
LetterboxInBreaks: 0
WidescreenStoryboard: 0

[Editor]
Bookmarks: 1350,3958,14393,24828,35262,43089,45697,55480,56132,66567,77001,87436,92654,97871,111585,125299,138807,149241,157067,159676,170111,180546,190980,197502
DistanceSpacing: 0.6
BeatDivisor: 4
GridSize: 32
TimelineZoom: 1.7

[Metadata]
Title:Sad Spring
TitleUnicode:Sad Spring
Artist:Draw the Emotional & Foreground Eclipse
ArtistUnicode:Draw the Emotional & Foreground Eclipse
Creator:Nifty
Version:Ayyri's Muzukashii
Source:東方妖々夢 ~ Perfect Cherry Blossom.
Tags:Ayyri 東方Project Touhou ZUN Team Shanghai Alice PCB TH07 TH 07 Youyoumu Ghostly Dream ゆよゆっぺ Yuyoyuppe ルシュカ LUSCHKA Nico neko ネクロファンタジア Necrofantasia 八雲 紫 Yukari Yakumo 幽雅に咲かせ、墨染の桜 ~ Border of Life 西行寺 幽々子 Yuyuko Saigyouji Bloom Nobly, of Sumizome Seated with Liquor Comiket 83 C83 DtE FE YPFE-0001
BeatmapID:1438768
BeatmapSetID:680446

[Difficulty]
HPDrainRate:5
CircleSize:2
OverallDifficulty:5
ApproachRate:10
SliderMultiplier:1.4
SliderTickRate:1

[Events]
//Background and Video events
0,0,"Yuyuko Yukari 367.jpg",0,80
//Break Periods
//Storyboard Layer 0 (Background)
//Storyboard Layer 1 (Fail)
//Storyboard Layer 2 (Pass)
//Storyboard Layer 3 (Foreground)
//Storyboard Sound Samples

[TimingPoints]
1350,326.086158437331,4,1,0,80,1,0
45697,-100,4,1,0,80,0,1
55480,-100,4,1,0,80,0,0
56132,-100,4,1,0,80,0,1
66567,-100,4,1,0,80,0,0
97871,428.571428571429,4,1,0,80,1,0
97871,-80,4,1,0,80,0,0
98299,-81.3008130081301,4,1,0,80,0,0
99156,-83.3333333333333,4,1,0,80,0,0
99585,-85.4700854700855,4,1,0,80,0,0
100013,-86.9565217391304,4,1,0,80,0,0
100442,-88.4955752212389,4,1,0,80,0,0
100656,-90.9090909090909,4,1,0,80,0,0
100871,-93.4579439252336,4,1,0,80,0,0
101085,-95.2380952380952,4,1,0,80,0,0
101299,-97.0873786407767,4,1,0,80,0,0
101728,-100,4,1,0,80,0,0
137299,-97.0873786407767,4,1,0,80,0,0
137513,-95.2380952380952,4,1,0,80,0,0
137728,-93.4579439252336,4,1,0,80,0,0
137942,-90.9090909090909,4,1,0,80,0,0
138156,326.086956521739,4,1,0,80,1,8
138156,-117.647058823529,4,1,0,80,0,0
138319,-114.942528735632,4,1,0,80,0,0
138482,-111.111111111111,4,1,0,80,0,0
138807,326.086956521739,4,1,0,80,1,0
138807,-105.263157894737,4,1,0,80,0,0
139133,-100,4,1,0,80,0,0
170111,-100,4,1,0,80,0,1
180546,-100,4,1,0,80,0,0
191143,-100,4,1,0,5,0,0

[HitObjects]
256,192,1350,5,8,0:0:0:0:
256,192,1513,1,8,0:0:0:0:
256,192,1676,1,0,0:0:0:0:
256,192,1839,1,0,0:0:0:0:
256,192,2002,1,8,0:0:0:0:
256,192,2328,1,8,0:0:0:0:
256,192,2491,1,8,0:0:0:0:
256,192,2654,1,0,0:0:0:0:
256,192,2817,1,0,0:0:0:0:
256,192,2980,1,8,0:0:0:0:
256,192,3143,1,0,0:0:0:0:
256,192,3306,1,8,0:0:0:0:
256,192,3388,1,8,0:0:0:0:
256,192,3469,1,8,0:0:0:0:
256,192,3632,1,0,0:0:0:0:
256,192,3958,1,12,0:0:0:0:
256,192,4610,1,8,0:0:0:0:
256,192,5263,1,8,0:0:0:0:
256,192,5915,1,8,0:0:0:0:
256,192,6241,1,0,0:0:0:0:
256,192,6404,1,0,0:0:0:0:
256,192,6567,1,8,0:0:0:0:
256,192,7219,1,8,0:0:0:0:
256,192,7871,1,8,0:0:0:0:
256,192,8523,1,8,0:0:0:0:
256,192,8686,1,0,0:0:0:0:
256,192,8849,1,0,0:0:0:0:
256,192,9013,1,0,0:0:0:0:
256,192,9176,1,8,0:0:0:0:
256,192,9502,1,0,0:0:0:0:
256,192,9828,1,0,0:0:0:0:
256,192,10154,1,0,0:0:0:0:
256,192,10480,1,8,0:0:0:0:
256,192,10806,1,8,0:0:0:0:
256,192,11132,1,8,0:0:0:0:
256,192,11295,1,0,0:0:0:0:
256,192,11458,1,8,0:0:0:0:
256,192,11621,1,8,0:0:0:0:
256,192,11784,1,0,0:0:0:0:
256,192,12110,1,0,0:0:0:0:
256,192,12273,1,8,0:0:0:0:
256,192,12599,1,8,0:0:0:0:
256,192,12763,1,0,0:0:0:0:
256,192,13089,1,0,0:0:0:0:
256,192,13252,1,8,0:0:0:0:
256,192,13578,1,8,0:0:0:0:
256,192,13741,1,0,0:0:0:0:
256,192,13904,1,8,0:0:0:0:
256,192,13985,1,8,0:0:0:0:
256,192,14067,1,8,0:0:0:0:
256,192,14393,1,12,0:0:0:0:
256,192,14719,1,0,0:0:0:0:
256,192,15045,1,8,0:0:0:0:
256,192,15208,1,0,0:0:0:0:
256,192,15371,1,0,0:0:0:0:
256,192,15697,1,0,0:0:0:0:
256,192,15779,1,0,0:0:0:0:
256,192,15860,1,0,0:0:0:0:
256,192,16023,1,0,0:0:0:0:
256,192,16186,1,0,0:0:0:0:
256,192,16349,1,8,0:0:0:0:
256,192,17002,1,8,0:0:0:0:
256,192,17165,1,0,0:0:0:0:
256,192,17328,1,0,0:0:0:0:
256,192,17654,1,8,0:0:0:0:
256,192,17980,1,0,0:0:0:0:
256,192,18306,1,0,0:0:0:0:
256,192,18388,1,0,0:0:0:0:
256,192,18469,1,0,0:0:0:0:
256,192,18632,1,0,0:0:0:0:
256,192,18958,1,8,0:0:0:0:
256,192,19121,1,0,0:0:0:0:
256,192,19284,1,8,0:0:0:0:
256,192,19366,1,8,0:0:0:0:
256,192,19447,1,8,0:0:0:0:
256,192,19610,1,8,0:0:0:0:
256,192,19773,1,0,0:0:0:0:
256,192,19936,1,0,0:0:0:0:
256,192,20262,1,8,0:0:0:0:
256,192,20589,1,0,0:0:0:0:
256,192,20752,1,0,0:0:0:0:
256,192,20915,1,8,0:0:0:0:
256,192,21241,1,0,0:0:0:0:
256,192,21567,1,8,0:0:0:0:
256,192,21730,1,0,0:0:0:0:
256,192,21893,1,0,0:0:0:0:
256,192,22219,1,0,0:0:0:0:
256,192,22301,1,0,0:0:0:0:
256,192,22382,1,0,0:0:0:0:
256,192,22545,1,0,0:0:0:0:
256,192,22871,1,8,0:0:0:0:
256,192,23197,1,0,0:0:0:0:
256,192,23360,1,0,0:0:0:0:
256,192,23523,1,12,0:0:0:0:
256,192,24012,1,0,0:0:0:0:
256,192,24094,1,0,0:0:0:0:
256,192,24176,1,0,0:0:0:0:
256,192,24339,1,0,0:0:0:0:
256,192,24502,1,8,0:0:0:0:
256,192,24665,1,0,0:0:0:0:
256,192,24828,1,12,0:0:0:0:
256,192,25154,1,8,0:0:0:0:
256,192,25317,1,0,0:0:0:0:
256,192,25643,1,0,0:0:0:0:
256,192,25806,1,8,0:0:0:0:
256,192,25969,1,0,0:0:0:0:
256,192,26295,1,0,0:0:0:0:
256,192,26458,1,8,0:0:0:0:
256,192,26784,1,0,0:0:0:0:
256,192,26947,1,0,0:0:0:0:
256,192,27110,1,8,0:0:0:0:
256,192,27436,1,0,0:0:0:0:
256,192,27762,1,8,0:0:0:0:
256,192,28252,1,0,0:0:0:0:
256,192,28415,1,8,0:0:0:0:
256,192,28578,1,0,0:0:0:0:
256,192,28904,1,0,0:0:0:0:
256,192,28985,1,0,0:0:0:0:
256,192,29067,1,0,0:0:0:0:
256,192,29393,1,0,0:0:0:0:
256,192,29556,1,0,0:0:0:0:
256,192,29719,1,8,0:0:0:0:
256,192,29882,1,0,0:0:0:0:
256,192,30045,1,12,0:0:0:0:
256,192,30371,1,8,0:0:0:0:
256,192,30860,1,0,0:0:0:0:
256,192,31023,1,8,0:0:0:0:
256,192,31186,1,0,0:0:0:0:
256,192,31512,1,0,0:0:0:0:
256,192,31676,1,8,0:0:0:0:
256,192,32002,1,0,0:0:0:0:
256,192,32165,1,0,0:0:0:0:
256,192,32328,1,8,0:0:0:0:
256,192,32654,1,0,0:0:0:0:
256,192,32980,1,8,0:0:0:0:
256,192,33469,1,0,0:0:0:0:
256,192,33632,1,8,0:0:0:0:
256,192,33795,1,0,0:0:0:0:
256,192,34121,1,0,0:0:0:0:
256,192,34203,1,0,0:0:0:0:
256,192,34284,1,0,0:0:0:0:
256,192,34447,1,0,0:0:0:0:
256,192,34610,1,8,0:0:0:0:
256,192,34773,1,0,0:0:0:0:
256,192,34936,1,8,0:0:0:0:
256,192,35262,1,12,0:0:0:0:
256,192,35589,1,0,0:0:0:0:
256,192,35752,1,0,0:0:0:0:
256,192,36078,1,0,0:0:0:0:
256,192,36241,1,0,0:0:0:0:
256,192,36404,1,0,0:0:0:0:
256,192,36567,1,8,0:0:0:0:
256,192,37056,1,0,0:0:0:0:
256,192,37382,1,0,0:0:0:0:
256,192,37545,1,0,0:0:0:0:
256,192,37708,1,0,0:0:0:0:
256,192,37871,1,8,0:0:0:0:
256,192,37953,1,8,0:0:0:0:
256,192,38034,1,8,0:0:0:0:
256,192,38197,1,0,0:0:0:0:
256,192,38360,1,0,0:0:0:0:
256,192,38523,1,8,0:0:0:0:
256,192,38849,1,0,0:0:0:0:
256,192,39012,1,0,0:0:0:0:
256,192,39175,1,8,0:0:0:0:
256,192,39339,1,0,0:0:0:0:
256,192,39665,1,0,0:0:0:0:
256,192,39828,1,8,0:0:0:0:
256,192,39991,1,0,0:0:0:0:
256,192,40154,1,8,0:0:0:0:
256,192,40317,1,8,0:0:0:0:
256,192,40398,1,8,0:0:0:0:
256,192,40480,1,8,0:0:0:0:
256,192,40643,1,0,0:0:0:0:
256,192,40806,1,0,0:0:0:0:
256,192,40969,1,0,0:0:0:0:
256,192,41295,1,0,0:0:0:0:
256,192,41458,1,0,0:0:0:0:
256,192,41621,1,0,0:0:0:0:
256,192,41784,1,8,0:0:0:0:
256,192,41947,1,0,0:0:0:0:
256,192,42273,1,0,0:0:0:0:
256,192,42436,1,8,0:0:0:0:
256,192,42599,1,0,0:0:0:0:
256,192,42762,1,8,0:0:0:0:
256,192,42925,1,8,0:0:0:0:
256,192,43089,1,4,0:0:0:0:
256,192,45371,1,12,0:0:0:0:
256,192,45697,1,4,0:0:0:0:
256,192,45860,1,0,0:0:0:0:
256,192,46023,1,8,0:0:0:0:
256,192,46349,1,0,0:0:0:0:
256,192,46675,1,8,0:0:0:0:
256,192,47002,1,0,0:0:0:0:
256,192,47654,1,0,0:0:0:0:
256,192,47980,1,8,0:0:0:0:
256,192,48306,1,12,0:0:0:0:
256,192,48469,1,0,0:0:0:0:
256,192,48632,1,8,0:0:0:0:
256,192,48958,1,0,0:0:0:0:
256,192,49284,1,8,0:0:0:0:
256,192,49610,1,0,0:0:0:0:
256,192,49936,1,8,0:0:0:0:
256,192,50099,1,0,0:0:0:0:
256,192,50262,1,8,0:0:0:0:
256,192,50425,1,0,0:0:0:0:
256,192,50589,1,8,0:0:0:0:
256,192,50752,1,0,0:0:0:0:
256,192,50833,1,0,0:0:0:0:
256,192,50915,1,0,0:0:0:0:
256,192,51241,1,8,0:0:0:0:
256,192,51567,1,0,0:0:0:0:
256,192,51730,1,0,0:0:0:0:
256,192,51893,1,8,0:0:0:0:
256,192,52545,1,8,0:0:0:0:
256,192,52871,1,0,0:0:0:0:
256,192,53034,1,0,0:0:0:0:
256,192,53197,1,8,0:0:0:0:
256,192,53523,1,12,0:0:0:0:
256,192,53686,1,0,0:0:0:0:
256,192,53849,1,8,0:0:0:0:
256,192,54175,1,0,0:0:0:0:
256,192,54502,1,8,0:0:0:0:
256,192,54665,1,0,0:0:0:0:
256,192,54746,1,0,0:0:0:0:
256,192,54828,1,0,0:0:0:0:
256,192,54991,1,0,0:0:0:0:
256,192,55154,1,8,0:0:0:0:
256,192,55317,1,0,0:0:0:0:
256,192,55480,1,8,0:0:0:0:
256,192,56132,1,12,0:0:0:0:
256,192,56458,1,0,0:0:0:0:
256,192,56784,1,8,0:0:0:0:
256,192,57436,1,8,0:0:0:0:
256,192,57762,1,0,0:0:0:0:
256,192,57925,1,0,0:0:0:0:
256,192,58088,1,8,0:0:0:0:
256,192,58415,1,0,0:0:0:0:
256,192,58741,1,12,0:0:0:0:
256,192,58904,1,0,0:0:0:0:
256,192,59067,1,8,0:0:0:0:
256,192,59393,1,8,0:0:0:0:
256,192,60045,1,8,0:0:0:0:
256,192,60371,1,0,0:0:0:0:
256,192,60534,1,8,0:0:0:0:
256,192,60697,1,0,0:0:0:0:
256,192,60860,1,8,0:0:0:0:
256,192,61023,1,8,0:0:0:0:
256,192,61186,1,0,0:0:0:0:
256,192,61349,1,12,0:0:0:0:
256,192,61675,1,0,0:0:0:0:
256,192,61838,1,8,0:0:0:0:
256,192,62002,1,0,0:0:0:0:
256,192,62328,1,8,0:0:0:0:
256,192,62491,1,0,0:0:0:0:
256,192,62654,1,8,0:0:0:0:
256,192,62980,1,0,0:0:0:0:
256,192,63143,1,8,0:0:0:0:
256,192,63469,1,0,0:0:0:0:
256,192,63632,1,8,0:0:0:0:
256,192,63958,1,8,0:0:0:0:
256,192,64121,1,0,0:0:0:0:
256,192,64284,1,8,0:0:0:0:
256,192,64447,1,0,0:0:0:0:
256,192,64610,1,8,0:0:0:0:
256,192,64773,1,8,0:0:0:0:
256,192,64936,1,0,0:0:0:0:
256,192,65262,1,0,0:0:0:0:
256,192,65425,1,8,0:0:0:0:
256,192,65588,1,8,0:0:0:0:
256,192,65752,1,0,0:0:0:0:
256,192,65833,1,0,0:0:0:0:
256,192,65915,1,0,0:0:0:0:
256,192,66078,1,0,0:0:0:0:
256,192,66241,1,8,0:0:0:0:
256,192,66322,1,8,0:0:0:0:
256,192,66404,1,8,0:0:0:0:
256,192,66567,1,12,0:0:0:0:
256,192,66893,1,0,0:0:0:0:
256,192,67219,1,8,0:0:0:0:
256,192,67382,1,0,0:0:0:0:
256,192,67545,1,0,0:0:0:0:
256,192,67871,1,0,0:0:0:0:
256,192,67953,1,0,0:0:0:0:
256,192,68034,1,0,0:0:0:0:
256,192,68197,1,0,0:0:0:0:
256,192,68360,1,0,0:0:0:0:
256,192,68523,1,8,0:0:0:0:
256,192,69175,1,8,0:0:0:0:
256,192,69338,1,0,0:0:0:0:
256,192,69502,1,0,0:0:0:0:
256,192,69828,1,8,0:0:0:0:
256,192,70154,1,0,0:0:0:0:
256,192,70480,1,0,0:0:0:0:
256,192,70561,1,0,0:0:0:0:
256,192,70643,1,0,0:0:0:0:
256,192,70806,1,0,0:0:0:0:
256,192,71132,1,8,0:0:0:0:
256,192,71295,1,0,0:0:0:0:
256,192,71458,1,8,0:0:0:0:
256,192,71540,1,8,0:0:0:0:
256,192,71621,1,8,0:0:0:0:
256,192,71784,1,12,0:0:0:0:
256,192,72110,1,0,0:0:0:0:
256,192,72192,1,0,0:0:0:0:
256,192,72273,1,0,0:0:0:0:
256,192,72436,1,8,0:0:0:0:
256,192,72762,1,0,0:0:0:0:
256,192,72925,1,0,0:0:0:0:
256,192,73088,1,8,0:0:0:0:
256,192,73415,1,0,0:0:0:0:
256,192,73741,1,8,0:0:0:0:
256,192,73904,1,0,0:0:0:0:
256,192,74067,1,0,0:0:0:0:
256,192,74393,1,0,0:0:0:0:
256,192,74474,1,0,0:0:0:0:
256,192,74556,1,0,0:0:0:0:
256,192,74719,1,0,0:0:0:0:
256,192,75045,1,0,0:0:0:0:
256,192,75126,1,0,0:0:0:0:
256,192,75208,1,0,0:0:0:0:
256,192,75371,1,0,0:0:0:0:
256,192,75534,1,0,0:0:0:0:
256,192,75697,1,8,0:0:0:0:
256,192,75860,1,0,0:0:0:0:
256,192,76023,1,0,0:0:0:0:
256,192,76105,1,0,0:0:0:0:
256,192,76186,1,0,0:0:0:0:
256,192,76349,1,8,0:0:0:0:
256,192,77001,1,12,0:0:0:0:
256,192,77165,1,0,0:0:0:0:
256,192,77328,1,0,0:0:0:0:
256,192,77491,1,0,0:0:0:0:
256,192,77817,1,0,0:0:0:0:
256,192,77980,1,0,0:0:0:0:
256,192,78143,1,0,0:0:0:0:
256,192,78306,1,8,0:0:0:0:
256,192,78958,1,8,0:0:0:0:
256,192,79284,1,0,0:0:0:0:
256,192,79610,1,0,0:0:0:0:
256,192,79773,1,0,0:0:0:0:
256,192,79936,1,0,0:0:0:0:
256,192,80099,1,0,0:0:0:0:
256,192,80425,1,0,0:0:0:0:
256,192,80588,1,0,0:0:0:0:
256,192,80751,1,0,0:0:0:0:
256,192,80915,1,8,0:0:0:0:
256,192,81567,1,8,0:0:0:0:
256,192,81730,1,0,0:0:0:0:
256,192,81893,1,0,0:0:0:0:
256,192,82056,1,0,0:0:0:0:
256,192,82219,1,0,0:0:0:0:
256,192,82300,1,0,0:0:0:0:
256,192,82382,1,0,0:0:0:0:
256,192,82545,1,0,0:0:0:0:
256,192,82708,1,0,0:0:0:0:
256,192,83034,1,0,0:0:0:0:
256,192,83197,1,0,0:0:0:0:
256,192,83360,1,0,0:0:0:0:
256,192,83523,1,8,0:0:0:0:
256,192,84175,1,8,0:0:0:0:
256,192,84501,1,0,0:0:0:0:
256,192,84828,1,0,0:0:0:0:
256,192,84991,1,0,0:0:0:0:
256,192,85154,1,0,0:0:0:0:
256,192,85317,1,0,0:0:0:0:
256,192,85643,1,0,0:0:0:0:
256,192,85806,1,0,0:0:0:0:
256,192,85969,1,0,0:0:0:0:
256,192,86132,1,8,0:0:0:0:
256,192,86458,1,8,0:0:0:0:
256,192,86621,1,0,0:0:0:0:
256,192,86703,1,0,0:0:0:0:
256,192,86784,1,0,0:0:0:0:
256,192,86947,1,0,0:0:0:0:
256,192,87110,1,8,0:0:0:0:
256,192,87192,1,8,0:0:0:0:
256,192,87273,1,8,0:0:0:0:
256,192,87436,1,12,0:0:0:0:
256,192,87762,1,8,0:0:0:0:
256,192,88088,1,0,0:0:0:0:
256,192,88251,1,0,0:0:0:0:
256,192,88415,1,8,0:0:0:0:
256,192,88741,1,0,0:0:0:0:
256,192,89067,1,8,0:0:0:0:
256,192,89393,1,0,0:0:0:0:
256,192,89556,1,0,0:0:0:0:
256,192,89719,1,8,0:0:0:0:
256,192,90045,1,12,0:0:0:0:
256,192,90697,1,0,0:0:0:0:
256,192,90860,1,0,0:0:0:0:
256,192,91023,1,8,0:0:0:0:
256,192,91349,1,0,0:0:0:0:
256,192,91512,1,0,0:0:0:0:
256,192,91675,1,8,0:0:0:0:
256,192,91838,1,0,0:0:0:0:
256,192,92001,1,8,0:0:0:0:
256,192,92328,1,8,0:0:0:0:
256,192,92491,1,0,0:0:0:0:
256,192,92654,1,8,0:0:0:0:
256,192,95262,1,8,0:0:0:0:
256,192,95588,1,8,0:0:0:0:
256,192,95751,1,8,0:0:0:0:
256,192,96078,1,8,0:0:0:0:
256,192,96241,1,8,0:0:0:0:
256,192,96404,1,0,0:0:0:0:
256,192,96567,1,0,0:0:0:0:
256,192,96648,1,0,0:0:0:0:
256,192,96730,1,0,0:0:0:0:
256,192,96893,1,8,0:0:0:0:
256,192,96974,1,8,0:0:0:0:
256,192,97056,1,8,0:0:0:0:
256,192,97219,1,8,0:0:0:0:
256,192,97871,1,12,0:0:0:0:
256,192,98299,1,0,0:0:0:0:
256,192,99156,1,0,0:0:0:0:
256,192,99585,1,0,0:0:0:0:
256,192,100013,1,8,0:0:0:0:
256,192,100442,1,0,0:0:0:0:
256,192,100656,1,0,0:0:0:0:
256,192,100871,1,8,0:0:0:0:
256,192,101085,1,0,0:0:0:0:
256,192,101299,1,12,0:0:0:0:
256,192,101728,1,0,0:0:0:0:
256,192,102585,1,0,0:0:0:0:
256,192,103013,1,0,0:0:0:0:
256,192,103228,1,8,0:0:0:0:
256,192,103442,1,8,0:0:0:0:
256,192,103656,1,0,0:0:0:0:
256,192,103871,1,8,0:0:0:0:
256,192,104085,1,0,0:0:0:0:
256,192,104299,1,8,0:0:0:0:
256,192,104513,1,8,0:0:0:0:
256,192,104728,1,12,0:0:0:0:
256,192,105156,1,8,0:0:0:0:
256,192,106013,1,8,0:0:0:0:
256,192,106442,1,8,0:0:0:0:
256,192,106656,1,0,0:0:0:0:
256,192,106871,1,8,0:0:0:0:
256,192,107085,1,0,0:0:0:0:
256,192,107192,1,0,0:0:0:0:
256,192,107299,1,0,0:0:0:0:
256,192,107513,1,0,0:0:0:0:
256,192,107728,1,8,0:0:0:0:
256,192,107942,1,0,0:0:0:0:
256,192,108156,1,4,0:0:0:0:
256,192,111156,1,12,0:0:0:0:
256,192,111585,1,4,0:0:0:0:
256,192,112013,1,0,0:0:0:0:
256,192,112228,1,0,0:0:0:0:
256,192,113299,1,8,0:0:0:0:
256,192,113942,1,0,0:0:0:0:
256,192,114049,1,0,0:0:0:0:
256,192,114156,1,0,0:0:0:0:
256,192,114371,1,0,0:0:0:0:
256,192,114585,1,0,0:0:0:0:
256,192,114799,1,0,0:0:0:0:
256,192,115013,1,12,0:0:0:0:
256,192,115442,1,0,0:0:0:0:
256,192,115656,1,0,0:0:0:0:
256,192,116728,1,8,0:0:0:0:
256,192,117371,1,0,0:0:0:0:
256,192,117478,1,0,0:0:0:0:
256,192,117585,1,0,0:0:0:0:
256,192,117871,1,0,0:0:0:0:
256,192,118013,1,0,0:0:0:0:
256,192,118442,1,0,0:0:0:0:
256,192,118549,1,0,0:0:0:0:
256,192,118656,1,0,0:0:0:0:
256,192,118871,1,0,0:0:0:0:
256,192,119085,1,0,0:0:0:0:
256,192,120156,1,8,0:0:0:0:
256,192,120799,1,0,0:0:0:0:
256,192,120906,1,0,0:0:0:0:
256,192,121013,1,0,0:0:0:0:
256,192,121228,1,0,0:0:0:0:
256,192,121442,1,0,0:0:0:0:
256,192,121656,1,0,0:0:0:0:
256,192,121871,1,12,0:0:0:0:
256,192,122299,1,0,0:0:0:0:
256,192,122513,1,0,0:0:0:0:
256,192,123585,1,8,0:0:0:0:
256,192,124228,1,0,0:0:0:0:
256,192,124335,1,0,0:0:0:0:
256,192,124442,1,0,0:0:0:0:
256,192,124728,1,0,0:0:0:0:
256,192,124871,1,0,0:0:0:0:
256,192,125299,1,12,0:0:0:0:
256,192,125728,1,0,0:0:0:0:
256,192,125942,1,0,0:0:0:0:
256,192,126156,1,8,0:0:0:0:
256,192,127013,1,8,0:0:0:0:
256,192,127656,1,0,0:0:0:0:
256,192,127763,1,0,0:0:0:0:
256,192,127871,1,0,0:0:0:0:
256,192,128085,1,0,0:0:0:0:
256,192,128299,1,0,0:0:0:0:
256,192,128406,1,0,0:0:0:0:
256,192,128513,1,0,0:0:0:0:
256,192,128728,1,12,0:0:0:0:
256,192,129156,1,0,0:0:0:0:
256,192,129371,1,0,0:0:0:0:
256,192,129585,1,8,0:0:0:0:
256,192,130442,1,8,0:0:0:0:
256,192,131085,1,0,0:0:0:0:
256,192,131192,1,0,0:0:0:0:
256,192,131299,1,0,0:0:0:0:
256,192,131585,1,0,0:0:0:0:
256,192,131728,1,0,0:0:0:0:
256,192,132156,1,0,0:0:0:0:
256,192,132263,1,0,0:0:0:0:
256,192,132371,1,0,0:0:0:0:
256,192,132585,1,0,0:0:0:0:
256,192,132799,1,0,0:0:0:0:
256,192,133013,1,8,0:0:0:0:
256,192,133871,1,8,0:0:0:0:
256,192,134513,1,0,0:0:0:0:
256,192,134621,1,0,0:0:0:0:
256,192,134728,1,0,0:0:0:0:
256,192,134942,1,0,0:0:0:0:
256,192,135156,1,0,0:0:0:0:
256,192,135263,1,0,0:0:0:0:
256,192,135371,1,0,0:0:0:0:
256,192,135585,1,12,0:0:0:0:
256,192,136013,1,0,0:0:0:0:
256,192,136121,1,0,0:0:0:0:
256,192,136228,1,0,0:0:0:0:
256,192,136442,1,8,0:0:0:0:
256,192,136871,1,0,0:0:0:0:
256,192,136978,1,0,0:0:0:0:
256,192,137085,1,0,0:0:0:0:
256,192,137299,1,8,0:0:0:0:
256,192,137513,1,8,0:0:0:0:
256,192,137728,1,0,0:0:0:0:
256,192,137942,1,0,0:0:0:0:
256,192,138156,1,8,0:0:0:0:
256,192,138319,1,0,0:0:0:0:
256,192,138482,1,0,0:0:0:0:
256,192,138563,1,0,0:0:0:0:
256,192,138645,1,0,0:0:0:0:
256,192,138808,1,12,0:0:0:0:
256,192,139133,1,0,0:0:0:0:
256,192,139459,1,0,0:0:0:0:
256,192,139785,1,0,0:0:0:0:
256,192,140111,1,0,0:0:0:0:
256,192,140437,1,0,0:0:0:0:
256,192,140763,1,0,0:0:0:0:
256,192,141089,1,0,0:0:0:0:
256,192,141415,1,0,0:0:0:0:
256,192,141741,1,0,0:0:0:0:
256,192,142067,1,0,0:0:0:0:
256,192,142393,1,0,0:0:0:0:
256,192,142720,1,0,0:0:0:0:
256,192,143046,1,0,0:0:0:0:
256,192,143372,1,0,0:0:0:0:
256,192,143698,1,0,0:0:0:0:
256,192,143779,1,0,0:0:0:0:
256,192,143861,1,0,0:0:0:0:
256,192,144024,1,12,0:0:0:0:
256,192,144350,1,0,0:0:0:0:
256,192,144676,1,0,0:0:0:0:
256,192,145002,1,0,0:0:0:0:
256,192,145328,1,0,0:0:0:0:
256,192,145654,1,0,0:0:0:0:
256,192,145980,1,0,0:0:0:0:
256,192,146307,1,0,0:0:0:0:
256,192,146633,1,0,0:0:0:0:
256,192,146959,1,0,0:0:0:0:
256,192,147285,1,0,0:0:0:0:
256,192,147611,1,0,0:0:0:0:
256,192,147774,1,8,0:0:0:0:
256,192,147937,1,0,0:0:0:0:
256,192,148263,1,0,0:0:0:0:
256,192,148426,1,8,0:0:0:0:
256,192,148589,1,0,0:0:0:0:
256,192,148752,1,8,0:0:0:0:
256,192,148915,1,8,0:0:0:0:
256,192,149078,1,0,0:0:0:0:
256,192,149241,1,12,0:0:0:0:
256,192,149567,1,0,0:0:0:0:
256,192,149893,1,0,0:0:0:0:
256,192,150220,1,0,0:0:0:0:
256,192,150546,1,0,0:0:0:0:
256,192,150872,1,0,0:0:0:0:
256,192,151198,1,0,0:0:0:0:
256,192,151524,1,0,0:0:0:0:
256,192,151687,1,8,0:0:0:0:
256,192,151850,1,0,0:0:0:0:
256,192,152176,1,0,0:0:0:0:
256,192,152502,1,0,0:0:0:0:
256,192,152828,1,0,0:0:0:0:
256,192,152991,1,8,0:0:0:0:
256,192,153154,1,0,0:0:0:0:
256,192,153480,1,8,0:0:0:0:
256,192,153807,1,0,0:0:0:0:
256,192,154133,1,12,0:0:0:0:
256,192,154459,1,0,0:0:0:0:
256,192,154785,1,8,0:0:0:0:
256,192,155111,1,0,0:0:0:0:
256,192,155437,1,0,0:0:0:0:
256,192,155600,1,8,0:0:0:0:
256,192,155763,1,0,0:0:0:0:
256,192,156089,1,8,0:0:0:0:
256,192,156415,1,0,0:0:0:0:
256,192,156497,1,0,0:0:0:0:
256,192,156578,1,0,0:0:0:0:
256,192,156741,1,8,0:0:0:0:
256,192,156823,1,8,0:0:0:0:
256,192,156904,1,8,0:0:0:0:
256,192,157067,1,0,0:0:0:0:
256,192,159350,1,12,0:0:0:0:
256,192,159676,1,12,0:0:0:0:
256,192,160980,1,8,0:0:0:0:
256,192,161143,1,0,0:0:0:0:
256,192,161307,1,0,0:0:0:0:
256,192,161470,1,0,0:0:0:0:
256,192,161633,1,0,0:0:0:0:
256,192,161796,1,8,0:0:0:0:
256,192,161959,1,8,0:0:0:0:
256,192,162285,1,12,0:0:0:0:
256,192,163589,1,8,0:0:0:0:
256,192,163752,1,8,0:0:0:0:
256,192,163915,1,0,0:0:0:0:
256,192,164078,1,8,0:0:0:0:
256,192,164241,1,8,0:0:0:0:
256,192,164404,1,0,0:0:0:0:
256,192,164567,1,0,0:0:0:0:
256,192,164649,1,0,0:0:0:0:
256,192,164730,1,0,0:0:0:0:
256,192,164893,1,12,0:0:0:0:
256,192,165872,1,8,0:0:0:0:
256,192,166198,1,12,0:0:0:0:
256,192,166850,1,12,0:0:0:0:
256,192,167502,1,8,0:0:0:0:
256,192,167665,1,8,0:0:0:0:
256,192,167828,1,0,0:0:0:0:
256,192,167991,1,0,0:0:0:0:
256,192,168154,1,8,0:0:0:0:
256,192,168480,1,0,0:0:0:0:
256,192,168643,1,8,0:0:0:0:
256,192,168807,1,0,0:0:0:0:
256,192,168888,1,0,0:0:0:0:
256,192,168970,1,0,0:0:0:0:
256,192,169133,1,8,0:0:0:0:
256,192,169296,1,0,0:0:0:0:
256,192,169377,1,0,0:0:0:0:
256,192,169459,1,0,0:0:0:0:
256,192,170111,1,4,0:0:0:0:
256,192,170274,1,0,0:0:0:0:
256,192,170437,1,8,0:0:0:0:
256,192,170763,1,0,0:0:0:0:
256,192,171089,1,8,0:0:0:0:
256,192,171415,1,0,0:0:0:0:
256,192,172067,1,0,0:0:0:0:
256,192,172393,1,8,0:0:0:0:
256,192,172720,1,12,0:0:0:0:
256,192,172883,1,0,0:0:0:0:
256,192,173046,1,8,0:0:0:0:
256,192,173372,1,0,0:0:0:0:
256,192,173698,1,8,0:0:0:0:
256,192,174024,1,0,0:0:0:0:
256,192,174350,1,8,0:0:0:0:
256,192,174513,1,0,0:0:0:0:
256,192,174676,1,8,0:0:0:0:
256,192,174839,1,0,0:0:0:0:
256,192,175002,1,8,0:0:0:0:
256,192,175165,1,0,0:0:0:0:
256,192,175247,1,0,0:0:0:0:
256,192,175328,1,0,0:0:0:0:
256,192,175654,1,8,0:0:0:0:
256,192,175980,1,0,0:0:0:0:
256,192,176143,1,0,0:0:0:0:
256,192,176307,1,8,0:0:0:0:
256,192,176959,1,8,0:0:0:0:
256,192,177285,1,0,0:0:0:0:
256,192,177448,1,0,0:0:0:0:
256,192,177611,1,8,0:0:0:0:
256,192,177937,1,12,0:0:0:0:
256,192,178100,1,0,0:0:0:0:
256,192,178263,1,8,0:0:0:0:
256,192,178589,1,0,0:0:0:0:
256,192,178915,1,8,0:0:0:0:
256,192,179078,1,0,0:0:0:0:
256,192,179160,1,0,0:0:0:0:
256,192,179241,1,0,0:0:0:0:
256,192,179567,1,8,0:0:0:0:
256,192,179730,1,0,0:0:0:0:
256,192,179893,1,8,0:0:0:0:
256,192,179975,1,8,0:0:0:0:
256,192,180057,1,8,0:0:0:0:
256,192,180220,1,0,0:0:0:0:
256,192,180301,1,0,0:0:0:0:
256,192,180383,1,0,0:0:0:0:
256,192,180546,1,12,0:0:0:0:
256,192,180872,1,0,0:0:0:0:
256,192,181035,1,0,0:0:0:0:
256,192,181198,1,8,0:0:0:0:
256,192,181524,1,0,0:0:0:0:
256,192,181850,1,8,0:0:0:0:
256,192,182176,1,0,0:0:0:0:
256,192,182339,1,0,0:0:0:0:
256,192,182502,1,8,0:0:0:0:
256,192,183154,1,12,0:0:0:0:
256,192,183480,1,0,0:0:0:0:
256,192,183643,1,0,0:0:0:0:
256,192,183807,1,8,0:0:0:0:
256,192,184133,1,0,0:0:0:0:
256,192,184459,1,8,0:0:0:0:
256,192,184785,1,0,0:0:0:0:
256,192,184948,1,8,0:0:0:0:
256,192,185111,1,0,0:0:0:0:
256,192,185274,1,8,0:0:0:0:
256,192,185437,1,8,0:0:0:0:
256,192,185600,1,0,0:0:0:0:
256,192,185763,1,12,0:0:0:0:
256,192,186089,1,0,0:0:0:0:
256,192,186252,1,0,0:0:0:0:
256,192,186415,1,8,0:0:0:0:
256,192,186741,1,0,0:0:0:0:
256,192,186823,1,0,0:0:0:0:
256,192,186904,1,0,0:0:0:0:
256,192,187067,1,8,0:0:0:0:
256,192,187393,1,0,0:0:0:0:
256,192,187557,1,0,0:0:0:0:
256,192,187720,1,8,0:0:0:0:
256,192,187883,1,0,0:0:0:0:
256,192,188046,1,0,0:0:0:0:
256,192,188127,1,0,0:0:0:0:
256,192,188209,1,0,0:0:0:0:
256,192,188372,1,8,0:0:0:0:
256,192,188698,1,8,0:0:0:0:
256,192,189024,1,8,0:0:0:0:
256,192,189350,1,8,0:0:0:0:
256,192,189676,1,0,0:0:0:0:
256,192,189839,1,0,0:0:0:0:
256,192,190002,1,8,0:0:0:0:
256,192,190165,1,8,0:0:0:0:
256,192,190328,1,0,0:0:0:0:
256,192,190410,1,0,0:0:0:0:
256,192,190491,1,0,0:0:0:0:
256,192,190654,1,8,0:0:0:0:
256,192,190736,1,8,0:0:0:0:
256,192,190817,1,8,0:0:0:0:
256,192,190980,1,12,0:0:0:0:
256,192,191143,12,0,197502,0:0:0:0:
