osu file format v14

[General]
AudioFilename: audio.mp3
AudioLeadIn: 0
PreviewTime: 45616
Countdown: 0
SampleSet: Normal
StackLeniency: 1
Mode: 1
LetterboxInBreaks: 0
WidescreenStoryboard: 1

[Editor]
DistanceSpacing: 0.6
BeatDivisor: 4
GridSize: 4
TimelineZoom: 1

[Metadata]
Title:Sad Spring
TitleUnicode:Sad Spring
Artist:Draw the Emotional & Foreground Eclipse
ArtistUnicode:Draw the Emotional & Foreground Eclipse
Creator:Nifty
Version:Kantan
Source:東方妖々夢 ~ Perfect Cherry Blossom.
Tags:Ayyri 東方Project Touhou ZUN Team Shanghai Alice PCB TH07 TH 07 Youyoumu Ghostly Dream ゆよゆっぺ Yuyoyuppe ルシュカ LUSCHKA Nico neko ネクロファンタジア Necrofantasia 八雲 紫 Yukari Yakumo 幽雅に咲かせ、墨染の桜 ~ Border of Life 西行寺 幽々子 Yuyuko Saigyouji Bloom Nobly, of Sumizome Seated with Liquor Comiket 83 C83 DtE FE YPFE-0001
BeatmapID:1438771
BeatmapSetID:680446

[Difficulty]
HPDrainRate:7
CircleSize:2
OverallDifficulty:3
ApproachRate:10
SliderMultiplier:1.4
SliderTickRate:1

[Events]
//Background and Video events
0,0,"Touhou.full.1143671.jpg",0,0
//Break Periods
//Storyboard Layer 0 (Background)
//Storyboard Layer 1 (Fail)
//Storyboard Layer 2 (Pass)
//Storyboard Layer 3 (Foreground)
//Storyboard Sound Samples

[TimingPoints]
1350,326.086158437331,4,1,0,80,1,0
45697,-100,4,1,0,80,0,1
55480,-100,4,1,0,80,0,0
56132,-100,4,1,0,80,0,1
66567,-100,4,1,0,80,0,0
97871,428.571428571429,4,1,0,80,1,0
97871,-80,4,1,0,80,0,0
98299,-81.6326530612245,4,1,0,80,0,0
98728,-83.3333333333333,4,1,0,80,0,0
99585,-88.8888888888889,4,1,0,80,0,0
100871,-95.2380952380952,4,1,0,80,0,0
101299,-97.5609756097561,4,1,0,80,0,0
101728,-100,4,1,0,80,0,0
137299,-97.0873786407767,4,1,0,80,0,0
137728,-93.4579439252336,4,1,0,80,0,0
138156,326.086956521739,4,1,0,80,1,8
138156,-117.647058823529,4,1,0,80,0,0
138807,326.086956521739,4,1,0,80,1,0
159350,-100,4,1,0,80,0,0
170111,-100,4,1,0,80,0,1
180546,-100,4,1,0,80,0,0
191062,-100,4,1,0,15,0,0

[HitObjects]
256,120,1350,5,8,0:0:0:0:
256,120,2328,1,8,0:0:0:0:
256,120,3306,1,0,0:0:0:0:
264,116,3959,1,12,0:0:0:0:
264,112,5263,1,8,0:0:0:0:
264,112,6241,1,0,0:0:0:0:
264,112,6567,1,12,0:0:0:0:
272,108,7872,1,8,0:0:0:0:
272,108,8524,1,0,0:0:0:0:
272,108,8850,1,8,0:0:0:0:
272,108,9176,1,4,0:0:0:0:
280,108,10480,1,8,0:0:0:0:
288,104,11132,1,0,0:0:0:0:
288,104,11785,1,0,0:0:0:0:
296,104,12274,1,8,0:0:0:0:
288,104,12763,1,0,0:0:0:0:
296,104,13252,1,8,0:0:0:0:
288,104,13741,1,8,0:0:0:0:
280,92,14393,1,0,0:0:0:0:
288,100,15045,1,8,0:0:0:0:
288,100,15697,1,0,0:0:0:0:
276,88,16024,1,0,0:0:0:0:
272,88,16350,1,8,0:0:0:0:
276,88,17002,1,0,0:0:0:0:
276,88,17654,1,8,0:0:0:0:
276,88,18306,1,8,0:0:0:0:
276,88,19611,1,0,0:0:0:0:
276,88,20262,1,8,0:0:0:0:
264,96,20915,1,8,0:0:0:0:
284,76,21241,1,0,0:0:0:0:
280,72,21567,1,8,0:0:0:0:
284,76,22219,1,0,0:0:0:0:
284,76,22871,1,8,0:0:0:0:
284,76,23198,1,0,0:0:0:0:
244,124,23523,1,0,0:0:0:0:
284,76,24176,1,0,0:0:0:0:
284,76,24828,1,0,0:0:0:0:
284,76,25480,1,8,0:0:0:0:
284,64,25806,1,0,0:0:0:0:
284,76,26132,1,0,0:0:0:0:
284,72,26784,1,8,0:0:0:0:
280,76,27437,1,8,0:0:0:0:
284,72,27762,1,8,0:0:0:0:
288,72,28089,1,0,0:0:0:0:
276,68,28415,1,0,0:0:0:0:
288,72,28741,1,8,0:0:0:0:
288,76,30045,1,0,0:0:0:0:
288,76,30697,1,8,0:0:0:0:
288,76,31350,1,0,0:0:0:0:
288,76,31676,1,8,0:0:0:0:
292,84,32002,1,8,0:0:0:0:
296,72,32654,1,0,0:0:0:0:
288,72,32980,1,0,0:0:0:0:
296,68,33306,1,8,0:0:0:0:
296,72,33632,1,8,0:0:0:0:
296,68,33958,1,0,0:0:0:0:
296,72,34610,1,8,0:0:0:0:
296,60,34936,1,0,0:0:0:0:
296,68,35263,1,0,0:0:0:0:
296,68,36241,1,0,0:0:0:0:
300,68,36567,1,8,0:0:0:0:
300,68,37871,1,8,0:0:0:0:
244,116,38523,1,8,0:0:0:0:
292,64,38850,1,0,0:0:0:0:
292,64,39176,1,8,0:0:0:0:
292,64,39828,1,0,0:0:0:0:
292,64,40154,1,8,0:0:0:0:
292,64,40480,1,0,0:0:0:0:
292,64,41458,1,0,0:0:0:0:
284,64,41784,1,8,0:0:0:0:
268,76,42763,1,8,0:0:0:0:
280,88,43089,1,0,0:0:0:0:
276,84,43741,1,8,0:0:0:0:
276,84,44393,1,8,0:0:0:0:
276,84,45045,1,0,0:0:0:0:
276,84,45371,1,12,0:0:0:0:
276,84,45698,1,0,0:0:0:0:
276,84,46350,1,8,0:0:0:0:
276,84,46676,1,0,0:0:0:0:
276,84,47002,1,8,0:0:0:0:
276,84,48306,1,0,0:0:0:0:
276,84,48958,1,8,0:0:0:0:
276,84,49284,1,0,0:0:0:0:
276,84,49611,1,8,0:0:0:0:
284,104,49936,1,0,0:0:0:0:
280,80,50263,1,0,0:0:0:0:
280,80,50915,1,8,0:0:0:0:
280,80,51567,1,0,0:0:0:0:
280,80,51893,1,0,0:0:0:0:
280,80,52219,1,8,0:0:0:0:
280,80,52871,1,0,0:0:0:0:
280,80,53524,1,8,0:0:0:0:
280,80,54502,1,0,0:0:0:0:
280,80,54828,1,8,0:0:0:0:
280,80,55480,1,8,0:0:0:0:
280,80,56132,1,12,0:0:0:0:
280,80,56784,1,8,0:0:0:0:
280,80,57111,1,8,0:0:0:0:
280,80,57437,1,0,0:0:0:0:
280,80,58741,1,0,0:0:0:0:
280,80,59393,1,8,0:0:0:0:
280,80,60045,1,0,0:0:0:0:
288,92,60371,1,0,0:0:0:0:
280,80,60697,1,8,0:0:0:0:
280,80,61024,1,8,0:0:0:0:
280,80,61350,1,0,0:0:0:0:
280,80,62002,1,0,0:0:0:0:
280,80,62654,1,8,0:0:0:0:
280,80,63306,1,8,0:0:0:0:
272,84,63632,1,0,0:0:0:0:
288,72,63958,1,8,0:0:0:0:
288,72,64611,1,0,0:0:0:0:
288,76,65263,1,0,0:0:0:0:
288,72,65589,1,8,0:0:0:0:
288,76,65915,1,8,0:0:0:0:
288,72,66567,1,0,0:0:0:0:
280,80,67871,1,8,0:0:0:0:
272,104,68197,1,0,0:0:0:0:
280,80,68524,1,8,0:0:0:0:
280,80,69176,1,0,0:0:0:0:
280,72,69828,1,8,0:0:0:0:
280,72,70480,1,8,0:0:0:0:
288,80,71132,1,0,0:0:0:0:
288,80,71458,1,0,0:0:0:0:
288,80,71784,1,0,0:0:0:0:
284,84,72437,1,8,0:0:0:0:
276,72,72762,1,8,0:0:0:0:
284,84,73089,1,0,0:0:0:0:
284,84,73741,1,8,0:0:0:0:
284,84,74393,1,0,0:0:0:0:
284,84,74719,1,8,0:0:0:0:
284,84,75045,1,8,0:0:0:0:
284,84,75697,1,8,0:0:0:0:
284,84,76024,1,0,0:0:0:0:
284,84,76350,1,8,0:0:0:0:
284,84,77002,1,0,0:0:0:0:
284,84,78306,1,8,0:0:0:0:
284,84,79284,1,0,0:0:0:0:
288,84,79610,1,0,0:0:0:0:
288,84,80915,1,8,0:0:0:0:
288,84,81893,1,0,0:0:0:0:
288,84,82219,1,0,0:0:0:0:
296,92,83524,5,8,0:0:0:0:
288,80,84502,1,0,0:0:0:0:
288,88,84828,1,0,0:0:0:0:
288,88,85806,1,0,0:0:0:0:
288,88,86132,1,8,0:0:0:0:
288,88,86784,1,8,0:0:0:0:
288,88,87437,1,0,0:0:0:0:
288,88,87763,1,8,0:0:0:0:
280,80,88415,1,8,0:0:0:0:
280,80,89067,1,0,0:0:0:0:
280,80,89393,1,8,0:0:0:0:
280,80,90045,1,0,0:0:0:0:
280,80,90371,1,8,0:0:0:0:
280,80,91024,1,0,0:0:0:0:
280,72,91676,1,8,0:0:0:0:
280,72,92002,1,8,0:0:0:0:
280,72,92654,1,0,0:0:0:0:
284,80,95263,1,0,0:0:0:0:
284,80,95589,1,8,0:0:0:0:
284,80,96241,1,8,0:0:0:0:
284,80,96567,1,0,0:0:0:0:
284,80,97219,1,0,0:0:0:0:
284,80,97871,1,0,0:0:0:0:
284,80,98299,1,8,0:0:0:0:
284,80,98728,1,8,0:0:0:0:
284,80,99585,1,8,0:0:0:0:
288,80,100871,1,8,0:0:0:0:
276,88,101299,1,0,0:0:0:0:
284,88,101728,1,8,0:0:0:0:
276,88,102156,1,8,0:0:0:0:
276,88,103013,1,0,0:0:0:0:
276,88,103442,1,8,0:0:0:0:
276,72,104299,1,8,0:0:0:0:
276,88,104728,1,0,0:0:0:0:
284,80,105156,1,8,0:0:0:0:
276,88,105585,1,8,0:0:0:0:
276,88,106442,1,0,0:0:0:0:
276,88,107299,1,8,0:0:0:0:
280,80,107728,1,8,0:0:0:0:
276,88,108156,1,4,0:0:0:0:
260,104,111156,1,12,0:0:0:0:
260,104,111585,1,0,0:0:0:0:
256,96,112013,1,0,0:0:0:0:
256,96,113299,1,8,0:0:0:0:
248,88,114156,1,0,0:0:0:0:
248,88,115013,1,0,0:0:0:0:
248,88,115442,1,0,0:0:0:0:
248,88,116728,1,8,0:0:0:0:
248,88,117585,1,8,0:0:0:0:
248,88,118442,1,0,0:0:0:0:
248,88,118871,1,0,0:0:0:0:
244,88,120156,1,8,0:0:0:0:
244,88,121013,1,0,0:0:0:0:
244,88,121871,1,0,0:0:0:0:
244,88,122299,1,0,0:0:0:0:
244,88,123585,1,8,0:0:0:0:
244,80,124442,1,8,0:0:0:0:
244,80,125299,1,0,0:0:0:0:
244,80,125728,1,0,0:0:0:0:
244,80,126156,1,8,0:0:0:0:
244,80,127013,1,0,0:0:0:0:
244,80,127871,1,8,0:0:0:0:
244,80,128728,1,0,0:0:0:0:
244,80,129156,1,0,0:0:0:0:
244,80,129585,1,8,0:0:0:0:
244,80,130442,1,8,0:0:0:0:
252,80,131299,1,0,0:0:0:0:
252,80,132156,1,0,0:0:0:0:
252,80,132585,1,0,0:0:0:0:
252,80,133013,1,8,0:0:0:0:
252,80,133871,1,0,0:0:0:0:
252,80,134728,1,8,0:0:0:0:
252,80,135585,1,0,0:0:0:0:
252,80,136013,1,8,0:0:0:0:
252,80,136442,1,0,0:0:0:0:
260,80,137299,1,8,0:0:0:0:
260,80,137728,1,0,0:0:0:0:
260,80,138156,1,8,0:0:0:0:
252,72,138807,1,0,0:0:0:0:
252,72,139459,1,8,0:0:0:0:
252,72,140111,1,0,0:0:0:0:
252,72,140437,1,0,0:0:0:0:
252,64,140763,1,0,0:0:0:0:
252,72,141415,1,8,0:0:0:0:
252,72,142067,1,8,0:0:0:0:
248,60,142393,1,8,0:0:0:0:
252,72,142720,1,0,0:0:0:0:
248,64,143698,1,8,0:0:0:0:
256,72,144024,1,0,0:0:0:0:
260,72,144676,1,8,0:0:0:0:
260,72,145328,1,0,0:0:0:0:
256,64,145980,1,0,0:0:0:0:
260,72,146307,1,0,0:0:0:0:
260,72,146633,1,8,0:0:0:0:
268,80,147285,1,8,0:0:0:0:
268,80,147937,1,0,0:0:0:0:
268,80,148589,1,8,0:0:0:0:
268,80,148915,1,8,0:0:0:0:
268,80,149241,1,0,0:0:0:0:
268,80,149893,1,8,0:0:0:0:
268,80,150546,1,0,0:0:0:0:
268,80,151198,1,0,0:0:0:0:
268,80,151524,1,8,0:0:0:0:
268,80,151850,1,8,0:0:0:0:
268,80,152502,1,0,0:0:0:0:
268,80,153154,1,8,0:0:0:0:
268,80,154459,1,0,0:0:0:0:
268,80,155111,1,8,0:0:0:0:
268,80,155763,1,0,0:0:0:0:
260,72,156089,1,0,0:0:0:0:
268,80,156415,1,8,0:0:0:0:
268,80,156741,1,8,0:0:0:0:
268,80,157067,1,0,0:0:0:0:
264,76,159350,1,8,0:0:0:0:
264,76,159676,1,4,0:0:0:0:
268,84,160980,1,8,0:0:0:0:
268,84,161307,1,0,0:0:0:0:
268,84,161633,1,0,0:0:0:0:
268,84,162285,1,8,0:0:0:0:
268,84,163589,1,8,0:0:0:0:
268,84,163915,1,8,0:0:0:0:
268,84,164241,1,8,0:0:0:0:
248,96,164567,1,0,0:0:0:0:
268,84,164893,1,0,0:0:0:0:
268,92,166198,1,8,0:0:0:0:
268,92,166850,1,8,0:0:0:0:
268,92,167502,1,0,0:0:0:0:
268,92,167991,1,8,0:0:0:0:
268,92,168480,1,0,0:0:0:0:
268,92,168807,1,8,0:0:0:0:
268,92,169459,1,8,0:0:0:0:
276,84,170111,1,4,0:0:0:0:
276,84,170763,1,8,0:0:0:0:
276,84,171089,1,0,0:0:0:0:
276,84,171415,1,8,0:0:0:0:
276,84,172393,1,0,0:0:0:0:
276,84,172719,1,0,0:0:0:0:
276,84,173371,1,8,0:0:0:0:
276,84,173697,1,0,0:0:0:0:
276,84,174024,1,8,0:0:0:0:
280,80,174676,1,0,0:0:0:0:
276,84,175002,1,0,0:0:0:0:
280,80,175328,1,8,0:0:0:0:
280,80,175980,1,0,0:0:0:0:
280,80,176306,1,0,0:0:0:0:
280,80,176632,1,8,0:0:0:0:
280,80,176959,1,8,0:0:0:0:
280,80,177284,1,0,0:0:0:0:
280,80,177937,1,8,0:0:0:0:
280,80,178915,1,0,0:0:0:0:
280,80,179241,1,8,0:0:0:0:
280,80,179567,1,8,0:0:0:0:
280,80,179893,1,8,0:0:0:0:
280,80,180545,1,0,0:0:0:0:
276,88,181198,1,8,0:0:0:0:
276,88,181850,1,0,0:0:0:0:
276,88,182176,1,0,0:0:0:0:
276,88,182502,1,8,0:0:0:0:
276,88,183154,1,0,0:0:0:0:
276,88,183807,1,8,0:0:0:0:
276,88,184459,1,0,0:0:0:0:
276,88,185763,1,0,0:0:0:0:
272,76,186089,1,8,0:0:0:0:
276,88,186415,1,0,0:0:0:0:
276,88,187067,1,8,0:0:0:0:
272,80,187393,1,8,0:0:0:0:
276,88,187720,1,8,0:0:0:0:
276,88,188372,1,0,0:0:0:0:
276,88,188698,1,0,0:0:0:0:
276,88,189024,1,8,0:0:0:0:
276,88,189676,1,8,0:0:0:0:
276,88,190002,1,0,0:0:0:0:
276,88,190328,1,8,0:0:0:0:
272,76,190654,1,8,0:0:0:0:
276,88,190980,1,4,0:0:0:0:
256,192,191306,12,0,197502,0:0:0:0:
