osu file format v14

[General]
AudioFilename: audio.mp3
AudioLeadIn: 0
PreviewTime: 97004
Countdown: 0
SampleSet: None
StackLeniency: 0.7
Mode: 0
LetterboxInBreaks: 0
WidescreenStoryboard: 1

[Editor]
Bookmarks: 31625,44866,58107,64728,71349,84590,91211,97831,117693,137556,149969,160893,171900
DistanceSpacing: 1
BeatDivisor: 4
GridSize: 4
TimelineZoom: 2.5

[Metadata]
Title:Escapes
TitleUnicode:Escapes
Artist:Draw the Emotional & Foreground Eclipse
ArtistUnicode:Draw the Emotional & Foreground Eclipse
Creator:Majii
Version:Hard
Source:
Tags:yuyoyuppe ゆよゆっぺ seated with liquor doujin
BeatmapID:1559786
BeatmapSetID:739062

[Difficulty]
HPDrainRate:6
CircleSize:3
OverallDifficulty:8
ApproachRate:8.5
SliderMultiplier:1.4
SliderTickRate:1

[Events]
//Background and Video events
0,0,"1491810192892.png",0,0
//Break Periods
2,58100,63978
2,111066,116943
2,139126,140601
//Storyboard Layer 0 (Background)
//Storyboard Layer 1 (Fail)
//Storyboard Layer 2 (Pass)
//Storyboard Layer 3 (Foreground)
//Storyboard Sound Samples

[TimingPoints]
18383,413.793103448276,4,1,0,100,1,0
31625,-66.6666666666667,4,3,0,80,0,0
71349,-100,4,2,0,70,0,0
84590,-66.6666666666667,4,1,0,75,0,0
97004,-100,4,1,0,70,0,0
97831,-50,4,3,0,80,0,1
110865,-50,4,3,0,80,0,0
111073,-66.6666666666667,4,3,0,80,0,0
137555,342.857142857143,4,1,0,100,1,0
141326,-66.6666666666667,4,1,0,75,0,0
148526,-133.333333333333,4,1,0,100,0,0
149897,-66.6666666666667,4,3,0,80,0,1
171840,-133.333333333333,4,1,0,100,0,0

[HitObjects]
200,112,31625,5,8,0:0:0:0:
200,112,31728,1,0,0:0:0:0:
200,112,31831,2,0,P|244:132|320:112,1,105.000004005432
412,64,32245,1,0,0:0:0:0:
352,216,32452,6,0,P|348:256|352:292,1,52.5000020027161,8|0,0:0|0:0,0:0:0:0:
256,320,32762,2,0,P|260:296|256:256,1,52.5000020027161
160,216,33073,2,0,P|164:256|160:292,1,52.5000020027161
156,320,33280,5,8,0:0:0:0:
256,352,33487,1,0,0:0:0:0:
352,308,33693,1,0,0:0:0:0:
256,268,33900,1,0,0:0:0:0:
336,104,34107,6,0,B|348:160|348:160|336:220,1,105.000004005432,8|0,0:0|0:0,0:0:0:0:
248,152,34521,2,0,B|236:96|236:96|248:36,1,105.000004005432,8|0,0:0|0:0,0:0:0:0:
104,180,34935,5,8,0:0:0:0:
104,180,35038,1,0,0:0:0:0:
104,180,35142,2,0,P|132:224|188:252,1,105.000004005432
280,268,35556,1,0,0:0:0:0:
280,92,35763,6,0,P|279:65|283:39,1,52.5000020027161,8|0,0:0|0:0,0:0:0:0:
372,168,36073,2,0,P|376:144|372:104,1,52.5000020027161
184,112,36384,2,0,P|180:152|184:188,1,52.5000020027161
188,216,36589,5,8,0:0:0:0:
124,300,36796,1,0,0:0:0:0:
64,216,37004,1,0,0:0:0:0:
96,116,37211,1,0,0:0:0:0:
292,208,37418,6,0,B|236:220|236:220|176:208,1,105.000004005432,8|0,0:0|0:0,0:0:0:0:
244,120,37832,2,0,B|300:108|300:108|360:120,1,105.000004005432,8|0,0:0|0:0,0:0:0:0:
408,304,38245,5,8,0:0:0:0:
408,304,38348,1,0,0:0:0:0:
408,304,38452,2,0,P|364:324|304:320,1,105.000004005432
352,216,38865,1,0,0:0:0:0:
196,316,39072,6,0,P|156:312|120:316,1,52.5000020027161,8|0,0:0|0:0,0:0:0:0:
200,224,39383,2,0,P|224:228|264:220,1,52.5000020027161
300,120,39693,2,0,P|260:124|224:120,1,52.5000020027161
188,120,39900,5,8,0:0:0:0:
268,36,40107,1,0,0:0:0:0:
372,88,40313,1,0,0:0:0:0:
476,36,40520,1,0,0:0:0:0:
436,220,40728,6,0,P|448:276|440:328,1,105.000004005432,8|0,0:0|0:0,0:0:0:0:
340,224,41142,2,0,P|328:284|344:328,1,105.000004005432,8|0,0:0|0:0,0:0:0:0:
256,72,41555,5,8,0:0:0:0:
256,72,41658,1,0,0:0:0:0:
256,72,41762,2,0,B|228:116|228:116|172:144,1,105.000004005432
72,176,42176,1,0,0:0:0:0:
196,316,42383,6,0,B|192:288|192:288|196:251,1,52.5000020027161,8|0,0:0|0:0,0:0:0:0:
288,316,42693,2,0,B|292:292|292:292|288:252,1,52.5000020027161
240,168,43004,2,0,L|240:116,1,52.5000020027161
244,64,43211,5,8,0:0:0:0:
156,120,43418,1,0,0:0:0:0:
152,16,43624,1,0,0:0:0:0:
64,72,43831,1,0,0:0:0:0:
104,280,44038,6,0,P|128:260|160:248,2,52.5000020027161,0|0|0,2:2|2:2|2:2,2:2:0:0:
216,172,44451,2,0,P|236:196|248:228,2,52.5000020027161,0|0|0,2:2|2:2|2:2,2:2:0:0:
320,340,44866,6,0,L|376:224,1,105.000004005432,4|0,0:0|0:0,0:0:0:0:
392,200,45176,1,0,0:0:0:0:
416,152,45280,1,8,0:0:0:0:
456,276,45487,1,0,0:0:0:0:
440,100,45693,1,0,0:0:0:0:
404,64,45797,1,0,0:0:0:0:
352,60,45900,1,0,0:0:0:0:
268,208,46107,2,0,L|222:302,1,105.000004005432,8|0,0:0|0:0,0:0:0:0:
144,52,46521,6,0,L|88:164,1,105.000004005432
76,192,46831,1,0,0:0:0:0:
52,236,46935,1,8,0:0:0:0:
176,208,47142,1,0,0:0:0:0:
256,52,47348,1,0,0:0:0:0:
308,60,47452,1,0,0:0:0:0:
344,100,47555,1,0,0:0:0:0:
172,204,47762,2,0,P|228:184|260:148,1,105.000004005432,8|0,0:0|0:0,0:0:0:0:
284,256,48176,6,0,L|368:356,1,105.000004005432
384,376,48486,1,0,0:0:0:0:
416,336,48590,1,8,0:0:0:0:
200,304,48797,1,0,0:0:0:0:
424,296,49003,1,0,0:0:0:0:
376,320,49107,1,0,0:0:0:0:
324,320,49210,1,0,0:0:0:0:
356,220,49418,2,0,L|324:108,1,105.000004005432,8|0,0:0|0:0,0:0:0:0:
212,288,49831,6,0,L|111:316,1,105.000004005432
60,332,50141,1,0,0:0:0:0:
12,348,50245,1,8,0:0:0:0:
68,232,50452,1,0,0:0:0:0:
316,276,50658,1,8,0:0:0:0:
316,276,50762,1,8,0:0:0:0:
316,276,50865,1,8,0:0:0:0:
244,200,51073,5,8,0:0:0:0:
244,200,51176,1,8,0:0:0:0:
244,200,51280,1,8,0:0:0:0:
152,264,51487,6,0,L|172:320,2,52.5000020027161
64,232,51900,2,0,L|40:160,2,52.5000020027161,8|0|0,0:0|0:0|0:0,0:0:0:0:
176,140,52314,6,0,L|228:120,2,52.5000020027161
112,72,52728,2,0,L|56:92,2,52.5000020027161,8|0|0,0:0|0:0|0:0,0:0:0:0:
352,88,53142,5,0,0:0:0:0:
352,88,53245,1,0,0:0:0:0:
352,88,53349,1,0,0:0:0:0:
328,244,53556,1,8,0:0:0:0:
328,244,53659,1,0,0:0:0:0:
328,244,53762,1,0,0:0:0:0:
248,120,53969,5,0,0:0:0:0:
248,120,54073,1,0,0:0:0:0:
248,120,54176,1,0,0:0:0:0:
164,224,54383,1,8,0:0:0:0:
164,224,54487,1,0,0:0:0:0:
164,224,54590,1,0,0:0:0:0:
320,316,54797,6,0,L|376:284,2,52.5000020027161
340,192,55211,1,4,0:0:0:0:
320,144,55314,1,0,0:0:0:0:
344,96,55418,1,0,0:0:0:0:
216,276,55625,6,0,L|176:216,2,52.5000020027161,4|0|0,0:0|0:0|0:0,0:0:0:0:
104,76,56038,1,4,0:0:0:0:
136,120,56142,1,0,0:0:0:0:
184,144,56245,1,0,0:0:0:0:
376,196,56452,6,0,L|376:264,2,52.5000020027161
264,188,56866,1,0,0:0:0:0:
264,304,57073,2,0,L|332:304,2,52.5000020027161
156,304,57487,1,0,0:0:0:0:
336,168,57693,5,8,0:0:0:0:
380,136,57797,1,8,0:0:0:0:
392,84,57900,1,8,0:0:0:0:
260,68,64728,6,0,P|224:112|176:124,1,105.000004005432
380,48,65142,1,8,0:0:0:0:
380,48,65245,1,0,0:0:0:0:
380,48,65349,1,0,0:0:0:0:
224,268,65556,2,0,P|260:216|320:196,1,105.000004005432
132,232,65969,1,8,0:0:0:0:
132,232,66073,1,0,0:0:0:0:
132,232,66176,1,0,0:0:0:0:
360,316,66383,6,0,P|396:272|444:260,1,105.000004005432
448,144,66797,1,8,0:0:0:0:
448,144,66900,1,0,0:0:0:0:
448,144,67004,1,0,0:0:0:0:
276,200,67211,2,0,P|240:252|180:272,1,105.000004005432
168,156,67624,1,8,0:0:0:0:
168,156,67728,1,0,0:0:0:0:
168,156,67831,1,0,0:0:0:0:
348,124,68038,6,0,B|340:64|340:64|288:36,1,105.000004005432,8|0,0:0|0:0,0:0:0:0:
252,20,68349,1,8,0:0:0:0:
104,140,68659,6,0,B|112:200|112:200|164:228,1,105.000004005432,8|0,0:0|0:0,0:0:0:0:
200,244,68969,1,8,0:0:0:0:
400,148,69280,6,0,L|484:220,1,105.000004005432,8|0,0:0|0:0,0:0:0:0:
304,216,69693,5,8,0:0:0:0:
264,180,69797,1,0,0:0:0:0:
228,144,69900,1,0,0:0:0:0:
216,248,70107,1,4,0:0:0:0:
128,152,70314,5,8,0:0:0:0:
88,116,70418,1,0,0:0:0:0:
52,80,70521,1,0,0:0:0:0:
152,52,70728,1,4,0:0:0:0:
296,36,70935,5,8,0:0:0:0:
296,88,71039,1,0,0:0:0:0:
296,140,71142,1,0,0:0:0:0:
396,264,71349,6,0,B|412:220|412:220|464:212|464:212|488:96|380:32,1,280,4|4,0:0|0:0,0:0:0:0:
160,308,73004,2,0,B|124:240|176:116|176:116|232:176,1,280,4|4,0:0|0:0,0:0:0:0:
332,272,74038,1,0,0:0:0:0:
332,272,74142,1,0,0:0:0:0:
332,272,74245,1,8,0:0:0:0:
64,296,74659,6,0,B|108:184|216:160|216:160|236:120|272:104,1,280,4|4,0:0|0:0,0:0:0:0:
344,220,75900,2,0,P|416:276|472:280,1,140,0|4,0:0|0:0,0:0:0:0:
372,92,76935,1,0,0:0:0:0:
372,92,77142,2,0,P|304:128|232:132,1,140,8|0,0:0|0:0,0:0:0:0:
200,168,77762,2,0,P|200:228|204:240,1,70,0|4,0:0|0:0,0:0:0:0:
376,304,78383,6,0,P|392:260|396:228,2,70,4|0|8,0:0|0:0|0:0,0:0:0:0:
304,252,79107,2,0,B|252:228|252:228|220:184,1,105,8|0,0:0|0:0,0:0:0:0:
200,144,79625,2,0,P|272:92|428:176,1,280,2|0,0:0|0:0,0:0:0:0:
304,240,80866,1,8,0:0:0:0:
372,360,81280,2,0,B|468:252|468:252|472:320|472:320,1,210,2|0,0:0|0:0,0:0:0:0:
452,152,82521,2,0,B|304:316,1,210,2|0,0:0|0:0,0:0:0:0:
372,108,83762,1,8,0:0:0:0:
216,40,84176,1,8,0:0:0:0:
152,256,84590,6,0,L|120:308,2,52.5000020027161
276,88,85211,2,0,L|248:43,2,52.5000020027161
348,232,85728,2,0,B|380:284|380:284|428:304|428:304|464:356,1,157.500006008148
440,212,86245,6,0,L|408:156,2,52.5000020027161
276,112,86659,2,0,L|303:158,2,52.5000020027161
176,220,87073,2,0,P|100:208|72:172,1,105.000004005432,4|0,0:0|0:0,0:0:0:0:
160,120,87487,2,0,P|216:112|280:140,1,105.000004005432,4|0,0:0|0:0,0:0:0:0:
339,63,87900,6,0,B|307:115,2,52.5000020027161
344,300,88520,2,0,B|312:248,2,52.5000020027161
312,108,89038,2,0,B|296:152|260:176|260:176|240:208|200:232,1,157.500006008148
104,208,89555,6,0,L|72:152,2,52.5000020027161,4|0|0,0:0|0:0|0:0,0:0:0:0:
141,82,89969,2,0,L|168:128,2,52.5000020027161,4|0|0,0:0|0:0|0:0,0:0:0:0:
300,140,90383,2,0,B|320:208|420:208,1,105.000004005432,2|0,0:0|0:0,0:0:0:0:
432,280,90797,2,0,B|432:236|432:236|456:200|452:160,1,105.000004005432,2|0,0:0|0:0,0:0:0:0:
256,332,91211,6,0,B|284:280|288:240|216:212|216:168|256:128,1,210.000008010865
324,68,91831,1,0,0:0:0:0:
388,152,92038,2,0,B|488:92|488:92|468:44,2,157.500006008148,8|8|0,0:0|0:0|0:0,0:0:0:0:
260,60,92866,6,0,B|204:52|160:104|160:104|80:44,1,210.000008010865
200,196,93693,2,0,B|256:204|300:152|300:152|380:212,1,210.000008010865
296,292,94521,5,4,3:0:0:0:
444,92,94935,1,4,3:0:0:0:
264,204,95349,1,4,3:0:0:0:
476,184,95762,1,4,3:0:0:0:
144,56,96176,6,0,L|92:100,2,52.5000020027161,8|0|0,0:0|0:0|0:0,0:0:0:0:
103,294,96589,2,0,L|144:328,2,52.5000020027161,8|0|0,0:0|0:0|0:0,0:0:0:0:
300,252,97004,6,0,P|208:168|212:252,1,280,2|0,0:0|0:0,0:0:0:0:
460,188,98038,5,0,0:0:0:0:
448,156,98142,1,0,0:0:0:0:
428,128,98245,1,8,0:0:0:0:
324,220,98452,1,0,0:0:0:0:
256,108,98659,2,0,L|324:76,2,70
196,188,99073,2,0,P|168:156|176:56,1,140,8|0,0:0|0:0,0:0:0:0:
56,144,99487,5,0,0:0:0:0:
184,328,99693,1,0,0:0:0:0:
208,304,99797,1,0,0:0:0:0:
216,272,99900,1,8,0:0:0:0:
332,348,100107,1,0,0:0:0:0:
220,176,100314,2,0,L|288:144,2,70
132,224,100728,2,0,B|120:292|120:292|164:364,1,140,8|0,0:0|0:0,0:0:0:0:
144,136,101142,5,0,0:0:0:0:
340,32,101349,1,0,0:0:0:0:
316,56,101451,1,0,0:0:0:0:
284,64,101556,1,8,0:0:0:0:
416,116,101763,1,0,0:0:0:0:
264,224,101970,2,0,L|296:292,2,70
184,156,102384,2,0,P|244:128|316:136,1,140,8|0,0:0|0:0,0:0:0:0:
60,328,102797,6,0,P|148:308|176:264,1,140
76,232,103211,2,0,P|36:172|52:106,1,140
256,272,103625,5,8,0:0:0:0:
280,244,103728,1,0,0:0:0:0:
304,268,103831,1,4,0:0:0:0:
400,136,104038,1,8,0:0:0:0:
376,108,104142,1,0,0:0:0:0:
356,136,104245,1,4,0:0:0:0:
428,332,104452,6,0,B|364:292|364:292|328:232,1,140
224,256,104866,2,0,L|278:348,2,70,8|0|0,0:0|0:0|0:0,0:0:0:0:
288,164,105280,2,0,P|316:132|308:32,1,140
188,104,105693,2,0,B|264:60|328:120,1,140,8|0,0:0|0:0,0:0:0:0:
472,92,106107,6,0,L|404:124,2,70
360,196,106521,2,0,P|332:164|340:64,1,140,8|0,0:0|0:0,0:0:0:0:
228,164,106935,2,0,P|182:126|104:124,1,140
288,260,107349,6,0,B|321:315|321:315|365:327|385:355,1,140,8|0,0:0|0:0,0:0:0:0:
428,192,107762,2,0,L|372:260,2,70,8|0|0,0:0|0:0|0:0,0:0:0:0:
296,172,108177,2,0,P|324:140|316:40,1,140,4|0,0:0|0:0,0:0:0:0:
168,264,108590,6,0,B|109:219|37:267,1,140,4|0,0:0|0:0,0:0:0:0:
104,350,109004,2,0,L|104:280,2,70,4|0|0,0:0|0:0|0:0,0:0:0:0:
336,184,109418,6,0,B|360:164|360:164|296:52,2,140
396,264,110038,1,0,0:0:0:0:
460,180,110245,6,0,B|436:160|436:160|500:48,2,140
396,56,110866,1,0,0:0:0:0:
128,280,117693,6,0,L|176:228,2,52.5000020027161
296,276,118107,2,0,L|257:240,2,52.5000020027161,8|0|0,0:0|0:0|0:0,0:0:0:0:
208,108,118520,2,0,L|208:176,2,52.5000020027161
212,323,118934,2,0,L|212:376,2,52.5000020027161,8|0|0,0:0|0:0|0:0,0:0:0:0:
424,68,119349,5,0,0:0:0:0:
424,68,119452,1,0,0:0:0:0:
424,68,119556,1,0,0:0:0:0:
352,144,119762,1,8,0:0:0:0:
352,144,119866,1,0,0:0:0:0:
352,144,119969,1,0,0:0:0:0:
360,268,120176,5,0,0:0:0:0:
316,300,120280,1,0,0:0:0:0:
264,304,120383,1,0,0:0:0:0:
264,200,120590,1,8,0:0:0:0:
240,156,120693,1,0,0:0:0:0:
196,128,120797,1,0,0:0:0:0:
112,256,121004,6,0,P|60:232|24:128,2,157.500006008148,4|4|0,0:0|0:0|0:0,0:0:0:0:
200,196,121831,2,0,B|226:228|223:269|223:269|344:188,1,210.000008010865,0|4,0:0|0:0,0:0:0:0:
256,192,122659,12,0,124314,0:0:0:0:
256,92,124728,5,0,0:0:0:0:
336,284,125142,2,0,P|352:192|320:132,2,157.500006008148,4|0|0,0:0|0:0|0:0,0:0:0:0:
252,220,125969,1,4,0:0:0:0:
164,280,126176,1,0,0:0:0:0:
76,224,126383,1,0,0:0:0:0:
164,168,126590,1,0,0:0:0:0:
232,92,126797,2,0,P|184:60|120:68,1,105.000004005432,4|0,0:0|0:0,0:0:0:0:
408,48,127211,5,0,0:0:0:0:
384,152,127418,1,0,0:0:0:0:
448,236,127625,2,0,B|304:320|304:320|328:272,1,210.000008010865,4|0,0:0|0:0,0:0:0:0:
300,72,128452,6,0,P|244:124|228:212,2,157.500006008148,4|0|0,0:0|0:0|0:0,0:0:0:0:
160,88,129280,1,4,0:0:0:0:
64,128,129487,1,0,0:0:0:0:
112,220,129693,1,0,0:0:0:0:
56,308,129900,1,0,0:0:0:0:
260,328,130107,6,0,L|304:280,2,52.5000020027161,4|0|0,0:0|0:0|0:0,0:0:0:0:
380,196,130521,2,0,L|424:244,2,52.5000020027161,4|0|0,0:0|0:0|0:0,0:0:0:0:
300,124,130934,1,4,0:0:0:0:
104,84,131349,5,0,0:0:0:0:
200,40,131556,1,0,0:0:0:0:
192,144,131762,2,0,P|208:220|264:292,2,157.500006008148,4|0|0,0:0|0:0|0:0,0:0:0:0:
296,168,132590,1,4,0:0:0:0:
376,236,132797,1,0,0:0:0:0:
460,176,133004,1,0,0:0:0:0:
372,120,133211,1,0,0:0:0:0:
288,56,133418,2,0,B|236:64|236:64|188:92,1,105.000004005432,4|0,0:0|0:0,0:0:0:0:
44,132,133832,5,0,0:0:0:0:
84,228,134039,1,0,0:0:0:0:
176,176,134246,2,0,B|208:240|208:240|208:316|208:316|248:388,1,210.000008010865,4|0,0:0|0:0,0:0:0:0:
322,212,135073,6,0,P|339:136|396:84,2,157.500006008148,4|0|0,0:0|0:0|0:0,0:0:0:0:
416,188,135901,1,4,0:0:0:0:
484,108,136108,1,0,0:0:0:0:
348,32,136314,1,0,0:0:0:0:
268,100,136521,1,0,0:0:0:0:
136,100,136728,6,2,L|100:138,2,52.5000020027161,2|2|2,2:2|2:2|2:2,2:2:0:0:
208,176,137142,2,2,L|252:224,2,52.5000020027161,2|2|2,2:2|2:2|2:2,2:2:0:0:
256,192,137555,12,0,138926,0:0:0:0:
432,320,141326,6,0,B|376:308|376:308|324:320,2,105.000004005432
428,112,143040,2,0,L|384:68,2,52.5000020027161,8|0|0,0:0|0:0|0:0,0:0:0:0:
436,216,143383,1,0,0:0:0:0:
332,212,143554,2,0,L|344:156,2,52.5000020027161,8|0|0,0:0|0:0|0:0,0:0:0:0:
264,292,143897,1,0,0:0:0:0:
200,208,144069,2,0,L|164:152,2,52.5000020027161,8|0|0,0:0|0:0|0:0,0:0:0:0:
268,88,144412,5,4,0:0:0:0:
168,52,144754,1,4,0:0:0:0:
136,152,145097,1,4,0:0:0:0:
268,88,145440,1,4,0:0:0:0:
136,260,145783,5,4,0:0:0:0:
220,324,146126,1,4,0:0:0:0:
228,220,146469,1,4,0:0:0:0:
136,260,146812,1,4,0:0:0:0:
288,352,147155,6,0,L|264:300,2,52.5000020027161,8|0|0,0:0|0:0|0:0,0:0:0:0:
384,308,147497,1,0,0:0:0:0:
340,212,147669,2,0,L|316:160,2,52.5000020027161,8|0|0,0:0|0:0|0:0,0:0:0:0:
440,180,148012,1,0,0:0:0:0:
388,88,148183,2,0,L|365:40,2,52.5000020027161,8|0|0,0:0|0:0|0:0,0:0:0:0:
292,112,148526,1,8,0:0:0:0:
256,192,148697,12,0,149897,0:0:0:0:
192,56,150068,6,0,P|128:56|96:88,1,105.000004005432
180,148,150411,1,8,0:0:0:0:
108,224,150583,2,0,P|164:272|196:280,1,105.000004005432
296,276,150925,1,8,0:0:0:0:
344,188,151097,1,0,0:0:0:0:
424,252,151268,1,0,0:0:0:0:
436,148,151440,2,0,P|416:96|372:64,1,105.000004005432,8|0,0:0|0:0,0:0:0:0:
272,56,151783,1,0,0:0:0:0:
104,180,151954,6,0,B|176:180|176:180|212:160,1,105.000004005432,8|0,0:0|0:0,0:0:0:0:
232,264,152297,2,0,B|260:248|260:248|340:248,1,105.000004005432,8|0,0:0|0:0,0:0:0:0:
368,40,152640,6,0,B|368:88|368:88|388:115|388:148,1,105.000004005432,8|0,0:0|0:0,0:0:0:0:
284,120,152983,1,0,0:0:0:0:
180,148,153155,2,0,P|131:129|95:92,1,105.000004005432,8|0,0:0|0:0,0:0:0:0:
84,196,153497,1,0,0:0:0:0:
124,292,153669,1,8,0:0:0:0:
224,260,153840,1,0,0:0:0:0:
316,308,154012,2,0,B|312:232|312:232|296:196,1,105.000004005432,0|8,0:0|0:0,0:0:0:0:
404,224,154355,1,0,0:0:0:0:
368,60,154526,6,0,B|404:48|440:60|440:60|476:40,1,105.000004005432,0|8,0:0|0:0,0:0:0:0:
387,146,154869,2,0,B|356:156|316:144|316:144|288:160,1,105.000004005432,0|8,0:0|0:0,0:0:0:0:
252,60,155211,1,0,0:0:0:0:
160,112,155383,2,0,P|144:196|216:296,2,210.000008010865,8|0|0,0:0|0:0|0:0,0:0:0:0:
364,160,156411,1,0,0:0:0:0:
160,112,156754,6,0,B|144:216|144:216|220:304,2,210.000008010865,8|0|0,0:0|0:0|0:0,0:0:0:0:
364,160,157783,1,0,0:0:0:0:
416,348,158126,6,0,P|364:296|352:264,1,105.000004005432,4|0,0:0|0:0,0:0:0:0:
456,240,158469,1,0,0:0:0:0:
396,152,158641,2,0,P|340:104|328:72,1,105.000004005432,4|0,0:0|0:0,0:0:0:0:
292,176,158984,1,0,0:0:0:0:
224,96,159155,2,0,P|184:96|124:144,1,105.000004005432,4|0,0:0|0:0,0:0:0:0:
204,208,159498,1,0,0:0:0:0:
104,240,159669,2,0,P|100:296|144:344,1,105.000004005432,4|0,0:0|0:0,0:0:0:0:
228,356,160012,1,0,0:0:0:0:
360,268,160184,6,0,L|412:212,2,52.5000020027161
312,188,160526,2,0,L|364:132,2,52.5000020027161
124,72,160868,5,4,0:0:0:0:
164,168,161040,1,0,0:0:0:0:
252,112,161211,1,4,0:0:0:0:
256,216,161383,1,0,0:0:0:0:
352,168,161554,1,4,0:0:0:0:
376,272,161725,1,0,0:0:0:0:
460,208,161897,1,4,0:0:0:0:
464,312,162068,1,0,0:0:0:0:
448,88,162240,6,0,P|396:56|344:56,1,105.000004005432,4|0,0:0|0:0,0:0:0:0:
256,92,162583,1,4,0:0:0:0:
160,52,162754,2,0,P|108:56|65:85,1,105.000004005432,0|4,0:0|0:0,0:0:0:0:
148,152,163097,2,0,P|188:208|228:228,1,105.000004005432,0|4,0:0|0:0,0:0:0:0:
320,256,163440,1,0,0:0:0:0:
432,176,163611,6,0,P|400:128|360:96,1,105.000004005432,4|0,0:0|0:0,0:0:0:0:
272,48,163954,1,4,0:0:0:0:
272,152,164125,1,0,0:0:0:0:
176,112,164297,1,4,0:0:0:0:
188,216,164468,1,0,0:0:0:0:
88,176,164640,1,4,0:0:0:0:
100,280,164811,1,0,0:0:0:0:
224,336,164983,6,0,B|280:328|280:328|320:292,1,105.000004005432,8|4,0:0|0:0,0:0:0:0:
388,220,165325,1,0,0:0:0:0:
296,164,165497,2,0,B|248:128|248:128|240:68,1,105.000004005432,8|4,0:0|0:0,0:0:0:0:
172,180,165840,2,0,B|124:216|124:216|116:276,1,105.000004005432
124,360,166183,1,4,0:0:0:0:
368,304,166354,6,0,P|344:192|376:96,2,210.000008010865
456,208,167383,1,0,0:0:0:0:
144,304,167726,2,0,P|168:192|136:88,2,210.000008010865
60,200,168754,1,0,0:0:0:0:
384,288,169097,6,0,L|400:224,2,52.5000020027161,8|0|0,0:0|0:0|0:0,0:0:0:0:
284,260,169440,1,4,0:0:0:0:
312,156,169612,2,0,L|328:92,2,52.5000020027161,8|0|0,0:0|0:0|0:0,0:0:0:0:
212,128,169955,1,4,0:0:0:0:
184,276,170125,5,8,0:0:0:0:
184,276,170211,1,0,0:0:0:0:
184,276,170297,1,0,0:0:0:0:
96,220,170468,1,8,0:0:0:0:
96,220,170554,1,0,0:0:0:0:
96,220,170640,1,0,0:0:0:0:
68,320,170811,1,8,0:0:0:0:
68,320,170897,1,0,0:0:0:0:
68,320,170983,1,0,0:0:0:0:
256,176,171154,6,0,L|256:240,8,52.5000020027161,8|0|0|0|0|0|0|0|4,0:0|0:0|0:0|0:0|0:0|0:0|0:0|0:0|0:0,0:0:0:0:
