osu file format v14

[General]
AudioFilename: audio.mp3
AudioLeadIn: 0
PreviewTime: 222836
Countdown: 0
SampleSet: Normal
StackLeniency: 0.7
Mode: 1
LetterboxInBreaks: 0
WidescreenStoryboard: 0

[Editor]
Bookmarks: 1376,1820,16042,30264,44486,58708,72931,87153,100931,101375,114708,115597,129819,144042,156487,158772,167915,177058,187724,194835,209057,222835,223280,236613,237502,251613
DistanceSpacing: 1
BeatDivisor: 4
GridSize: 32
TimelineZoom: 1.8

[Metadata]
Title:Accept your fate now
TitleUnicode:Accept your fate now
Artist:Draw the Emotional & Foreground Eclipse
ArtistUnicode:Draw the Emotional & Foreground Eclipse
Creator:eiri-
Version:Kantan
Source:東方妖々夢 ~ Perfect Cherry Blossom.
Tags:Ayyri 東方Project Touhou ZUN Team Shanghai Alice PCB TH07 TH 07 Youyoumu Ghostly Dream 広有射怪鳥事 ~ Till When? Hiroari Shoots a Strange Bird 魂魄 妖夢 Youmu Konpaku ゆよゆっぺ Yuyoyuppe Ryo Seated with Liquor Comiket 83 C83 DtE FE YPFE-0001
BeatmapID:1626519
BeatmapSetID:773793

[Difficulty]
HPDrainRate:7
CircleSize:2
OverallDifficulty:3
ApproachRate:10
SliderMultiplier:1.4
SliderTickRate:1

[Events]
//Background and Video events
0,0,"Youmu 561.png",0,45
//Break Periods
//Storyboard Layer 0 (Background)
//Storyboard Layer 1 (Fail)
//Storyboard Layer 2 (Pass)
//Storyboard Layer 3 (Foreground)
//Storyboard Sound Samples

[TimingPoints]
1377,444.444444444444,4,1,0,25,1,8
1821,444.444444444444,4,1,0,25,1,0
1821,-100,4,1,0,25,0,0
16043,-100,4,1,0,50,0,0
29376,-100,4,1,0,25,0,0
30265,-100,4,1,0,75,0,0
87154,-100,4,1,0,75,0,1
100932,-100,4,1,0,75,0,0
101376,-100,4,1,0,75,0,1
114709,-100,4,1,0,75,0,0
156488,285.714285714286,4,1,0,75,1,8
156488,-156.25,4,1,0,75,0,0
177059,444.444444444444,4,1,0,75,1,0
180170,-100,4,1,0,25,0,0
194836,-100,4,1,0,50,0,0
207281,-100,4,1,0,75,0,0
209058,-100,4,1,0,75,0,1
222836,-100,4,1,0,75,0,0
223281,-100,4,1,0,75,0,1
236614,-100,4,1,0,75,0,0

[Colours]
Combo1 : 192,192,192
Combo2 : 128,128,255
Combo3 : 128,0,64
Combo4 : 0,128,128

[HitObjects]
256,192,1376,5,0,0:0:0:0:
256,192,1821,1,8,0:0:0:0:
256,192,2709,1,8,0:0:0:0:
256,192,3154,1,8,0:0:0:0:
256,192,3598,1,0,0:0:0:0:
256,192,4487,1,0,0:0:0:0:
256,192,5376,1,8,0:0:0:0:
256,192,6265,1,0,0:0:0:0:
256,192,7154,1,0,0:0:0:0:
256,192,8932,1,0,0:0:0:0:
256,192,9820,1,8,0:0:0:0:
256,192,10709,1,0,0:0:0:0:
256,192,11598,1,8,0:0:0:0:
256,192,12487,1,0,0:0:0:0:
256,192,14265,1,8,0:0:0:0:
256,192,15154,1,8,0:0:0:0:
256,192,15598,1,8,0:0:0:0:
256,192,16043,1,0,0:0:0:0:
256,192,17820,1,8,0:0:0:0:
256,192,18709,1,0,0:0:0:0:
256,192,19598,1,8,0:0:0:0:
256,192,20487,1,0,0:0:0:0:
256,192,20932,1,8,0:0:0:0:
256,192,21376,1,0,0:0:0:0:
256,192,22265,1,0,0:0:0:0:
256,192,23154,1,0,0:0:0:0:
256,192,24932,1,0,0:0:0:0:
256,192,25820,1,8,0:0:0:0:
256,192,26709,1,0,0:0:0:0:
256,192,27598,1,0,0:0:0:0:
256,192,28487,1,0,0:0:0:0:
256,192,29376,1,8,0:0:0:0:
256,192,30265,1,12,0:0:0:0:
256,192,30709,1,0,0:0:0:0:
256,192,31154,1,8,0:0:0:0:
256,192,32932,1,8,0:0:0:0:
256,192,33376,1,0,0:0:0:0:
256,192,33820,1,12,0:0:0:0:
256,192,34709,1,8,0:0:0:0:
256,192,35598,1,8,0:0:0:0:
256,192,36487,1,8,0:0:0:0:
256,192,36932,1,0,0:0:0:0:
256,192,37376,1,12,0:0:0:0:
256,192,38265,1,8,0:0:0:0:
256,192,40043,1,8,0:0:0:0:
256,192,40487,1,0,0:0:0:0:
256,192,40932,1,12,0:0:0:0:
256,192,41820,1,8,0:0:0:0:
256,192,42709,1,8,0:0:0:0:
256,192,43154,1,0,0:0:0:0:
256,192,43598,1,8,0:0:0:0:
256,192,44487,1,4,0:0:0:0:
256,192,45820,1,8,0:0:0:0:
256,192,46265,1,0,0:0:0:0:
256,192,47154,1,8,0:0:0:0:
256,192,47598,1,8,0:0:0:0:
256,192,48043,1,4,0:0:0:0:
256,192,48487,1,8,0:0:0:0:
256,192,49376,1,8,0:0:0:0:
256,192,49820,1,0,0:0:0:0:
256,192,50265,1,0,0:0:0:0:
256,192,50709,1,8,0:0:0:0:
256,192,51598,1,12,0:0:0:0:
256,192,52932,1,8,0:0:0:0:
256,192,53376,1,0,0:0:0:0:
256,192,54265,1,8,0:0:0:0:
256,192,54709,1,8,0:0:0:0:
256,192,55154,1,4,0:0:0:0:
256,192,55598,1,8,0:0:0:0:
256,192,57376,1,8,0:0:0:0:
256,192,57820,1,0,0:0:0:0:
256,192,58265,1,0,0:0:0:0:
256,192,58709,1,12,0:0:0:0:
256,192,59598,1,8,0:0:0:0:
256,192,60043,1,0,0:0:0:0:
256,192,60487,1,8,0:0:0:0:
256,192,61376,1,8,0:0:0:0:
256,192,61820,1,8,0:0:0:0:
256,192,62265,1,4,0:0:0:0:
256,192,63154,1,8,0:0:0:0:
256,192,64043,1,0,0:0:0:0:
256,192,64932,1,8,0:0:0:0:
256,192,65820,1,4,0:0:0:0:
256,192,66265,1,8,0:0:0:0:
256,192,66709,1,8,0:0:0:0:
256,192,68487,1,8,0:0:0:0:
256,192,68932,1,8,0:0:0:0:
256,192,69376,1,4,0:0:0:0:
256,192,70265,1,8,0:0:0:0:
256,192,71154,1,0,0:0:0:0:
256,192,71598,1,0,0:0:0:0:
256,192,72043,1,8,0:0:0:0:
256,192,72932,1,4,0:0:0:0:
256,192,73376,1,8,0:0:0:0:
256,192,74709,1,0,0:0:0:0:
256,192,75154,1,8,0:0:0:0:
256,192,76043,1,8,0:0:0:0:
256,192,76487,1,4,0:0:0:0:
256,192,76932,1,8,0:0:0:0:
256,192,77820,1,8,0:0:0:0:
256,192,78265,1,4,0:0:0:0:
256,192,79598,1,8,0:0:0:0:
256,192,80043,1,12,0:0:0:0:
256,192,80487,1,0,0:0:0:0:
256,192,81820,1,8,0:0:0:0:
256,192,82265,1,0,0:0:0:0:
256,192,82709,1,8,0:0:0:0:
256,192,83598,1,12,0:0:0:0:
256,192,85376,1,8,0:0:0:0:
256,192,85820,1,8,0:0:0:0:
256,192,86265,1,4,0:0:0:0:
256,192,86709,1,12,0:0:0:0:
256,192,87154,1,4,0:0:0:0:
256,192,88932,1,8,0:0:0:0:
256,192,89820,1,8,0:0:0:0:
256,192,90265,1,0,0:0:0:0:
256,192,90709,1,12,0:0:0:0:
256,192,91598,1,0,0:0:0:0:
256,192,92043,1,8,0:0:0:0:
256,192,92487,1,0,0:0:0:0:
256,192,93376,1,8,0:0:0:0:
256,192,94265,1,4,0:0:0:0:
256,192,95154,1,8,0:0:0:0:
256,192,96043,1,4,0:0:0:0:
256,192,96932,1,8,0:0:0:0:
256,192,97820,1,4,0:0:0:0:
256,192,99598,1,8,0:0:0:0:
256,192,100487,1,8,0:0:0:0:
256,192,100932,1,0,0:0:0:0:
256,192,101376,1,4,0:0:0:0:
256,192,102265,1,8,0:0:0:0:
256,192,102709,1,0,0:0:0:0:
256,192,103154,1,12,0:0:0:0:
256,192,104043,1,8,0:0:0:0:
256,192,104487,1,0,0:0:0:0:
256,192,104932,1,12,0:0:0:0:
256,192,106265,1,8,0:0:0:0:
256,192,106709,1,4,0:0:0:0:
256,192,107598,1,0,0:0:0:0:
256,192,108043,1,8,0:0:0:0:
256,192,108487,1,4,0:0:0:0:
256,192,109376,1,8,0:0:0:0:
256,192,110265,1,4,0:0:0:0:
256,192,111154,1,8,0:0:0:0:
256,192,111598,1,0,0:0:0:0:
256,192,112043,1,12,0:0:0:0:
256,192,113376,1,8,0:0:0:0:
256,192,113820,1,0,0:0:0:0:
256,192,114709,1,8,0:0:0:0:
256,192,115598,1,12,0:0:0:0:
256,192,116043,1,0,0:0:0:0:
256,192,116487,1,8,0:0:0:0:
256,192,117376,1,8,0:0:0:0:
256,192,118265,1,8,0:0:0:0:
256,192,118709,1,0,0:0:0:0:
256,192,119154,1,12,0:0:0:0:
256,192,120932,1,8,0:0:0:0:
256,192,121820,1,8,0:0:0:0:
256,192,122265,1,0,0:0:0:0:
256,192,122709,1,12,0:0:0:0:
256,192,123154,1,0,0:0:0:0:
256,192,123598,1,8,0:0:0:0:
256,192,124487,1,8,0:0:0:0:
256,192,124932,1,0,0:0:0:0:
256,192,125376,1,8,0:0:0:0:
256,192,126265,1,0,0:0:0:0:
256,192,126709,1,8,0:0:0:0:
256,192,128043,1,8,0:0:0:0:
256,192,128932,1,0,0:0:0:0:
256,192,129376,1,8,0:0:0:0:
256,192,129820,1,4,0:0:0:0:
256,192,131154,1,8,0:0:0:0:
256,192,131598,1,0,0:0:0:0:
256,192,132487,1,8,0:0:0:0:
256,192,132932,1,8,0:0:0:0:
256,192,133376,1,4,0:0:0:0:
256,192,133820,1,8,0:0:0:0:
256,192,134709,1,8,0:0:0:0:
256,192,135154,1,0,0:0:0:0:
256,192,135598,1,0,0:0:0:0:
256,192,136043,1,8,0:0:0:0:
256,192,136932,1,12,0:0:0:0:
256,192,138265,1,8,0:0:0:0:
256,192,138709,1,0,0:0:0:0:
256,192,139598,1,8,0:0:0:0:
256,192,140043,1,8,0:0:0:0:
256,192,140487,1,4,0:0:0:0:
256,192,140932,1,8,0:0:0:0:
256,192,141820,1,8,0:0:0:0:
256,192,142709,1,8,0:0:0:0:
256,192,143154,1,8,0:0:0:0:
256,192,143598,1,0,0:0:0:0:
256,192,144043,1,12,0:0:0:0:
256,192,145376,1,8,0:0:0:0:
256,192,147154,1,0,0:0:0:0:
256,192,147598,1,12,0:0:0:0:
256,192,148043,1,8,0:0:0:0:
256,192,148932,1,8,0:0:0:0:
256,192,149376,1,12,0:0:0:0:
256,192,149820,1,8,0:0:0:0:
256,192,150265,1,0,0:0:0:0:
256,192,151154,1,12,0:0:0:0:
256,192,151598,1,8,0:0:0:0:
256,192,152043,1,8,0:0:0:0:
256,192,152487,1,8,0:0:0:0:
256,192,152932,1,12,0:0:0:0:
256,192,153820,1,12,0:0:0:0:
256,192,154709,2,0,L|320:192,14,35
256,192,156487,1,4,0:0:0:0:
256,192,158202,1,8,0:0:0:0:
256,192,158773,1,12,0:0:0:0:
256,192,159916,1,8,0:0:0:0:
256,192,160202,1,0,0:0:0:0:
256,192,160488,1,8,0:0:0:0:
256,192,161059,1,12,0:0:0:0:
256,192,162202,1,8,0:0:0:0:
256,192,162773,1,8,0:0:0:0:
256,192,163059,1,0,0:0:0:0:
256,192,163345,1,12,0:0:0:0:
256,192,163916,1,0,0:0:0:0:
256,192,164488,1,8,0:0:0:0:
256,192,165630,1,12,0:0:0:0:
256,192,165916,1,0,0:0:0:0:
256,192,166202,1,0,0:0:0:0:
256,192,166773,1,8,0:0:0:0:
256,192,167345,1,0,0:0:0:0:
256,192,167630,1,8,0:0:0:0:
256,192,167916,1,4,0:0:0:0:
256,192,169059,1,8,0:0:0:0:
256,192,169345,1,0,0:0:0:0:
256,192,169630,1,8,0:0:0:0:
256,192,170202,1,12,0:0:0:0:
256,192,171345,1,8,0:0:0:0:
256,192,171916,1,8,0:0:0:0:
256,192,172202,1,0,0:0:0:0:
256,192,172488,1,12,0:0:0:0:
256,192,173630,1,8,0:0:0:0:
256,192,173916,1,0,0:0:0:0:
256,192,174202,1,8,0:0:0:0:
256,192,174773,1,12,0:0:0:0:
256,192,175059,1,8,0:0:0:0:
256,192,175345,1,8,0:0:0:0:
256,192,175916,1,8,0:0:0:0:
256,192,177059,1,4,0:0:0:0:
256,192,180170,1,0,0:0:0:0:
256,192,180614,1,8,0:0:0:0:
256,192,181503,1,8,0:0:0:0:
256,192,181947,1,8,0:0:0:0:
256,192,182392,1,0,0:0:0:0:
256,192,183281,1,0,0:0:0:0:
256,192,184170,1,8,0:0:0:0:
256,192,185059,1,0,0:0:0:0:
256,192,185503,1,8,0:0:0:0:
256,192,185947,1,0,0:0:0:0:
256,192,187725,1,0,0:0:0:0:
256,192,188614,1,8,0:0:0:0:
256,192,189503,1,0,0:0:0:0:
256,192,190392,1,8,0:0:0:0:
256,192,191281,1,0,0:0:0:0:
256,192,192170,1,0,0:0:0:0:
256,192,193058,1,8,0:0:0:0:
256,192,193947,1,8,0:0:0:0:
256,192,194392,1,8,0:0:0:0:
256,192,194836,1,0,0:0:0:0:
256,192,196614,1,8,0:0:0:0:
256,192,197503,1,0,0:0:0:0:
256,192,198392,1,8,0:0:0:0:
256,192,199281,1,0,0:0:0:0:
256,192,199725,1,8,0:0:0:0:
256,192,200170,1,0,0:0:0:0:
256,192,201058,1,0,0:0:0:0:
256,192,201947,1,0,0:0:0:0:
256,192,203725,1,0,0:0:0:0:
256,192,204614,1,8,0:0:0:0:
256,192,205503,1,0,0:0:0:0:
256,192,206392,1,0,0:0:0:0:
256,192,207281,1,8,0:0:0:0:
256,192,208614,1,8,0:0:0:0:
256,192,209058,1,4,0:0:0:0:
256,192,209947,1,4,0:0:0:0:
256,192,210836,1,8,0:0:0:0:
256,192,212170,1,0,0:0:0:0:
256,192,212614,1,4,0:0:0:0:
256,192,213503,1,4,0:0:0:0:
256,192,214392,1,8,0:0:0:0:
256,192,214836,1,0,0:0:0:0:
256,192,215281,1,8,0:0:0:0:
256,192,216170,1,4,0:0:0:0:
256,192,217947,1,4,0:0:0:0:
256,192,218836,1,8,0:0:0:0:
256,192,219725,1,8,0:0:0:0:
256,192,220614,1,0,0:0:0:0:
256,192,221503,1,8,0:0:0:0:
256,192,222392,1,0,0:0:0:0:
256,192,222836,1,8,0:0:0:0:
256,192,223281,1,4,0:0:0:0:
256,192,224170,1,8,0:0:0:0:
256,192,224614,1,0,0:0:0:0:
256,192,225058,1,12,0:0:0:0:
256,192,225947,1,8,0:0:0:0:
256,192,226392,1,0,0:0:0:0:
256,192,226836,1,12,0:0:0:0:
256,192,227725,1,0,0:0:0:0:
256,192,228170,1,8,0:0:0:0:
256,192,228614,1,12,0:0:0:0:
256,192,229503,1,0,0:0:0:0:
256,192,229947,1,8,0:0:0:0:
256,192,230392,1,12,0:0:0:0:
256,192,232170,1,12,0:0:0:0:
256,192,233058,1,8,0:0:0:0:
256,192,233503,1,0,0:0:0:0:
256,192,233947,1,12,0:0:0:0:
256,192,235725,1,0,0:0:0:0:
256,192,236170,1,0,0:0:0:0:
256,192,236614,1,8,0:0:0:0:
256,192,237503,1,12,0:0:0:0:
256,192,237947,1,0,0:0:0:0:
256,192,238392,1,8,0:0:0:0:
256,192,239281,1,8,0:0:0:0:
256,192,240170,1,8,0:0:0:0:
256,192,240614,1,0,0:0:0:0:
256,192,241058,1,12,0:0:0:0:
256,192,241947,1,8,0:0:0:0:
256,192,242836,1,8,0:0:0:0:
256,192,243725,1,8,0:0:0:0:
256,192,244170,1,0,0:0:0:0:
256,192,244614,1,12,0:0:0:0:
256,192,246392,1,8,0:0:0:0:
256,192,247281,1,8,0:0:0:0:
256,192,248170,1,12,0:0:0:0:
256,192,248614,1,0,0:0:0:0:
256,192,249058,1,8,0:0:0:0:
256,192,249947,1,8,0:0:0:0:
256,192,250392,1,0,0:0:0:0:
256,192,250836,2,0,L|320:192,7,35
