osu file format v14

[General]
AudioFilename: audio.mp3
AudioLeadIn: 0
PreviewTime: 222836
Countdown: 0
SampleSet: Normal
StackLeniency: 0.7
Mode: 1
LetterboxInBreaks: 0
WidescreenStoryboard: 0

[Editor]
Bookmarks: 1376,1820,16042,30264,44486,58708,72931,87153,100931,101375,114708,115598,129819,144042,156487,158772,167915,177058,187724,194835,209057,222835,223280,236613,237502,251613
DistanceSpacing: 1
BeatDivisor: 4
GridSize: 32
TimelineZoom: 2.899999

[Metadata]
Title:Accept your fate now
TitleUnicode:Accept your fate now
Artist:Draw the Emotional & Foreground Eclipse
ArtistUnicode:Draw the Emotional & Foreground Eclipse
Creator:eiri-
Version:Muzukashii
Source:東方妖々夢 ~ Perfect Cherry Blossom.
Tags:Ayyri 東方Project Touhou ZUN Team Shanghai Alice PCB TH07 TH 07 Youyoumu Ghostly Dream 広有射怪鳥事 ~ Till When? Hiroari Shoots a Strange Bird 魂魄 妖夢 Youmu Konpaku ゆよゆっぺ Yuyoyuppe Ryo Seated with Liquor Comiket 83 C83 DtE FE YPFE-0001
BeatmapID:1626520
BeatmapSetID:773793

[Difficulty]
HPDrainRate:5
CircleSize:2
OverallDifficulty:5
ApproachRate:10
SliderMultiplier:1.4
SliderTickRate:1

[Events]
//Background and Video events
0,0,"Youmu 561.png",0,45
//Break Periods
//Storyboard Layer 0 (Background)
//Storyboard Layer 1 (Fail)
//Storyboard Layer 2 (Pass)
//Storyboard Layer 3 (Foreground)
//Storyboard Sound Samples

[TimingPoints]
1377,444.444444444444,4,1,0,25,1,8
1377,-125,4,1,0,25,0,0
1821,444.444444444444,4,1,0,25,1,0
1821,-125,4,1,0,25,0,0
8820,-117.647058823529,4,1,0,25,0,0
15932,-111.111111111111,4,1,0,50,0,0
23043,-105.263157894737,4,1,0,50,0,0
29376,-103.092783505155,4,1,0,25,0,0
30154,-100,4,1,0,75,0,0
87154,-100,4,1,0,75,0,1
100932,-100,4,1,0,75,0,0
101376,-100,4,1,0,75,0,1
114709,-100,4,1,0,75,0,0
156488,285.714285714286,4,1,0,75,1,8
156488,-156.25,4,1,0,75,0,0
157630,-111.111111111111,4,1,0,75,0,0
157916,-107.52688172043,4,1,0,75,0,0
158202,-103.092783505155,4,1,0,75,0,0
158702,-100,4,1,0,75,0,0
176988,-61.7283950617284,4,1,0,75,0,0
177059,444.444444444444,4,1,0,75,1,0
177059,-61.7283950617284,4,1,0,75,0,0
180170,-125,4,1,0,25,0,0
187614,-117.647058823529,4,1,0,25,0,0
194725,-111.111111111111,4,1,0,50,0,0
201836,-105.263157894737,4,1,0,50,0,0
206170,-104.166666666667,4,1,0,50,0,0
206392,-103.092783505155,4,1,0,50,0,0
206725,-102.040816326531,4,1,0,50,0,0
207058,-101.010101010101,4,1,0,50,0,0
207281,-100,4,1,0,75,0,0
209058,-100,4,1,0,75,0,1
222836,-100,4,1,0,75,0,0
223281,-100,4,1,0,75,0,1
236614,-100,4,1,0,75,0,0

[Colours]
Combo1 : 192,192,192
Combo2 : 128,128,255
Combo3 : 128,0,64
Combo4 : 0,128,128

[HitObjects]
256,192,1377,5,0,0:0:0:0:
256,192,1820,1,8,0:0:0:0:
256,192,2265,1,0,0:0:0:0:
256,192,2709,1,8,0:0:0:0:
256,192,2932,1,8,0:0:0:0:
256,192,3154,1,0,0:0:0:0:
256,192,3598,1,0,0:0:0:0:
256,192,4487,1,8,0:0:0:0:
256,192,4932,1,0,0:0:0:0:
256,192,5376,1,8,0:0:0:0:
256,192,6265,1,8,0:0:0:0:
256,192,6487,1,8,0:0:0:0:
256,192,6709,1,0,0:0:0:0:
256,192,7154,1,8,0:0:0:0:
256,192,8043,1,8,0:0:0:0:
256,192,8487,1,0,0:0:0:0:
256,192,8932,1,8,0:0:0:0:
256,192,9265,1,0,0:0:0:0:
256,192,9598,1,0,0:0:0:0:
256,192,9820,1,8,0:0:0:0:
256,192,10709,1,8,0:0:0:0:
256,192,11043,1,8,0:0:0:0:
256,192,11376,1,0,0:0:0:0:
256,192,11598,1,8,0:0:0:0:
256,192,12487,1,0,0:0:0:0:
256,192,12820,1,8,0:0:0:0:
256,192,13154,1,8,0:0:0:0:
256,192,13376,1,0,0:0:0:0:
256,192,13709,1,8,0:0:0:0:
256,192,14043,1,0,0:0:0:0:
256,192,14265,1,8,0:0:0:0:
256,192,14820,1,0,0:0:0:0:
256,192,15154,1,8,0:0:0:0:
256,192,15598,1,0,0:0:0:0:
256,192,16043,1,8,0:0:0:0:
256,192,16487,1,0,0:0:0:0:
256,192,16709,1,0,0:0:0:0:
256,192,16932,1,8,0:0:0:0:
256,192,17376,1,0,0:0:0:0:
256,192,17598,1,8,0:0:0:0:
256,192,17820,1,0,0:0:0:0:
256,192,18154,1,8,0:0:0:0:
256,192,18709,1,0,0:0:0:0:
256,192,19154,1,8,0:0:0:0:
256,192,19598,1,8,0:0:0:0:
256,192,20043,1,0,0:0:0:0:
256,192,20487,1,8,0:0:0:0:
256,192,21376,1,8,0:0:0:0:
256,192,21709,1,0,0:0:0:0:
256,192,22265,1,8,0:0:0:0:
256,192,22709,1,0,0:0:0:0:
256,192,23154,1,8,0:0:0:0:
256,192,23487,1,8,0:0:0:0:
256,192,23820,1,0,0:0:0:0:
256,192,24043,1,8,0:0:0:0:
256,192,24932,1,8,0:0:0:0:
256,192,25265,1,8,0:0:0:0:
256,192,25598,1,0,0:0:0:0:
256,192,25820,1,8,0:0:0:0:
256,192,26709,1,0,0:0:0:0:
256,192,27043,1,8,0:0:0:0:
256,192,27376,1,8,0:0:0:0:
256,192,27598,1,0,0:0:0:0:
256,192,27932,1,8,0:0:0:0:
256,192,28265,1,0,0:0:0:0:
256,192,28487,1,8,0:0:0:0:
256,192,29376,1,8,0:0:0:0:
256,192,30265,1,12,0:0:0:0:
256,192,30487,1,8,0:0:0:0:
256,192,30709,1,0,0:0:0:0:
256,192,31154,1,8,0:0:0:0:
256,192,31376,1,0,0:0:0:0:
256,192,31487,1,0,0:0:0:0:
256,192,31820,1,0,0:0:0:0:
256,192,32043,1,8,0:0:0:0:
256,192,32265,1,0,0:0:0:0:
256,192,32487,1,0,0:0:0:0:
256,192,32932,1,8,0:0:0:0:
256,192,33265,1,0,0:0:0:0:
256,192,33487,1,0,0:0:0:0:
256,192,33598,1,0,0:0:0:0:
256,192,33820,1,12,0:0:0:0:
256,192,34265,1,0,0:0:0:0:
256,192,34709,1,8,0:0:0:0:
256,192,35043,1,0,0:0:0:0:
256,192,35376,1,0,0:0:0:0:
256,192,35598,1,8,0:0:0:0:
256,192,35820,1,0,0:0:0:0:
256,192,36043,1,0,0:0:0:0:
256,192,36487,1,8,0:0:0:0:
256,192,36820,1,0,0:0:0:0:
256,192,37154,1,0,0:0:0:0:
256,192,37376,1,12,0:0:0:0:
256,192,37820,1,0,0:0:0:0:
256,192,37932,1,0,0:0:0:0:
256,192,38265,1,8,0:0:0:0:
256,192,38487,1,0,0:0:0:0:
256,192,38598,1,0,0:0:0:0:
256,192,38932,1,0,0:0:0:0:
256,192,39154,1,8,0:0:0:0:
256,192,39376,1,0,0:0:0:0:
256,192,39598,1,0,0:0:0:0:
256,192,40043,1,8,0:0:0:0:
256,192,40487,1,0,0:0:0:0:
256,192,40932,1,12,0:0:0:0:
256,192,41154,1,8,0:0:0:0:
256,192,41376,1,0,0:0:0:0:
256,192,41820,1,8,0:0:0:0:
256,192,42043,1,0,0:0:0:0:
256,192,42154,1,0,0:0:0:0:
256,192,42487,1,0,0:0:0:0:
256,192,42709,1,8,0:0:0:0:
256,192,42932,1,8,0:0:0:0:
256,192,43154,1,0,0:0:0:0:
256,192,43265,1,0,0:0:0:0:
256,192,43376,1,0,0:0:0:0:
256,192,43598,1,8,0:0:0:0:
256,192,44487,1,12,0:0:0:0:
256,192,44709,1,0,0:0:0:0:
256,192,44932,1,8,0:0:0:0:
256,192,45265,1,0,0:0:0:0:
256,192,45487,1,0,0:0:0:0:
256,192,45820,1,8,0:0:0:0:
256,192,46043,1,0,0:0:0:0:
256,192,46265,1,0,0:0:0:0:
256,192,46709,1,8,0:0:0:0:
256,192,46932,1,0,0:0:0:0:
256,192,47154,1,0,0:0:0:0:
256,192,47265,1,0,0:0:0:0:
256,192,47376,1,0,0:0:0:0:
256,192,47598,1,8,0:0:0:0:
256,192,48043,1,12,0:0:0:0:
256,192,48265,1,0,0:0:0:0:
256,192,48487,1,8,0:0:0:0:
256,192,48820,1,0,0:0:0:0:
256,192,49043,1,0,0:0:0:0:
256,192,49376,1,8,0:0:0:0:
256,192,49598,1,0,0:0:0:0:
256,192,49820,1,0,0:0:0:0:
256,192,50709,1,8,0:0:0:0:
256,192,50820,1,8,0:0:0:0:
256,192,51043,1,0,0:0:0:0:
256,192,51376,1,8,0:0:0:0:
256,192,51598,1,12,0:0:0:0:
256,192,51820,1,0,0:0:0:0:
256,192,52043,1,8,0:0:0:0:
256,192,52376,1,0,0:0:0:0:
256,192,52598,1,0,0:0:0:0:
256,192,52932,1,8,0:0:0:0:
256,192,53154,1,0,0:0:0:0:
256,192,53376,1,0,0:0:0:0:
256,192,53820,1,8,0:0:0:0:
256,192,54043,1,0,0:0:0:0:
256,192,54265,1,0,0:0:0:0:
256,192,54376,1,0,0:0:0:0:
256,192,54487,1,0,0:0:0:0:
256,192,54709,1,8,0:0:0:0:
256,192,55154,1,12,0:0:0:0:
256,192,55376,1,0,0:0:0:0:
256,192,55598,1,8,0:0:0:0:
256,192,55932,1,0,0:0:0:0:
256,192,56154,1,0,0:0:0:0:
256,192,56487,1,8,0:0:0:0:
256,192,56709,1,0,0:0:0:0:
256,192,56932,1,0,0:0:0:0:
256,192,57820,1,8,0:0:0:0:
256,192,57932,1,8,0:0:0:0:
256,192,58154,1,0,0:0:0:0:
256,192,58487,1,8,0:0:0:0:
256,192,58709,1,12,0:0:0:0:
256,192,58932,1,0,0:0:0:0:
256,192,59154,1,0,0:0:0:0:
256,192,59487,1,8,0:0:0:0:
256,192,59709,1,8,0:0:0:0:
256,192,59932,1,0,0:0:0:0:
256,192,60043,1,0,0:0:0:0:
256,192,60265,1,0,0:0:0:0:
256,192,60487,1,8,0:0:0:0:
256,192,61376,1,8,0:0:0:0:
256,192,61487,1,8,0:0:0:0:
256,192,61598,1,8,0:0:0:0:
256,192,61820,1,8,0:0:0:0:
256,192,62043,1,0,0:0:0:0:
256,192,62265,1,12,0:0:0:0:
256,192,62709,1,0,0:0:0:0:
256,192,63043,1,8,0:0:0:0:
256,192,63265,1,8,0:0:0:0:
256,192,63487,1,0,0:0:0:0:
256,192,63598,1,0,0:0:0:0:
256,192,63820,1,0,0:0:0:0:
256,192,64043,1,8,0:0:0:0:
256,192,64376,1,0,0:0:0:0:
256,192,64598,1,0,0:0:0:0:
256,192,64932,1,8,0:0:0:0:
256,192,65265,1,0,0:0:0:0:
256,192,65487,1,8,0:0:0:0:
256,192,65598,1,8,0:0:0:0:
256,192,65820,1,12,0:0:0:0:
256,192,66265,1,0,0:0:0:0:
256,192,66598,1,8,0:0:0:0:
256,192,66820,1,8,0:0:0:0:
256,192,67043,1,0,0:0:0:0:
256,192,67154,1,0,0:0:0:0:
256,192,67376,1,0,0:0:0:0:
256,192,67598,1,8,0:0:0:0:
256,192,67932,1,0,0:0:0:0:
256,192,68154,1,0,0:0:0:0:
256,192,68487,1,8,0:0:0:0:
256,192,68598,1,8,0:0:0:0:
256,192,68709,1,8,0:0:0:0:
256,192,68932,1,8,0:0:0:0:
256,192,69154,1,0,0:0:0:0:
256,192,69376,1,12,0:0:0:0:
256,192,69820,1,0,0:0:0:0:
256,192,70154,1,8,0:0:0:0:
256,192,70376,1,8,0:0:0:0:
256,192,70598,1,0,0:0:0:0:
256,192,70709,1,0,0:0:0:0:
256,192,70932,1,0,0:0:0:0:
256,192,71154,1,8,0:0:0:0:
256,192,72043,1,8,0:0:0:0:
256,192,72154,1,8,0:0:0:0:
256,192,72376,1,8,0:0:0:0:
256,192,72709,1,0,0:0:0:0:
256,192,72932,1,12,0:0:0:0:
256,192,73154,1,0,0:0:0:0:
256,192,73376,1,0,0:0:0:0:
256,192,73709,1,8,0:0:0:0:
256,192,73932,1,8,0:0:0:0:
256,192,74265,1,0,0:0:0:0:
256,192,74709,1,8,0:0:0:0:
256,192,74932,1,0,0:0:0:0:
256,192,75154,1,8,0:0:0:0:
256,192,75487,1,0,0:0:0:0:
256,192,75709,1,0,0:0:0:0:
256,192,76043,1,8,0:0:0:0:
256,192,76265,1,0,0:0:0:0:
256,192,76487,1,12,0:0:0:0:
256,192,76709,1,0,0:0:0:0:
256,192,76932,1,0,0:0:0:0:
256,192,77265,1,8,0:0:0:0:
256,192,77487,1,8,0:0:0:0:
256,192,77820,1,0,0:0:0:0:
256,192,78265,1,12,0:0:0:0:
256,192,78932,1,0,0:0:0:0:
256,192,79265,1,0,0:0:0:0:
256,192,79598,1,8,0:0:0:0:
256,192,79709,1,8,0:0:0:0:
256,192,79820,1,8,0:0:0:0:
256,192,80043,1,12,0:0:0:0:
256,192,80265,1,0,0:0:0:0:
256,192,80487,1,0,0:0:0:0:
256,192,80820,1,8,0:0:0:0:
256,192,81043,1,8,0:0:0:0:
256,192,81376,1,0,0:0:0:0:
256,192,81820,1,8,0:0:0:0:
256,192,82043,1,0,0:0:0:0:
256,192,82265,1,8,0:0:0:0:
256,192,83154,1,8,0:0:0:0:
256,192,83376,1,0,0:0:0:0:
256,192,83598,1,8,0:0:0:0:
256,192,83709,1,8,0:0:0:0:
256,192,83932,1,8,0:0:0:0:
256,192,84265,1,8,0:0:0:0:
256,192,84598,1,8,0:0:0:0:
256,192,84932,1,8,0:0:0:0:
256,192,85043,1,8,0:0:0:0:
256,192,85265,1,8,0:0:0:0:
256,192,85598,1,8,0:0:0:0:
256,192,85932,1,8,0:0:0:0:
256,192,86265,1,4,0:0:0:0:
256,192,86709,1,12,0:0:0:0:
256,192,87154,1,4,0:0:0:0:
256,192,87598,1,8,0:0:0:0:
256,192,87820,1,0,0:0:0:0:
256,192,88043,1,8,0:0:0:0:
256,192,88376,1,0,0:0:0:0:
256,192,88487,1,0,0:0:0:0:
256,192,88709,1,0,0:0:0:0:
256,192,88932,1,12,0:0:0:0:
256,192,89265,1,8,0:0:0:0:
256,192,89598,1,0,0:0:0:0:
256,192,89709,1,0,0:0:0:0:
256,192,89820,1,0,0:0:0:0:
256,192,90043,1,0,0:0:0:0:
256,192,90265,1,8,0:0:0:0:
256,192,90709,1,12,0:0:0:0:
256,192,91154,1,0,0:0:0:0:
256,192,91376,1,0,0:0:0:0:
256,192,91598,1,8,0:0:0:0:
256,192,91820,1,0,0:0:0:0:
256,192,92043,1,8,0:0:0:0:
256,192,92265,1,0,0:0:0:0:
256,192,92376,1,0,0:0:0:0:
256,192,92487,1,0,0:0:0:0:
256,192,92820,1,8,0:0:0:0:
256,192,93154,1,0,0:0:0:0:
256,192,93376,1,8,0:0:0:0:
256,192,94265,1,12,0:0:0:0:
256,192,94598,1,0,0:0:0:0:
256,192,94932,1,0,0:0:0:0:
256,192,95154,1,8,0:0:0:0:
256,192,95820,1,0,0:0:0:0:
256,192,95932,1,0,0:0:0:0:
256,192,96043,1,0,0:0:0:0:
256,192,96376,1,0,0:0:0:0:
256,192,96709,1,0,0:0:0:0:
256,192,96932,1,8,0:0:0:0:
256,192,97154,1,0,0:0:0:0:
256,192,97376,1,8,0:0:0:0:
256,192,97820,1,12,0:0:0:0:
256,192,98154,1,0,0:0:0:0:
256,192,98487,1,0,0:0:0:0:
256,192,98709,1,8,0:0:0:0:
256,192,99043,1,0,0:0:0:0:
256,192,99376,1,0,0:0:0:0:
256,192,99598,1,8,0:0:0:0:
256,192,100265,1,0,0:0:0:0:
256,192,100487,1,8,0:0:0:0:
256,192,100598,1,8,0:0:0:0:
256,192,100709,1,8,0:0:0:0:
256,192,100932,1,0,0:0:0:0:
256,192,101154,1,8,0:0:0:0:
256,192,101376,1,4,0:0:0:0:
256,192,101820,1,0,0:0:0:0:
256,192,102043,1,0,0:0:0:0:
256,192,102265,1,8,0:0:0:0:
256,192,102598,1,0,0:0:0:0:
256,192,102709,1,0,0:0:0:0:
256,192,102932,1,0,0:0:0:0:
256,192,103154,1,12,0:0:0:0:
256,192,103487,1,8,0:0:0:0:
256,192,103820,1,0,0:0:0:0:
256,192,103932,1,0,0:0:0:0:
256,192,104043,1,0,0:0:0:0:
256,192,104265,1,0,0:0:0:0:
256,192,104487,1,8,0:0:0:0:
256,192,104932,1,12,0:0:0:0:
256,192,105376,1,0,0:0:0:0:
256,192,105598,1,0,0:0:0:0:
256,192,105820,1,8,0:0:0:0:
256,192,106043,1,0,0:0:0:0:
256,192,106265,1,8,0:0:0:0:
256,192,106487,1,0,0:0:0:0:
256,192,106598,1,0,0:0:0:0:
256,192,106709,1,0,0:0:0:0:
256,192,107043,1,8,0:0:0:0:
256,192,107376,1,0,0:0:0:0:
256,192,107598,1,8,0:0:0:0:
256,192,108487,1,12,0:0:0:0:
256,192,108820,1,0,0:0:0:0:
256,192,109154,1,0,0:0:0:0:
256,192,109376,1,8,0:0:0:0:
256,192,109709,1,0,0:0:0:0:
256,192,110043,1,0,0:0:0:0:
256,192,110154,1,0,0:0:0:0:
256,192,110265,1,0,0:0:0:0:
256,192,110598,1,0,0:0:0:0:
256,192,110932,1,0,0:0:0:0:
256,192,111154,1,8,0:0:0:0:
256,192,111376,1,0,0:0:0:0:
256,192,111598,1,8,0:0:0:0:
256,192,112043,1,12,0:0:0:0:
256,192,112376,1,0,0:0:0:0:
256,192,112487,1,0,0:0:0:0:
256,192,112709,1,0,0:0:0:0:
256,192,112932,1,8,0:0:0:0:
256,192,113265,1,0,0:0:0:0:
256,192,113598,1,0,0:0:0:0:
256,192,113820,1,8,0:0:0:0:
256,192,114154,1,0,0:0:0:0:
256,192,114265,1,0,0:0:0:0:
256,192,114487,1,0,0:0:0:0:
256,192,114709,1,8,0:0:0:0:
256,192,115598,1,12,0:0:0:0:
256,192,115820,1,8,0:0:0:0:
256,192,116043,1,0,0:0:0:0:
256,192,116487,1,8,0:0:0:0:
256,192,116709,1,0,0:0:0:0:
256,192,117154,1,0,0:0:0:0:
256,192,117376,1,8,0:0:0:0:
256,192,117598,1,0,0:0:0:0:
256,192,117820,1,0,0:0:0:0:
256,192,118265,1,8,0:0:0:0:
256,192,118709,1,0,0:0:0:0:
256,192,118932,1,0,0:0:0:0:
256,192,119154,1,12,0:0:0:0:
256,192,119376,1,8,0:0:0:0:
256,192,119598,1,0,0:0:0:0:
256,192,120043,1,8,0:0:0:0:
256,192,120932,1,8,0:0:0:0:
256,192,121154,1,0,0:0:0:0:
256,192,121376,1,0,0:0:0:0:
256,192,121487,1,0,0:0:0:0:
256,192,121820,1,8,0:0:0:0:
256,192,121932,1,8,0:0:0:0:
256,192,122043,1,8,0:0:0:0:
256,192,122265,1,0,0:0:0:0:
256,192,122487,1,0,0:0:0:0:
256,192,122709,1,12,0:0:0:0:
256,192,122932,1,0,0:0:0:0:
256,192,123154,1,8,0:0:0:0:
256,192,123598,1,8,0:0:0:0:
256,192,124043,1,8,0:0:0:0:
256,192,124487,1,8,0:0:0:0:
256,192,124709,1,0,0:0:0:0:
256,192,124932,1,8,0:0:0:0:
256,192,125376,1,8,0:0:0:0:
256,192,125709,1,0,0:0:0:0:
256,192,125820,1,0,0:0:0:0:
256,192,126043,1,0,0:0:0:0:
256,192,126265,1,12,0:0:0:0:
256,192,126487,1,0,0:0:0:0:
256,192,126709,1,8,0:0:0:0:
256,192,127154,1,8,0:0:0:0:
256,192,127487,1,0,0:0:0:0:
256,192,127598,1,0,0:0:0:0:
256,192,127820,1,0,0:0:0:0:
256,192,128043,1,8,0:0:0:0:
256,192,128154,1,8,0:0:0:0:
256,192,128265,1,8,0:0:0:0:
256,192,128487,1,0,0:0:0:0:
256,192,128709,1,8,0:0:0:0:
256,192,128932,1,8,0:0:0:0:
256,192,129043,1,8,0:0:0:0:
256,192,129154,1,8,0:0:0:0:
256,192,129376,1,0,0:0:0:0:
256,192,129820,1,12,0:0:0:0:
256,192,130043,1,0,0:0:0:0:
256,192,130265,1,8,0:0:0:0:
256,192,130598,1,0,0:0:0:0:
256,192,130820,1,0,0:0:0:0:
256,192,131154,1,8,0:0:0:0:
256,192,131376,1,0,0:0:0:0:
256,192,131598,1,0,0:0:0:0:
256,192,132043,1,8,0:0:0:0:
256,192,132265,1,0,0:0:0:0:
256,192,132487,1,0,0:0:0:0:
256,192,132598,1,0,0:0:0:0:
256,192,132709,1,0,0:0:0:0:
256,192,132932,1,8,0:0:0:0:
256,192,133376,1,12,0:0:0:0:
256,192,133598,1,0,0:0:0:0:
256,192,133820,1,8,0:0:0:0:
256,192,134154,1,0,0:0:0:0:
256,192,134376,1,0,0:0:0:0:
256,192,134709,1,8,0:0:0:0:
256,192,134932,1,0,0:0:0:0:
256,192,135154,1,0,0:0:0:0:
256,192,135598,1,8,0:0:0:0:
256,192,135820,1,0,0:0:0:0:
256,192,136043,1,8,0:0:0:0:
256,192,136154,1,8,0:0:0:0:
256,192,136376,1,0,0:0:0:0:
256,192,136709,1,8,0:0:0:0:
256,192,136932,1,12,0:0:0:0:
256,192,137154,1,0,0:0:0:0:
256,192,137376,1,8,0:0:0:0:
256,192,137709,1,0,0:0:0:0:
256,192,137932,1,0,0:0:0:0:
256,192,138265,1,8,0:0:0:0:
256,192,138487,1,0,0:0:0:0:
256,192,138709,1,0,0:0:0:0:
256,192,139154,1,8,0:0:0:0:
256,192,139376,1,0,0:0:0:0:
256,192,139598,1,0,0:0:0:0:
256,192,139709,1,0,0:0:0:0:
256,192,139820,1,0,0:0:0:0:
256,192,140043,1,8,0:0:0:0:
256,192,140487,1,12,0:0:0:0:
256,192,140709,1,0,0:0:0:0:
256,192,140932,1,8,0:0:0:0:
256,192,141265,1,0,0:0:0:0:
256,192,141487,1,0,0:0:0:0:
256,192,141820,1,8,0:0:0:0:
256,192,142043,1,0,0:0:0:0:
256,192,142265,1,0,0:0:0:0:
256,192,142709,1,8,0:0:0:0:
256,192,142932,1,0,0:0:0:0:
256,192,143154,1,8,0:0:0:0:
256,192,143265,1,8,0:0:0:0:
256,192,143487,1,0,0:0:0:0:
256,192,143820,1,8,0:0:0:0:
256,192,144043,1,12,0:0:0:0:
256,192,144487,1,8,0:0:0:0:
256,192,145376,1,8,0:0:0:0:
256,192,146265,1,8,0:0:0:0:
256,192,147154,1,0,0:0:0:0:
256,192,147598,1,12,0:0:0:0:
256,192,148043,1,8,0:0:0:0:
256,192,148932,1,8,0:0:0:0:
256,192,149376,1,12,0:0:0:0:
256,192,149820,1,8,0:0:0:0:
256,192,150043,1,0,0:0:0:0:
256,192,150265,1,8,0:0:0:0:
256,192,150487,1,12,0:0:0:0:
256,192,150709,1,12,0:0:0:0:
256,192,150932,1,0,0:0:0:0:
256,192,151154,1,12,0:0:0:0:
256,192,151598,1,8,0:0:0:0:
256,192,152043,1,8,0:0:0:0:
256,192,152487,1,8,0:0:0:0:
256,192,152932,1,12,0:0:0:0:
256,192,153376,1,8,0:0:0:0:
256,192,153820,1,12,0:0:0:0:
256,192,154265,1,8,0:0:0:0:
256,192,154487,1,0,0:0:0:0:
256,192,154709,1,8,0:0:0:0:
256,192,154820,1,8,0:0:0:0:
256,192,154932,1,8,0:0:0:0:
256,192,155154,1,0,0:0:0:0:
256,192,155376,1,8,0:0:0:0:
256,192,155598,1,8,0:0:0:0:
256,192,155709,1,8,0:0:0:0:
256,192,155820,1,8,0:0:0:0:
256,192,156043,1,0,0:0:0:0:
256,192,156265,1,8,0:0:0:0:
256,192,156487,1,4,0:0:0:0:
256,192,157916,1,0,0:0:0:0:
256,192,158202,1,8,0:0:0:0:
256,192,158773,1,12,0:0:0:0:
256,192,159059,1,0,0:0:0:0:
256,192,159345,1,0,0:0:0:0:
256,192,159488,1,0,0:0:0:0:
256,192,159773,1,0,0:0:0:0:
256,192,159916,1,8,0:0:0:0:
256,192,160202,1,0,0:0:0:0:
256,192,160488,1,8,0:0:0:0:
256,192,160630,1,0,0:0:0:0:
256,192,160916,1,0,0:0:0:0:
256,192,161059,1,12,0:0:0:0:
256,192,161345,1,0,0:0:0:0:
256,192,161630,1,0,0:0:0:0:
256,192,162059,1,0,0:0:0:0:
256,192,162202,1,8,0:0:0:0:
256,192,162488,1,0,0:0:0:0:
256,192,162773,1,8,0:0:0:0:
256,192,163059,1,0,0:0:0:0:
256,192,163202,1,0,0:0:0:0:
256,192,163345,1,12,0:0:0:0:
256,192,163630,1,0,0:0:0:0:
256,192,163916,1,8,0:0:0:0:
256,192,164059,1,0,0:0:0:0:
256,192,164345,1,0,0:0:0:0:
256,192,164488,1,8,0:0:0:0:
256,192,164773,1,0,0:0:0:0:
256,192,165059,1,8,0:0:0:0:
256,192,165202,1,0,0:0:0:0:
256,192,165488,1,0,0:0:0:0:
256,192,165630,1,12,0:0:0:0:
256,192,165916,1,0,0:0:0:0:
256,192,166202,1,0,0:0:0:0:
256,192,166630,1,0,0:0:0:0:
256,192,166773,1,8,0:0:0:0:
256,192,167059,1,0,0:0:0:0:
256,192,167202,1,8,0:0:0:0:
256,192,167345,1,0,0:0:0:0:
256,192,167630,1,8,0:0:0:0:
256,192,167773,1,8,0:0:0:0:
256,192,167916,1,4,0:0:0:0:
256,192,168202,1,0,0:0:0:0:
256,192,168488,1,0,0:0:0:0:
256,192,168630,1,0,0:0:0:0:
256,192,168916,1,0,0:0:0:0:
256,192,169059,1,8,0:0:0:0:
256,192,169630,1,8,0:0:0:0:
256,192,169773,1,0,0:0:0:0:
256,192,170059,1,0,0:0:0:0:
256,192,170202,1,12,0:0:0:0:
256,192,170488,1,0,0:0:0:0:
256,192,170773,1,0,0:0:0:0:
256,192,171202,1,0,0:0:0:0:
256,192,171345,1,8,0:0:0:0:
256,192,171916,1,8,0:0:0:0:
256,192,172202,1,0,0:0:0:0:
256,192,172345,1,0,0:0:0:0:
256,192,172488,1,12,0:0:0:0:
256,192,172773,1,0,0:0:0:0:
256,192,173059,1,8,0:0:0:0:
256,192,173202,1,0,0:0:0:0:
256,192,173488,1,0,0:0:0:0:
256,192,173630,1,8,0:0:0:0:
256,192,174202,1,8,0:0:0:0:
256,192,174345,1,0,0:0:0:0:
256,192,174630,1,0,0:0:0:0:
256,192,174773,1,12,0:0:0:0:
256,192,175345,1,0,0:0:0:0:
256,192,175773,1,0,0:0:0:0:
256,192,175916,1,8,0:0:0:0:
256,192,176202,1,0,0:0:0:0:
256,192,176345,1,8,0:0:0:0:
256,192,176488,1,0,0:0:0:0:
256,192,176773,1,8,0:0:0:0:
256,192,176916,1,8,0:0:0:0:
256,192,177059,1,4,0:0:0:0:
256,192,180170,1,0,0:0:0:0:
256,192,180614,1,8,0:0:0:0:
256,192,181059,1,0,0:0:0:0:
256,192,181281,1,0,0:0:0:0:
256,192,181503,1,8,0:0:0:0:
256,192,181725,1,8,0:0:0:0:
256,192,181947,1,0,0:0:0:0:
256,192,182392,1,0,0:0:0:0:
256,192,183281,1,8,0:0:0:0:
256,192,183725,1,0,0:0:0:0:
256,192,184170,1,8,0:0:0:0:
256,192,184614,1,0,0:0:0:0:
256,192,185059,1,8,0:0:0:0:
256,192,185281,1,8,0:0:0:0:
256,192,185503,1,0,0:0:0:0:
256,192,185725,1,0,0:0:0:0:
256,192,185947,1,8,0:0:0:0:
256,192,186836,1,8,0:0:0:0:
256,192,187281,1,0,0:0:0:0:
256,192,187725,1,8,0:0:0:0:
256,192,188059,1,0,0:0:0:0:
256,192,188392,1,0,0:0:0:0:
256,192,188614,1,8,0:0:0:0:
256,192,189503,1,8,0:0:0:0:
256,192,189836,1,8,0:0:0:0:
256,192,190170,1,0,0:0:0:0:
256,192,190392,1,8,0:0:0:0:
256,192,191281,1,0,0:0:0:0:
256,192,191614,1,8,0:0:0:0:
256,192,191947,1,8,0:0:0:0:
256,192,192170,1,0,0:0:0:0:
256,192,192503,1,8,0:0:0:0:
256,192,192836,1,0,0:0:0:0:
256,192,193058,1,8,0:0:0:0:
256,192,193614,1,0,0:0:0:0:
256,192,193947,1,8,0:0:0:0:
256,192,194392,1,0,0:0:0:0:
256,192,194836,1,8,0:0:0:0:
256,192,195281,1,0,0:0:0:0:
256,192,195503,1,0,0:0:0:0:
256,192,195725,1,8,0:0:0:0:
256,192,196170,1,0,0:0:0:0:
256,192,196392,1,8,0:0:0:0:
256,192,196614,1,0,0:0:0:0:
256,192,196947,1,8,0:0:0:0:
256,192,197947,1,8,0:0:0:0:
256,192,198392,1,8,0:0:0:0:
256,192,198836,1,0,0:0:0:0:
256,192,199058,1,8,0:0:0:0:
256,192,199281,1,8,0:0:0:0:
256,192,199725,1,8,0:0:0:0:
256,192,200170,1,8,0:0:0:0:
256,192,200503,1,0,0:0:0:0:
256,192,201058,1,8,0:0:0:0:
256,192,201503,1,0,0:0:0:0:
256,192,201947,1,8,0:0:0:0:
256,192,202281,1,0,0:0:0:0:
256,192,202614,1,0,0:0:0:0:
256,192,202836,1,8,0:0:0:0:
256,192,203725,1,8,0:0:0:0:
256,192,204058,1,8,0:0:0:0:
256,192,204392,1,0,0:0:0:0:
256,192,204614,1,8,0:0:0:0:
256,192,205503,1,0,0:0:0:0:
256,192,205836,1,8,0:0:0:0:
256,192,206170,1,8,0:0:0:0:
256,192,206392,1,0,0:0:0:0:
256,192,206725,1,8,0:0:0:0:
256,192,207058,1,0,0:0:0:0:
256,192,207281,1,8,0:0:0:0:
256,192,207725,1,8,0:0:0:0:
256,192,208170,1,8,0:0:0:0:
256,192,208614,1,8,0:0:0:0:
256,192,209058,1,4,0:0:0:0:
256,192,209947,1,4,0:0:0:0:
256,192,210392,1,8,0:0:0:0:
256,192,210614,1,0,0:0:0:0:
256,192,210725,1,0,0:0:0:0:
256,192,210836,1,0,0:0:0:0:
256,192,211281,1,8,0:0:0:0:
256,192,211503,1,0,0:0:0:0:
256,192,211725,1,8,0:0:0:0:
256,192,211947,1,8,0:0:0:0:
256,192,212170,1,0,0:0:0:0:
256,192,212392,1,8,0:0:0:0:
256,192,212614,1,4,0:0:0:0:
256,192,213503,1,4,0:0:0:0:
256,192,214170,1,0,0:0:0:0:
256,192,214392,1,8,0:0:0:0:
256,192,214614,1,0,0:0:0:0:
256,192,214836,1,8,0:0:0:0:
256,192,215058,1,0,0:0:0:0:
256,192,215170,1,0,0:0:0:0:
256,192,215281,1,0,0:0:0:0:
256,192,215503,1,0,0:0:0:0:
256,192,215725,1,8,0:0:0:0:
256,192,216170,1,4,0:0:0:0:
256,192,217058,1,8,0:0:0:0:
256,192,217947,1,4,0:0:0:0:
256,192,218836,1,8,0:0:0:0:
256,192,219725,1,4,0:0:0:0:
256,192,220058,1,8,0:0:0:0:
256,192,220392,1,8,0:0:0:0:
256,192,220614,1,4,0:0:0:0:
256,192,220947,1,4,0:0:0:0:
256,192,221281,1,8,0:0:0:0:
256,192,221503,1,4,0:0:0:0:
256,192,222170,1,0,0:0:0:0:
256,192,222281,1,0,0:0:0:0:
256,192,222392,1,0,0:0:0:0:
256,192,222614,1,0,0:0:0:0:
256,192,222836,1,12,0:0:0:0:
256,192,223281,1,4,0:0:0:0:
256,192,223725,1,0,0:0:0:0:
256,192,223947,1,0,0:0:0:0:
256,192,224170,1,8,0:0:0:0:
256,192,224503,1,0,0:0:0:0:
256,192,224614,1,0,0:0:0:0:
256,192,224836,1,0,0:0:0:0:
256,192,225058,1,12,0:0:0:0:
256,192,225392,1,8,0:0:0:0:
256,192,225725,1,0,0:0:0:0:
256,192,225836,1,0,0:0:0:0:
256,192,225947,1,0,0:0:0:0:
256,192,226170,1,0,0:0:0:0:
256,192,226392,1,8,0:0:0:0:
256,192,226836,1,12,0:0:0:0:
256,192,227281,1,0,0:0:0:0:
256,192,227503,1,0,0:0:0:0:
256,192,227725,1,8,0:0:0:0:
256,192,227947,1,0,0:0:0:0:
256,192,228170,1,8,0:0:0:0:
256,192,228392,1,0,0:0:0:0:
256,192,228503,1,0,0:0:0:0:
256,192,228614,1,0,0:0:0:0:
256,192,228947,1,8,0:0:0:0:
256,192,229281,1,0,0:0:0:0:
256,192,229503,1,8,0:0:0:0:
256,192,230392,1,12,0:0:0:0:
256,192,230725,1,0,0:0:0:0:
256,192,231058,1,0,0:0:0:0:
256,192,231281,1,8,0:0:0:0:
256,192,231614,1,0,0:0:0:0:
256,192,231947,1,0,0:0:0:0:
256,192,232058,1,0,0:0:0:0:
256,192,232170,1,0,0:0:0:0:
256,192,232503,1,8,0:0:0:0:
256,192,232836,1,0,0:0:0:0:
256,192,233058,1,8,0:0:0:0:
256,192,233281,1,0,0:0:0:0:
256,192,233503,1,8,0:0:0:0:
256,192,233614,1,8,0:0:0:0:
256,192,233725,1,8,0:0:0:0:
256,192,233947,1,12,0:0:0:0:
256,192,234281,1,0,0:0:0:0:
256,192,234392,1,0,0:0:0:0:
256,192,234614,1,0,0:0:0:0:
256,192,234836,1,8,0:0:0:0:
256,192,235170,1,0,0:0:0:0:
256,192,235503,1,0,0:0:0:0:
256,192,235725,1,8,0:0:0:0:
256,192,235836,1,8,0:0:0:0:
256,192,235947,1,8,0:0:0:0:
256,192,236170,1,8,0:0:0:0:
256,192,236392,1,0,0:0:0:0:
256,192,236614,1,8,0:0:0:0:
256,192,237503,1,12,0:0:0:0:
256,192,237725,1,8,0:0:0:0:
256,192,237947,1,0,0:0:0:0:
256,192,238392,1,8,0:0:0:0:
256,192,238614,1,0,0:0:0:0:
256,192,239058,1,0,0:0:0:0:
256,192,239281,1,8,0:0:0:0:
256,192,239503,1,0,0:0:0:0:
256,192,239725,1,0,0:0:0:0:
256,192,240170,1,8,0:0:0:0:
256,192,240392,1,0,0:0:0:0:
256,192,240836,1,0,0:0:0:0:
256,192,241058,1,12,0:0:0:0:
256,192,241281,1,8,0:0:0:0:
256,192,241503,1,0,0:0:0:0:
256,192,241947,1,8,0:0:0:0:
256,192,242170,1,0,0:0:0:0:
256,192,242614,1,0,0:0:0:0:
256,192,242836,1,8,0:0:0:0:
256,192,243058,1,0,0:0:0:0:
256,192,243281,1,0,0:0:0:0:
256,192,243725,1,8,0:0:0:0:
256,192,243836,1,8,0:0:0:0:
256,192,243947,1,8,0:0:0:0:
256,192,244170,1,8,0:0:0:0:
256,192,244392,1,0,0:0:0:0:
256,192,244614,1,12,0:0:0:0:
256,192,244836,1,8,0:0:0:0:
256,192,245058,1,0,0:0:0:0:
256,192,245170,1,0,0:0:0:0:
256,192,245503,1,8,0:0:0:0:
256,192,245947,1,8,0:0:0:0:
256,192,246170,1,0,0:0:0:0:
256,192,246392,1,0,0:0:0:0:
256,192,246503,1,0,0:0:0:0:
256,192,246614,1,0,0:0:0:0:
256,192,246836,1,8,0:0:0:0:
256,192,247281,1,8,0:0:0:0:
256,192,247725,1,8,0:0:0:0:
256,192,247947,1,0,0:0:0:0:
256,192,248170,1,12,0:0:0:0:
256,192,248614,1,8,0:0:0:0:
256,192,249058,1,8,0:0:0:0:
256,192,249503,1,8,0:0:0:0:
256,192,249725,1,0,0:0:0:0:
256,192,249947,1,8,0:0:0:0:
256,192,250170,1,8,0:0:0:0:
256,192,250281,1,8,0:0:0:0:
256,192,250392,1,8,0:0:0:0:
256,192,250614,1,0,0:0:0:0:
256,192,250836,1,8,0:0:0:0:
256,192,250947,1,8,0:0:0:0:
256,192,251058,1,8,0:0:0:0:
256,192,251281,1,0,0:0:0:0:
256,192,251503,1,8,0:0:0:0:
256,192,251614,1,8,0:0:0:0:
