osu file format v14

[General]
AudioFilename: audio.mp3
AudioLeadIn: 0
PreviewTime: 159596
Countdown: 0
SampleSet: Drum
StackLeniency: 0.3
Mode: 0
LetterboxInBreaks: 0
WidescreenStoryboard: 1

[Editor]
Bookmarks: 197503
DistanceSpacing: 2.2
BeatDivisor: 4
GridSize: 32
TimelineZoom: 2.1

[Metadata]
Title:Sad spring
TitleUnicode:Sad spring
Artist:Draw the Emotional
ArtistUnicode:Draw the Emotional
Creator:Resurreccion
Version:Seni's Melody of a Beautiful Conclusion
Source:東方妖々夢 ~ Perfect Cherry Blossom.
Tags:touhou doujin Seni Akitoshi -Laura- Corinn Seated with Liquor ゆよゆっぺ yuyoyuppe ルシュカ Luschka neko 幽雅に咲かせ、墨染の桜 ~ Border of Life yuuga ni sakase, sumizome no sakura bloom nobly, ink-black ink black cherry blossom stage 6 ネクロファンタジア Necrofantasia comiket 83 c83 saigyouji yuyuko yukari yakumo video game japanese rock metal 東方project project zun team shanghai alice pcb th07 th 07 youyoumu 妖々夢 ghostly dream phantasm stage yukari yakumo 八雲 紫 foreground eclipse
BeatmapID:2506721
BeatmapSetID:994604

[Difficulty]
HPDrainRate:5.3
CircleSize:4.3
OverallDifficulty:9.3
ApproachRate:9.3
SliderMultiplier:1.4
SliderTickRate:1

[Events]
//Background and Video events
0,0,"Seni pic.png",0,0
//Break Periods
2,92980,94709
2,108371,111031
//Storyboard Layer 0 (Background)
//Storyboard Layer 1 (Fail)
//Storyboard Layer 2 (Pass)
//Storyboard Layer 3 (Foreground)
//Storyboard Layer 4 (Overlay)
//Storyboard Sound Samples

[TimingPoints]
1350,326.086956521739,4,3,2,70,1,0
1676,-100,4,3,6,70,0,0
1839,-100,4,3,11,70,0,0
2165,-100,4,3,6,70,0,0
2328,-100,4,3,2,70,0,0
2654,-100,4,3,6,70,0,0
2817,-100,4,3,11,70,0,0
2980,-100,4,3,6,70,0,0
3143,-100,4,3,2,70,0,0
3306,-100,4,3,5,70,0,0
3632,-100,4,3,1,70,0,0
3795,-100,4,3,11,70,0,0
3958,-111.111111111111,4,3,9,60,0,0
4610,-111.111111111111,4,3,1,60,0,0
6241,-83.3333333333333,4,3,5,60,0,0
6322,-83.3333333333333,4,3,5,5,0,0
6404,-83.3333333333333,4,3,5,60,0,0
6485,-83.3333333333333,4,3,5,5,0,0
6567,-111.111111111111,4,3,9,60,0,0
7219,-111.111111111111,4,3,1,60,0,0
8523,-111.111111111111,4,3,2,60,0,0
8686,-111.111111111111,4,3,5,60,0,0
9013,-111.111111111111,4,3,6,60,0,0
9176,-111.111111111111,4,3,5,60,0,0
10480,-111.111111111111,4,3,2,60,0,0
11132,-111.111111111111,4,3,2,60,0,0
11295,-111.111111111111,4,3,6,60,0,0
11621,-111.111111111111,4,3,2,60,0,0
11784,-111.111111111111,4,3,6,60,0,0
12273,-111.111111111111,4,3,2,60,0,0
12355,-111.111111111111,4,3,6,60,0,0
13252,-111.111111111111,4,3,2,60,0,0
13333,-111.111111111111,4,3,6,60,0,0
13415,-100,4,3,11,60,0,0
13578,-100,4,3,5,60,0,0
13741,-100,4,3,1,60,0,0
14067,-50,4,3,1,60,0,0
14311,-50,4,3,1,5,0,0
14393,-66.6666666666667,4,3,9,80,0,0
14474,-66.6666666666667,4,3,6,80,0,0
15045,-66.6666666666667,4,3,2,80,0,0
15127,-66.6666666666667,4,3,6,80,0,0
16349,-66.6666666666667,4,3,2,80,0,0
16431,-66.6666666666667,4,3,6,80,0,0
17654,-66.6666666666667,4,3,2,80,0,0
17735,-66.6666666666667,4,3,6,80,0,0
18958,-66.6666666666667,4,3,2,80,0,0
19040,-66.6666666666667,4,3,6,80,0,0
19284,-66.6666666666667,4,3,2,80,0,0
19447,-66.6666666666667,4,3,11,80,0,0
19610,-66.6666666666667,4,3,9,80,0,0
19692,-66.6666666666667,4,3,6,80,0,0
20263,-66.6666666666667,4,3,2,80,0,0
20344,-66.6666666666667,4,3,6,80,0,0
21567,-66.6666666666667,4,3,2,80,0,0
21648,-66.6666666666667,4,3,6,80,0,0
22871,-66.6666666666667,4,3,2,80,0,0
22953,-66.6666666666667,4,3,6,80,0,0
24176,-66.6666666666667,4,3,2,80,0,0
24339,-66.6666666666667,4,3,6,80,0,0
24502,-66.6666666666667,4,3,2,80,0,0
24828,-66.6666666666667,4,3,9,80,0,0
24909,-66.6666666666667,4,3,1,80,0,0
25643,-66.6666666666667,4,3,5,80,0,0
25806,-66.6666666666667,4,3,1,80,0,0
25969,-66.6666666666667,4,3,5,80,0,0
26132,-66.6666666666667,4,3,1,80,0,0
26295,-66.6666666666667,4,3,5,80,0,0
26458,-66.6666666666667,4,3,1,80,0,0
26784,-66.6666666666667,4,3,5,80,0,0
27110,-66.6666666666667,4,3,1,80,0,0
27436,-66.6666666666667,4,3,5,80,0,0
27763,-66.6666666666667,4,3,1,80,0,0
28252,-66.6666666666667,4,3,5,80,0,0
28415,-66.6666666666667,4,3,1,80,0,0
28578,-66.6666666666667,4,3,5,80,0,0
29067,-66.6666666666667,4,3,1,80,0,0
29393,-66.6666666666667,4,3,5,80,0,0
29719,-66.6666666666667,4,3,1,80,0,0
29882,-66.6666666666667,4,3,11,80,0,0
29964,-66.6666666666667,4,3,12,80,0,0
30045,-66.6666666666667,4,3,9,80,0,0
30127,-66.6666666666667,4,3,1,80,0,0
30860,-66.6666666666667,4,3,5,80,0,0
31023,-66.6666666666667,4,3,1,80,0,0
31186,-66.6666666666667,4,3,5,80,0,0
31349,-66.6666666666667,4,3,1,80,0,0
31513,-66.6666666666667,4,3,5,80,0,0
31676,-66.6666666666667,4,3,1,80,0,0
32002,-66.6666666666667,4,3,5,80,0,0
32328,-66.6666666666667,4,3,1,80,0,0
32654,-66.6666666666667,4,3,5,80,0,0
32980,-66.6666666666667,4,3,1,80,0,0
33469,-66.6666666666667,4,3,5,80,0,0
33632,-66.6666666666667,4,3,1,80,0,0
33795,-66.6666666666667,4,3,5,80,0,0
34284,-66.6666666666667,4,3,1,80,0,0
34447,-66.6666666666667,4,3,5,80,0,0
34610,-66.6666666666667,4,3,2,80,0,0
34773,-66.6666666666667,4,3,6,80,0,0
34936,-66.6666666666667,4,3,12,70,0,0
35099,-66.6666666666667,4,3,7,70,0,0
35263,-100,4,3,6,60,0,0
36567,-100,4,3,2,60,0,0
36730,-100,4,3,6,60,0,0
39176,-100,4,3,2,60,0,0
39339,-100,4,3,6,60,0,0
39665,-100,4,3,11,60,0,0
39828,-100,4,3,6,60,0,0
39991,-100,4,3,2,60,0,0
40154,-100,4,3,6,60,0,0
40317,-100,4,3,2,60,0,0
40480,-100,4,3,6,60,0,0
41784,-100,4,3,2,60,0,0
41947,-100,4,3,6,60,0,0
42436,-100,4,3,2,60,0,0
42599,-100,4,3,6,60,0,0
42763,-100,4,3,2,60,0,0
42926,-100,4,3,6,60,0,0
43089,-100,4,3,2,60,0,0
43170,-100,4,3,4,60,0,0
45371,-100,4,3,9,60,0,0
45697,-58.8235294117647,4,3,5,90,0,1
46023,-58.8235294117647,4,3,1,90,0,1
46349,-58.8235294117647,4,3,5,90,0,1
46676,-58.8235294117647,4,3,1,90,0,1
47002,-58.8235294117647,4,3,5,90,0,1
47328,-58.8235294117647,4,3,1,90,0,1
47654,-58.8235294117647,4,3,5,90,0,1
47980,-58.8235294117647,4,3,1,90,0,1
48306,-58.8235294117647,4,3,5,90,0,1
48632,-58.8235294117647,4,3,1,90,0,1
48958,-58.8235294117647,4,3,5,90,0,1
49284,-58.8235294117647,4,3,1,90,0,1
49610,-58.8235294117647,4,3,5,90,0,1
49936,-58.8235294117647,4,3,2,90,0,1
50099,-58.8235294117647,4,3,6,90,0,1
50263,-58.8235294117647,4,3,2,90,0,1
50426,-58.8235294117647,4,3,6,90,0,1
50589,-58.8235294117647,4,3,2,90,0,1
50752,-58.8235294117647,4,3,6,90,0,1
50915,-58.8235294117647,4,3,9,90,0,1
50996,-58.8235294117647,4,3,5,90,0,1
51241,-58.8235294117647,4,3,1,90,0,1
51567,-58.8235294117647,4,3,5,90,0,1
51893,-58.8235294117647,4,3,1,90,0,1
52219,-58.8235294117647,4,3,5,90,0,1
52545,-58.8235294117647,4,3,1,90,0,1
52871,-58.8235294117647,4,3,5,90,0,1
53197,-58.8235294117647,4,3,1,90,0,1
53523,-58.8235294117647,4,3,5,90,0,1
53849,-58.8235294117647,4,3,1,90,0,1
54176,-58.8235294117647,4,3,5,90,0,1
54502,-58.8235294117647,4,3,2,90,0,1
54665,-58.8235294117647,4,3,6,90,0,1
54828,-58.8235294117647,4,3,2,90,0,1
54991,-58.8235294117647,4,3,6,90,0,1
55154,-58.8235294117647,4,3,2,90,0,1
55317,-58.8235294117647,4,3,6,90,0,1
55480,-58.8235294117647,4,3,1,100,0,1
55643,-58.8235294117647,4,3,5,100,0,1
56051,-58.8235294117647,4,3,1,90,0,0
56132,-58.8235294117647,4,3,9,90,0,1
56214,-58.8235294117647,4,3,6,90,0,1
56784,-58.8235294117647,4,3,2,90,0,1
56947,-58.8235294117647,4,3,6,90,0,1
58089,-58.8235294117647,4,3,2,90,0,1
58252,-58.8235294117647,4,3,6,90,0,1
58741,-58.8235294117647,4,3,9,90,0,1
58822,-58.8235294117647,4,3,6,90,0,1
59393,-58.8235294117647,4,3,2,90,0,1
59556,-58.8235294117647,4,3,6,90,0,1
60534,-58.8235294117647,4,3,2,90,0,1
60697,-58.8235294117647,4,3,6,90,0,1
60860,-58.8235294117647,4,3,2,90,0,1
61186,-58.8235294117647,4,3,6,90,0,1
61349,-58.8235294117647,4,3,5,90,0,1
62654,-58.8235294117647,4,3,6,90,0,1
63143,-58.8235294117647,4,3,2,90,0,1
63224,-58.8235294117647,4,3,6,90,0,1
63469,-58.8235294117647,4,3,2,90,0,1
63551,-58.8235294117647,4,3,6,90,0,1
63632,-58.8235294117647,4,3,2,90,0,1
63714,-58.8235294117647,4,3,6,90,0,1
63958,-58.8235294117647,4,3,2,90,0,1
64121,-58.8235294117647,4,3,6,90,0,1
64284,-58.8235294117647,4,3,2,90,0,1
64447,-58.8235294117647,4,3,6,90,0,1
64610,-58.8235294117647,4,3,2,90,0,1
65263,-58.8235294117647,4,3,6,90,0,1
65426,-58.8235294117647,4,3,2,90,0,1
65752,-58.8235294117647,4,3,6,90,0,1
65915,-58.8235294117647,4,3,11,90,0,1
66078,-58.8235294117647,4,3,5,90,0,1
66241,-58.8235294117647,4,3,1,90,0,1
66567,-66.6666666666667,4,3,6,80,0,0
67219,-66.6666666666667,4,3,2,80,0,0
67301,-66.6666666666667,4,3,6,80,0,0
68523,-66.6666666666667,4,3,2,80,0,0
68605,-66.6666666666667,4,3,6,80,0,0
69828,-66.6666666666667,4,3,2,80,0,0
69909,-66.6666666666667,4,3,6,80,0,0
70480,-66.6666666666667,4,3,2,80,0,0
70561,-66.6666666666667,4,3,6,80,0,0
71132,-66.6666666666667,4,3,2,80,0,0
71214,-66.6666666666667,4,3,6,80,0,0
71458,-66.6666666666667,4,3,2,80,0,0
71621,-66.6666666666667,4,3,12,80,0,0
71784,-66.6666666666667,4,3,6,80,0,0
72436,-66.6666666666667,4,3,2,80,0,0
72518,-66.6666666666667,4,3,6,80,0,0
73741,-66.6666666666667,4,3,2,80,0,0
73822,-66.6666666666667,4,3,6,80,0,0
74393,-66.6666666666667,4,3,2,80,0,0
74474,-66.6666666666667,4,3,6,80,0,0
74719,-66.6666666666667,4,3,2,80,0,0
74882,-66.6666666666667,4,3,6,80,0,0
75045,-66.6666666666667,4,3,2,80,0,0
75127,-66.6666666666667,4,3,6,80,0,0
75371,-66.6666666666667,4,3,2,80,0,0
75534,-66.6666666666667,4,3,6,80,0,0
75697,-66.6666666666667,4,3,2,80,0,0
75860,-66.6666666666667,4,3,6,80,0,0
76023,-66.6666666666667,4,3,12,70,0,0
76186,-66.6666666666667,4,3,5,70,0,0
76349,-133.333333333333,4,3,1,70,0,0
76920,-133.333333333333,4,3,1,5,0,0
77002,-133.333333333333,4,3,9,60,0,0
77083,-133.333333333333,4,3,6,60,0,0
78306,-133.333333333333,4,3,2,60,0,0
79284,-133.333333333333,4,3,6,60,0,0
80915,-133.333333333333,4,3,2,60,0,0
81730,-133.333333333333,4,3,6,60,0,0
83523,-133.333333333333,4,3,2,60,0,0
84502,-133.333333333333,4,3,6,60,0,0
86132,-133.333333333333,4,3,2,60,0,0
86295,-133.333333333333,4,3,6,60,0,0
86458,-133.333333333333,4,3,2,60,0,0
86621,-133.333333333333,4,3,6,60,0,0
86784,-66.6666666666667,4,3,1,60,0,0
86866,-66.6666666666667,4,3,11,60,0,0
86947,-66.6666666666667,4,3,5,60,0,0
87110,-66.6666666666667,4,3,1,60,0,0
87273,-66.6666666666667,4,3,5,60,0,0
87436,-66.6666666666667,4,3,9,60,0,0
87518,-66.6666666666667,4,3,1,5,0,0
87599,-66.6666666666667,4,3,1,60,0,0
88089,-66.6666666666667,4,3,5,60,0,0
88415,-66.6666666666667,4,3,1,60,0,0
88741,-66.6666666666667,4,3,5,60,0,0
89067,-66.6666666666667,4,3,1,60,0,0
89311,-66.6666666666667,4,3,1,5,0,0
89393,-66.6666666666667,4,3,5,60,0,0
89719,-66.6666666666667,4,3,1,60,0,0
90045,-66.6666666666667,4,3,5,60,0,0
90371,-66.6666666666667,4,3,1,60,0,0
90697,-66.6666666666667,4,3,5,60,0,0
91023,-66.6666666666667,4,3,1,60,0,0
91349,-66.6666666666667,4,3,5,60,0,0
91594,-66.6666666666667,4,3,1,5,0,0
91676,-66.6666666666667,4,3,1,60,0,0
91757,-66.6666666666667,4,3,1,5,0,0
91839,-66.6666666666667,4,3,5,60,0,0
92002,-66.6666666666667,4,3,2,60,0,0
92165,-66.6666666666667,4,3,6,60,0,0
92328,-66.6666666666667,4,3,2,60,0,0
92491,-66.6666666666667,4,3,6,60,0,0
92654,-66.6666666666667,4,3,1,45,0,0
95263,-66.6666666666667,4,3,2,80,0,0
95426,-66.6666666666667,4,3,6,80,0,0
95589,-66.6666666666667,4,3,2,80,0,0
95915,-66.6666666666667,4,3,6,80,0,0
96078,-66.6666666666667,4,3,2,80,0,0
96404,-66.6666666666667,4,3,6,80,0,0
96567,-66.6666666666667,4,3,2,80,0,0
96730,-66.6666666666667,4,3,6,80,0,0
96893,-66.6666666666667,4,3,12,80,0,0
97056,-66.6666666666667,4,3,5,80,0,0
97219,-100,4,3,1,60,0,0
97790,-100,4,3,1,5,0,0
97871,428.571428571429,4,3,7,60,1,0
98299,-100,4,3,1,60,0,0
101085,-100,4,3,5,60,0,0
101299,-100,4,3,6,60,0,0
101406,-100,4,3,1,60,0,0
103013,-100,4,3,5,60,0,0
103228,-100,4,3,2,60,0,0
103656,-100,4,3,6,60,0,0
103871,-100,4,3,11,60,0,0
103978,-100,4,3,6,60,0,0
104299,-100,4,3,2,60,0,0
104513,-100,4,3,6,60,0,0
104728,-100,4,3,7,60,0,0
104835,-100,4,3,1,60,0,0
106656,-100,4,3,5,60,0,0
106871,-100,4,3,11,60,0,0
106978,-100,4,3,6,60,0,0
107299,-100,4,3,2,60,0,0
107513,-100,4,3,6,60,0,0
107728,-100,4,3,2,60,0,0
107942,-100,4,3,6,60,0,0
108156,-100,4,3,2,60,0,0
111585,-100,4,3,9,80,0,0
111692,-100,4,3,6,80,0,0
112442,-100,4,3,2,80,0,0
113942,-100,4,3,6,80,0,0
115871,-100,4,3,2,80,0,0
117371,-100,4,3,6,80,0,0
117585,-100,4,3,2,80,0,0
117728,-100,4,3,6,80,0,0
118013,-100,4,3,2,80,0,0
118335,-100,4,3,1,5,0,0
118442,-100,4,3,9,80,0,0
118549,-100,4,3,6,80,0,0
119299,-100,4,3,2,80,0,0
120799,-100,4,3,6,80,0,0
122728,-100,4,3,2,80,0,0
124228,-100,4,3,6,80,0,0
124442,-100,4,3,2,80,0,0
124585,-100,4,3,6,80,0,0
125013,-100,4,3,2,80,0,0
125299,-100,4,3,9,80,0,0
125406,-100,4,3,6,80,0,0
126156,-133.333333333333,4,3,2,80,0,0
127656,-133.333333333333,4,3,6,80,0,0
128728,-133.333333333333,4,3,2,80,0,0
128835,-133.333333333333,4,3,6,80,0,0
129585,-133.333333333333,4,3,2,80,0,0
131085,-133.333333333333,4,3,6,80,0,0
131299,-133.333333333333,4,3,2,80,0,0
131442,-133.333333333333,4,3,6,80,0,0
131728,-100,4,3,2,80,0,0
132049,-100,4,3,2,5,0,0
132156,-133.333333333333,4,3,9,80,0,0
132263,-133.333333333333,4,3,6,80,0,0
133013,-133.333333333333,4,3,2,80,0,0
134513,-133.333333333333,4,3,6,80,0,0
136442,-133.333333333333,4,3,2,80,0,0
136549,-133.333333333333,4,3,6,80,0,0
136871,-133.333333333333,4,3,2,80,0,0
136978,-133.333333333333,4,3,6,80,0,0
137299,-133.333333333333,4,3,2,80,0,0
137513,-133.333333333333,4,3,6,80,0,0
137728,-133.333333333333,4,3,11,80,0,0
137942,-133.333333333333,4,3,5,80,0,0
138156,326.086956521739,4,3,1,70,1,0
138319,-100,4,3,5,70,0,0
138482,-100,4,3,12,60,0,0
138808,326.086956521739,4,3,1,60,1,0
138808,-83.3333333333333,4,3,7,60,0,0
138889,-83.3333333333333,4,3,4,60,0,0
139134,-83.3333333333333,4,3,8,60,0,0
139297,-83.3333333333333,4,3,4,60,0,0
139460,-83.3333333333333,4,3,8,60,0,0
139623,-83.3333333333333,4,3,4,60,0,0
139786,-83.3333333333333,4,3,8,60,0,0
139949,-83.3333333333333,4,3,4,60,0,0
140112,-83.3333333333333,4,3,8,60,0,0
140275,-83.3333333333333,4,3,4,60,0,0
140438,-83.3333333333333,4,3,8,60,0,0
140601,-83.3333333333333,4,3,4,60,0,0
140764,-83.3333333333333,4,3,8,60,0,0
140927,-83.3333333333333,4,3,4,60,0,0
141090,-83.3333333333333,4,3,8,60,0,0
141253,-83.3333333333333,4,3,1,60,0,0
141416,-83.3333333333333,4,3,8,60,0,0
141579,-83.3333333333333,4,3,4,60,0,0
141742,-83.3333333333333,4,3,8,60,0,0
141905,-83.3333333333333,4,3,4,60,0,0
142068,-83.3333333333333,4,3,8,60,0,0
142231,-83.3333333333333,4,3,4,60,0,0
142394,-83.3333333333333,4,3,8,60,0,0
142558,-83.3333333333333,4,3,4,60,0,0
142721,-83.3333333333333,4,3,8,60,0,0
142884,-83.3333333333333,4,3,4,60,0,0
143047,-83.3333333333333,4,3,8,60,0,0
143210,-83.3333333333333,4,3,4,60,0,0
143373,-83.3333333333333,4,3,8,60,0,0
143536,-83.3333333333333,4,3,4,60,0,0
143699,-83.3333333333333,4,3,2,60,0,0
143862,-83.3333333333333,4,3,12,60,0,0
143943,-83.3333333333333,4,3,11,60,0,0
144025,-83.3333333333333,4,3,7,60,0,0
144106,-83.3333333333333,4,3,4,60,0,0
144351,-83.3333333333333,4,3,8,60,0,0
144514,-83.3333333333333,4,3,4,60,0,0
144677,-83.3333333333333,4,3,8,60,0,0
144840,-83.3333333333333,4,3,4,60,0,0
145003,-83.3333333333333,4,3,8,60,0,0
145166,-83.3333333333333,4,3,4,60,0,0
145329,-83.3333333333333,4,3,8,60,0,0
145492,-83.3333333333333,4,3,4,60,0,0
145655,-83.3333333333333,4,3,8,60,0,0
145818,-83.3333333333333,4,3,4,60,0,0
145981,-83.3333333333333,4,3,8,60,0,0
146144,-83.3333333333333,4,3,4,60,0,0
146308,-83.3333333333333,4,3,8,60,0,0
146471,-83.3333333333333,4,3,1,60,0,0
146634,-83.3333333333333,4,3,8,60,0,0
146797,-83.3333333333333,4,3,4,60,0,0
146960,-83.3333333333333,4,3,8,60,0,0
147123,-83.3333333333333,4,3,4,60,0,0
147286,-83.3333333333333,4,3,8,60,0,0
147449,-83.3333333333333,4,3,4,60,0,0
147612,-83.3333333333333,4,3,8,60,0,0
147775,-83.3333333333333,4,3,4,60,0,0
147938,-83.3333333333333,4,3,8,60,0,0
148101,-83.3333333333333,4,3,4,60,0,0
148264,-83.3333333333333,4,3,8,60,0,0
148427,-83.3333333333333,4,3,4,60,0,0
148590,-83.3333333333333,4,3,8,60,0,0
148753,-83.3333333333333,4,3,4,60,0,0
149079,-83.3333333333333,4,3,12,60,0,0
149161,-83.3333333333333,4,3,11,60,0,0
149242,-83.3333333333333,4,3,7,60,0,0
149324,-83.3333333333333,4,3,8,60,0,0
151688,-83.3333333333333,4,3,4,60,0,0
151851,-83.3333333333333,4,3,8,60,0,0
152992,-83.3333333333333,4,3,4,60,0,0
153155,-83.3333333333333,4,3,8,60,0,0
153481,-83.3333333333333,4,3,4,60,0,0
153808,-83.3333333333333,4,3,8,60,0,0
154134,-83.3333333333333,4,3,2,60,0,0
154215,-83.3333333333333,4,3,8,60,0,0
154786,-83.3333333333333,4,3,4,60,0,0
155112,-83.3333333333333,4,3,8,60,0,0
155601,-83.3333333333333,4,3,4,60,0,0
155764,-83.3333333333333,4,3,8,60,0,0
156090,-83.3333333333333,4,3,4,60,0,0
156579,-83.3333333333333,4,3,8,60,0,0
156742,-83.3333333333333,4,3,4,60,0,0
157068,-125,4,3,9,80,0,0
157150,-125,4,3,1,5,0,0
159351,-111.111111111111,4,3,1,90,0,0
159514,-111.111111111111,4,3,1,5,0,0
159677,-133.333333333333,4,3,7,90,0,0
159759,-133.333333333333,4,3,2,90,0,0
161144,-133.333333333333,4,3,6,90,0,0
161471,-133.333333333333,4,3,11,90,0,0
161634,-133.333333333333,4,3,6,90,0,0
161797,-133.333333333333,4,3,2,90,0,0
162123,-133.333333333333,4,3,6,90,0,0
162286,-133.333333333333,4,3,7,90,0,0
162367,-133.333333333333,4,3,2,90,0,0
163916,-100,4,3,6,60,0,0
164079,-100,4,3,2,60,0,0
164405,-100,4,3,6,60,0,0
164568,-100,4,3,2,60,0,0
164731,-100,4,3,12,60,0,0
164894,-100,4,3,9,60,0,0
164976,-100,4,3,6,60,0,0
167503,-100,4,3,2,60,0,0
167829,-100,4,3,6,60,0,0
167992,-100,4,3,2,60,0,0
168318,-100,4,3,6,60,0,0
168481,-100,4,3,2,60,0,0
168808,-100,4,3,6,60,0,0
168971,-100,4,3,2,60,0,0
169297,-100,4,3,6,60,0,0
169460,-133.333333333333,4,3,12,60,0,0
170030,-133.333333333333,4,3,1,5,0,0
170112,-58.8235294117647,4,3,9,90,0,1
170193,-58.8235294117647,4,3,1,90,0,1
170601,-58.8235294117647,4,3,5,90,0,1
171090,-58.8235294117647,4,3,1,90,0,1
171416,-58.8235294117647,4,3,5,90,0,1
171742,-58.8235294117647,4,3,1,90,0,1
172068,-58.8235294117647,4,3,5,90,0,1
172394,-58.8235294117647,4,3,1,90,0,1
172721,-58.8235294117647,4,3,5,90,0,1
172965,-58.8235294117647,4,3,1,5,0,1
173047,-58.8235294117647,4,3,1,90,0,1
173373,-58.8235294117647,4,3,5,90,0,1
173699,-58.8235294117647,4,3,1,90,0,1
174025,-58.8235294117647,4,3,5,90,0,1
174351,-58.8235294117647,4,3,1,90,0,1
174514,-58.8235294117647,4,3,5,90,0,1
174677,-58.8235294117647,4,3,2,90,0,1
174840,-58.8235294117647,4,3,6,90,0,1
175003,-58.8235294117647,4,3,2,90,0,1
175166,-58.8235294117647,4,3,6,90,0,1
175248,-58.8235294117647,4,3,12,90,0,1
175329,-58.8235294117647,4,3,9,90,0,1
175411,-58.8235294117647,4,3,1,90,0,1
175981,-58.8235294117647,4,3,5,90,0,1
176308,-58.8235294117647,4,3,1,90,0,1
176634,-58.8235294117647,4,3,5,90,0,1
176960,-58.8235294117647,4,3,1,90,0,1
177286,-58.8235294117647,4,3,5,90,0,1
177612,-58.8235294117647,4,3,1,90,0,1
178101,-58.8235294117647,4,3,5,90,0,1
178264,-58.8235294117647,4,3,1,90,0,1
178590,-58.8235294117647,4,3,5,90,0,1
178916,-76.9230769230769,4,3,2,90,0,1
179079,-76.9230769230769,4,3,6,90,0,1
179242,-76.9230769230769,4,3,2,90,0,1
179405,-76.9230769230769,4,3,6,90,0,1
179568,-76.9230769230769,4,3,2,90,0,1
179731,-76.9230769230769,4,3,6,90,0,1
179894,-76.9230769230769,4,3,2,90,0,1
180058,-76.9230769230769,4,3,6,90,0,1
180221,-76.9230769230769,4,3,11,90,0,1
180384,-76.9230769230769,4,3,12,90,0,1
180465,-100,4,3,12,90,0,0
180547,-100,4,3,9,90,0,1
180628,-58.8235294117647,4,3,6,90,0,1
181199,-58.8235294117647,4,3,2,90,0,1
181362,-58.8235294117647,4,3,6,90,0,1
182503,-58.8235294117647,4,3,2,90,0,1
182666,-58.8235294117647,4,3,6,90,0,1
183808,-58.8235294117647,4,3,2,90,0,1
183971,-58.8235294117647,4,3,6,90,0,1
184949,-58.8235294117647,4,3,2,90,0,1
185112,-58.8235294117647,4,3,6,90,0,1
185275,-58.8235294117647,4,3,2,90,0,1
185601,-58.8235294117647,4,3,6,90,0,1
185683,-100,4,3,1,90,0,0
185764,-52.6315789473684,4,3,7,90,0,1
185846,-52.6315789473684,4,3,5,90,0,1
186416,-52.6315789473684,4,3,1,90,0,1
186498,-52.6315789473684,4,3,5,90,0,1
187721,-52.6315789473684,4,3,1,90,0,1
187802,-52.6315789473684,4,3,5,90,0,1
188373,-52.6315789473684,4,3,6,90,0,1
188699,-52.6315789473684,4,3,2,90,0,1
188780,-52.6315789473684,4,3,6,90,0,1
189025,-52.6315789473684,4,3,2,90,0,1
189106,-52.6315789473684,4,3,6,90,0,1
189677,-45.4545454545455,4,3,2,90,0,1
189840,-45.4545454545455,4,3,6,90,0,1
190003,-45.4545454545455,4,3,11,90,0,1
190166,-45.4545454545455,4,3,5,90,0,1
190329,-45.4545454545455,4,3,1,90,0,1
190492,-45.4545454545455,4,3,5,90,0,1
190655,-45.4545454545455,4,3,1,90,0,1
190981,-250,4,3,9,90,0,0
191307,-250,4,3,9,85,0,0
191634,-250,4,3,9,80,0,0
191960,-250,4,3,9,75,0,0
192286,-250,4,3,9,70,0,0
192612,-250,4,3,9,65,0,0
192938,-250,4,3,9,60,0,0
193264,-250,4,3,9,55,0,0
193590,-250,4,3,9,50,0,0
193916,-250,4,3,9,45,0,0
194242,-250,4,3,9,40,0,0
194568,-250,4,3,9,35,0,0
194894,-250,4,3,9,30,0,0
195221,-250,4,3,9,25,0,0
195547,-250,4,3,9,20,0,0
195873,-250,4,3,9,15,0,0
196199,-250,4,3,9,10,0,0
196525,-250,4,3,9,5,0,0

[Colours]
Combo1 : 0,128,192
Combo2 : 255,128,255
Combo3 : 192,192,192

[HitObjects]
63,78,1350,5,12,0:0:0:0:
336,135,1513,1,12,0:0:0:0:
88,275,1676,5,8,0:0:0:0:
208,65,1839,1,8,0:3:0:0:
233,306,2002,1,8,0:3:0:0:
73,127,2165,1,8,0:0:0:0:
371,52,2328,5,12,0:0:0:0:
336,338,2491,1,12,0:0:0:0:
169,72,2654,5,8,0:0:0:0:
233,306,2817,1,8,0:3:0:0:
320,79,2980,1,8,0:3:0:0:
118,212,3143,1,8,0:0:0:0:
357,225,3306,1,8,0:0:0:0:
369,192,3388,1,12,0:0:0:0:
381,159,3469,1,8,0:0:0:0:
393,126,3551,1,12,0:0:0:0:
420,109,3632,5,8,0:0:0:0:
370,110,3714,1,8,0:0:0:0:
321,112,3795,1,8,0:3:0:0:
272,114,3877,1,8,0:3:0:0:
222,116,3958,6,0,B|155:129|114:77|114:77|73:78|46:105|46:105|78:99|114:105,2,251.999992309571,12|4|4,0:0|0:0|0:0,0:0:0:0:
197,27,5915,1,4,0:0:0:0:
214,46,6241,2,0,P|209:73|189:108,1,41.9999987182618,8|0,0:0|0:0,0:0:0:0:
257,165,6404,2,0,P|262:192|282:227,1,41.9999987182618,8|0,0:0|0:0,0:0:0:0:
440,80,6567,6,0,B|382:88|349:46|349:46|338:78|312:93|312:93|272:68|226:79,2,251.999992309571,12|4|4,0:0|0:0|0:0,0:0:0:0:
255,170,8523,1,12,0:0:0:0:
354,335,8686,1,8,0:0:0:0:
370,143,8849,1,8,0:0:0:0:
243,288,9013,1,12,0:0:0:0:
431,244,9176,6,0,P|460:220|485:134,1,125.999996154785,12|4,0:0|0:0,0:0:0:0:
251,128,9828,2,0,P|283:147|372:141,1,125.999996154785,4|4,0:0|0:0,0:0:0:0:
320,47,10480,5,4,0:0:0:0:
238,326,10806,1,4,0:0:0:0:
193,43,11132,5,12,0:0:0:0:
126,242,11295,1,8,0:0:0:0:
63,41,11458,1,8,0:0:0:0:
231,165,11621,1,12,0:0:0:0:
28,171,11784,5,8,0:0:0:0:
28,171,11866,1,8,0:0:0:0:
28,171,11947,1,8,0:0:0:0:
284,74,12110,1,8,0:0:0:0:
83,283,12273,5,12,0:0:0:0:
83,283,12355,1,8,0:0:0:0:
83,283,12436,1,8,0:0:0:0:
199,20,12599,1,8,0:0:0:0:
206,325,12763,5,8,0:0:0:0:
206,325,12844,1,8,0:0:0:0:
206,325,12926,1,8,0:0:0:0:
97,42,13089,1,8,0:0:0:0:
327,264,13252,5,12,0:0:0:0:
327,264,13333,1,8,0:0:0:0:
327,264,13415,2,0,L|378:259,1,35,8|8,0:0|0:0,0:0:0:0:
453,146,13578,1,8,0:0:0:0:
453,146,13659,1,8,0:0:0:0:
453,146,13741,5,0,1:3:0:0:
392,174,13822,1,0,1:3:0:0:
337,136,13904,1,0,1:3:0:0:
344,69,13985,1,0,1:3:0:0:
404,43,14067,6,0,B|400:111|400:111|431:151|431:151|423:258,1,210,0|0,1:3|0:0,0:0:0:0:
390,317,14393,5,12,0:0:0:0:
365,322,14474,1,8,0:0:0:0:
340,327,14556,1,8,0:0:0:0:
224,185,14719,1,8,0:0:0:0:
249,190,14801,1,8,0:0:0:0:
274,195,14882,1,8,0:0:0:0:
140,321,15045,2,0,L|125:242,1,52.5000020027161,12|8,0:0|0:0,0:0:0:0:
102,132,15208,1,8,0:0:0:0:
274,195,15371,1,8,0:0:0:0:
269,220,15453,1,8,0:0:0:0:
264,245,15534,1,8,0:0:0:0:
491,166,15697,5,12,0:0:0:0:
486,141,15779,1,8,0:0:0:0:
481,116,15860,1,8,0:0:0:0:
270,10,16023,1,8,0:0:0:0:
265,35,16105,1,8,0:0:0:0:
260,60,16186,1,8,0:0:0:0:
418,278,16349,2,0,L|403:199,1,52.5000020027161,12|8,0:0|0:0,0:0:0:0:
380,89,16513,1,8,0:0:0:0:
215,235,16676,1,8,0:0:0:0:
240,240,16757,1,8,0:0:0:0:
265,245,16839,1,8,0:0:0:0:
380,89,17002,5,12,0:0:0:0:
355,94,17083,1,8,0:0:0:0:
330,99,17165,1,8,0:0:0:0:
139,0,17328,1,8,0:0:0:0:
164,5,17409,1,8,0:0:0:0:
189,10,17491,1,8,0:0:0:0:
265,245,17654,2,0,L|186:230,1,52.5000020027161,12|8,0:0|0:0,0:0:0:0:
76,208,17817,1,8,0:0:0:0:
330,99,17980,1,8,0:0:0:0:
325,124,18061,1,8,0:0:0:0:
320,149,18143,1,8,0:0:0:0:
208,344,18306,5,12,0:0:0:0:
203,319,18388,1,8,0:0:0:0:
198,294,18469,1,8,0:0:0:0:
46,137,18632,1,8,0:0:0:0:
41,162,18714,1,8,0:0:0:0:
36,187,18795,1,8,0:0:0:0:
274,127,18958,6,8,L|195:112,1,52.5000020027161
286,298,19121,1,8,0:0:0:0:
286,298,19203,1,8,0:0:0:0:
286,298,19284,2,0,L|365:283,1,52.5000020027161,8|8,0:0|0:0,0:0:0:0:
375,113,19447,2,0,L|426:122,1,52.5000020027161,8|8,0:3|0:3,0:3:0:0:
490,259,19610,5,12,0:0:0:0:
486,294,19692,1,8,0:0:0:0:
482,329,19773,1,8,0:0:0:0:
309,199,19936,1,8,0:0:0:0:
313,234,20018,1,8,0:0:0:0:
317,269,20099,1,8,0:0:0:0:
432,13,20263,5,12,0:0:0:0:
428,48,20344,1,8,0:0:0:0:
424,83,20426,1,8,0:0:0:0:
245,47,20589,1,8,0:0:0:0:
249,82,20670,1,8,0:0:0:0:
253,117,20752,1,8,0:0:0:0:
387,261,20915,5,12,0:0:0:0:
352,265,20996,1,8,0:0:0:0:
317,269,21078,1,8,0:0:0:0:
183,109,21241,1,8,0:0:0:0:
218,113,21322,1,8,0:0:0:0:
253,117,21404,1,8,0:0:0:0:
57,376,21567,5,12,0:0:0:0:
61,341,21648,1,8,0:0:0:0:
65,306,21730,1,8,0:0:0:0:
241,304,21893,1,8,0:0:0:0:
237,269,21974,1,8,0:0:0:0:
233,234,22056,1,8,0:0:0:0:
22,89,22219,5,12,0:0:0:0:
57,93,22301,1,8,0:0:0:0:
92,97,22382,1,8,0:0:0:0:
233,234,22545,1,8,0:0:0:0:
198,238,22627,1,8,0:0:0:0:
163,242,22708,1,8,0:0:0:0:
347,0,22871,5,12,0:0:0:0:
312,4,22953,1,8,0:0:0:0:
277,8,23034,1,8,0:0:0:0:
387,180,23197,1,8,0:0:0:0:
422,184,23279,1,8,0:0:0:0:
457,188,23360,1,8,0:0:0:0:
225,106,23523,5,12,0:0:0:0:
312,270,23686,1,0,0:0:0:0:
439,80,23849,2,0,L|306:94,1,105.000004005432,0|8,0:0|0:0,0:0:0:0:
334,90,24094,1,8,0:0:0:0:
334,90,24176,1,8,0:0:0:0:
86,130,24339,1,8,0:0:0:0:
217,33,24502,5,8,0:0:0:0:
186,75,24583,1,8,0:0:0:0:
178,126,24665,1,8,0:0:0:0:
196,175,24746,1,8,0:0:0:0:
235,211,24828,6,0,B|349:247|334:160|475:225,1,210.000008010865,12|12,1:3|0:0,0:0:0:0:
286,116,25317,2,0,P|281:64|302:13,1,105.000004005432,0|4,1:3|0:0,0:0:0:0:
388,301,25643,1,8,0:0:0:0:
397,81,25806,2,0,P|430:41|481:20,1,105.000004005432,12|8,1:3|0:0,0:0:0:0:
388,301,26132,6,0,L|282:306,1,105.000004005432,4|8,1:3|0:0,0:0:0:0:
275,94,26458,1,12,0:0:0:0:
102,239,26621,2,0,L|97:343,1,105.000004005432,0|12,1:3|0:0,0:0:0:0:
287,384,26947,1,8,0:0:0:0:
279,198,27110,2,0,L|274:93,1,105.000004005432,12|0,1:3|0:0,0:0:0:0:
31,60,27436,5,12,1:3:0:0:
171,207,27599,1,8,0:0:0:0:
217,7,27763,2,0,B|315:-39|336:52|462:-19,1,210.000008010865,12|4,1:3|1:3,0:0:0:0:
480,181,28252,1,8,0:0:0:0:
422,0,28415,1,12,1:3:0:0:
274,93,28578,6,0,B|248:146|248:146|295:325,1,210.000008010865,8|8,1:3|0:0,0:0:0:0:
337,357,28985,1,8,0:0:0:0:
337,357,29067,2,0,L|476:360,1,105.000004005432,12|0,0:0|0:0,0:0:0:0:
359,154,29393,5,12,0:0:0:0:
146,266,29556,1,8,0:0:0:0:
384,300,29719,1,12,0:0:0:0:
211,132,29882,2,0,L|224:204,1,52.5000020027161,8|8,0:3|0:3,0:3:0:0:
252,369,30045,6,4,L|21:364,1,210.000008010865,12|12,1:3|0:0,0:0:0:0:
106,134,30534,2,0,L|236:131,1,105.000004005432,0|4,1:3|0:0,0:0:0:0:
344,251,30860,1,8,0:0:0:0:
350,23,31023,2,0,L|219:20,1,105.000004005432,12|8,1:3|0:0,0:0:0:0:
456,221,31349,6,0,P|487:163|474:89,1,105.000004005432,4|8,1:3|0:0,0:0:0:0:
270,172,31676,1,12,0:0:0:0:
408,324,31839,2,0,P|473:333|538:295,1,105.000004005432,0|12,1:3|0:0,0:0:0:0:
377,137,32165,1,8,0:0:0:0:
274,330,32328,2,0,P|208:320|143:358,1,105.000004005432,12|0,1:3|0:0,0:0:0:0:
80,96,32654,5,12,1:3:0:0:
51,317,32817,1,8,0:0:0:0:
270,172,32980,2,0,L|284:60,1,105.000004005432,12|0,1:3|0:0,0:0:0:0:
125,261,33306,2,8,L|138:365,1,105.000004005432,8|8,1:3|0:0,0:0:0:0:
319,358,33632,1,12,1:3:0:0:
198,196,33795,6,0,P|140:164|29:273,1,210.000008010865,8|8,1:3|0:0,0:0:0:0:
31,235,34203,1,8,0:0:0:0:
31,235,34284,1,12,0:0:0:0:
156,344,34447,1,8,0:0:0:0:
156,344,34529,1,8,0:0:0:0:
156,344,34610,5,12,0:0:0:0:
184,300,34692,1,8,0:0:0:0:
232,280,34773,1,8,0:0:0:0:
282,291,34855,1,8,0:0:0:0:
318,328,34936,1,8,0:3:0:0:
354,365,35018,1,8,0:3:0:0:
404,376,35099,1,12,0:3:0:0:
452,356,35181,1,8,0:3:0:0:
481,313,35263,6,0,L|476:260,2,35,8|8|8,1:3|0:0|0:0,0:0:0:0:
241,365,35589,1,8,0:0:0:0:
341,167,35752,1,8,1:3:0:0:
369,163,36078,5,8,0:0:0:0:
269,361,36241,1,8,1:3:0:0:
232,147,36404,1,8,0:0:0:0:
92,295,36567,5,12,1:3:0:0:
181,77,36730,1,8,0:0:0:0:
203,293,36893,1,8,0:0:0:0:
0,196,37056,1,8,1:3:0:0:
10,226,37382,5,8,0:0:0:0:
213,323,37545,1,8,1:3:0:0:
146,114,37708,1,8,0:0:0:0:
60,313,37871,6,0,L|56:347,2,35,8|8|8,1:3|0:0|0:0,0:0:0:0:
295,226,38197,1,8,1:3:0:0:
75,164,38360,1,8,0:0:0:0:
106,143,38686,5,8,0:0:0:0:
326,205,38849,1,8,1:3:0:0:
136,293,39013,1,8,1:3:0:0:
428,320,39176,5,12,0:0:0:0:
197,212,39339,1,8,0:0:0:0:
419,170,39502,1,8,0:0:0:0:
336,365,39665,1,8,0:0:0:0:
237,93,39828,5,8,0:0:0:0:
262,316,39991,1,12,0:0:0:0:
429,52,40154,5,8,0:0:0:0:
404,275,40317,1,8,0:0:0:0:
404,275,40398,1,8,0:0:0:0:
404,275,40480,6,0,L|407:309,2,35,8|8|8,1:3|0:0|0:0,0:0:0:0:
217,173,40806,1,8,0:0:0:0:
430,133,40969,1,8,1:3:0:0:
445,105,41295,5,8,0:0:0:0:
232,145,41458,1,8,1:3:0:0:
419,246,41621,1,8,0:0:0:0:
159,231,41784,5,12,1:3:0:0:
365,173,41947,1,8,0:0:0:0:
161,96,42110,1,8,0:0:0:0:
218,297,42273,1,8,1:3:0:0:
336,43,42436,5,12,0:0:0:0:
316,262,42599,1,8,0:0:0:0:
209,0,42763,5,12,1:3:0:0:
244,210,42926,1,8,0:0:0:0:
454,41,43089,6,0,L|441:185,1,140,4|4,1:3|1:3,0:0:0:0:
256,349,43741,2,0,L|243:205,1,140,4|4,1:3|1:3,0:0:0:0:
134,54,44393,6,0,B|75:110|75:110|273:92,1,280,4|4,1:3|1:3,0:0:0:0:
272,92,45371,1,4,0:0:0:0:
293,320,45697,6,0,L|175:313,1,119.000002269745,8|8,1:3|0:0,0:0:0:0:
47,103,46023,2,0,L|165:96,1,119.000002269745,12|0,1:3|0:0,0:0:0:0:
412,287,46349,1,8,1:3:0:0:
170,204,46513,1,8,0:0:0:0:
387,95,46676,1,12,1:3:0:0:
330,362,46839,6,0,L|212:369,1,119.000002269745,0|8,1:3|0:0,0:0:0:0:
15,311,47165,1,8,0:0:0:0:
219,180,47328,2,0,P|242:123|212:35,1,119.000002269745,12|0,0:0|0:0,0:0:0:0:
110,285,47654,1,8,0:0:0:0:
347,232,47817,1,8,0:0:0:0:
132,112,47980,2,0,L|14:105,1,119.000002269745,12|0,0:0|0:0,0:0:0:0:
207,274,48306,5,8,1:3:0:0:
267,35,48469,1,8,0:0:0:0:
347,232,48632,2,0,L|465:225,1,119.000002269745,12|0,1:3|0:0,0:0:0:0:
319,97,48958,1,8,1:3:0:0:
418,323,49121,1,8,0:0:0:0:
467,104,49284,1,12,1:3:0:0:
242,187,49447,6,0,P|233:245|256:299,1,119.000002269745,0|8,1:3|0:0,0:0:0:0:
359,81,49773,1,8,0:0:0:0:
9,182,49936,5,12,1:3:0:0:
347,232,50099,1,8,0:0:0:0:
125,19,50263,5,12,1:3:0:0:
286,343,50426,1,8,0:0:0:0:
340,1,50589,5,12,1:3:0:0:
163,339,50752,1,8,1:3:0:0:
163,339,50833,1,8,0:0:0:0:
163,339,50915,5,12,0:0:0:0:
22,169,51078,1,8,0:0:0:0:
259,134,51241,2,0,L|379:144,1,119.000002269745,12|0,1:3|0:0,0:0:0:0:
485,337,51567,1,8,1:3:0:0:
268,247,51730,1,8,0:0:0:0:
482,159,51893,1,12,1:3:0:0:
376,351,52056,6,0,L|256:361,1,119.000002269745,0|8,1:3|0:0,0:0:0:0:
48,255,52382,1,8,0:0:0:0:
277,128,52545,2,0,L|267:246,1,119.000002269745,12|0,1:3|0:0,0:0:0:0:
36,138,52871,6,0,L|26:19,1,119.000002269745,8|8,1:3|0:0,0:0:0:0:
177,207,53197,1,12,1:3:0:0:
346,49,53360,6,0,P|292:26|234:35,1,119.000002269745,0|8,1:3|0:0,0:0:0:0:
266,246,53686,1,8,0:0:0:0:
503,205,53849,2,0,L|513:86,1,119.000002269745,12|0,0:0|0:0,0:0:0:0:
277,130,54176,1,8,0:0:0:0:
403,329,54339,1,8,0:0:0:0:
389,28,54502,5,12,1:3:0:0:
314,356,54665,2,0,L|302:283,1,59.5000011348725,8|8,0:0|0:0,0:0:0:0:
214,25,54828,5,12,1:3:0:0:
282,368,54991,1,8,0:0:0:0:
175,24,55154,5,12,1:3:0:0:
89,363,55317,1,8,0:0:0:0:
464,153,55480,5,8,1:3:0:0:
65,130,55643,1,8,0:0:0:0:
372,384,55806,1,12,0:0:0:0:
275,1,55969,1,12,0:0:0:0:
124,368,56132,6,0,L|267:375,1,119.000002269745,12|8,1:3|0:0,0:0:0:0:
408,149,56458,1,0,1:3:0:0:
168,278,56621,1,8,0:0:0:0:
453,308,56784,5,12,1:3:0:0:
320,62,56947,1,8,0:0:0:0:
266,341,57110,1,8,1:3:0:0:
503,212,57273,1,8,1:3:0:0:
141,91,57436,5,12,0:0:0:0:
408,149,57599,1,8,0:0:0:0:
168,278,57763,1,8,0:0:0:0:
223,25,57926,1,8,0:0:0:0:
304,299,58089,5,12,0:0:0:0:
141,91,58252,1,8,0:0:0:0:
39,305,58415,1,8,0:0:0:0:
248,131,58578,1,8,0:0:0:0:
19,22,58741,6,0,L|12:165,1,119.000002269745,12|8,1:3|0:0,0:0:0:0:
241,348,59067,1,8,1:3:0:0:
0,256,59230,1,8,0:0:0:0:
211,123,59393,5,12,1:3:0:0:
120,384,59556,1,8,0:0:0:0:
66,138,59719,1,8,1:3:0:0:
340,241,59882,1,8,1:3:0:0:
243,0,60045,5,12,0:0:0:0:
216,261,60208,1,8,0:0:0:0:
424,159,60371,1,8,1:3:0:0:
140,129,60534,1,12,0:0:0:0:
361,347,60697,5,8,1:3:0:0:
389,12,60860,1,12,0:0:0:0:
168,265,61023,1,12,1:3:0:0:
498,189,61186,1,8,0:0:0:0:
189,56,61349,5,8,1:3:0:0:
153,16,61431,1,8,0:0:0:0:
102,3,61513,1,8,0:0:0:0:
52,20,61594,1,8,0:0:0:0:
19,61,61676,1,8,1:3:0:0:
14,113,61757,1,8,0:0:0:0:
39,160,61839,1,8,0:0:0:0:
86,185,61920,1,8,0:0:0:0:
138,181,62002,1,8,1:3:0:0:
190,176,62083,1,8,0:0:0:0:
236,202,62165,1,8,0:0:0:0:
261,248,62246,1,8,0:0:0:0:
256,301,62328,1,8,1:3:0:0:
224,342,62409,1,8,0:0:0:0:
174,359,62491,1,8,0:0:0:0:
123,345,62572,1,8,0:0:0:0:
87,306,62654,5,12,1:3:0:0:
132,268,62735,1,8,0:0:0:0:
190,257,62817,1,8,0:0:0:0:
246,275,62898,1,8,0:0:0:0:
287,317,62980,1,8,1:3:0:0:
337,348,63061,1,8,0:0:0:0:
395,345,63143,1,12,0:0:0:0:
442,309,63224,1,8,0:0:0:0:
459,253,63306,1,8,1:3:0:0:
442,197,63388,1,8,0:0:0:0:
396,160,63469,1,12,0:0:0:0:
338,156,63551,1,8,0:0:0:0:
288,186,63632,1,12,1:3:0:0:
242,224,63714,1,8,0:0:0:0:
184,235,63795,1,8,1:3:0:0:
128,217,63877,1,8,0:0:0:0:
88,175,63958,5,12,0:0:0:0:
363,252,64121,1,8,0:0:0:0:
66,335,64284,5,12,0:0:0:0:
389,239,64447,1,8,0:0:0:0:
11,161,64610,5,12,0:0:0:0:
414,224,64773,1,12,0:0:0:0:
117,26,64936,1,0,0:0:0:0:
66,335,65099,1,12,0:0:0:0:
366,303,65263,5,8,1:3:0:0:
33,247,65426,1,12,0:0:0:0:
218,30,65589,1,12,0:0:0:0:
171,352,65752,1,8,0:0:0:0:
171,352,65833,1,8,0:0:0:0:
171,352,65915,6,0,L|237:361,1,59.5000011348725,8|8,1:3|0:0,0:0:0:0:
316,193,66078,2,0,L|250:202,1,59.5000011348725,8|8,0:0|0:0,0:0:0:0:
393,370,66241,1,8,0:0:0:0:
393,370,66322,1,8,0:0:0:0:
393,370,66404,2,0,L|459:361,1,59.5000011348725,8|8,0:0|0:0,0:0:0:0:
475,121,66567,5,12,0:0:0:0:
445,125,66648,1,8,0:0:0:0:
416,129,66730,1,8,0:0:0:0:
309,19,66893,1,8,0:0:0:0:
302,48,66974,1,8,0:0:0:0:
296,77,67056,1,8,0:0:0:0:
156,140,67219,2,0,L|211:175,1,52.5000020027161,12|8,0:0|0:0,0:0:0:0:
156,140,67382,1,8,0:0:0:0:
217,325,67545,1,8,0:0:0:0:
240,307,67627,1,8,0:0:0:0:
264,289,67708,1,8,0:0:0:0:
411,330,67871,5,12,0:0:0:0:
402,303,67953,1,8,0:0:0:0:
393,274,68034,1,8,0:0:0:0:
475,121,68197,1,8,0:0:0:0:
445,125,68279,1,8,0:0:0:0:
416,129,68360,1,8,0:0:0:0:
270,2,68523,2,0,L|336:12,1,52.5000020027161,12|8,0:0|0:0,0:0:0:0:
270,2,68686,1,8,0:0:0:0:
173,167,68849,1,8,0:0:0:0:
143,163,68931,1,8,0:0:0:0:
114,159,69013,1,8,0:0:0:0:
284,94,69176,5,12,0:0:0:0:
280,123,69257,1,8,0:0:0:0:
276,153,69339,1,8,0:0:0:0:
151,222,69502,1,8,0:0:0:0:
147,193,69583,1,8,0:0:0:0:
143,163,69665,1,8,0:0:0:0:
18,94,69828,2,0,L|8:174,1,52.5000020027161,12|8,0:0|0:0,0:0:0:0:
18,94,69991,1,8,0:0:0:0:
220,116,70154,1,8,0:0:0:0:
216,87,70235,1,8,0:0:0:0:
212,57,70317,1,8,0:0:0:0:
86,286,70480,6,0,L|76:366,1,52.5000020027161,12|8,0:0|0:0,0:0:0:0:
86,286,70643,1,8,0:0:0:0:
296,254,70806,1,8,0:0:0:0:
292,225,70888,1,8,0:0:0:0:
288,195,70969,1,8,0:0:0:0:
127,77,71132,2,0,L|74:70,1,52.5000020027161,12|8,0:0|0:0,0:0:0:0:
265,10,71295,2,0,L|212:16,1,52.5000020027161,8|8,0:0|0:0,0:0:0:0:
343,97,71458,2,0,L|395:103,3,52.5000020027161,8|8|8|8,0:0|0:0|0:3|0:3,0:0:0:0:
436,16,71784,5,12,0:0:0:0:
477,48,71866,1,8,0:0:0:0:
495,99,71947,1,8,0:0:0:0:
483,152,72029,1,8,0:0:0:0:
447,190,72110,1,8,0:0:0:0:
405,223,72192,1,8,0:0:0:0:
388,273,72273,1,8,0:0:0:0:
399,326,72355,1,8,0:0:0:0:
437,365,72436,5,12,0:0:0:0:
445,311,72518,1,8,0:0:0:0:
427,260,72599,1,8,0:0:0:0:
390,222,72681,1,8,0:0:0:0:
339,205,72763,1,8,0:0:0:0:
285,213,72844,1,8,0:0:0:0:
242,245,72926,1,8,0:0:0:0:
218,294,73007,1,8,0:0:0:0:
218,347,73089,5,12,0:0:0:0:
172,374,73170,1,8,0:0:0:0:
118,380,73252,1,8,0:0:0:0:
66,365,73333,1,8,0:0:0:0:
25,329,73415,1,8,0:0:0:0:
2,280,73496,1,8,0:0:0:0:
0,227,73578,1,8,0:0:0:0:
19,177,73659,1,8,0:0:0:0:
57,139,73741,5,12,0:0:0:0:
85,185,73822,1,8,0:0:0:0:
133,208,73904,1,8,0:0:0:0:
187,202,73985,1,8,0:0:0:0:
228,169,74067,1,8,0:0:0:0:
269,134,74148,1,8,0:0:0:0:
322,129,74230,1,8,0:0:0:0:
371,153,74311,1,8,0:0:0:0:
399,198,74393,6,12,L|389:265,2,52.5000020027161,12|8|8,0:0|0:0|0:0,0:0:0:0:
302,35,74719,1,8,0:0:0:0:
372,339,74882,1,8,0:0:0:0:
223,90,75045,6,0,L|151:99,2,52.5000020027161,12|8|8,0:0|0:0|0:0,0:0:0:0:
397,194,75371,1,8,0:0:0:0:
63,117,75534,1,8,0:0:0:0:
330,10,75697,5,8,0:0:0:0:
324,62,75779,1,8,0:0:0:0:
319,114,75860,1,8,0:0:0:0:
313,166,75942,1,8,0:0:0:0:
276,179,76023,5,8,0:3:0:0:
278,205,76105,1,8,0:3:0:0:
281,231,76186,1,8,0:3:0:0:
284,257,76268,1,8,0:3:0:0:
345,292,76349,6,0,B|275:297|275:297|239:274|239:274|164:279,1,183.750007009506,8|0,0:0|0:0,0:0:0:0:
83,321,77002,5,12,1:3:0:0:
79,291,77083,1,8,0:0:0:0:
75,262,77165,1,8,0:0:0:0:
47,47,77328,1,8,0:0:0:0:
255,172,77491,1,8,1:3:0:0:
284,153,77817,5,8,0:0:0:0:
76,28,77980,1,8,1:3:0:0:
104,243,78143,1,8,0:0:0:0:
234,29,78306,1,12,1:3:0:0:
220,44,79284,5,8,1:3:0:0:
252,239,79447,1,8,0:0:0:0:
428,39,79610,5,12,1:3:0:0:
389,261,79773,1,8,0:0:0:0:
230,77,79936,1,8,1:3:0:0:
460,119,80099,1,8,0:0:0:0:
474,145,80426,5,8,0:0:0:0:
244,103,80589,1,8,1:3:0:0:
403,287,80752,1,8,1:3:0:0:
442,65,80915,1,12,0:0:0:0:
410,44,81730,5,8,0:0:0:0:
355,276,81893,1,8,0:0:0:0:
248,81,82056,1,8,0:0:0:0:
474,136,82219,5,12,1:3:0:0:
478,165,82301,1,8,0:0:0:0:
482,195,82382,1,8,0:0:0:0:
264,270,82545,1,8,0:0:0:0:
497,341,82708,1,8,1:3:0:0:
471,364,83034,5,8,0:0:0:0:
238,293,83197,1,8,1:3:0:0:
456,218,83360,1,8,0:0:0:0:
223,147,83523,1,12,1:3:0:0:
195,161,84502,5,8,1:3:0:0:
161,354,84665,1,8,0:0:0:0:
77,86,84828,5,12,1:3:0:0:
98,304,84991,1,8,0:0:0:0:
281,151,85154,1,8,1:3:0:0:
35,176,85317,1,8,0:0:0:0:
49,201,85643,5,8,0:0:0:0:
295,176,85806,1,8,1:3:0:0:
112,329,85969,1,8,1:3:0:0:
255,67,86132,5,12,0:0:0:0:
222,334,86295,1,8,0:0:0:0:
96,72,86458,5,12,0:0:0:0:
389,132,86621,1,8,0:0:0:0:
389,132,86703,1,8,0:0:0:0:
389,132,86784,5,8,0:0:0:0:
385,158,86866,1,8,0:3:0:0:
382,184,86947,1,8,0:3:0:0:
379,210,87029,1,8,0:3:0:0:
404,236,87110,5,8,0:0:0:0:
351,239,87192,1,8,0:0:0:0:
299,242,87273,1,8,0:0:0:0:
246,245,87355,1,8,0:0:0:0:
194,248,87436,6,0,L|188:176,1,52.5000020027161,4|0,1:3|0:0,0:0:0:0:
176,20,87599,1,0,0:0:0:0:
60,232,87763,1,12,0:0:0:0:
274,168,87926,1,0,1:3:0:0:
56,97,88089,5,12,0:0:0:0:
90,313,88252,1,8,0:0:0:0:
228,32,88415,1,12,1:3:0:0:
194,248,88578,1,0,0:0:0:0:
404,106,88741,5,12,1:3:0:0:
196,122,88904,2,0,B|161:125|161:125|141:122|141:122|116:130|116:130|67:135,1,105.000004005432,8|12,0:0|0:0,0:0:0:0:
285,203,89230,2,0,B|315:195|315:195|356:196,1,52.5000020027161,0|0,1:3|0:0,0:0:0:0:
404,106,89393,2,0,B|414:78|414:78|391:-23,1,105.000004005432,12|8,0:0|0:0,0:0:0:0:
194,248,89719,2,0,B|183:275|183:275|207:377,1,105.000004005432,12|0,1:3|0:0,0:0:0:0:
72,150,90045,5,12,1:3:0:0:
316,180,90208,1,8,0:0:0:0:
86,291,90371,1,12,1:3:0:0:
114,58,90534,1,0,0:0:0:0:
239,350,90697,5,12,1:3:0:0:
214,121,90860,1,8,0:0:0:0:
362,303,91023,1,12,1:3:0:0:
387,74,91186,1,0,1:3:0:0:
237,268,91349,5,12,0:0:0:0:
124,132,91513,2,0,L|207:121,1,52.5000020027161,8|0,0:0|0:0,0:0:0:0:
368,186,91676,2,0,L|315:179,1,52.5000020027161,12|0,0:0|0:0,0:0:0:0:
272,35,91839,1,8,0:0:0:0:
156,325,92002,5,12,0:0:0:0:
140,20,92165,1,8,0:0:0:0:
411,184,92328,5,12,0:0:0:0:
40,292,92491,1,8,0:0:0:0:
40,292,92572,1,8,0:0:0:0:
40,292,92654,1,12,1:3:0:0:
92,116,95263,5,12,1:3:0:0:
380,184,95426,1,8,0:0:0:0:
107,298,95589,1,12,1:3:0:0:
260,45,95752,1,12,0:0:0:0:
284,339,95915,5,8,1:3:0:0:
67,110,96078,1,12,0:0:0:0:
404,189,96241,1,12,1:3:0:0:
84,322,96404,1,8,0:0:0:0:
84,322,96485,1,8,0:0:0:0:
84,322,96567,5,8,1:3:0:0:
129,297,96648,1,8,0:0:0:0:
153,251,96730,1,8,0:0:0:0:
148,200,96811,1,8,0:0:0:0:
114,161,96893,1,8,0:3:0:0:
68,136,96974,1,8,0:3:0:0:
44,90,97056,1,8,0:3:0:0:
49,39,97138,1,8,0:3:0:0:
83,0,97219,6,0,B|112:53|175:44|175:44|193:21|220:17|220:17|255:44|310:35,1,245,12|0,1:3|0:0,0:0:0:0:
369,84,97871,6,0,L|432:90,2,35,12|0|0,0:0|0:0|0:0,0:0:0:0:
264,215,98299,2,0,L|201:221,2,35,4|0|0,1:3|0:0|0:0,0:0:0:0:
280,245,99156,6,0,L|245:248,2,35,4|0|0,0:0|0:0|0:0,0:0:0:0:
385,114,99585,2,0,L|419:117,2,35,0|0|0,1:3|0:0|0:0,0:0:0:0:
240,99,100013,1,4,0:0:0:0:
373,241,100228,2,0,L|369:275,2,35,0|0|0,1:3|0:0|0:0,0:0:0:0:
385,114,100656,1,0,1:3:0:0:
249,204,100871,2,0,L|252:238,1,35,12|0,0:0|0:0,0:0:0:0:
261,335,101085,1,8,0:0:0:0:
39,162,101299,6,0,L|42:127,2,35,12|0|0,0:0|0:0|0:0,0:0:0:0:
138,290,101728,2,0,L|141:324,2,35,4|0|0,1:3|0:0|0:0,0:0:0:0:
160,292,102585,6,0,L|163:326,2,35,4|0|0,1:3|0:0|0:0,0:0:0:0:
73,146,103013,5,8,1:3:0:0:
342,85,103228,1,12,1:3:0:0:
160,292,103442,1,12,0:0:0:0:
185,17,103656,1,8,1:3:0:0:
348,270,103871,5,8,0:0:0:0:
208,33,104085,1,8,1:3:0:0:
183,308,104299,1,12,0:0:0:0:
365,101,104513,1,8,0:0:0:0:
96,162,104728,6,0,L|62:170,2,35,12|0|0,0:0|0:0|0:0,0:0:0:0:
202,46,105156,2,0,L|236:54,2,35,4|0|0,1:3|0:0|0:0,0:0:0:0:
210,77,106013,6,0,L|218:111,2,35,4|0|0,3:0|3:0|3:0,3:0:0:0:
385,63,106442,5,8,1:3:0:0:
318,341,106656,1,8,0:0:0:0:
210,77,106871,1,8,0:0:0:0:
453,226,107085,2,0,L|400:231,1,35,8|8,1:3|3:0,3:0:0:0:
169,247,107299,1,12,0:0:0:0:
426,71,107513,5,8,1:3:0:0:
268,363,107728,1,12,1:3:0:0:
226,34,107942,1,8,0:0:0:0:
453,274,108156,1,12,0:0:0:0:
349,62,111585,5,12,1:3:0:0:
339,140,111692,1,8,0:0:0:0:
329,218,111799,1,8,0:0:0:0:
465,115,112013,1,8,0:0:0:0:
224,85,112228,1,8,0:0:0:0:
465,115,112442,1,4,0:0:0:0:
224,85,113299,5,12,0:0:0:0:
224,85,113942,5,8,0:0:0:0:
226,108,114013,1,8,0:0:0:0:
229,131,114085,1,8,0:0:0:0:
232,154,114156,1,12,0:0:0:0:
251,350,114371,1,8,0:0:0:0:
100,186,114585,1,8,0:0:0:0:
365,161,114799,1,8,0:0:0:0:
80,342,115013,5,12,0:0:0:0:
90,264,115121,1,8,0:0:0:0:
100,186,115228,1,8,0:0:0:0:
220,354,115442,1,8,0:0:0:0:
251,133,115656,1,8,0:0:0:0:
220,354,115871,1,4,0:0:0:0:
251,133,116728,5,12,0:0:0:0:
251,133,117371,5,8,0:0:0:0:
261,211,117478,1,8,0:0:0:0:
271,289,117585,5,12,0:0:0:0:
125,112,117728,1,8,0:0:0:0:
367,83,117871,1,8,0:0:0:0:
166,241,118013,2,0,L|43:226,1,105,12|0,0:0|0:0,0:0:0:0:
37,133,118442,5,12,0:0:0:0:
115,143,118549,1,8,0:0:0:0:
193,153,118656,1,8,0:0:0:0:
343,6,118871,1,8,0:0:0:0:
419,204,119085,1,8,0:0:0:0:
343,6,119299,1,4,0:0:0:0:
261,189,120156,5,12,0:0:0:0:
261,189,120799,5,8,0:0:0:0:
284,186,120871,1,8,0:0:0:0:
307,183,120942,1,8,0:0:0:0:
330,180,121013,1,12,0:0:0:0:
482,69,121228,1,8,0:0:0:0:
248,99,121442,1,8,0:0:0:0:
402,262,121656,1,8,0:0:0:0:
404,79,121871,5,12,0:0:0:0:
326,89,121978,1,8,0:0:0:0:
248,99,122085,1,8,0:0:0:0:
168,292,122299,1,8,0:0:0:0:
402,262,122513,1,8,0:0:0:0:
168,292,122728,1,4,0:0:0:0:
353,285,123585,6,0,B|309:257|257:293|257:293|260:298|260:298|257:293|257:293|206:327|151:279,1,210,6|8,0:0|0:0,0:0:0:0:
215,227,124335,1,8,0:0:0:0:
215,227,124442,5,12,0:0:0:0:
383,201,124585,1,8,0:0:0:0:
317,355,124728,1,8,0:0:0:0:
188,338,124871,5,8,0:0:0:0:
450,291,125014,1,8,0:0:0:0:
280,116,125156,1,8,0:0:0:0:
249,251,125299,5,12,0:0:0:0:
280,116,125406,1,8,0:0:0:0:
369,227,125513,1,8,0:0:0:0:
109,119,125728,5,8,0:0:0:0:
451,170,125942,1,8,0:0:0:0:
223,0,126156,2,0,B|227:83|227:83|255:112|255:112|260:212,1,210.000008010865,12|4,0:0|0:0,0:0:0:0:
259,198,127656,5,8,0:0:0:0:
254,232,127728,1,8,0:0:0:0:
249,267,127799,1,8,0:0:0:0:
244,301,127871,1,12,0:0:0:0:
152,118,128085,1,8,0:0:0:0:
60,324,128299,5,8,0:0:0:0:
134,211,128406,1,8,0:0:0:0:
162,344,128513,1,8,0:0:0:0:
112,109,128728,5,12,0:0:0:0:
140,242,128835,1,8,0:0:0:0:
214,129,128942,1,8,0:0:0:0:
310,375,129156,5,8,0:0:0:0:
365,178,129371,1,8,0:0:0:0:
485,295,129585,2,0,B|408:274|408:274|371:288|371:288|273:259,1,210.000008010865,12|4,0:0|0:0,0:0:0:0:
285,263,131085,5,8,0:0:0:0:
269,168,131192,1,8,0:0:0:0:
253,73,131299,5,12,0:0:0:0:
377,198,131442,1,8,0:0:0:0:
171,228,131585,1,8,0:0:0:0:
306,354,131728,2,0,B|297:306|297:306|290:296|290:296|278:237,1,105,12|0,0:0|0:0,0:0:0:0:
260,163,132156,5,12,0:0:0:0:
374,258,132263,1,8,0:0:0:0:
400,112,132371,1,8,0:0:0:0:
158,144,132585,5,8,0:0:0:0:
461,35,132799,1,8,0:0:0:0:
404,313,133013,2,0,B|321:322|321:322|292:351|292:351|186:362,1,210.000008010865,12|4,0:0|0:0,0:0:0:0:
206,359,134513,5,8,0:0:0:0:
201,325,134585,1,8,0:0:0:0:
196,290,134656,1,8,0:0:0:0:
191,256,134728,1,12,0:0:0:0:
160,70,134942,1,8,0:0:0:0:
0,256,135156,5,8,0:0:0:0:
74,143,135263,1,8,0:0:0:0:
102,276,135371,1,8,0:0:0:0:
88,53,135585,5,12,0:0:0:0:
162,166,135692,1,8,0:0:0:0:
190,33,135799,1,8,0:0:0:0:
318,216,136013,5,8,0:0:0:0:
251,114,136121,1,8,0:0:0:0:
226,234,136228,1,8,0:0:0:0:
284,28,136442,5,12,0:0:0:0:
344,119,136549,1,8,0:0:0:0:
366,11,136656,1,8,0:0:0:0:
414,188,136871,5,12,0:0:0:0:
488,173,136978,1,8,0:0:0:0:
512,101,137085,1,8,0:0:0:0:
461,45,137192,1,8,0:0:0:0:
387,61,137299,5,12,0:0:0:0:
358,88,137406,1,8,0:0:0:0:
322,101,137513,1,8,0:0:0:0:
283,99,137621,1,8,0:0:0:0:
261,69,137728,5,8,0:3:0:0:
237,54,137835,1,8,0:3:0:0:
209,54,137942,1,8,0:0:0:0:
183,63,138049,1,8,0:0:0:0:
149,42,138156,5,12,0:0:0:0:
153,85,138237,1,8,0:0:0:0:
157,129,138319,1,8,0:0:0:0:
161,172,138400,1,8,0:0:0:0:
195,180,138482,5,8,0:3:0:0:
192,201,138563,1,8,0:3:0:0:
190,223,138645,1,8,0:3:0:0:
188,244,138726,1,8,0:3:0:0:
147,275,138808,6,0,L|260:271,1,83.9999974365235,12|4,1:3|0:0,0:0:0:0:
96,180,139134,1,12,0:0:0:0:
96,180,139297,2,0,P|52:220|40:258,1,83.9999974365235,4|12,1:3|0:0,0:0:0:0:
152,88,139623,1,4,0:0:0:0:
152,88,139786,2,4,P|95:69|56:78,1,83.9999974365235,12|4,1:3|0:0,0:0:0:0:
307,25,140112,6,4,L|296:124,1,83.9999974365235,12|4,1:3|0:0,0:0:0:0:
424,195,140438,1,12,0:0:0:0:
424,195,140601,2,0,L|414:111,1,83.9999974365235,4|12,1:3|0:0,0:0:0:0:
237,221,140927,1,4,0:0:0:0:
236,220,141090,2,0,L|320:211,1,83.9999974365235,12|4,1:3|0:0,0:0:0:0:
75,335,141416,6,0,P|128:349|179:337,1,83.9999974365235,12|4,1:3|0:0,0:0:0:0:
129,233,141742,2,0,P|97:205|78:168,1,83.9999974365235,12|4,1:3|0:0,0:0:0:0:
198,52,142068,2,4,P|185:92|188:134,1,83.9999974365235,12|4,1:3|0:0,0:0:0:0:
299,105,142394,2,0,P|326:73|364:55,1,83.9999974365235,12|4,1:3|1:3,0:0:0:0:
397,170,142721,6,0,P|424:202|462:221,1,83.9999974365235,12|4,0:0|0:0,0:0:0:0:
340,266,143047,2,0,P|337:308|351:348,1,83.9999974365235,12|4,0:0|0:0,0:0:0:0:
232,294,143373,2,0,P|200:321|182:359,1,83.9999974365235,12|4,0:0|0:0,0:0:0:0:
53,246,143699,2,0,P|93:233|135:236,1,83.9999974365235,12|8,0:0|0:0,0:0:0:0:
170,218,143943,1,8,0:0:0:0:
170,218,144025,6,0,L|181:113,1,83.9999974365235,12|4,1:3|0:0,0:0:0:0:
326,190,144351,1,12,0:0:0:0:
326,190,144514,2,0,L|317:106,1,83.9999974365235,4|12,1:3|0:0,0:0:0:0:
145,35,144840,1,4,0:0:0:0:
145,35,145003,2,0,P|195:29|243:54,1,83.9999974365235,12|4,1:3|0:0,0:0:0:0:
400,98,145329,6,0,L|317:106,1,83.9999974365235,12|4,1:3|0:0,0:0:0:0:
250,238,145655,1,12,0:0:0:0:
250,238,145818,2,0,L|333:229,1,83.9999974365235,4|12,1:3|0:0,0:0:0:0:
142,197,146144,1,4,0:0:0:0:
142,197,146308,2,4,P|163:161|197:136,1,83.9999974365235,14|4,1:3|0:0,0:0:0:0:
475,259,146634,6,0,P|452:295|403:319,1,83.9999974365235,12|4,1:3|0:0,0:0:0:0:
374,210,146960,2,0,P|332:219|280:201,1,83.9999974365235,12|4,1:3|0:0,0:0:0:0:
337,103,147286,2,4,P|301:80|277:31,1,83.9999974365235,12|4,1:3|0:0,0:0:0:0:
386,1,147612,1,12,1:3:0:0:
127,31,147775,5,8,1:3:0:0:
193,109,147938,2,0,L|200:198,1,83.9999974365235,12|4,0:0|0:0,0:0:0:0:
133,270,148264,1,12,0:0:0:0:
349,223,148427,5,12,0:0:0:0:
251,346,148590,1,12,0:0:0:0:
280,140,148753,5,12,0:0:0:0:
336,320,148916,1,12,0:0:0:0:
458,221,149079,1,8,0:3:0:0:
458,221,149161,1,8,0:3:0:0:
458,221,149242,6,0,L|372:233,1,83.9999974365235,12|0,1:3|0:0,0:0:0:0:
190,195,149568,1,8,0:0:0:0:
280,140,149731,2,0,P|294:195|279:245,1,83.9999974365235,0|8,1:3|0:0,0:0:0:0:
191,310,150058,1,0,0:0:0:0:
106,207,150221,2,0,L|189:195,1,83.9999974365235,8|0,1:3|0:0,0:0:0:0:
8,62,150547,6,0,L|91:73,1,83.9999974365235,8|0,1:3|0:0,0:0:0:0:
198,21,150873,1,8,0:0:0:0:
246,124,151036,2,0,L|329:112,1,83.9999974365235,0|12,1:3|0:0,0:0:0:0:
420,28,151362,1,0,0:0:0:0:
437,154,151525,1,8,1:3:0:0:
224,91,151688,5,8,0:0:0:0:
274,235,151851,2,0,L|190:223,1,83.9999974365235,8|0,1:3|0:0,0:0:0:0:
100,345,152177,2,0,L|17:357,1,83.9999974365235,12|0,1:3|0:0,0:0:0:0:
36,205,152503,2,0,L|47:121,1,83.9999974365235,12|0,1:3|0:0,0:0:0:0:
141,42,152829,1,12,1:3:0:0:
227,224,152992,5,8,1:3:0:0:
271,133,153155,2,0,P|225:121|175:135,1,83.9999974365235,8|0,0:0|0:0,0:0:0:0:
318,41,153481,2,0,P|352:66|372:103,1,83.9999974365235,12|0,0:0|0:0,0:0:0:0:
476,75,153808,2,0,L|467:158,1,83.9999974365235,8|0,0:0|0:0,0:0:0:0:
197,324,154134,2,0,L|188:240,1,83.9999974365235,12|0,0:0|0:0,0:0:0:0:
121,49,154460,6,0,P|87:78|67:119,1,83.9999974365235,8|0,1:3|0:0,0:0:0:0:
189,241,154786,1,8,0:0:0:0:
270,149,154949,2,0,P|261:105|236:67,1,83.9999974365235,0|8,1:3|0:0,0:0:0:0:
68,112,155275,1,0,0:0:0:0:
108,228,155438,1,12,1:3:0:0:
240,72,155601,1,8,0:0:0:0:
366,249,155764,6,0,P|327:234|286:236,1,83.9999974365235,8|0,1:3|0:0,0:0:0:0:
96,331,156090,1,8,0:0:0:0:
96,331,156253,2,0,P|138:333|176:318,1,83.9999974365235,0|8,1:3|0:0,0:0:0:0:
185,287,156497,1,8,0:0:0:0:
170,239,156579,1,8,0:0:0:0:
178,190,156660,1,8,0:0:0:0:
206,148,156742,1,12,1:3:0:0:
249,123,156824,1,12,0:0:0:0:
283,88,156905,1,12,0:0:0:0:
281,39,156987,1,12,0:0:0:0:
243,9,157068,6,0,B|219:37|218:77|240:105|269:118|269:118|234:105|199:103|172:128|164:159|164:159|255:145|325:274|200:374|100:309|98:230|98:230|98:226|98:226|125:251|159:256|189:248,1,728,12|0,1:3|0:0,0:0:0:0:
198,230,159351,6,0,P|227:248|274:244,1,62.9999980773926,8|0,0:0|0:0,0:0:0:0:
145,121,159677,6,0,B|111:106|73:111|44:129|44:129|27:169|36:214|63:245,1,210.000008010864,12|4,1:3|1:3,0:0:0:0:
52,229,160981,5,12,0:0:0:0:
251,87,161144,1,8,0:0:0:0:
173,318,161308,1,8,0:0:0:0:
99,84,161471,1,8,0:3:0:0:
295,230,161634,1,8,0:0:0:0:
19,239,161797,5,12,0:0:0:0:
271,59,161960,1,12,0:0:0:0:
172,352,162123,1,8,0:0:0:0:
172,352,162204,1,8,0:0:0:0:
172,352,162286,6,0,B|237:341|237:341|272:364|272:364|382:347,1,210.000008010865,12|4,1:3|1:3,0:0:0:0:
373,349,163590,5,8,0:0:0:0:
375,336,163671,1,8,0:0:0:0:
377,323,163753,1,8,0:0:0:0:
380,310,163834,1,8,0:0:0:0:
382,297,163916,2,0,L|372:238,1,35,8|8,0:0|0:0,0:0:0:0:
259,141,164079,5,12,0:0:0:0:
257,154,164160,1,8,0:0:0:0:
255,167,164242,1,8,0:0:0:0:
252,180,164323,1,8,0:0:0:0:
250,193,164405,2,0,L|260:252,1,35,8|8,0:0|0:0,0:0:0:0:
175,341,164568,5,12,1:3:0:0:
137,363,164649,1,8,0:0:0:0:
94,367,164731,1,8,1:3:0:0:
54,352,164813,1,8,0:3:0:0:
23,321,164894,6,0,B|56:272|60:208|34:154|34:154|49:212|25:260,1,280,12|8,1:3|1:3,0:0:0:0:
26,256,165873,1,12,1:3:0:0:
198,81,166199,5,12,1:3:0:0:
232,67,166851,5,12,1:3:0:0:
266,53,167503,5,12,0:0:0:0:
232,322,167666,1,12,0:0:0:0:
100,84,167829,2,0,L|156:111,1,35,8|8,0:0|0:0,0:0:0:0:
372,210,167992,5,12,0:0:0:0:
78,267,168155,1,12,0:0:0:0:
283,50,168318,2,0,L|277:101,1,35,8|8,0:0|0:0,0:0:0:0:
242,376,168481,5,12,1:3:0:0:
82,87,168644,1,12,0:0:0:0:
380,226,168808,2,0,L|325:236,1,35,8|8,1:3|0:0,0:0:0:0:
57,288,168971,5,12,0:0:0:0:
283,50,169134,1,12,1:3:0:0:
242,376,169297,2,0,L|211:330,1,35,8|8,0:0|0:0,0:0:0:0:
52,73,169460,6,0,B|97:30|97:30|119:159,1,183.750007009506,8|0,1:3|0:0,0:0:0:0:
59,196,170112,6,4,B|119:172|166:220|166:220|213:268|280:242,1,238.00000453949,12|12,1:3|1:3,0:0:0:0:
422,103,170601,1,0,1:3:0:0:
217,49,170764,2,12,P|213:115|243:167,1,119.000002269745,8|8,1:3|0:0,1:3:0:0:
339,343,171090,1,12,1:3:0:0:
422,103,171253,2,0,L|272:87,1,119.000002269745,0|8,1:3|0:0,0:0:0:0:
242,355,171579,5,8,0:0:0:0:
104,188,171742,2,0,L|254:172,1,119.000002269745,12|0,0:0|0:0,0:0:0:0:
76,92,172068,1,8,0:0:0:0:
306,224,172231,1,8,0:0:0:0:
60,266,172394,2,0,P|15:213|18:158,1,119.000002269745,12|0,0:0|0:0,0:0:0:0:
293,64,172721,6,0,B|332:109|332:109|321:153|321:153|323:162|323:162|300:243,1,178.500003404617,8|0,1:3|0:0,0:0:0:0:
251,275,173047,2,0,L|110:293,1,119.000002269745,12|0,1:3|0:0,0:0:0:0:
420,81,173373,2,0,B|401:160|401:160|411:200|411:200|385:228|385:228|356:331,1,238.00000453949,8|12,1:3|1:3,0:0:0:0:
236,132,173862,1,0,1:3:0:0:
493,157,174025,5,8,0:0:0:0:
281,345,174188,1,8,0:0:0:0:
318,61,174351,1,12,1:3:0:0:
461,281,174514,1,8,0:0:0:0:
85,128,174677,5,12,1:3:0:0:
420,81,174840,1,8,0:0:0:0:
132,337,175003,5,12,1:3:0:0:
196,27,175166,1,8,0:0:0:0:
417,280,175329,6,0,B|365:315|365:315|246:271|246:271|178:308,1,238.00000453949,12|12,1:3|1:3,0:0:0:0:
7,248,175818,1,0,0:0:0:0:
204,81,175981,2,0,L|176:209,1,119.000002269745,8|8,1:3|0:0,0:0:0:0:
253,372,176308,1,12,1:3:0:0:
461,195,176471,2,0,L|339:210,1,119.000002269745,0|8,1:3|0:0,0:0:0:0:
82,164,176797,5,8,0:0:0:0:
134,357,176960,2,0,L|256:372,1,119.000002269745,12|0,1:3|0:0,0:0:0:0:
177,68,177286,1,8,1:3:0:0:
322,229,177449,1,8,0:0:0:0:
98,259,177612,1,12,1:3:0:0:
285,49,177775,6,0,B|262:138|262:138|225:164|225:164|201:270,1,238.00000453949,0|8,1:3|0:0,0:0:0:0:
58,82,178264,2,0,L|176:67,1,119.000002269745,12|0,0:0|0:0,0:0:0:0:
440,243,178590,2,0,L|321:228,1,119.000002269745,8|8,0:0|0:0,0:0:0:0:
55,190,178916,5,12,0:3:0:0:
371,39,179079,2,0,L|347:86,1,45.4999979171754,8|8,0:0|0:0,0:0:0:0:
206,347,179242,5,12,1:3:0:0:
158,0,179405,1,8,0:0:0:0:
416,257,179568,5,12,1:3:0:0:
41,186,179731,1,8,0:3:0:0:
332,32,179894,5,8,0:0:0:0:
328,54,179976,1,8,0:0:0:0:
325,77,180057,1,8,0:0:0:0:
321,99,180138,1,8,0:0:0:0:
299,116,180221,5,8,0:0:0:0:
305,161,180302,1,8,0:0:0:0:
311,206,180384,1,8,0:0:0:0:
318,251,180465,1,8,0:0:0:0:
324,296,180547,5,12,1:3:0:0:
409,19,180710,1,8,0:0:0:0:
192,138,180873,1,8,0:0:0:0:
512,242,181036,1,8,0:0:0:0:
234,321,181199,5,12,0:0:0:0:
307,32,181362,1,8,0:0:0:0:
471,289,181525,1,8,0:0:0:0:
398,0,181688,1,8,0:0:0:0:
196,238,181851,5,12,0:0:0:0:
498,172,182014,1,8,0:0:0:0:
233,9,182177,1,8,0:0:0:0:
293,283,182340,1,8,0:0:0:0:
91,4,182503,5,12,0:0:0:0:
62,284,182666,1,8,0:0:0:0:
293,115,182829,1,8,0:0:0:0:
0,83,182992,1,8,0:0:0:0:
293,283,183155,5,12,0:0:0:0:
233,9,183318,1,8,0:0:0:0:
62,284,183481,1,8,0:0:0:0:
117,18,183644,1,8,0:0:0:0:
403,256,183808,5,12,0:0:0:0:
109,185,183971,1,8,0:0:0:0:
388,95,184134,1,8,0:0:0:0:
330,362,184297,1,8,0:0:0:0:
171,34,184460,5,12,0:0:0:0:
219,319,184623,1,8,0:0:0:0:
370,70,184786,1,8,0:0:0:0:
43,209,184949,5,12,0:0:0:0:
352,296,185112,1,8,0:0:0:0:
143,34,185275,5,12,0:0:0:0:
255,303,185438,2,0,B|264:250|264:250|270:247|270:247|279:183,1,119.000002269745,12|8,0:0|0:0,0:0:0:0:
41,52,185764,5,12,0:0:0:0:
66,100,185845,1,8,0:0:0:0:
113,130,185927,1,8,0:0:0:0:
168,134,186008,1,8,0:0:0:0:
218,109,186090,1,8,0:0:0:0:
270,91,186171,1,8,0:0:0:0:
324,105,186253,1,8,0:0:0:0:
361,145,186334,1,8,0:0:0:0:
372,199,186416,1,8,0:0:0:0:
351,251,186497,1,8,0:0:0:0:
306,283,186579,1,8,0:0:0:0:
251,286,186660,1,8,0:0:0:0:
203,259,186742,1,8,0:0:0:0:
167,216,186823,1,8,0:0:0:0:
116,193,186905,1,8,0:0:0:0:
60,194,186986,1,8,0:0:0:0:
11,219,187068,5,8,0:0:0:0:
1,273,187149,1,8,0:0:0:0:
21,324,187231,1,8,0:0:0:0:
63,360,187312,1,8,0:0:0:0:
119,370,187394,1,8,0:0:0:0:
170,351,187475,1,8,0:0:0:0:
207,309,187557,1,8,0:0:0:0:
218,254,187638,1,8,0:0:0:0:
199,202,187721,1,8,0:0:0:0:
199,147,187802,1,8,0:0:0:0:
227,99,187884,1,8,0:0:0:0:
276,71,187965,1,8,0:0:0:0:
332,72,188047,1,8,0:0:0:0:
379,101,188128,1,8,0:0:0:0:
405,149,188210,1,8,0:0:0:0:
404,205,188291,1,8,0:0:0:0:
376,252,188373,5,12,0:0:0:0:
321,243,188454,1,8,0:0:0:0:
279,207,188536,1,8,0:0:0:0:
263,154,188617,1,8,0:0:0:0:
277,100,188699,1,12,0:0:0:0:
317,63,188780,1,8,0:0:0:0:
372,52,188862,1,8,0:0:0:0:
423,71,188943,1,8,0:0:0:0:
457,115,189025,5,12,0:0:0:0:
431,163,189106,1,8,0:0:0:0:
383,191,189188,1,8,0:0:0:0:
328,189,189269,1,8,0:0:0:0:
282,158,189351,1,12,0:0:0:0:
236,127,189433,1,8,0:0:0:0:
180,125,189514,1,8,0:0:0:0:
133,153,189596,1,8,0:0:0:0:
107,201,189677,5,8,0:0:0:0:
173,236,189758,1,8,0:0:0:0:
247,219,189840,1,8,0:0:0:0:
293,159,189922,1,8,0:0:0:0:
289,84,190003,5,8,0:0:0:0:
279,82,190085,1,8,0:0:0:0:
269,80,190166,1,8,0:0:0:0:
260,78,190248,1,8,0:0:0:0:
250,77,190329,5,8,0:0:0:0:
180,105,190410,1,8,0:0:0:0:
147,173,190492,1,8,0:0:0:0:
169,245,190573,1,8,0:0:0:0:
234,283,190655,5,8,0:0:0:0:
234,208,190736,1,8,0:0:0:0:
180,156,190818,1,8,0:0:0:0:
105,160,190899,1,8,0:0:0:0:
57,218,190981,6,0,B|5:210|0:159|0:159|67:100|149:154|152:218|127:261|127:261|180:212|250:229|250:229|198:147|242:90|242:90|274:109|304:108|304:108|341:153|321:187|321:187|292:165|304:108|304:108|335:71|370:72|370:72|415:117|416:183|403:220|367:257,1,1120,12|0,0:0|0:0,0:0:0:0:
