osu file format v14

[General]
AudioFilename: audio.mp3
AudioLeadIn: 0
PreviewTime: 159596
Countdown: 0
SampleSet: Drum
StackLeniency: 0.5
Mode: 0
LetterboxInBreaks: 0
WidescreenStoryboard: 1

[Editor]
Bookmarks: 75942,96721,135576
DistanceSpacing: 2.3
BeatDivisor: 6
GridSize: 16
TimelineZoom: 2.1

[Metadata]
Title:Sad spring
TitleUnicode:Sad spring
Artist:Draw the Emotional
ArtistUnicode:Draw the Emotional
Creator:Resurreccion
Version:Seni's Hard
Source:東方妖々夢 ~ Perfect Cherry Blossom.
Tags:touhou doujin Seni Akitoshi -Laura- Corinn Seated with Liquor ゆよゆっぺ yuyoyuppe ルシュカ Luschka neko 幽雅に咲かせ、墨染の桜 ~ Border of Life yuuga ni sakase, sumizome no sakura bloom nobly, ink-black ink black cherry blossom stage 6 ネクロファンタジア Necrofantasia comiket 83 c83 saigyouji yuyuko yukari yakumo video game japanese rock metal 東方project project zun team shanghai alice pcb th07 th 07 youyoumu 妖々夢 ghostly dream phantasm stage yukari yakumo 八雲 紫 foreground eclipse
BeatmapID:2082107
BeatmapSetID:994604

[Difficulty]
HPDrainRate:5
CircleSize:3.8
OverallDifficulty:7
ApproachRate:8
SliderMultiplier:1.4
SliderTickRate:1

[Events]
//Background and Video events
0,0,"Seni pic.png",0,0
//Break Periods
2,92971,94513
2,98071,110835
2,139007,142949
2,144225,148492
//Storyboard Layer 0 (Background)
//Storyboard Layer 1 (Fail)
//Storyboard Layer 2 (Pass)
//Storyboard Layer 3 (Foreground)
//Storyboard Layer 4 (Overlay)
//Storyboard Sound Samples

[TimingPoints]
1350,326.086956521739,4,3,2,70,1,0
1676,-100,4,3,6,70,0,0
1839,-100,4,3,11,70,0,0
2165,-100,4,3,6,70,0,0
2328,-100,4,3,2,70,0,0
2654,-100,4,3,6,70,0,0
2817,-100,4,3,11,70,0,0
2980,-100,4,3,6,70,0,0
3143,-100,4,3,2,70,0,0
3306,-100,4,3,5,70,0,0
3632,-100,4,3,1,70,0,0
3795,-100,4,3,11,70,0,0
3958,-142.857142857143,4,3,9,60,0,0
4610,-142.857142857143,4,3,1,60,0,0
6241,-142.857142857143,4,3,5,60,0,0
6322,-142.857142857143,4,3,5,5,0,0
6404,-142.857142857143,4,3,5,60,0,0
6485,-142.857142857143,4,3,5,5,0,0
6567,-142.857142857143,4,3,9,60,0,0
7219,-142.857142857143,4,3,1,60,0,0
8523,-142.857142857143,4,3,2,60,0,0
8686,-142.857142857143,4,3,5,60,0,0
9013,-142.857142857143,4,3,6,60,0,0
9176,-142.857142857143,4,3,5,60,0,0
10480,-142.857142857143,4,3,2,60,0,0
11295,-142.857142857143,4,3,6,60,0,0
11458,-100,4,3,6,60,0,0
11621,-100,4,3,2,60,0,0
11784,-100,4,3,6,60,0,0
12273,-100,4,3,2,60,0,0
12355,-100,4,3,6,60,0,0
13252,-100,4,3,2,60,0,0
13333,-100,4,3,6,60,0,0
13415,-100,4,3,11,60,0,0
13578,-100,4,3,5,60,0,0
13741,-100,4,3,1,60,0,0
14311,-100,4,3,1,5,0,0
14393,-100,4,3,9,80,0,0
14474,-100,4,3,6,80,0,0
15045,-100,4,3,2,80,0,0
15127,-100,4,3,6,80,0,0
16349,-100,4,3,2,80,0,0
16431,-100,4,3,6,80,0,0
17654,-100,4,3,2,80,0,0
17735,-100,4,3,6,80,0,0
18958,-100,4,3,2,80,0,0
19040,-100,4,3,6,80,0,0
19284,-100,4,3,2,80,0,0
19447,-100,4,3,11,80,0,0
19610,-100,4,3,9,80,0,0
19692,-100,4,3,6,80,0,0
20263,-100,4,3,2,80,0,0
20344,-100,4,3,6,80,0,0
21567,-100,4,3,2,80,0,0
21648,-100,4,3,6,80,0,0
22871,-100,4,3,2,80,0,0
22953,-100,4,3,6,80,0,0
24176,-100,4,3,2,80,0,0
24339,-100,4,3,6,80,0,0
24502,-100,4,3,2,80,0,0
24828,-100,4,3,9,80,0,0
24909,-100,4,3,1,80,0,0
25643,-100,4,3,5,80,0,0
25806,-100,4,3,1,80,0,0
25969,-100,4,3,5,80,0,0
26132,-100,4,3,1,80,0,0
26295,-100,4,3,5,80,0,0
26458,-100,4,3,1,80,0,0
26784,-100,4,3,5,80,0,0
27110,-100,4,3,1,80,0,0
27436,-100,4,3,5,80,0,0
27763,-100,4,3,1,80,0,0
28007,-100,4,3,1,5,0,0
28089,-100,4,3,1,80,0,0
28252,-100,4,3,5,80,0,0
28415,-100,4,3,1,80,0,0
28578,-100,4,3,5,80,0,0
29067,-100,4,3,1,80,0,0
29393,-100,4,3,5,80,0,0
29719,-100,4,3,1,80,0,0
29882,-100,4,3,11,80,0,0
29964,-100,4,3,12,80,0,0
30045,-100,4,3,9,80,0,0
30127,-100,4,3,1,80,0,0
30860,-100,4,3,5,80,0,0
31023,-100,4,3,1,80,0,0
31186,-100,4,3,5,80,0,0
31349,-100,4,3,1,80,0,0
31513,-100,4,3,5,80,0,0
31676,-100,4,3,1,80,0,0
32002,-100,4,3,5,80,0,0
32328,-100,4,3,1,80,0,0
32654,-100,4,3,5,80,0,0
32980,-100,4,3,1,80,0,0
33469,-100,4,3,5,80,0,0
33551,-100,4,3,5,5,0,0
33632,-100,4,3,1,80,0,0
33795,-100,4,3,5,80,0,0
33958,-100,4,3,5,80,0,0
34121,-100,4,3,5,80,0,0
34284,-100,4,3,1,80,0,0
34447,-100,4,3,5,80,0,0
34610,-100,4,3,2,80,0,0
34773,-100,4,3,6,80,0,0
34936,-100,4,3,12,70,0,0
35099,-100,4,3,7,70,0,0
35263,-133.333333333333,4,3,6,60,0,0
36567,-133.333333333333,4,3,2,60,0,0
36730,-133.333333333333,4,3,6,60,0,0
39176,-133.333333333333,4,3,2,60,0,0
39339,-133.333333333333,4,3,6,60,0,0
39665,-133.333333333333,4,3,11,60,0,0
39828,-133.333333333333,4,3,6,60,0,0
39991,-133.333333333333,4,3,2,60,0,0
40154,-133.333333333333,4,3,6,60,0,0
40317,-133.333333333333,4,3,2,60,0,0
40480,-133.333333333333,4,3,6,60,0,0
41784,-133.333333333333,4,3,2,60,0,0
41947,-133.333333333333,4,3,6,60,0,0
42436,-133.333333333333,4,3,2,60,0,0
42599,-133.333333333333,4,3,6,60,0,0
42763,-133.333333333333,4,3,2,60,0,0
42926,-133.333333333333,4,3,6,60,0,0
43089,-200,4,3,2,60,0,0
43170,-200,4,3,4,60,0,0
45371,-200,4,3,9,60,0,0
45697,-80,4,3,5,90,0,1
46023,-80,4,3,1,90,0,1
46349,-80,4,3,5,90,0,1
46676,-80,4,3,1,90,0,1
47002,-80,4,3,5,90,0,1
47328,-80,4,3,1,90,0,1
47654,-80,4,3,5,90,0,1
47980,-80,4,3,1,90,0,1
48306,-80,4,3,5,90,0,1
48632,-80,4,3,1,90,0,1
48958,-80,4,3,5,90,0,1
49284,-80,4,3,1,90,0,1
49610,-80,4,3,5,90,0,1
49936,-80,4,3,2,90,0,1
50099,-80,4,3,6,90,0,1
50263,-80,4,3,2,90,0,1
50426,-80,4,3,6,90,0,1
50589,-80,4,3,2,90,0,1
50752,-80,4,3,6,90,0,1
50915,-80,4,3,9,90,0,1
50996,-80,4,3,5,90,0,1
51241,-80,4,3,1,90,0,1
51567,-80,4,3,5,90,0,1
51893,-80,4,3,1,90,0,1
52219,-80,4,3,5,90,0,1
52545,-80,4,3,1,90,0,1
52871,-80,4,3,5,90,0,1
53197,-80,4,3,1,90,0,1
53523,-80,4,3,5,90,0,1
53849,-80,4,3,1,90,0,1
54176,-80,4,3,5,90,0,1
54502,-80,4,3,2,90,0,1
54665,-80,4,3,6,90,0,1
54828,-80,4,3,2,90,0,1
54991,-80,4,3,6,90,0,1
55154,-80,4,3,2,90,0,1
55317,-80,4,3,6,90,0,1
55480,-80,4,3,1,100,0,1
55643,-80,4,3,5,100,0,1
56051,-80,4,3,1,90,0,1
56132,-100,4,3,9,90,0,1
56214,-100,4,3,6,90,0,1
56784,-100,4,3,2,90,0,1
56947,-100,4,3,6,90,0,1
58089,-100,4,3,2,90,0,1
58252,-100,4,3,6,90,0,1
58741,-100,4,3,9,90,0,1
58822,-100,4,3,6,90,0,1
59393,-100,4,3,2,90,0,1
59556,-100,4,3,6,90,0,1
60534,-100,4,3,2,90,0,1
60697,-100,4,3,6,90,0,1
60860,-100,4,3,2,90,0,1
61186,-100,4,3,6,90,0,1
61349,-100,4,3,5,90,0,1
62654,-100,4,3,6,90,0,1
63143,-100,4,3,2,90,0,1
63224,-100,4,3,6,90,0,1
63469,-100,4,3,2,90,0,1
63551,-100,4,3,6,90,0,1
63632,-100,4,3,2,90,0,1
63714,-100,4,3,6,90,0,1
63958,-100,4,3,2,90,0,1
64121,-100,4,3,6,90,0,1
64284,-100,4,3,2,90,0,1
64447,-100,4,3,6,90,0,1
64610,-100,4,3,2,90,0,1
65263,-100,4,3,6,90,0,1
65426,-100,4,3,2,90,0,1
65752,-100,4,3,6,90,0,1
65915,-100,4,3,11,90,0,1
66078,-100,4,3,5,90,0,1
66241,-100,4,3,1,90,0,1
66567,-100,4,3,6,80,0,0
67219,-100,4,3,2,80,0,0
67301,-100,4,3,6,80,0,0
68523,-100,4,3,2,80,0,0
68605,-100,4,3,6,80,0,0
69828,-100,4,3,2,80,0,0
69909,-100,4,3,6,80,0,0
70480,-100,4,3,2,80,0,0
70561,-100,4,3,6,80,0,0
71132,-100,4,3,2,80,0,0
71214,-100,4,3,6,80,0,0
71458,-100,4,3,2,80,0,0
71621,-100,4,3,12,80,0,0
71784,-100,4,3,6,80,0,0
72436,-100,4,3,2,80,0,0
72518,-100,4,3,6,80,0,0
73741,-100,4,3,2,80,0,0
73822,-100,4,3,6,80,0,0
74393,-100,4,3,2,80,0,0
74474,-100,4,3,6,80,0,0
74719,-100,4,3,2,80,0,0
74882,-100,4,3,6,80,0,0
75045,-100,4,3,2,80,0,0
75127,-100,4,3,6,80,0,0
75371,-100,4,3,2,80,0,0
75534,-100,4,3,6,80,0,0
75697,-100,4,3,2,80,0,0
75860,-100,4,3,6,80,0,0
76023,-100,4,3,12,70,0,0
76186,-100,4,3,5,70,0,0
76349,-200,4,3,1,70,0,0
76920,-200,4,3,1,5,0,0
77002,-133.333333333333,4,3,9,60,0,0
77083,-133.333333333333,4,3,6,60,0,0
78306,-133.333333333333,4,3,2,60,0,0
79284,-133.333333333333,4,3,6,60,0,0
80915,-133.333333333333,4,3,2,60,0,0
81730,-133.333333333333,4,3,6,60,0,0
83523,-133.333333333333,4,3,2,60,0,0
84502,-133.333333333333,4,3,6,60,0,0
86132,-133.333333333333,4,3,2,60,0,0
86295,-133.333333333333,4,3,6,60,0,0
86458,-133.333333333333,4,3,2,60,0,0
86621,-133.333333333333,4,3,6,60,0,0
86784,-133.333333333333,4,3,1,60,0,0
86866,-133.333333333333,4,3,11,60,0,0
86947,-133.333333333333,4,3,5,60,0,0
87110,-133.333333333333,4,3,1,60,0,0
87273,-133.333333333333,4,3,5,60,0,0
87436,-100,4,3,9,60,0,0
87518,-100,4,3,1,5,0,0
87599,-100,4,3,1,60,0,0
88089,-100,4,3,5,60,0,0
88415,-100,4,3,1,60,0,0
88741,-100,4,3,5,60,0,0
89067,-100,4,3,1,60,0,0
89311,-100,4,3,1,5,0,0
89393,-100,4,3,5,60,0,0
89719,-100,4,3,1,60,0,0
90045,-100,4,3,5,60,0,0
90371,-100,4,3,1,60,0,0
90616,-100,4,3,1,5,0,0
90697,-100,4,3,5,60,0,0
91023,-100,4,3,1,60,0,0
91349,-100,4,3,5,60,0,0
91594,-100,4,3,1,5,0,0
91676,-100,4,3,1,60,0,0
91757,-100,4,3,1,5,0,0
91839,-100,4,3,5,60,0,0
92002,-100,4,3,2,60,0,0
92165,-100,4,3,6,60,0,0
92328,-100,4,3,2,60,0,0
92491,-100,4,3,6,60,0,0
92654,-100,4,3,1,45,0,0
95263,-100,4,3,2,80,0,0
95426,-100,4,3,6,80,0,0
95589,-100,4,3,2,80,0,0
95915,-100,4,3,6,80,0,0
96078,-100,4,3,2,80,0,0
96404,-100,4,3,6,80,0,0
96567,-100,4,3,2,80,0,0
96730,-100,4,3,6,80,0,0
96893,-100,4,3,12,80,0,0
97056,-100,4,3,5,80,0,0
97219,-100,4,3,1,60,0,0
97790,-100,4,3,1,5,0,0
97871,428.571428571429,4,3,7,60,1,0
98299,-100,4,3,1,60,0,0
101085,-100,4,3,5,60,0,0
101299,-100,4,3,6,60,0,0
101406,-100,4,3,1,60,0,0
103013,-100,4,3,5,60,0,0
103228,-100,4,3,2,60,0,0
103656,-100,4,3,6,60,0,0
103871,-100,4,3,11,60,0,0
103978,-100,4,3,6,60,0,0
104299,-100,4,3,2,60,0,0
104513,-100,4,3,6,60,0,0
104728,-100,4,3,7,60,0,0
104835,-100,4,3,1,60,0,0
106656,-100,4,3,5,60,0,0
106871,-100,4,3,11,60,0,0
106978,-100,4,3,6,60,0,0
107299,-100,4,3,2,60,0,0
107513,-100,4,3,6,60,0,0
107728,-100,4,3,2,60,0,0
107942,-100,4,3,6,60,0,0
108156,-100,4,3,2,60,0,0
111585,-100,4,3,9,80,0,0
111692,-100,4,3,6,80,0,0
112442,-100,4,3,2,80,0,0
113942,-100,4,3,6,80,0,0
115871,-100,4,3,2,80,0,0
117371,-100,4,3,6,80,0,0
117585,-100,4,3,2,80,0,0
117728,-100,4,3,6,80,0,0
118013,-100,4,3,2,80,0,0
118335,-100,4,3,1,5,0,0
118442,-100,4,3,9,80,0,0
118549,-100,4,3,6,80,0,0
119299,-100,4,3,2,80,0,0
120799,-100,4,3,6,80,0,0
122728,-100,4,3,2,80,0,0
124228,-100,4,3,6,80,0,0
124442,-100,4,3,2,80,0,0
124585,-100,4,3,6,80,0,0
125013,-100,4,3,2,80,0,0
125085,-100,4,3,2,80,0,0
125156,-100,4,3,2,80,0,0
125228,-100,4,3,2,80,0,0
125299,-100,4,3,9,80,0,0
125406,-100,4,3,6,80,0,0
126156,-100,4,3,2,80,0,0
127656,-100,4,3,6,80,0,0
128728,-100,4,3,2,80,0,0
128835,-100,4,3,6,80,0,0
129585,-100,4,3,2,80,0,0
131085,-100,4,3,6,80,0,0
131299,-100,4,3,2,80,0,0
131442,-100,4,3,6,80,0,0
131728,-100,4,3,2,80,0,0
132049,-100,4,3,2,5,0,0
132156,-100,4,3,9,80,0,0
132263,-100,4,3,6,80,0,0
133013,-100,4,3,2,80,0,0
134513,-100,4,3,6,80,0,0
136442,-100,4,3,2,80,0,0
136549,-100,4,3,6,80,0,0
136871,-100,4,3,2,80,0,0
136978,-100,4,3,6,80,0,0
137299,-100,4,3,2,80,0,0
137513,-100,4,3,6,80,0,0
137728,-100,4,3,11,80,0,0
137942,-100,4,3,5,80,0,0
138156,326.086956521739,4,3,1,70,1,0
138319,-100,4,3,5,70,0,0
138482,-100,4,3,12,60,0,0
138808,326.086956521739,4,3,7,60,1,0
138889,-100,4,3,4,60,0,0
139134,-100,4,3,8,60,0,0
139297,-100,4,3,4,60,0,0
139460,-100,4,3,8,60,0,0
139623,-100,4,3,4,60,0,0
139786,-100,4,3,8,60,0,0
139949,-100,4,3,4,60,0,0
140112,-100,4,3,8,60,0,0
140275,-100,4,3,4,60,0,0
140438,-100,4,3,8,60,0,0
140601,-100,4,3,4,60,0,0
140764,-100,4,3,8,60,0,0
140927,-100,4,3,4,60,0,0
141090,-100,4,3,8,60,0,0
141253,-100,4,3,1,60,0,0
141416,-100,4,3,8,60,0,0
141579,-100,4,3,4,60,0,0
141742,-100,4,3,8,60,0,0
141905,-100,4,3,4,60,0,0
142068,-100,4,3,8,60,0,0
142231,-100,4,3,4,60,0,0
142394,-100,4,3,8,60,0,0
142558,-100,4,3,4,60,0,0
142721,-100,4,3,8,60,0,0
142884,-100,4,3,4,60,0,0
143047,-100,4,3,8,60,0,0
143210,-100,4,3,4,60,0,0
143373,-100,4,3,8,60,0,0
143536,-100,4,3,4,60,0,0
143699,-100,4,3,2,60,0,0
143862,-100,4,3,12,60,0,0
143943,-100,4,3,11,60,0,0
144025,-100,4,3,7,60,0,0
144106,-100,4,3,4,60,0,0
144351,-100,4,3,8,60,0,0
144514,-100,4,3,4,60,0,0
144677,-100,4,3,8,60,0,0
144840,-100,4,3,4,60,0,0
145003,-100,4,3,8,60,0,0
145166,-100,4,3,4,60,0,0
145329,-100,4,3,8,60,0,0
145492,-100,4,3,4,60,0,0
145655,-100,4,3,8,60,0,0
145818,-100,4,3,4,60,0,0
145981,-100,4,3,8,60,0,0
146144,-100,4,3,4,60,0,0
146308,-100,4,3,8,60,0,0
146471,-100,4,3,1,60,0,0
146634,-100,4,3,8,60,0,0
146797,-100,4,3,4,60,0,0
146960,-100,4,3,8,60,0,0
147123,-100,4,3,4,60,0,0
147286,-100,4,3,8,60,0,0
147449,-100,4,3,4,60,0,0
147612,-100,4,3,8,60,0,0
147775,-100,4,3,4,60,0,0
147938,-100,4,3,8,60,0,0
148101,-100,4,3,4,60,0,0
148264,-100,4,3,8,60,0,0
148427,-100,4,3,4,60,0,0
148590,-100,4,3,8,60,0,0
148753,-100,4,3,4,60,0,0
149079,-100,4,3,12,60,0,0
149161,-100,4,3,11,60,0,0
149242,-100,4,3,7,60,0,0
149324,-100,4,3,8,60,0,0
151688,-100,4,3,4,60,0,0
151851,-100,4,3,8,60,0,0
152096,-100,4,3,8,5,0,0
152177,-100,4,3,8,60,0,0
152992,-100,4,3,4,60,0,0
153155,-100,4,3,8,60,0,0
153481,-100,4,3,4,60,0,0
153808,-100,4,3,8,60,0,0
154134,-100,4,3,2,60,0,0
154215,-100,4,3,8,60,0,0
154786,-100,4,3,4,60,0,0
155112,-100,4,3,8,60,0,0
155601,-100,4,3,4,60,0,0
155764,-100,4,3,8,60,0,0
156090,-100,4,3,4,60,0,0
156579,-100,4,3,8,60,0,0
156742,-100,4,3,4,60,0,0
157068,-100,4,3,9,80,0,0
157150,-100,4,3,1,5,0,0
159351,-100,4,3,1,90,0,0
159514,-100,4,3,1,5,0,0
159677,-100,4,3,7,90,0,0
159759,-100,4,3,2,90,0,0
161144,-100,4,3,6,90,0,0
161471,-100,4,3,11,90,0,0
161634,-100,4,3,6,90,0,0
161797,-100,4,3,2,90,0,0
162123,-100,4,3,6,90,0,0
162286,-100,4,3,7,90,0,0
162367,-100,4,3,2,90,0,0
163916,-100,4,3,6,60,0,0
164079,-100,4,3,2,60,0,0
164405,-100,4,3,6,60,0,0
164568,-100,4,3,2,60,0,0
164731,-100,4,3,12,60,0,0
164894,-100,4,3,9,60,0,0
164976,-100,4,3,6,60,0,0
167503,-100,4,3,2,60,0,0
167829,-100,4,3,6,60,0,0
167992,-100,4,3,2,60,0,0
168318,-100,4,3,6,60,0,0
168481,-100,4,3,2,60,0,0
168808,-100,4,3,6,60,0,0
168971,-100,4,3,2,60,0,0
169297,-100,4,3,6,60,0,0
169460,-100,4,3,12,60,0,0
170030,-100,4,3,1,5,0,0
170112,-80,4,3,9,90,0,1
170193,-80,4,3,5,90,0,1
170438,-80,4,3,1,90,0,1
170601,-80,4,3,5,90,0,1
171090,-80,4,3,1,90,0,1
171416,-80,4,3,5,90,0,1
171742,-80,4,3,1,90,0,1
172068,-80,4,3,5,90,0,1
172394,-80,4,3,1,90,0,1
172721,-80,4,3,5,90,0,1
172965,-80,4,3,1,5,0,1
173047,-80,4,3,1,90,0,1
173373,-80,4,3,5,90,0,1
173699,-80,4,3,1,90,0,1
174025,-80,4,3,5,90,0,1
174351,-80,4,3,1,90,0,1
174514,-80,4,3,5,90,0,1
174677,-80,4,3,2,90,0,1
174840,-80,4,3,6,90,0,1
175003,-80,4,3,2,90,0,1
175166,-80,4,3,6,90,0,1
175248,-80,4,3,12,90,0,1
175329,-80,4,3,9,90,0,1
175411,-80,4,3,1,90,0,1
175492,-80,4,3,5,90,0,1
175655,-80,4,3,1,90,0,1
175981,-80,4,3,5,90,0,1
176308,-80,4,3,1,90,0,1
176634,-80,4,3,5,90,0,1
176960,-80,4,3,1,90,0,1
177286,-80,4,3,5,90,0,1
177612,-80,4,3,1,90,0,1
178101,-80,4,3,5,90,0,1
178264,-80,4,3,1,90,0,1
178590,-80,4,3,5,90,0,1
178916,-80,4,3,2,90,0,1
179079,-80,4,3,6,90,0,1
179242,-80,4,3,2,90,0,1
179405,-80,4,3,6,90,0,1
179568,-80,4,3,2,90,0,1
179731,-80,4,3,6,90,0,1
179894,-80,4,3,2,90,0,1
180058,-80,4,3,6,90,0,1
180221,-80,4,3,11,90,0,1
180384,-80,4,3,12,90,0,1
180547,-100,4,3,9,90,0,0
180628,-100,4,3,6,90,0,0
181199,-100,4,3,2,90,0,0
181362,-100,4,3,6,90,0,0
182503,-100,4,3,2,90,0,0
182666,-100,4,3,6,90,0,0
183808,-100,4,3,2,90,0,0
183971,-100,4,3,6,90,0,0
184949,-100,4,3,2,90,0,0
185112,-100,4,3,6,90,0,0
185275,-100,4,3,2,90,0,0
185601,-100,4,3,6,90,0,0
185683,-100,4,3,1,90,0,0
185764,-100,4,3,7,90,0,0
185846,-100,4,3,5,90,0,0
186416,-100,4,3,1,90,0,0
186498,-100,4,3,5,90,0,0
187721,-100,4,3,1,90,0,0
187802,-100,4,3,5,90,0,0
188373,-100,4,3,6,90,0,0
188699,-100,4,3,2,90,0,0
188780,-100,4,3,6,90,0,0
189025,-100,4,3,2,90,0,0
189106,-100,4,3,6,90,0,0
189677,-100,4,3,2,90,0,0
189840,-100,4,3,6,90,0,0
190003,-100,4,3,11,90,0,0
190166,-100,4,3,5,90,0,0
190329,-100,4,3,1,90,0,0
190492,-100,4,3,5,90,0,0
190655,-100,4,3,1,90,0,0
190981,-100,4,3,9,90,0,0
191144,-100,4,3,9,90,0,0
191307,-100,4,3,9,85,0,0
191634,-100,4,3,9,80,0,0
191960,-100,4,3,9,75,0,0
192286,-100,4,3,9,70,0,0
192612,-100,4,3,9,65,0,0
192938,-100,4,3,9,60,0,0
193264,-100,4,3,9,55,0,0
193590,-100,4,3,9,50,0,0
193916,-100,4,3,9,45,0,0
194242,-100,4,3,9,40,0,0
194568,-100,4,3,9,35,0,0
194894,-100,4,3,9,30,0,0
195221,-100,4,3,9,25,0,0
195547,-100,4,3,9,20,0,0
195873,-100,4,3,9,15,0,0
196199,-100,4,3,9,10,0,0
196525,-100,4,3,9,5,0,0

[Colours]
Combo1 : 0,128,192
Combo2 : 255,128,255
Combo3 : 192,192,192

[HitObjects]
326,52,1350,5,12,0:0:0:0:
326,52,1513,1,12,0:0:0:0:
399,105,1676,2,0,L|391:195,1,70,8|8,0:0|0:3,0:0:0:0:
302,206,2002,2,0,L|308:136,1,70,8|8,0:3|0:0,0:0:0:0:
236,76,2328,5,12,0:0:0:0:
236,76,2491,1,12,0:0:0:0:
145,116,2654,2,0,P|177:153|216:166,1,70,8|8,0:0|0:3,0:0:0:0:
219,253,2980,2,0,L|213:323,1,70,8|8,0:3|0:0,0:0:0:0:
124,358,3306,1,8,0:0:0:0:
115,356,3387,1,12,0:0:0:0:
106,354,3469,1,8,0:0:0:0:
98,352,3550,1,12,0:0:0:0:
89,350,3632,2,0,L|86:315,3,35,8|8|8|8,0:0|0:0|0:3|0:3,0:0:0:0:
78,307,3958,6,0,B|99:240|99:240|86:200|86:200|111:115,1,195.999994018555,12|4,0:0|0:0,0:0:0:0:
402,119,5263,6,0,B|426:200|426:200|413:240|413:240|434:307,1,195.999994018555,4|4,0:0|0:0,0:0:0:0:
323,202,6241,5,8,0:0:0:0:
323,202,6404,1,8,0:0:0:0:
276,285,6567,2,0,B|238:257|238:257|141:288|141:288|87:252,1,195.999994018555,12|4,0:0|0:0,0:0:0:0:
236,99,7871,6,0,B|274:127|274:127|371:96|371:96|425:132,1,195.999994018555,4|12,0:0|0:0,0:0:0:0:
364,203,8686,1,8,0:0:0:0:
364,203,8849,2,0,L|372:269,1,48.9999985046387,8|12,0:0|0:0,0:0:0:0:
433,308,9176,6,0,B|393:350|339:332|339:332|287:313|241:353,1,195.999994018555,12|4,0:0|0:0,0:0:0:0:
234,193,10154,1,4,0:0:0:0:
365,244,10480,1,4,0:0:0:0:
412,109,10806,1,4,0:0:0:0:
281,58,11132,5,12,0:0:0:0:
281,58,11295,1,8,0:0:0:0:
218,118,11458,2,0,L|142:127,1,70,8|12,0:0|0:0,0:0:0:0:
107,43,11784,6,0,L|112:-8,2,35,8|8|8,0:0|0:0|0:0,0:0:0:0:
54,118,12110,2,0,P|58:161|89:196,1,70,8|12,0:0|0:0,0:0:0:0:
72,182,12355,1,8,0:0:0:0:
72,182,12436,1,8,0:0:0:0:
163,216,12599,1,8,0:0:0:0:
97,276,12763,2,0,L|93:310,2,35,8|8|8,0:0|0:0|0:0,0:0:0:0:
186,301,13089,6,0,L|288:294,1,70,8|12,0:0|0:0,0:0:0:0:
255,296,13333,1,8,0:0:0:0:
255,296,13415,1,8,0:0:0:0:
310,226,13578,1,8,0:0:0:0:
360,311,13741,1,0,1:3:0:0:
360,311,13822,1,0,1:3:0:0:
360,311,13904,2,0,L|364:345,2,35,0|0|0,1:3|1:3|1:3,0:0:0:0:
469,211,14393,6,0,L|373:200,1,70,12|8,0:0|0:0,0:0:0:0:
364,121,14719,2,0,L|356:72,2,35,8|8|8,0:0|0:0|0:0,0:0:0:0:
308,191,15045,2,0,P|314:239|341:275,1,70,12|8,0:0|0:0,0:0:0:0:
303,347,15371,1,8,0:0:0:0:
303,347,15453,1,8,0:0:0:0:
303,347,15534,1,8,0:0:0:0:
228,273,15697,6,0,L|158:280,1,70,12|8,0:0|0:0,0:0:0:0:
83,340,16023,2,0,L|31:331,2,35,8|8|8,0:0|0:0|0:0,0:0:0:0:
74,250,16349,2,0,L|66:180,1,70,12|8,0:0|0:0,0:0:0:0:
118,103,16676,1,8,0:0:0:0:
118,103,16757,1,8,0:0:0:0:
118,103,16839,1,8,0:0:0:0:
158,186,17002,6,0,P|194:196|232:193,1,70,12|8,0:0|0:0,0:0:0:0:
289,125,17328,2,0,L|332:129,2,35,8|8|8,0:0|0:0|0:0,0:0:0:0:
247,44,17654,2,0,P|213:34|178:35,1,70,12|8,0:0|0:0,0:0:0:0:
118,103,17980,1,8,0:0:0:0:
118,103,18061,1,8,0:0:0:0:
118,103,18143,1,8,0:0:0:0:
158,186,18306,6,0,L|140:268,1,70,12|8,0:0|0:0,0:0:0:0:
200,326,18632,2,0,L|212:380,2,35,8|8|8,0:0|0:0|0:0,0:0:0:0:
261,263,18958,1,8,0:0:0:0:
269,265,19039,1,8,0:0:0:0:
277,267,19121,1,8,0:0:0:0:
286,269,19202,1,8,0:0:0:0:
294,271,19284,2,0,L|301:236,3,35,8|8|8|8,0:0|0:0|0:3|0:3,0:0:0:0:
311,225,19610,6,0,L|387:217,1,70,12|8,0:0|0:0,0:0:0:0:
444,146,19936,2,0,P|444:104|425:69,1,70,8|8,0:0|0:0,0:0:0:0:
354,35,20263,2,0,L|278:43,1,70,12|8,0:0|0:0,0:0:0:0:
228,114,20589,1,8,0:0:0:0:
228,114,20670,1,8,0:0:0:0:
228,114,20752,1,8,0:0:0:0:
152,51,20915,6,0,P|107:39|56:53,1,70,12|8,0:0|0:0,0:0:0:0:
14,99,21241,2,0,L|1:181,1,70,8|8,0:0|0:0,0:0:0:0:
51,246,21567,2,0,P|96:258|147:244,1,70,12|8,0:0|0:0,0:0:0:0:
191,201,21893,1,8,0:0:0:0:
191,201,21974,1,8,0:0:0:0:
191,201,22056,1,8,0:0:0:0:
265,151,22219,6,0,L|351:168,1,70,12|8,0:0|0:0,0:0:0:0:
402,225,22545,2,0,B|413:262|413:262|392:312,1,70,8|8,0:0|0:0,0:0:0:0:
326,338,22871,2,0,L|240:355,1,70,12|8,0:0|0:0,0:0:0:0:
200,288,23197,1,8,0:0:0:0:
200,288,23279,1,8,0:0:0:0:
200,288,23360,1,8,0:0:0:0:
115,333,23523,6,0,B|100:268|100:268|118:235|118:235|108:191|108:191|112:186|112:186|95:120,1,210,12|8,0:0|0:0,0:0:0:0:
98,132,24094,1,8,0:0:0:0:
98,132,24176,1,8,0:0:0:0:
192,147,24339,1,8,0:0:0:0:
153,66,24502,2,0,L|145:16,3,35,8|8|8|8,0:0|0:0|0:0|0:0,0:0:0:0:
160,34,24828,6,0,B|226:40|226:40|231:46|231:46|324:56,1,140,12|12,1:3|0:0,0:0:0:0:
354,125,25317,2,0,P|330:203|376:266,1,140,0|8,1:3|0:0,0:0:0:0:
491,196,25806,2,0,P|448:188|420:187,1,70,12|8,1:3|0:0,0:0:0:0:
254,101,26132,6,0,L|99:106,1,140,4|12,1:3|0:0,0:0:0:0:
46,33,26621,2,0,P|17:87|35:171,1,140,0|8,1:3|0:0,0:0:0:0:
116,266,27110,2,0,P|122:219|116:192,1,70,12|0,1:3|0:0,0:0:0:0:
52,335,27436,5,12,1:3:0:0:
52,335,27599,1,8,0:0:0:0:
138,357,27763,2,0,P|179:340|212:272,1,105,12|0,1:3|0:0,0:0:0:0:
211,273,28089,2,0,P|205:226|211:199,1,70,4|8,1:3|0:0,0:0:0:0:
278,144,28415,1,12,1:3:0:0:
295,237,28578,6,0,P|349:256|421:216,1,140,8|8,1:3|0:0,0:0:0:0:
429,209,28985,1,8,0:0:0:0:
429,209,29067,2,0,L|418:133,1,70,12|0,0:0|0:0,0:0:0:0:
337,105,29393,2,0,L|348:29,1,70,12|8,0:0|0:0,0:0:0:0:
432,0,29719,1,12,0:0:0:0:
432,0,29882,1,8,0:3:0:0:
490,75,30045,6,4,L|515:230,1,140,12|12,1:3|0:0,0:0:0:0:
458,295,30534,2,0,L|306:290,1,140,0|8,1:3|0:0,0:0:0:0:
233,242,31023,2,0,P|221:290|233:336,1,70,12|8,1:3|0:0,0:0:0:0:
315,203,31349,6,0,P|335:132|303:53,1,140,4|12,1:3|0:0,0:0:0:0:
238,26,31839,2,0,L|86:31,1,140,0|8,1:3|0:0,0:0:0:0:
41,119,32328,2,0,L|118:121,1,70,12|0,1:3|0:0,0:0:0:0:
196,156,32654,5,12,1:3:0:0:
196,156,32817,1,8,0:0:0:0:
238,237,32980,2,0,L|307:238,1,70,12|0,1:3|0:0,0:0:0:0:
396,244,33306,2,8,P|409:291|390:359,1,105,8|0,1:3|0:0,0:0:0:0:
387,356,33632,2,0,L|317:357,1,70,12|8,1:3|1:3,0:0:0:0:
227,329,33958,6,0,L|157:327,1,70,4|8,0:0|0:0,0:0:0:0:
157,327,34203,1,8,0:0:0:0:
157,327,34284,1,12,0:0:0:0:
72,278,34447,1,8,0:0:0:0:
72,278,34529,1,8,0:0:0:0:
72,278,34610,2,0,L|37:276,3,35,12|8|8|8,0:0|0:0|0:0|0:0,0:0:0:0:
159,239,34936,2,0,L|193:237,3,35,8|8|12|8,0:3|0:3|0:3|0:3,0:0:0:0:
248,147,35263,6,0,L|174:145,2,52.5000020027161,8|8|8,1:3|0:0|0:0,0:0:0:0:
345,152,35752,1,8,1:3:0:0:
345,152,36078,5,8,0:0:0:0:
442,157,36241,2,0,L|516:159,1,52.5000020027161,8|8,1:3|0:0,0:0:0:0:
400,247,36567,6,0,L|474:249,2,52.5000020027161,12|8|8,1:3|0:0|0:0,0:0:0:0:
303,242,37056,1,8,1:3:0:0:
303,242,37382,5,8,0:0:0:0:
206,237,37545,2,0,L|132:235,1,52.5000020027161,8|8,1:3|0:0,0:0:0:0:
46,210,37871,6,0,L|-1:208,2,26.2500010013581,8|8|8,1:3|0:0|0:0,0:0:0:0:
123,130,38197,1,8,1:3:0:0:
123,130,38360,1,8,0:0:0:0:
123,130,38686,5,8,0:0:0:0:
189,56,38849,2,0,P|194:30|191:4,1,52.5000020027161,8|8,1:3|1:3,0:0:0:0:
284,76,39176,2,0,P|278:101|281:127,2,52.5000020027161,12|8|8,0:0|0:0|0:0,0:0:0:0:
371,113,39665,1,8,0:0:0:0:
371,113,39828,2,0,P|406:110|446:112,1,52.5000020027161,8|12,0:0|0:0,0:0:0:0:
503,205,40154,2,0,P|468:202|428:204,1,52.5000020027161,8|8,0:0|0:0,0:0:0:0:
380,266,40398,1,8,0:0:0:0:
380,266,40480,6,0,L|371:332,2,52.5000020027161,8|8|8,1:3|0:0|0:0,0:0:0:0:
280,232,40969,1,8,1:3:0:0:
280,232,41295,5,8,0:0:0:0:
195,181,41458,2,0,L|202:128,1,52.5000020027161,8|8,1:3|0:0,0:0:0:0:
296,85,41784,2,0,L|288:32,2,52.5000020027161,12|8|8,1:3|0:0|0:0,0:0:0:0:
383,121,42273,1,8,1:3:0:0:
407,203,42436,2,0,P|372:205|333:195,1,52.5000020027161,12|8,0:0|0:0,0:0:0:0:
280,279,42763,2,0,P|315:277|354:287,1,52.5000020027161,12|8,1:3|0:0,0:0:0:0:
305,359,43089,6,0,B|266:368|235:352|235:352|203:340|167:355,3,140,4|4|4|4,1:3|1:3|1:3|1:3,0:0:0:0:
89,332,45371,1,4,0:0:0:0:
89,332,45697,6,0,P|76:290|93:228,1,87.5,8|8,1:3|0:0,0:0:0:0:
129,173,46023,2,0,P|142:131|125:69,1,87.5,12|0,1:3|0:0,0:0:0:0:
50,124,46349,2,0,B|136:166|146:92|260:138,1,175,8|12,1:3|1:3,0:0:0:0:
312,162,46839,6,0,P|415:144|438:55,1,175,0|8,1:3|0:0,0:0:0:0:
338,0,47328,2,0,P|334:45|349:88,1,87.5,12|0,0:0|0:0,0:0:0:0:
312,162,47654,2,0,P|316:207|301:250,2,87.5,8|8|12,0:0|0:0|0:0,0:0:0:0:
51,104,48306,6,0,L|138:108,1,87.5,8|8,1:3|0:0,0:0:0:0:
221,193,48632,2,0,L|133:197,1,87.5,12|0,1:3|0:0,0:0:0:0:
1,258,48958,2,0,B|69:261|69:261|102:281|102:281|187:285,1,175,8|12,1:3|1:3,0:0:0:0:
254,345,49447,6,0,P|271:265|198:183,1,175,0|8,1:3|0:0,0:0:0:0:
151,141,49936,2,0,P|107:145|64:140,1,87.5,12|8,1:3|0:0,0:0:0:0:
212,76,50263,2,0,P|255:80|298:75,1,87.5,12|8,1:3|0:0,0:0:0:0:
376,22,50589,1,12,1:3:0:0:
460,74,50752,1,8,1:3:0:0:
460,74,50833,1,8,0:0:0:0:
460,74,50915,6,0,P|466:120|466:175,1,87.5,12|8,0:0|0:0,0:0:0:0:
364,143,51241,2,0,P|358:189|358:244,1,87.5,12|0,1:3|0:0,0:0:0:0:
438,294,51567,2,0,P|384:327|272:282,1,175,8|12,1:3|1:3,0:0:0:0:
207,193,52056,6,0,P|197:281|221:370,1,175,0|8,1:3|0:0,0:0:0:0:
101,359,52545,2,0,P|107:308|100:249,1,87.5,12|0,1:3|0:0,0:0:0:0:
33,202,52871,2,0,P|27:151|34:92,2,87.5,8|8|12,1:3|0:0|1:3,0:0:0:0:
125,124,53360,6,0,P|197:91|291:125,1,175,0|8,1:3|0:0,0:0:0:0:
207,193,53849,1,12,0:0:0:0:
408,34,54176,5,8,0:0:0:0:
408,34,54339,1,8,0:0:0:0:
465,108,54502,2,0,L|456:217,1,87.5,12|8,1:3|0:0,0:0:0:0:
438,214,54746,1,8,0:0:0:0:
438,214,54828,6,0,P|385:224|320:203,1,87.5,12|8,1:3|0:0,0:0:0:0:
212,140,55154,2,0,P|265:130|330:151,1,87.5,12|8,1:3|0:0,0:0:0:0:
256,330,55480,1,8,1:3:0:0:
260,225,55643,1,8,0:0:0:0:
194,273,55806,1,12,0:0:0:0:
322,280,55969,1,12,0:0:0:0:
256,330,56132,6,0,P|188:346|95:337,1,140,12|0,1:3|1:3,0:0:0:0:
33,272,56621,1,8,0:0:0:0:
33,272,56784,2,0,P|101:256|194:265,1,140,12|8,1:3|1:3,0:0:0:0:
204,169,57273,1,8,1:3:0:0:
204,169,57436,6,0,L|214:76,2,70,12|8|8,0:0|0:0|0:0,0:0:0:0:
121,111,57926,1,8,0:0:0:0:
121,111,58089,2,0,L|131:18,2,70,12|8|8,0:0|0:0|0:0,0:0:0:0:
38,169,58578,1,8,0:0:0:0:
38,169,58741,6,0,P|29:255|75:309,1,140,12|8,1:3|1:3,0:0:0:0:
147,349,59230,1,8,0:0:0:0:
147,349,59393,2,0,P|156:263|110:209,1,140,12|8,1:3|1:3,0:0:0:0:
188,152,59882,1,8,1:3:0:0:
188,152,60045,6,0,P|248:156|283:150,1,70,12|8,0:0|0:0,0:0:0:0:
180,59,60371,2,0,P|120:63|85:57,1,70,8|12,1:3|0:0,0:0:0:0:
268,26,60697,2,0,P|328:22|363:28,1,70,8|12,1:3|0:0,0:0:0:0:
411,93,61023,1,12,1:3:0:0:
411,93,61186,1,8,0:0:0:0:
351,161,61349,5,8,1:3:0:0:
351,161,61431,1,8,0:0:0:0:
351,161,61513,1,8,0:0:0:0:
435,184,61676,2,0,P|439:234|430:283,1,70,8|8,1:3|0:0,0:0:0:0:
360,349,62002,2,0,P|356:299|365:250,1,70,8|8,1:3|0:0,0:0:0:0:
268,230,62328,2,0,P|272:280|263:329,1,70,8|8,1:3|0:0,0:0:0:0:
196,354,62654,5,12,1:3:0:0:
196,354,62735,1,8,0:0:0:0:
196,354,62817,1,8,0:0:0:0:
98,355,62980,2,0,L|105:286,1,70,8|12,1:3|0:0,0:0:0:0:
26,247,63306,2,0,L|33:178,1,70,8|12,1:3|0:0,0:0:0:0:
137,201,63632,1,12,1:3:0:0:
137,201,63714,1,8,0:0:0:0:
137,201,63795,1,8,1:3:0:0:
137,201,63877,1,8,0:0:0:0:
137,201,63958,6,0,P|202:185|296:208,1,140,12|12,0:0|0:0,0:0:0:0:
362,242,64447,1,8,0:0:0:0:
362,242,64610,2,0,P|418:248|459:239,1,70,12|12,0:0|0:0,0:0:0:0:
512,163,64936,2,0,P|456:157|415:166,1,70,0|12,0:0|0:0,0:0:0:0:
399,76,65263,6,0,P|343:70|302:79,2,70,8|12|12,1:3|0:0|0:0,0:0:0:0:
360,172,65752,1,8,0:0:0:0:
360,172,65915,2,0,P|363:226|358:259,1,70,8|8,1:3|0:0,0:0:0:0:
308,326,66241,1,8,0:0:0:0:
308,326,66322,1,8,0:0:0:0:
308,326,66404,1,8,0:0:0:0:
308,326,66485,1,8,0:0:0:0:
308,326,66567,6,0,P|259:334|208:325,1,70,12|8,0:0|0:0,0:0:0:0:
159,319,66893,2,0,P|132:321|94:314,2,35,8|8|8,0:0|0:0|0:0,0:0:0:0:
145,238,67219,2,0,P|194:230|245:239,1,70,12|8,0:0|0:0,0:0:0:0:
309,226,67545,1,8,0:0:0:0:
309,226,67627,1,8,0:0:0:0:
309,226,67708,1,8,0:0:0:0:
312,132,67871,6,0,P|306:95|322:39,1,70,12|8,0:0|0:0,0:0:0:0:
391,99,68197,2,0,L|440:102,2,35,8|8|8,0:0|0:0|0:0,0:0:0:0:
500,69,68523,2,0,P|506:106|490:162,1,70,12|8,0:0|0:0,0:0:0:0:
489,228,68849,1,8,0:0:0:0:
489,228,68931,1,8,0:0:0:0:
489,228,69013,1,8,0:0:0:0:
452,307,69176,6,0,L|382:301,1,70,12|8,0:0|0:0,0:0:0:0:
303,266,69502,2,0,P|297:232|299:217,2,35,8|8|8,0:0|0:0|0:0,0:0:0:0:
260,340,69828,2,0,L|190:345,1,70,12|8,0:0|0:0,0:0:0:0:
153,264,70154,1,8,0:0:0:0:
153,264,70235,1,8,0:0:0:0:
153,264,70317,1,8,0:0:0:0:
53,250,70480,6,0,P|52:203|63:167,1,70,12|8,0:0|0:0,0:0:0:0:
116,118,70806,2,0,P|110:84|112:69,2,35,8|8|8,0:0|0:0|0:0,0:0:0:0:
197,90,71132,2,0,P|198:137|187:173,1,70,12|8,0:0|0:0,0:0:0:0:
181,261,71458,1,8,0:0:0:0:
181,261,71540,1,8,0:0:0:0:
181,261,71621,1,8,0:3:0:0:
181,261,71703,1,8,0:3:0:0:
181,261,71784,6,0,P|184:282|183:302,6,35,12|8|8|8|8|8|8,0:0|0:0|0:0|0:0|0:0|0:0|0:0,0:0:0:0:
181,261,72436,2,0,L|263:266,1,70,12|8,0:0|0:0,0:0:0:0:
287,347,72763,2,0,L|369:342,1,70,8|8,0:0|0:0,0:0:0:0:
450,296,73089,6,0,L|448:330,6,35,12|8|8|8|8|8|8,0:0|0:0|0:0|0:0|0:0|0:0|0:0,0:0:0:0:
450,296,73741,2,0,P|454:251|447:211,1,70,12|8,0:0|0:0,0:0:0:0:
384,168,74067,2,0,P|380:123|387:83,1,70,8|8,0:0|0:0,0:0:0:0:
320,42,74393,6,12,P|317:24|317:2,2,35,12|8|8,0:0|0:0|0:0,0:0:0:0:
292,121,74719,2,0,L|199:130,1,70,8|8,0:0|0:0,0:0:0:0:
187,41,75045,1,12,0:0:0:0:
187,41,75127,1,8,0:0:0:0:
187,41,75208,1,8,0:0:0:0:
136,110,75371,2,0,L|66:103,1,70,8|8,0:0|0:0,0:0:0:0:
34,186,75697,6,0,P|16:189|-6:189,2,35,8|8|8,0:0|0:0|0:0,0:0:0:0:
82,259,76023,1,8,0:3:0:0:
83,267,76104,1,8,0:3:0:0:
85,276,76186,1,8,0:3:0:0:
87,284,76267,1,8,0:3:0:0:
89,293,76349,6,0,B|138:289|138:289|171:302|171:302|224:298,1,122.5,8|0,0:0|0:0,0:0:0:0:
208,299,77002,6,0,L|210:344,2,26.2500010013581,12|8|8,1:3|0:0|0:0,0:0:0:0:
203,220,77328,1,8,0:0:0:0:
198,141,77491,1,8,1:3:0:0:
198,141,77817,2,0,L|261:133,1,52.5000020027161,8|8,0:0|1:3,0:0:0:0:
337,122,78143,1,8,0:0:0:0:
337,122,78306,1,12,1:3:0:0:
345,84,79284,6,0,L|408:76,1,52.5000020027161,8|8,1:3|0:0,0:0:0:0:
482,154,79610,2,0,L|429:160,1,52.5000020027161,12|8,1:3|0:0,0:0:0:0:
350,174,79936,1,8,1:3:0:0:
274,184,80099,1,8,0:0:0:0:
274,184,80426,2,0,L|211:176,1,52.5000020027161,8|8,0:0|1:3,0:0:0:0:
135,165,80752,1,8,1:3:0:0:
135,165,80915,1,12,0:0:0:0:
135,165,81730,5,8,0:0:0:0:
59,175,81893,1,8,0:0:0:0:
107,247,82056,1,8,0:0:0:0:
31,257,82219,6,0,L|34:300,2,26.2500010013581,12|8|8,1:3|0:0|0:0,0:0:0:0:
107,247,82545,1,8,0:0:0:0:
183,237,82708,1,8,1:3:0:0:
183,237,83034,2,0,L|246:245,1,52.5000020027161,8|8,0:0|1:3,0:0:0:0:
322,256,83360,1,8,0:0:0:0:
322,256,83523,1,12,1:3:0:0:
322,256,84502,6,0,L|259:264,1,52.5000020027161,8|8,1:3|0:0,0:0:0:0:
207,359,84828,2,0,L|259:351,1,52.5000020027161,12|8,1:3|0:0,0:0:0:0:
340,344,85154,1,8,1:3:0:0:
416,334,85317,1,8,0:0:0:0:
416,334,85643,2,0,L|468:326,1,52.5000020027161,8|8,0:0|1:3,0:0:0:0:
494,233,85969,1,8,1:3:0:0:
412,203,86132,6,0,P|408:238|414:273,1,52.5000020027161,12|8,0:0|0:0,0:0:0:0:
478,151,86458,2,0,P|482:116|476:81,1,52.5000020027161,12|8,0:0|0:0,0:0:0:0:
412,48,86784,2,0,P|414:29|411:9,2,26.2500010013581,8|8|8,0:0|0:3|0:3,0:0:0:0:
311,78,87110,1,8,0:0:0:0:
311,78,87192,1,8,0:0:0:0:
311,78,87273,1,8,0:0:0:0:
311,78,87355,1,8,0:0:0:0:
311,78,87436,6,0,B|240:89|240:89|162:74,1,140,4|12,1:3|0:0,0:0:0:0:
50,175,87926,2,0,B|121:164|121:164|199:179,1,140,0|8,1:3|0:0,0:0:0:0:
116,257,88415,2,0,L|46:267,1,70,12|0,1:3|0:0,0:0:0:0:
212,306,88741,6,0,P|219:237|186:176,1,140,12|12,1:3|0:0,0:0:0:0:
90,127,89230,2,0,P|82:195|115:256,1,140,0|8,1:3|0:0,0:0:0:0:
212,306,89719,2,0,P|252:304|292:307,1,70,12|0,1:3|0:0,0:0:0:0:
446,272,90045,5,12,1:3:0:0:
357,262,90208,1,8,0:0:0:0:
415,191,90371,2,0,P|362:170|292:195,1,105,12|0,1:3|0:0,0:0:0:0:
316,178,90697,2,0,P|276:180|236:177,1,70,12|8,1:3|0:0,0:0:0:0:
165,89,91023,2,0,P|205:91|245:88,1,70,12|0,1:3|1:3,0:0:0:0:
341,56,91349,5,12,0:0:0:0:
341,56,91513,1,8,0:0:0:0:
418,121,91676,2,0,L|414:208,1,70,12|8,0:0|0:0,0:0:0:0:
316,178,92002,2,0,L|320:265,1,70,12|8,0:0|0:0,0:0:0:0:
398,340,92328,2,0,L|401:270,1,70,12|8,0:0|0:0,0:0:0:0:
401,270,92572,1,8,0:0:0:0:
401,270,92654,5,12,1:3:0:0:
408,275,95263,6,0,P|372:288|312:274,1,70,12|8,1:3|0:0,0:0:0:0:
366,205,95589,1,12,1:3:0:0:
366,205,95752,1,12,0:0:0:0:
313,134,95915,2,0,P|345:121|380:122,1,70,8|12,1:3|0:0,0:0:0:0:
238,193,96241,2,0,L|250:262,1,70,12|8,1:3|0:0,0:0:0:0:
154,325,96567,5,8,1:3:0:0:
154,325,96648,1,8,0:0:0:0:
154,325,96730,1,8,0:0:0:0:
154,325,96811,1,8,0:0:0:0:
154,325,96893,2,0,L|161:283,3,35,8|8|8|8,0:3|0:3|0:3|0:3,0:0:0:0:
148,205,97219,5,12,1:3:0:0:
429,131,97871,5,12,0:0:0:0:
287,126,111585,5,12,1:3:0:0:
287,126,111692,1,8,0:0:0:0:
287,126,111799,1,8,0:0:0:0:
192,83,112013,2,0,P|184:123|194:163,1,70,8|8,0:0|0:0,0:0:0:0:
189,151,113299,1,12,0:0:0:0:
193,155,113942,6,0,L|165:127,2,23.3333333333333,8|8|8,0:0|0:0|0:0,0:0:0:0:
193,155,114156,2,0,P|232:162|272:159,1,70,12|8,0:0|0:0,0:0:0:0:
364,247,114585,2,0,P|325:240|285:243,1,70,8|8,0:0|0:0,0:0:0:0:
329,341,115013,5,12,0:0:0:0:
329,341,115121,1,8,0:0:0:0:
329,341,115228,1,8,0:0:0:0:
230,307,115442,2,0,P|191:314|151:311,1,70,8|8,0:0|0:0,0:0:0:0:
160,312,116728,1,12,0:0:0:0:
117,304,117371,6,0,L|114:247,1,35,8|8,0:0|0:0,0:0:0:0:
71,257,117585,2,0,L|75:174,2,46.6666666666667,12|8|8,0:0|0:0|0:0,0:0:0:0:
21,144,118013,2,0,P|68:126|138:156,1,105,12|0,0:0|0:0,0:0:0:0:
213,121,118442,5,12,0:0:0:0:
213,121,118549,1,8,0:0:0:0:
213,121,118656,1,8,0:0:0:0:
252,196,118871,2,0,P|209:206|162:191,1,70,8|8,0:0|0:0,0:0:0:0:
174,212,120156,1,12,0:0:0:0:
178,216,120799,6,0,L|150:188,2,23.3333333333333,8|8|8,0:0|0:0|0:0,0:0:0:0:
178,216,121013,2,0,L|253:213,1,70,12|8,0:0|0:0,0:0:0:0:
308,128,121442,2,0,L|233:125,1,70,8|8,0:0|0:0,0:0:0:0:
147,109,121871,5,12,0:0:0:0:
147,109,121978,1,8,0:0:0:0:
147,109,122085,1,8,0:0:0:0:
204,39,122299,2,0,L|273:36,1,70,8|8,0:0|0:0,0:0:0:0:
273,35,123585,1,6,0:0:0:0:
273,35,124228,2,0,L|320:29,1,35,8|8,0:0|0:0,0:0:0:0:
354,25,124442,6,0,P|356:62|346:95,2,46.6666666666667,12|8|8,0:0|0:0|0:0,0:0:0:0:
289,132,124871,2,0,P|287:169|297:202,2,46.6666666666667,8|8|8,0:0|0:0|0:0,0:0:0:0:
383,158,125299,5,12,0:0:0:0:
383,158,125406,1,8,0:0:0:0:
383,158,125513,1,8,0:0:0:0:
466,121,125728,2,0,P|476:167|464:202,1,70,8|8,0:0|0:0,0:0:0:0:
399,243,126156,1,12,0:0:0:0:
399,243,127656,6,0,L|371:215,2,23.3333333333333,8|8|8,0:0|0:0|0:0,0:0:0:0:
399,243,127871,2,0,P|359:238|314:241,1,70,12|8,0:0|0:0,0:0:0:0:
299,314,128299,2,0,P|299:344|304:362,2,35,8|8|8,0:0|0:0|0:0,0:0:0:0:
247,247,128728,5,12,0:0:0:0:
247,247,128835,1,8,0:0:0:0:
247,247,128942,1,8,0:0:0:0:
211,325,129156,2,0,P|176:325|141:320,1,70,8|8,0:0|0:0,0:0:0:0:
72,277,129585,1,12,0:0:0:0:
72,277,130442,1,4,0:0:0:0:
72,277,131085,6,0,P|72:247|77:229,1,35,8|8,0:0|0:0,0:0:0:0:
94,202,131299,2,0,P|98:170|92:142,2,46.6666666666667,12|8|8,0:0|0:0|0:0,0:0:0:0:
18,179,131728,2,0,P|22:117|57:82,1,105,12|0,0:0|0:0,0:0:0:0:
142,84,132156,5,12,0:0:0:0:
142,84,132263,1,8,0:0:0:0:
142,84,132371,1,8,0:0:0:0:
209,29,132585,2,0,P|250:26|295:33,1,70,8|8,0:0|0:0,0:0:0:0:
364,48,133013,1,12,0:0:0:0:
364,48,134513,6,0,L|336:20,2,23.3333333333333,8|8|8,0:0|0:0|0:0,0:0:0:0:
364,48,134728,2,0,L|360:129,1,70,12|8,0:0|0:0,0:0:0:0:
312,194,135156,2,0,L|273:197,2,35,8|8|8,0:0|0:0|0:0,0:0:0:0:
387,259,135585,5,12,0:0:0:0:
387,259,135692,1,8,0:0:0:0:
387,259,135799,1,8,0:0:0:0:
349,340,136013,2,0,L|354:381,2,35,8|8|8,0:0|0:0|0:0,0:0:0:0:
276,281,136442,2,0,L|280:246,2,35,12|8|8,0:0|0:0|0:0,0:0:0:0:
214,343,136871,5,12,0:0:0:0:
196,344,136978,1,8,0:0:0:0:
179,346,137085,1,8,0:0:0:0:
161,348,137192,1,8,0:0:0:0:
144,350,137299,1,12,0:0:0:0:
256,192,137406,12,12,138807,1:3:0:0:
396,94,143699,6,0,L|391:163,1,70,12|8,0:0|0:0,0:0:0:0:
391,163,143943,1,8,0:0:0:0:
391,163,144025,1,12,1:3:0:0:
142,249,149242,6,0,P|200:268|280:238,1,140,12|8,1:3|0:0,0:0:0:0:
334,158,149731,2,0,P|276:139|196:169,1,140,0|0,1:3|0:0,0:0:0:0:
142,249,150221,2,0,P|146:291|144:326,1,70,8|0,1:3|0:0,0:0:0:0:
72,170,150547,6,0,P|136:145|203:161,1,140,8|8,1:3|0:0,0:0:0:0:
272,244,151036,2,0,P|302:188|282:97,1,140,0|0,1:3|0:0,0:0:0:0:
343,40,151525,2,0,P|384:43|419:41,1,70,8|8,1:3|0:0,0:0:0:0:
498,121,151851,6,0,P|451:119|380:125,1,105,8|0,1:3|0:0,0:0:0:0:
393,123,152177,2,0,P|394:162|389:205,1,70,12|0,1:3|0:0,0:0:0:0:
478,283,152503,2,0,P|477:248|480:213,1,70,12|0,1:3|0:0,0:0:0:0:
386,285,152829,1,12,1:3:0:0:
386,285,152992,6,0,B|313:301|310:269|223:291,1,140,8|0,1:3|0:0,0:0:0:0:
166,246,153481,2,0,P|159:293|171:333,1,70,12|0,0:0|0:0,0:0:0:0:
276,371,153808,2,0,P|283:324|271:284,1,70,8|0,0:0|0:0,0:0:0:0:
260,202,154134,2,0,P|253:155|265:115,1,70,12|0,0:0|0:0,0:0:0:0:
317,55,154460,6,0,P|237:41|176:78,1,140,8|8,1:3|0:0,0:0:0:0:
87,155,154949,2,0,P|108:100|75:19,1,140,0|0,1:3|0:0,0:0:0:0:
0,124,155438,2,0,P|-6:164|9:209,1,70,12|8,1:3|0:0,0:0:0:0:
104,268,155764,6,0,P|176:267|254:274,1,140,8|8,1:3|0:0,0:0:0:0:
307,219,156253,1,0,1:3:0:0:
376,267,156416,2,0,P|397:264|418:265,2,35,8|8|8,0:0|0:0|0:0,0:0:0:0:
328,343,156742,1,12,1:3:0:0:
328,343,156824,1,12,0:0:0:0:
328,343,156905,1,12,0:0:0:0:
328,343,156987,1,12,0:0:0:0:
328,343,157068,1,12,1:3:0:0:
256,192,157150,12,8,159351,0:0:0:0:
212,124,159677,5,12,1:3:0:0:
212,124,160981,6,0,P|249:121|291:123,1,70,12|8,0:0|0:0,0:0:0:0:
366,89,161308,2,0,P|370:143|360:172,1,70,8|8,0:0|0:3,0:0:0:0:
348,244,161634,1,8,0:0:0:0:
348,244,161797,1,12,0:0:0:0:
265,273,161960,2,0,P|261:219|271:190,1,70,12|8,0:0|0:0,0:0:0:0:
264,204,162204,1,8,0:0:0:0:
264,204,162286,1,12,1:3:0:0:
272,212,163590,6,0,L|314:210,4,35,8|8|8|8|8,0:0|0:0|0:0|0:0|0:0,0:0:0:0:
205,145,164079,2,0,L|170:146,4,35,12|8|8|8|8,0:0|0:0|0:0|0:0|0:0,0:0:0:0:
302,119,164568,1,12,1:3:0:0:
302,119,164650,1,8,0:0:0:0:
302,119,164731,1,8,1:3:0:0:
302,119,164813,1,8,0:3:0:0:
302,119,164894,1,12,1:3:0:0:
302,119,166199,5,12,1:3:0:0:
302,119,166851,1,12,1:3:0:0:
302,119,167503,6,0,P|311:154|305:199,1,70,12|12,0:0|0:0,0:0:0:0:
242,250,167829,1,8,0:0:0:0:
242,250,167911,1,8,0:0:0:0:
242,250,167992,2,0,L|159:253,1,70,12|12,0:0|0:0,0:0:0:0:
150,159,168318,1,8,0:0:0:0:
150,159,168400,1,8,0:0:0:0:
150,159,168481,2,0,L|233:162,1,70,12|12,1:3|0:0,0:0:0:0:
302,119,168808,6,0,L|336:117,2,35,8|8|12,1:3|0:0|0:0,0:0:0:0:
316,30,169134,1,12,1:3:0:0:
405,63,169297,1,8,0:0:0:0:
405,63,169379,1,8,0:0:0:0:
405,63,169460,2,0,P|425:121|385:194,1,140,8|0,1:3|0:0,0:0:0:0:
392,188,170112,6,4,P|403:239|391:290,1,87.5,12|8,1:3|0:0,0:0:0:0:
307,328,170438,2,0,P|296:277|308:226,1,87.5,12|0,1:3|1:3,0:0:0:0:
212,169,170764,2,12,P|128:144|46:193,1,175,8|12,1:3|1:3,1:3:0:0:
144,256,171253,6,0,P|228:281|310:232,1,175,0|8,1:3|0:0,0:0:0:0:
392,188,171742,2,0,P|439:186|489:194,1,87.5,12|0,0:0|0:0,0:0:0:0:
357,87,172068,2,0,P|310:89|260:81,2,87.5,8|8|12,0:0|0:0|0:0,0:0:0:0:
70,50,172721,6,0,P|60:100|79:160,1,87.5,8|8,1:3|0:0,0:0:0:0:
193,152,173047,2,0,P|203:102|184:42,1,87.5,12|0,1:3|0:0,0:0:0:0:
64,226,173373,2,0,B|149:190|154:265|244:221,1,175,8|12,1:3|1:3,0:0:0:0:
108,298,173862,6,0,P|165:315|289:292,1,175,0|8,1:3|0:0,0:0:0:0:
365,255,174351,2,0,P|375:304|360:351,1,87.5,12|8,1:3|0:0,0:0:0:0:
285,200,174677,2,0,P|275:151|290:104,1,87.5,12|8,1:3|0:0,0:0:0:0:
365,156,175003,1,12,1:3:0:0:
448,115,175166,1,8,0:0:0:0:
448,115,175248,1,0,0:0:0:0:
448,115,175329,6,0,P|458:164|443:211,1,87.5,12|8,1:3|0:0,0:0:0:0:
365,255,175655,2,0,P|375:304|360:351,1,87.5,12|0,1:3|0:0,0:0:0:0:
281,298,175981,2,0,L|190:301,1,87.5,8|8,1:3|0:0,0:0:0:0:
103,211,176308,1,12,1:3:0:0:
103,211,176471,6,0,L|277:205,1,175,0|8,1:3|0:0,0:0:0:0:
165,116,176960,2,0,L|74:119,1,87.5,12|0,1:3|0:0,0:0:0:0:
144,23,177286,2,0,L|235:26,1,87.5,8|8,1:3|0:0,0:0:0:0:
268,128,177612,1,12,1:3:0:0:
268,128,177775,6,0,P|251:173|303:289,1,175,0|8,1:3|0:0,0:0:0:0:
360,192,178264,2,0,L|451:189,1,87.5,12|0,0:0|0:0,0:0:0:0:
498,83,178590,2,0,L|410:85,1,87.5,8|8,0:0|0:0,0:0:0:0:
316,50,178916,1,12,0:3:0:0:
247,123,179079,1,8,0:0:0:0:
247,123,179161,1,8,0:0:0:0:
247,123,179242,6,0,P|236:175|255:227,1,87.5,12|8,1:3|0:0,0:0:0:0:
356,276,179568,2,0,P|367:234|359:191,1,87.5,12|8,1:3|0:3,0:0:0:0:
260,308,179894,2,0,L|209:315,2,43.75,8|8|8,0:0|0:0|0:0,0:0:0:0:
135,278,180221,1,8,0:0:0:0:
135,278,180302,1,8,0:0:0:0:
135,278,180384,1,8,0:0:0:0:
135,278,180465,1,8,0:0:0:0:
135,278,180547,1,12,1:3:0:0:
256,192,180628,12,8,182829,0:0:0:0:
275,132,183155,6,0,L|352:136,2,70,12|8|8,0:0|0:0|0:0,0:0:0:0:
215,228,183644,1,8,0:0:0:0:
215,228,183808,2,0,L|292:232,2,70,12|8|8,0:0|0:0|0:0,0:0:0:0:
167,134,184296,1,8,0:0:0:0:
167,134,184460,6,0,L|90:138,2,70,12|8|8,0:0|0:0|0:0,0:0:0:0:
113,238,184948,1,12,0:0:0:0:
113,238,185112,2,0,L|36:242,2,70,8|12|12,0:0|0:0|0:0,0:0:0:0:
173,329,185601,1,8,0:0:0:0:
173,329,185764,6,0,L|207:330,6,35,12|8|8|8|8|8|8,0:0|0:0|0:0|0:0|0:0|0:0|0:0,0:0:0:0:
214,234,186416,1,8,0:0:0:0:
214,234,186498,1,8,0:0:0:0:
214,234,186579,2,0,L|248:235,4,35,8|8|8|8|8,0:0|0:0|0:0|0:0|0:0,0:0:0:0:
116,250,187068,6,0,L|82:251,6,35,8|8|8|8|8|8|8,0:0|0:0|0:0|0:0|0:0|0:0|0:0,0:0:0:0:
75,155,187721,1,8,0:0:0:0:
75,155,187802,1,8,0:0:0:0:
75,155,187883,2,0,L|41:156,4,35,8|8|8|8|8,0:0|0:0|0:0|0:0|0:0,0:0:0:0:
175,171,188373,5,12,0:0:0:0:
175,171,188454,1,8,0:0:0:0:
175,171,188536,1,8,0:0:0:0:
131,77,188699,2,0,P|178:71|225:83,1,70,12|8,0:0|0:0,0:0:0:0:
311,51,189025,5,12,0:0:0:0:
311,51,189106,1,8,0:0:0:0:
311,51,189188,1,8,0:0:0:0:
267,145,189351,2,0,P|301:151|336:147,1,70,12|8,0:0|0:0,0:0:0:0:
411,78,189677,6,0,L|465:89,2,35,8|8|8,0:0|0:0|0:0,0:0:0:0:
487,178,190003,1,8,0:0:0:0:
487,178,190085,1,8,0:0:0:0:
487,178,190166,1,8,0:0:0:0:
408,249,190329,2,0,L|373:242,2,35,8|8|8,0:0|0:0|0:0,0:0:0:0:
336,147,190655,5,8,0:0:0:0:
327,148,190736,1,8,0:0:0:0:
318,150,190818,1,8,0:0:0:0:
310,152,190899,1,8,0:0:0:0:
301,153,190981,1,12,0:0:0:0:
256,192,191063,12,0,197503,0:0:0:0:
