osu file format v14

[General]
AudioFilename: audio.mp3
AudioLeadIn: 0
PreviewTime: 159596
Countdown: 0
SampleSet: Drum
StackLeniency: 0.3
Mode: 0
LetterboxInBreaks: 0
WidescreenStoryboard: 1

[Editor]
Bookmarks: 111585,149242,185764
DistanceSpacing: 2.2
BeatDivisor: 4
GridSize: 16
TimelineZoom: 1.6

[Metadata]
Title:Sad spring
TitleUnicode:Sad spring
Artist:Draw the Emotional
ArtistUnicode:Draw the Emotional
Creator:Resurreccion
Version:Normal
Source:東方妖々夢 ~ Perfect Cherry Blossom.
Tags:touhou doujin Seni Akitoshi -Laura- Corinn Seated with Liquor ゆよゆっぺ yuyoyuppe ルシュカ Luschka neko 幽雅に咲かせ、墨染の桜 ~ Border of Life yuuga ni sakase, sumizome no sakura bloom nobly, ink-black ink black cherry blossom stage 6 ネクロファンタジア Necrofantasia comiket 83 c83 saigyouji yuyuko yukari yakumo video game japanese rock metal 東方project project zun team shanghai alice pcb th07 th 07 youyoumu 妖々夢 ghostly dream phantasm stage yukari yakumo 八雲 紫 foreground eclipse
BeatmapID:2109800
BeatmapSetID:994604

[Difficulty]
HPDrainRate:3
CircleSize:3.2
OverallDifficulty:4
ApproachRate:5.2
SliderMultiplier:1
SliderTickRate:1

[Events]
//Background and Video events
0,0,"Seni pic.png",0,0
//Break Periods
2,98071,110415
2,138682,148072
//Storyboard Layer 0 (Background)
//Storyboard Layer 1 (Fail)
//Storyboard Layer 2 (Pass)
//Storyboard Layer 3 (Foreground)
//Storyboard Layer 4 (Overlay)
//Storyboard Sound Samples

[TimingPoints]
1350,326.086956521739,4,3,2,70,1,0
1676,-100,4,3,6,70,0,0
1839,-100,4,3,11,70,0,0
2165,-100,4,3,6,70,0,0
2328,-100,4,3,2,70,0,0
2654,-100,4,3,6,70,0,0
2817,-100,4,3,11,70,0,0
2980,-100,4,3,6,70,0,0
3143,-100,4,3,2,70,0,0
3306,-100,4,3,5,70,0,0
3632,-100,4,3,1,70,0,0
3795,-100,4,3,11,70,0,0
3958,-100,4,3,9,60,0,0
4610,-100,4,3,1,60,0,0
6241,-100,4,3,5,60,0,0
6322,-100,4,3,5,5,0,0
6404,-100,4,3,5,60,0,0
6485,-100,4,3,5,5,0,0
6567,-100,4,3,9,60,0,0
7219,-100,4,3,1,60,0,0
8523,-100,4,3,2,60,0,0
8686,-100,4,3,5,60,0,0
9013,-100,4,3,6,60,0,0
9176,-100,4,3,5,60,0,0
10480,-100,4,3,2,60,0,0
11295,-100,4,3,6,60,0,0
11621,-100,4,3,2,60,0,0
11784,-100,4,3,6,60,0,0
12273,-100,4,3,2,60,0,0
12355,-100,4,3,6,60,0,0
13252,-100,4,3,2,60,0,0
13333,-100,4,3,6,60,0,0
13415,-100,4,3,11,60,0,0
13578,-100,4,3,5,60,0,0
13741,-100,4,3,1,60,0,0
14311,-100,4,3,1,5,0,0
14393,-100,4,3,9,80,0,0
14474,-100,4,3,6,80,0,0
15045,-100,4,3,2,80,0,0
15127,-100,4,3,6,80,0,0
16349,-100,4,3,2,80,0,0
16431,-100,4,3,6,80,0,0
17654,-100,4,3,2,80,0,0
17735,-100,4,3,6,80,0,0
18958,-100,4,3,2,80,0,0
19040,-100,4,3,6,80,0,0
19284,-100,4,3,2,80,0,0
19447,-100,4,3,11,80,0,0
19610,-100,4,3,9,80,0,0
19692,-100,4,3,6,80,0,0
20263,-100,4,3,2,80,0,0
20344,-100,4,3,6,80,0,0
21567,-100,4,3,2,80,0,0
21648,-100,4,3,6,80,0,0
22871,-100,4,3,2,80,0,0
22953,-100,4,3,6,80,0,0
24176,-100,4,3,2,80,0,0
24339,-100,4,3,6,80,0,0
24502,-100,4,3,2,80,0,0
24828,-100,4,3,9,80,0,0
24909,-100,4,3,1,80,0,0
25643,-100,4,3,5,80,0,0
25806,-100,4,3,1,80,0,0
25969,-100,4,3,5,80,0,0
26132,-100,4,3,1,80,0,0
26295,-100,4,3,5,80,0,0
26458,-100,4,3,1,80,0,0
26784,-100,4,3,5,80,0,0
27110,-100,4,3,1,80,0,0
27436,-100,4,3,5,80,0,0
27763,-100,4,3,1,80,0,0
28252,-100,4,3,5,80,0,0
28415,-100,4,3,1,80,0,0
28578,-100,4,3,5,80,0,0
29067,-100,4,3,1,80,0,0
29393,-100,4,3,5,80,0,0
29719,-100,4,3,1,80,0,0
29882,-100,4,3,11,80,0,0
29964,-100,4,3,12,80,0,0
30045,-100,4,3,9,80,0,0
30127,-100,4,3,1,80,0,0
30860,-100,4,3,5,80,0,0
31023,-100,4,3,1,80,0,0
31186,-100,4,3,5,80,0,0
31349,-100,4,3,1,80,0,0
31513,-100,4,3,5,80,0,0
31676,-100,4,3,1,80,0,0
32002,-100,4,3,5,80,0,0
32328,-100,4,3,1,80,0,0
32654,-100,4,3,5,80,0,0
32980,-100,4,3,1,80,0,0
33469,-100,4,3,5,80,0,0
33632,-100,4,3,1,80,0,0
33795,-100,4,3,5,80,0,0
34284,-100,4,3,1,80,0,0
34447,-100,4,3,5,80,0,0
34610,-100,4,3,2,80,0,0
34773,-100,4,3,6,80,0,0
34936,-100,4,3,12,70,0,0
35099,-100,4,3,7,70,0,0
35263,-100,4,3,6,60,0,0
36567,-100,4,3,2,60,0,0
36730,-100,4,3,6,60,0,0
39176,-100,4,3,2,60,0,0
39339,-100,4,3,6,60,0,0
39665,-100,4,3,11,60,0,0
39828,-100,4,3,6,60,0,0
39991,-100,4,3,2,60,0,0
40154,-100,4,3,6,60,0,0
40317,-100,4,3,2,60,0,0
40480,-100,4,3,6,60,0,0
41784,-100,4,3,2,60,0,0
41947,-100,4,3,6,60,0,0
42436,-100,4,3,2,60,0,0
42599,-100,4,3,6,60,0,0
42763,-100,4,3,2,60,0,0
42926,-100,4,3,6,60,0,0
43089,-100,4,3,2,60,0,0
43170,-100,4,3,4,60,0,0
44719,-100,4,3,4,60,0,0
45371,-100,4,3,9,60,0,0
45697,-100,4,3,5,90,0,1
46023,-100,4,3,1,90,0,1
46349,-100,4,3,5,90,0,1
46676,-100,4,3,1,90,0,1
47002,-100,4,3,5,90,0,1
47328,-100,4,3,1,90,0,1
47654,-100,4,3,5,90,0,1
47980,-100,4,3,1,90,0,1
48306,-100,4,3,5,90,0,1
48632,-100,4,3,1,90,0,1
48958,-100,4,3,5,90,0,1
49284,-100,4,3,1,90,0,1
49610,-100,4,3,5,90,0,1
49936,-100,4,3,2,90,0,1
50099,-100,4,3,6,90,0,1
50263,-100,4,3,2,90,0,1
50426,-100,4,3,6,90,0,1
50589,-100,4,3,2,90,0,1
50752,-100,4,3,6,90,0,1
50915,-100,4,3,9,90,0,1
50996,-100,4,3,5,90,0,1
51241,-100,4,3,1,90,0,1
51567,-100,4,3,5,90,0,1
51893,-100,4,3,1,90,0,1
52219,-100,4,3,5,90,0,1
52545,-100,4,3,1,90,0,1
52871,-100,4,3,5,90,0,1
53197,-100,4,3,1,90,0,1
53523,-100,4,3,5,90,0,1
53849,-100,4,3,1,90,0,1
54176,-100,4,3,5,90,0,1
54502,-100,4,3,2,90,0,1
54665,-100,4,3,6,90,0,1
54828,-100,4,3,2,90,0,1
54991,-100,4,3,6,90,0,1
55154,-100,4,3,2,90,0,1
55317,-100,4,3,6,90,0,1
55480,-100,4,3,1,100,0,0
55643,-100,4,3,5,100,0,0
56051,-100,4,3,1,90,0,0
56132,-100,4,3,9,90,0,1
56214,-100,4,3,6,90,0,1
56784,-100,4,3,2,90,0,1
56947,-100,4,3,6,90,0,1
58089,-100,4,3,2,90,0,1
58252,-100,4,3,6,90,0,1
58741,-100,4,3,9,90,0,1
58822,-100,4,3,6,90,0,1
59393,-100,4,3,2,90,0,1
59556,-100,4,3,6,90,0,1
60534,-100,4,3,2,90,0,1
60697,-100,4,3,6,90,0,1
60860,-100,4,3,2,90,0,1
61186,-100,4,3,6,90,0,1
61349,-100,4,3,5,90,0,1
62654,-100,4,3,6,90,0,1
63143,-100,4,3,2,90,0,1
63224,-100,4,3,6,90,0,1
63469,-100,4,3,2,90,0,1
63551,-100,4,3,6,90,0,1
63632,-100,4,3,2,90,0,1
63714,-100,4,3,6,90,0,1
63958,-100,4,3,2,90,0,1
64121,-100,4,3,6,90,0,1
64284,-100,4,3,2,90,0,1
64447,-100,4,3,6,90,0,1
64610,-100,4,3,2,90,0,1
65263,-100,4,3,6,90,0,1
65426,-100,4,3,2,90,0,1
65752,-100,4,3,6,90,0,1
65915,-100,4,3,11,90,0,1
66078,-100,4,3,5,90,0,1
66241,-100,4,3,1,90,0,1
66567,-100,4,3,6,80,0,0
67219,-100,4,3,2,80,0,0
67301,-100,4,3,6,80,0,0
68523,-100,4,3,2,80,0,0
68605,-100,4,3,6,80,0,0
69828,-100,4,3,2,80,0,0
69909,-100,4,3,6,80,0,0
70480,-100,4,3,2,80,0,0
70561,-100,4,3,6,80,0,0
71132,-100,4,3,2,80,0,0
71214,-100,4,3,6,80,0,0
71458,-100,4,3,2,80,0,0
71621,-100,4,3,12,80,0,0
71784,-100,4,3,6,80,0,0
72436,-100,4,3,2,80,0,0
72518,-100,4,3,6,80,0,0
73741,-100,4,3,2,80,0,0
73822,-100,4,3,6,80,0,0
74393,-100,4,3,2,80,0,0
74474,-100,4,3,6,80,0,0
74719,-100,4,3,2,80,0,0
74882,-100,4,3,6,80,0,0
75045,-100,4,3,2,80,0,0
75127,-100,4,3,6,80,0,0
75371,-100,4,3,2,80,0,0
75534,-100,4,3,6,80,0,0
75697,-100,4,3,2,80,0,0
75860,-100,4,3,6,80,0,0
76023,-100,4,3,12,70,0,0
76186,-100,4,3,5,70,0,0
76349,-100,4,3,1,70,0,0
76920,-100,4,3,1,5,0,0
77002,-100,4,3,9,60,0,0
77083,-100,4,3,6,60,0,0
78306,-100,4,3,2,60,0,0
79284,-100,4,3,6,60,0,0
80915,-100,4,3,2,60,0,0
81730,-100,4,3,6,60,0,0
83523,-100,4,3,2,60,0,0
84502,-100,4,3,6,60,0,0
86132,-100,4,3,2,60,0,0
86295,-100,4,3,6,60,0,0
86458,-100,4,3,2,60,0,0
86621,-100,4,3,6,60,0,0
86784,-100,4,3,1,60,0,0
86866,-100,4,3,11,60,0,0
86947,-100,4,3,5,60,0,0
87110,-100,4,3,1,60,0,0
87273,-100,4,3,5,60,0,0
87436,-100,4,3,9,60,0,0
87518,-100,4,3,1,5,0,0
87599,-100,4,3,1,60,0,0
88089,-100,4,3,5,60,0,0
88415,-100,4,3,1,60,0,0
88741,-100,4,3,5,60,0,0
89067,-100,4,3,1,60,0,0
89311,-100,4,3,1,5,0,0
89393,-100,4,3,5,60,0,0
89719,-100,4,3,1,60,0,0
90045,-100,4,3,5,60,0,0
90371,-100,4,3,1,60,0,0
90697,-100,4,3,5,60,0,0
91023,-100,4,3,1,60,0,0
91349,-100,4,3,5,60,0,0
91594,-100,4,3,1,5,0,0
91676,-100,4,3,1,60,0,0
91757,-100,4,3,1,5,0,0
91839,-100,4,3,5,60,0,0
92002,-100,4,3,2,60,0,0
92165,-100,4,3,6,60,0,0
92328,-100,4,3,2,60,0,0
92491,-100,4,3,6,60,0,0
92654,-100,4,3,1,45,0,0
95263,-100,4,3,2,80,0,0
95426,-100,4,3,6,80,0,0
95589,-100,4,3,2,80,0,0
95915,-100,4,3,6,80,0,0
96078,-100,4,3,2,80,0,0
96404,-100,4,3,6,80,0,0
96567,-100,4,3,2,80,0,0
96730,-100,4,3,6,80,0,0
96893,-100,4,3,12,80,0,0
97056,-100,4,3,5,80,0,0
97219,-100,4,3,1,60,0,0
97790,-100,4,3,1,5,0,0
97871,428.571428571429,4,3,7,60,1,0
98299,-100,4,3,1,60,0,0
101085,-100,4,3,5,60,0,0
101299,-100,4,3,6,60,0,0
101406,-100,4,3,1,60,0,0
103013,-100,4,3,5,60,0,0
103228,-100,4,3,2,60,0,0
103656,-100,4,3,6,60,0,0
103871,-100,4,3,11,60,0,0
103978,-100,4,3,6,60,0,0
104299,-100,4,3,2,60,0,0
104513,-100,4,3,6,60,0,0
104728,-100,4,3,7,60,0,0
104835,-100,4,3,1,60,0,0
106656,-100,4,3,5,60,0,0
106871,-100,4,3,11,60,0,0
106978,-100,4,3,6,60,0,0
107299,-100,4,3,2,60,0,0
107513,-100,4,3,6,60,0,0
107728,-100,4,3,2,60,0,0
107942,-100,4,3,6,60,0,0
108156,-100,4,3,2,60,0,0
111585,-100,4,3,9,80,0,0
111692,-100,4,3,6,80,0,0
112442,-100,4,3,2,80,0,0
113942,-100,4,3,6,80,0,0
115871,-100,4,3,2,80,0,0
117371,-100,4,3,6,80,0,0
117585,-100,4,3,2,80,0,0
117728,-100,4,3,6,80,0,0
118013,-100,4,3,2,80,0,0
118335,-100,4,3,1,5,0,0
118442,-100,4,3,9,80,0,0
118549,-100,4,3,6,80,0,0
119299,-100,4,3,2,80,0,0
120799,-100,4,3,6,80,0,0
122728,-100,4,3,2,80,0,0
124228,-100,4,3,6,80,0,0
124442,-100,4,3,2,80,0,0
124585,-100,4,3,6,80,0,0
125013,-100,4,3,2,80,0,0
125085,-100,4,3,2,80,0,0
125156,-100,4,3,2,80,0,0
125228,-100,4,3,2,80,0,0
125299,-100,4,3,9,80,0,0
125406,-100,4,3,6,80,0,0
126156,-100,4,3,2,80,0,0
127656,-100,4,3,6,80,0,0
128728,-100,4,3,2,80,0,0
128835,-100,4,3,6,80,0,0
129585,-100,4,3,2,80,0,0
131085,-100,4,3,6,80,0,0
131299,-100,4,3,2,80,0,0
131442,-100,4,3,6,80,0,0
131728,-100,4,3,2,80,0,0
132049,-100,4,3,2,5,0,0
132156,-100,4,3,9,80,0,0
132263,-100,4,3,6,80,0,0
133013,-100,4,3,2,80,0,0
134513,-100,4,3,6,80,0,0
136442,-100,4,3,2,80,0,0
136549,-100,4,3,6,80,0,0
136871,-100,4,3,2,80,0,0
136978,-100,4,3,6,80,0,0
137299,-100,4,3,2,80,0,0
137513,-100,4,3,6,80,0,0
137728,-100,4,3,11,80,0,0
137942,-100,4,3,5,80,0,0
138156,326.086956521739,4,3,1,70,1,0
138319,-100,4,3,5,70,0,0
138482,-100,4,3,12,60,0,0
138808,326.086956521739,4,3,7,60,1,0
138889,-100,4,3,4,60,0,0
139134,-100,4,3,8,60,0,0
139297,-100,4,3,4,60,0,0
139460,-100,4,3,8,60,0,0
139623,-100,4,3,4,60,0,0
139786,-100,4,3,8,60,0,0
139949,-100,4,3,4,60,0,0
140112,-100,4,3,8,60,0,0
140275,-100,4,3,4,60,0,0
140438,-100,4,3,8,60,0,0
140601,-100,4,3,4,60,0,0
140764,-100,4,3,8,60,0,0
140927,-100,4,3,4,60,0,0
141090,-100,4,3,8,60,0,0
141253,-100,4,3,1,60,0,0
141416,-100,4,3,8,60,0,0
141579,-100,4,3,4,60,0,0
141742,-100,4,3,8,60,0,0
141905,-100,4,3,4,60,0,0
142068,-100,4,3,8,60,0,0
142231,-100,4,3,4,60,0,0
142394,-100,4,3,8,60,0,0
142558,-100,4,3,4,60,0,0
142721,-100,4,3,8,60,0,0
142884,-100,4,3,4,60,0,0
143047,-100,4,3,8,60,0,0
143210,-100,4,3,4,60,0,0
143373,-100,4,3,8,60,0,0
143536,-100,4,3,4,60,0,0
143699,-100,4,3,2,60,0,0
143862,-100,4,3,12,60,0,0
143943,-100,4,3,11,60,0,0
144025,-100,4,3,7,60,0,0
144106,-100,4,3,4,60,0,0
144351,-100,4,3,8,60,0,0
144514,-100,4,3,4,60,0,0
144677,-100,4,3,8,60,0,0
144840,-100,4,3,4,60,0,0
145003,-100,4,3,8,60,0,0
145166,-100,4,3,4,60,0,0
145329,-100,4,3,8,60,0,0
145492,-100,4,3,4,60,0,0
145655,-100,4,3,8,60,0,0
145818,-100,4,3,4,60,0,0
145981,-100,4,3,8,60,0,0
146144,-100,4,3,4,60,0,0
146308,-100,4,3,8,60,0,0
146471,-100,4,3,1,60,0,0
146634,-100,4,3,8,60,0,0
146797,-100,4,3,4,60,0,0
146960,-100,4,3,8,60,0,0
147123,-100,4,3,4,60,0,0
147286,-100,4,3,8,60,0,0
147449,-100,4,3,4,60,0,0
147612,-100,4,3,8,60,0,0
147775,-100,4,3,4,60,0,0
147938,-100,4,3,8,60,0,0
148101,-100,4,3,4,60,0,0
148264,-100,4,3,8,60,0,0
148427,-100,4,3,4,60,0,0
148590,-100,4,3,8,60,0,0
148753,-100,4,3,4,60,0,0
149079,-100,4,3,12,60,0,0
149161,-100,4,3,11,60,0,0
149242,-100,4,3,7,60,0,0
149324,-100,4,3,8,60,0,0
151688,-100,4,3,4,60,0,0
151851,-100,4,3,8,60,0,0
152992,-100,4,3,4,60,0,0
153155,-100,4,3,8,60,0,0
153481,-100,4,3,4,60,0,0
153808,-100,4,3,8,60,0,0
154134,-100,4,3,2,60,0,0
154215,-100,4,3,8,60,0,0
154786,-100,4,3,4,60,0,0
155112,-100,4,3,8,60,0,0
155601,-100,4,3,4,60,0,0
155764,-100,4,3,8,60,0,0
156090,-100,4,3,4,60,0,0
156579,-100,4,3,8,60,0,0
156742,-100,4,3,4,60,0,0
157068,-100,4,3,9,80,0,0
157150,-100,4,3,1,5,0,0
158699,-100,4,3,1,5,0,0
159351,-100,4,3,1,90,0,0
159514,-100,4,3,1,5,0,0
159677,-100,4,3,7,90,0,0
159759,-100,4,3,2,90,0,0
161144,-100,4,3,6,90,0,0
161471,-100,4,3,11,90,0,0
161634,-100,4,3,6,90,0,0
161797,-100,4,3,2,90,0,0
162123,-100,4,3,6,90,0,0
162286,-100,4,3,7,90,0,0
162367,-100,4,3,2,90,0,0
163916,-100,4,3,6,60,0,0
164079,-100,4,3,2,60,0,0
164405,-100,4,3,6,60,0,0
164568,-100,4,3,2,60,0,0
164731,-100,4,3,12,60,0,0
164894,-100,4,3,9,60,0,0
164976,-100,4,3,6,60,0,0
167503,-100,4,3,2,60,0,0
167829,-100,4,3,6,60,0,0
167992,-100,4,3,2,60,0,0
168318,-100,4,3,6,60,0,0
168481,-100,4,3,2,60,0,0
168808,-100,4,3,6,60,0,0
168971,-100,4,3,2,60,0,0
169297,-100,4,3,6,60,0,0
169460,-100,4,3,12,60,0,0
170030,-100,4,3,1,5,0,0
170112,-100,4,3,9,90,0,1
170193,-100,4,3,1,90,0,1
170601,-100,4,3,5,90,0,1
171090,-100,4,3,1,90,0,1
171416,-100,4,3,5,90,0,1
171742,-100,4,3,1,90,0,1
172068,-100,4,3,5,90,0,1
172394,-100,4,3,1,90,0,1
172721,-100,4,3,5,90,0,1
172965,-100,4,3,1,5,0,1
173047,-100,4,3,1,90,0,1
173373,-100,4,3,5,90,0,1
173699,-100,4,3,1,90,0,1
174025,-100,4,3,5,90,0,1
174351,-100,4,3,1,90,0,1
174514,-100,4,3,5,90,0,1
174677,-100,4,3,2,90,0,1
174840,-100,4,3,6,90,0,1
175003,-100,4,3,2,90,0,1
175166,-100,4,3,6,90,0,1
175248,-100,4,3,12,90,0,1
175329,-100,4,3,9,90,0,1
175411,-100,4,3,1,90,0,1
175981,-100,4,3,5,90,0,1
176308,-100,4,3,1,90,0,1
176634,-100,4,3,5,90,0,1
176960,-100,4,3,1,90,0,1
177286,-100,4,3,5,90,0,1
177612,-100,4,3,1,90,0,1
178101,-100,4,3,5,90,0,1
178264,-100,4,3,1,90,0,1
178590,-100,4,3,5,90,0,1
178916,-100,4,3,2,90,0,1
179079,-100,4,3,6,90,0,1
179242,-100,4,3,2,90,0,1
179405,-100,4,3,6,90,0,1
179568,-100,4,3,2,90,0,1
179731,-100,4,3,6,90,0,1
179894,-100,4,3,2,90,0,1
180058,-100,4,3,6,90,0,1
180221,-100,4,3,11,90,0,1
180384,-100,4,3,12,90,0,1
180547,-100,4,3,9,90,0,0
180628,-100,4,3,6,90,0,0
181199,-100,4,3,2,90,0,0
181362,-100,4,3,6,90,0,0
182503,-100,4,3,2,90,0,0
182666,-100,4,3,6,90,0,0
183808,-100,4,3,2,90,0,0
183971,-100,4,3,6,90,0,0
184949,-100,4,3,2,90,0,0
185112,-100,4,3,6,90,0,0
185275,-100,4,3,2,90,0,0
185601,-100,4,3,6,90,0,0
185683,-100,4,3,1,90,0,0
185764,-100,4,3,7,90,0,0
185846,-100,4,3,5,90,0,0
186416,-100,4,3,1,90,0,0
186498,-100,4,3,5,90,0,0
187721,-100,4,3,1,90,0,0
187802,-100,4,3,5,90,0,0
188373,-100,4,3,6,90,0,0
188699,-100,4,3,2,90,0,0
188780,-100,4,3,6,90,0,0
189025,-100,4,3,2,90,0,0
189106,-100,4,3,6,90,0,0
189677,-100,4,3,2,90,0,0
189840,-100,4,3,6,90,0,0
190003,-100,4,3,11,90,0,0
190166,-100,4,3,5,90,0,0
190329,-100,4,3,1,90,0,0
190492,-100,4,3,5,90,0,0
190655,-100,4,3,1,90,0,0
190981,-100,4,3,9,90,0,0
191307,-100,4,3,9,85,0,0
191634,-100,4,3,9,80,0,0
191960,-100,4,3,9,75,0,0
192286,-100,4,3,9,70,0,0
192612,-100,4,3,9,65,0,0
192938,-100,4,3,9,60,0,0
193264,-100,4,3,9,55,0,0
193590,-100,4,3,9,50,0,0
193916,-100,4,3,9,45,0,0
194242,-100,4,3,9,40,0,0
194568,-100,4,3,9,35,0,0
194894,-100,4,3,9,30,0,0
195221,-100,4,3,9,25,0,0
195547,-100,4,3,9,20,0,0
195873,-100,4,3,9,15,0,0
196199,-100,4,3,9,10,0,0
196525,-100,4,3,9,5,0,0

[Colours]
Combo1 : 0,128,192
Combo2 : 255,128,255
Combo3 : 192,192,192

[HitObjects]
328,60,1350,6,0,P|276:52|207:76,2,100,12|8|8,0:0|0:0|0:3,0:0:0:0:
401,128,2328,2,0,P|453:136|522:112,2,100,12|8|8,0:0|0:0|0:3,0:0:0:0:
323,191,3306,2,0,B|323:256|323:256|345:311,2,100,8|8|12,0:0|0:0|0:0,0:0:0:0:
153,84,4610,6,0,P|103:134|159:238,1,200,4|4,0:0|0:0,0:0:0:0:
346,291,5915,1,4,0:0:0:0:
261,344,6241,2,0,L|149:350,1,100,8|12,0:0|0:0,0:0:0:0:
19,207,7219,2,0,B|-19:106|50:105|5:-4,1,200,4|4,0:0|0:0,0:0:0:0:
163,140,8523,6,0,L|283:130,1,100,12|8,0:0|0:0,0:0:0:0:
353,90,9176,1,12,0:0:0:0:
445,128,9502,2,0,P|463:182|443:238,1,100,4|4,0:0|0:0,0:0:0:0:
360,183,10154,2,0,P|342:237|362:293,1,100,4|4,0:0|0:0,0:0:0:0:
442,320,10806,1,4,0:0:0:0:
351,361,11132,6,0,L|234:372,1,100,12|8,0:0|0:0,0:0:0:0:
177,311,11784,1,8,0:0:0:0:
177,311,11947,1,8,0:0:0:0:
101,374,12273,1,12,0:0:0:0:
101,374,12436,1,8,0:0:0:0:
40,301,12763,1,8,0:0:0:0:
40,301,12926,1,8,0:0:0:0:
80,209,13252,2,0,B|120:209|120:209|151:220|151:220|196:220,1,100,12|8,0:0|0:0,0:0:0:0:
220,193,13741,2,0,P|234:145|217:99,1,100,0|0,1:3|1:3,0:0:0:0:
171,10,14393,6,0,P|217:-5|264:9,1,100,12|8,0:0|0:0,0:0:0:0:
333,82,15045,1,12,0:0:0:0:
431,99,15371,2,0,L|439:0,2,100,8|12|8,0:0|0:0|0:0,0:0:0:0:
378,184,16349,1,12,0:0:0:0:
281,211,16676,2,0,P|229:200|173:215,2,100,8|12|8,0:0|0:0|0:0,0:0:0:0:
353,279,17654,1,12,0:0:0:0:
413,358,17980,2,0,L|537:344,2,100,8|12|8,0:0|0:0|0:0,0:0:0:0:
314,372,18958,6,8,B|258:364|258:364|189:365,2,100,8|8|12,0:0|0:0|0:0,0:0:0:0:
371,289,19936,1,8,0:0:0:0:
296,221,20263,1,12,0:0:0:0:
375,160,20589,2,0,L|479:164,2,100,8|12|8,0:0|0:0|0:0,0:0:0:0:
294,100,21567,1,12,0:0:0:0:
211,156,21893,2,0,P|165:185|114:184,2,100,8|12|8,0:0|0:0|0:0,0:0:0:0:
163,68,22871,1,12,0:0:0:0:
247,15,23197,1,8,0:0:0:0:
328,72,23523,6,0,P|313:118|337:178,1,100,12|0,0:0|0:0,0:0:0:0:
419,127,24176,1,8,0:0:0:0:
485,201,24502,2,0,L|490:260,1,50,8|8,0:0|0:0,0:0:0:0:
473,298,24828,6,0,P|425:313|359:301,1,100,12|12,1:3|0:0,0:0:0:0:
333,282,25317,2,0,P|283:276|236:291,1,100,0|8,1:3|0:0,0:0:0:0:
202,327,25806,1,12,1:3:0:0:
112,281,26132,2,0,P|102:226|118:176,1,100,4|12,1:3|0:0,0:0:0:0:
152,152,26621,2,0,P|162:97|146:47,1,100,0|8,1:3|0:0,0:0:0:0:
110,25,27110,1,12,1:3:0:0:
208,3,27436,6,0,L|313:-5,1,100,12|12,1:3|1:3,0:0:0:0:
399,35,28089,1,4,1:3:0:0:
459,116,28415,1,12,1:3:0:0:
459,116,28578,2,0,B|496:187|429:187|468:273,1,150,8|12,1:3|0:0,0:0:0:0:
380,316,29393,1,12,0:0:0:0:
309,245,29719,1,12,0:0:0:0:
357,157,30045,6,4,P|288:142|245:164,1,100,12|12,1:3|0:0,0:0:0:0:
236,194,30534,2,0,P|187:204|141:188,1,100,0|8,1:3|0:0,0:0:0:0:
106,152,31023,1,12,1:3:0:0:
24,94,31349,2,0,P|4:148|30:212,1,100,4|12,1:3|0:0,0:0:0:0:
54,216,31839,2,0,P|74:270|48:334,1,100,0|8,1:3|0:0,0:0:0:0:
31,346,32328,1,12,1:3:0:0:
129,365,32654,6,0,L|241:354,1,100,12|12,1:3|1:3,0:0:0:0:
298,283,33306,2,8,L|410:272,1,100,8|12,1:3|1:3,0:0:0:0:
434,239,33795,2,0,P|408:170|437:85,1,150,8|12,1:3|0:0,0:0:0:0:
483,16,34610,2,0,L|366:24,1,100,12|8,0:0|0:3,0:0:0:0:
295,71,35263,6,0,L|185:77,1,100,8|8,1:3|0:0,0:0:0:0:
167,34,35752,2,0,L|57:40,1,100,8|8,1:3|0:0,0:0:0:0:
28,71,36241,1,8,1:3:0:0:
30,170,36567,2,0,P|14:225|33:283,1,100,12|8,1:3|0:0,0:0:0:0:
65,292,37056,2,0,L|182:281,1,100,8|8,1:3|0:0,0:0:0:0:
206,255,37545,1,8,1:3:0:0:
293,205,37871,6,0,P|307:260|287:317,1,100,8|8,1:3|1:3,0:0:0:0:
379,357,38523,1,0,0:0:0:0:
476,335,38849,1,8,1:3:0:0:
407,262,39176,1,12,0:0:0:0:
503,234,39502,2,0,L|495:124,1,100,8|8,0:0|0:0,0:0:0:0:
492,34,40154,1,8,0:0:0:0:
392,20,40480,6,0,L|279:27,1,100,8|8,1:3|0:0,0:0:0:0:
252,57,40969,2,0,P|242:106|273:173,1,100,8|8,1:3|0:0,0:0:0:0:
294,184,41458,1,8,1:3:0:0:
393,184,41784,2,0,L|386:297,1,100,12|8,1:3|0:0,0:0:0:0:
356,324,42273,2,0,P|307:334|240:303,1,100,8|8,1:3|0:0,0:0:0:0:
229,282,42762,1,12,1:3:0:0:
158,352,43089,5,4,1:3:0:0:
256,192,43415,12,4,45046,1:3:0:0:
49,211,45697,6,0,P|102:223|168:198,1,100,8|12,1:3|1:3,0:0:0:0:
227,154,46349,1,8,1:3:0:0:
314,202,46676,1,12,1:3:0:0:
314,202,46839,2,0,P|302:253|314:315,1,100,0|8,1:3|0:0,0:0:0:0:
329,344,47328,1,12,0:0:0:0:
432,316,47654,2,0,L|504:305,2,50,8|8|12,0:0|0:0|0:0,0:0:0:0:
372,235,48306,5,8,1:3:0:0:
442,164,48632,1,12,1:3:0:0:
371,93,48958,1,8,1:3:0:0:
437,18,49284,1,12,1:3:0:0:
437,18,49447,2,0,P|393:-3|325:3,1,100,0|8,1:3|0:0,0:0:0:0:
293,11,49936,1,12,1:3:0:0:
220,78,50263,2,0,L|112:67,1,100,12|12,1:3|1:3,0:0:0:0:
72,82,50752,1,8,1:3:0:0:
72,82,50915,1,12,0:0:0:0:
136,158,51241,6,0,P|151:208|128:270,1,100,12|8,1:3|1:3,0:0:0:0:
138,353,51893,1,12,1:3:0:0:
138,353,52056,2,0,L|257:343,1,100,0|8,1:3|0:0,0:0:0:0:
272,309,52545,2,0,L|371:317,1,100,12|8,1:3|1:3,0:0:0:0:
461,360,53197,2,0,L|523:354,2,50,12|0|8,1:3|1:3|0:0,0:0:0:0:
446,261,53849,2,0,L|436:150,1,100,12|8,0:0|0:0,0:0:0:0:
393,68,54502,5,12,1:3:0:0:
322,138,54828,1,12,1:3:0:0:
251,67,55154,1,12,1:3:0:0:
180,137,55480,2,0,L|191:266,1,100,8|12,1:3|0:0,0:0:0:0:
163,333,56132,6,0,P|112:348|68:322,1,100,12|0,1:3|1:3,0:0:0:0:
21,241,56784,1,12,1:3:0:0:
103,184,57110,2,0,L|164:178,2,50,8|8|12,1:3|1:3|0:0,0:0:0:0:
25,120,57763,1,8,0:0:0:0:
102,57,58089,2,0,L|95:-7,2,50,12|8|8,0:0|0:0|0:0,0:0:0:0:
174,126,58741,6,0,P|235:139|288:117,1,100,12|8,1:3|1:3,0:0:0:0:
342,59,59393,1,12,1:3:0:0:
419,122,59719,2,0,L|422:182,1,50,8|8,1:3|1:3,0:0:0:0:
449,213,60045,2,0,B|447:260|447:260|387:289,1,100,12|8,0:0|1:3,0:0:0:0:
348,288,60534,1,12,0:0:0:0:
289,206,60860,1,12,0:0:0:0:
289,206,61023,1,12,1:3:0:0:
203,154,61349,6,0,P|188:201|220:271,1,100,8|8,1:3|1:3,0:0:0:0:
249,336,62002,2,0,P|202:351|132:319,1,100,8|8,1:3|1:3,0:0:0:0:
66,290,62654,2,0,L|57:178,1,100,12|8,1:3|1:3,0:0:0:0:
103,101,63306,2,0,L|94:-11,1,100,8|12,1:3|1:3,0:0:0:0:
192,24,63958,5,12,0:0:0:0:
261,94,64284,1,12,0:0:0:0:
335,27,64610,1,12,0:0:0:0:
335,27,64773,1,12,0:0:0:0:
412,89,65099,1,12,0:0:0:0:
345,164,65426,1,12,0:0:0:0:
345,164,65589,1,12,0:0:0:0:
418,231,65915,1,8,1:3:0:0:
405,330,66241,2,0,L|342:323,1,50,8|8,0:0|0:0,0:0:0:0:
308,342,66567,6,0,P|259:332|211:345,1,100,12|8,0:0|0:0,0:0:0:0:
114,367,67219,1,12,0:0:0:0:
50,290,67545,2,0,L|43:191,2,100,8|12|8,0:0|0:0|0:0,0:0:0:0:
147,267,68523,1,12,0:0:0:0:
206,186,68849,2,0,P|259:177|324:182,2,100,8|12|8,0:0|0:0|0:0,0:0:0:0:
115,146,69828,1,12,0:0:0:0:
18,172,70154,2,0,L|35:68,1,100,8|12,0:0|0:0,0:0:0:0:
118,19,70806,1,8,0:0:0:0:
209,59,71132,6,0,B|249:59|249:59|280:71|280:71|330:71,1,100,12|8,0:0|0:0,0:0:0:0:
404,49,71784,2,0,B|441:38|441:38|521:37,2,100,12|8|12,0:0|0:0|0:0,0:0:0:0:
372,144,72763,1,8,0:0:0:0:
372,144,72926,2,0,B|376:217|376:217|366:252,1,100,8|8,0:0|0:0,0:0:0:0:
433,318,73578,1,8,0:0:0:0:
433,318,73741,2,0,L|493:313,2,50,12|8|8,0:0|0:0|0:0,0:0:0:0:
346,368,74393,5,12,0:0:0:0:
275,297,74719,1,8,0:0:0:0:
204,367,75045,1,12,0:0:0:0:
133,296,75371,1,8,0:0:0:0:
203,225,75697,2,0,B|196:197|196:197|197:105,1,100,8|8,0:0|0:3,0:0:0:0:
253,43,76349,2,0,B|328:14|329:82|402:34,1,150,8|0,0:0|0:0,0:0:0:0:
444,52,77002,6,0,L|453:164,1,100,12|8,1:3|0:0,0:0:0:0:
413,183,77491,2,0,L|422:295,1,100,8|8,1:3|0:0,0:0:0:0:
454,319,77980,1,8,1:3:0:0:
363,360,78306,2,0,P|318:343|270:359,1,100,12|0,1:3|0:0,0:0:0:0:
224,351,78795,2,0,P|179:368|131:352,1,100
97,315,79284,1,8,1:3:0:0:
7,359,79610,6,0,L|1:249,1,100,12|8,1:3|1:3,0:0:0:0:
87,208,80263,1,0,0:0:0:0:
16,137,80589,1,8,1:3:0:0:
86,66,80915,2,0,B|206:11|206:124|357:57,1,250,12|8,0:0|0:0,0:0:0:0:
416,189,82219,6,0,P|368:203|314:192,1,100,12|8,1:3|0:0,0:0:0:0:
274,172,82708,2,0,L|270:278,1,100,8|8,1:3|0:0,0:0:0:0:
268,321,83197,1,8,1:3:0:0:
172,349,83523,2,0,L|72:341,1,100,12|0,1:3|0:0,0:0:0:0:
30,313,84013,2,0,P|25:247|48:198,1,100
71,180,84502,1,8,1:3:0:0:
164,145,84828,2,0,L|286:138,2,100,12|8|0,1:3|1:3|0:0,0:0:0:0:
75,98,85806,1,8,1:3:0:0:
160,45,86132,6,0,L|219:41,1,50,12|8,0:0|0:0,0:0:0:0:
259,37,86458,1,12,0:0:0:0:
329,107,86784,1,8,0:0:0:0:
399,37,87110,2,0,L|469:46,1,50,8|8,0:0|0:0,0:0:0:0:
481,80,87436,6,0,L|492:195,1,100,4|12,1:3|0:0,0:0:0:0:
454,215,87926,2,0,P|417:232|356:212,1,100,0|8,1:3|0:0,0:0:0:0:
321,187,88415,1,12,1:3:0:0:
225,157,88741,2,0,L|234:277,1,100,12|12,1:3|0:0,0:0:0:0:
213,303,89230,2,0,P|162:293|101:318,1,100,0|8,1:3|0:0,0:0:0:0:
75,333,89719,1,12,1:3:0:0:
27,244,90045,6,0,L|38:133,1,100,12|12,1:3|1:3,0:0:0:0:
134,122,90697,1,12,1:3:0:0:
83,35,91023,2,0,L|25:27,2,50,12|0|12,1:3|1:3|0:0,0:0:0:0:
182,20,91676,1,12,0:0:0:0:
252,90,92002,1,12,0:0:0:0:
322,19,92328,1,12,0:0:0:0:
392,89,92654,1,12,1:3:0:0:
256,192,92980,12,0,94610,0:0:0:0:
99,162,95263,5,12,1:3:0:0:
176,225,95589,1,12,1:3:0:0:
176,225,95752,1,12,0:0:0:0:
256,164,96078,1,12,0:0:0:0:
256,164,96241,1,12,1:3:0:0:
350,197,96567,2,0,B|349:267|349:267|315:286|315:286|349:310|349:310|349:380,1,200,8|12,1:3|1:3,0:0:0:0:
482,286,97871,5,12,0:0:0:0:
113,134,111585,6,0,L|58:124,2,50,12|8|8,1:3|0:0|0:0,0:0:0:0:
206,98,112442,2,0,B|305:48|303:143|398:95,1,200,4|12,0:0|0:0,0:0:0:0:
500,204,113942,6,0,L|436:214,1,50,8|12,0:0|0:0,0:0:0:0:
408,301,114585,1,8,0:0:0:0:
321,250,115013,2,0,L|257:240,1,50,12|8,0:0|0:0,0:0:0:0:
200,171,115656,2,0,P|108:180|171:280,1,250,8|12,0:0|0:0,0:0:0:0:
307,327,117371,6,0,L|312:264,1,50,8|12,0:0|0:0,0:0:0:0:
376,202,118013,1,12,0:0:0:0:
459,146,118442,2,0,L|464:83,1,50,12|8,0:0|0:0,0:0:0:0:
388,28,119085,2,0,B|322:59|322:59|128:52,1,250,8|12,0:0|0:0,0:0:0:0:
40,159,120799,6,0,L|48:224,1,50,8|12,0:0|0:0,0:0:0:0:
31,307,121442,1,8,0:0:0:0:
116,358,121871,2,0,L|182:353,1,50,12|8,0:0|0:0,0:0:0:0:
241,289,122513,2,0,B|363:229|362:352|498:291,1,250,8|6,0:0|0:0,0:0:0:0:
460,149,124228,6,0,L|390:155,1,50,8|12,0:0|0:0,0:0:0:0:
323,103,124871,2,0,L|334:2,2,100,8|12|8,0:0|0:0|0:0,0:0:0:0:
238,155,126156,2,0,B|153:193|37:153|37:153|133:152|181:83,1,350,12|8,0:0|0:0,0:0:0:0:
254,52,128085,2,0,L|259:-3,2,50,8|8|8,0:0|0:0|0:0,0:0:0:0:
343,96,128942,2,0,L|406:92,1,50,8|8,0:0|0:0,0:0:0:0:
492,85,129585,2,0,L|497:291,1,200,12|4,0:0|0:0,0:0:0:0:
360,346,131085,6,0,L|299:343,1,50,8|12,0:0|0:0,0:0:0:0:
212,367,131728,1,12,0:0:0:0:
121,324,132156,2,0,L|67:319,2,50,12|8|8,0:0|0:0|0:0,0:0:0:0:
204,268,133013,2,0,B|242:187|200:76|200:76|136:133|45:101,1,350,12|8,0:0|0:0,0:0:0:0:
36,150,134728,6,0,L|44:263,1,100,12|8,0:0|0:0,0:0:0:0:
102,330,135585,2,0,P|161:340|216:318,1,100,12|8,0:0|0:0,0:0:0:0:
267,256,136442,1,12,0:0:0:0:
336,183,136871,2,0,P|391:170|451:198,1,100,12|12,0:0|0:0,0:0:0:0:
500,255,137728,1,8,0:3:0:0:
439,330,138156,6,0,L|329:325,1,100,12|8,0:0|0:3,0:0:0:0:
272,166,149242,6,0,P|349:150|428:170,2,150,12|0|8,1:3|1:3|1:3,0:0:0:0:
200,235,150547,2,0,P|123:251|44:231,2,150,8|0|8,1:3|1:3|1:3,0:0:0:0:
167,139,151851,2,0,P|164:77|182:25,1,100,8|12,1:3|1:3,0:0:0:0:
269,9,152503,1,12,1:3:0:0:
359,52,152829,1,12,1:3:0:0:
359,52,152992,2,0,P|326:123|363:204,1,150,8|12,1:3|0:0,0:0:0:0:
440,225,153808,2,0,L|427:329,1,100,8|12,0:0|0:0,0:0:0:0:
334,360,154460,6,0,L|231:347,1,100,8|8,1:3|0:0,0:0:0:0:
188,367,154949,2,0,L|85:354,1,100,0|0,1:3|0:0,0:0:0:0:
39,359,155438,1,12,1:3:0:0:
19,261,155764,2,0,L|29:151,1,100,8|8,1:3|0:0,0:0:0:0:
115,112,156416,2,0,B|175:108|175:108|235:117,2,100,8|12|12,0:0|1:3|1:3,0:0:0:0:
256,192,157394,12,0,158699,0:0:0:0:
333,161,159351,5,8,0:0:0:0:
417,213,159677,6,0,P|346:258|247:208,1,200,12|4,1:3|1:3,0:0:0:0:
113,64,160981,2,0,L|123:217,1,150,12|8,0:0|0:3,0:0:0:0:
195,290,161797,1,12,0:0:0:0:
195,290,161960,1,12,0:0:0:0:
292,268,162286,6,0,B|339:174|254:174|299:59,1,200,12|4,1:3|1:3,0:0:0:0:
491,103,163590,6,0,B|503:137|503:137|498:225,1,100,8|8,0:0|0:0,0:0:0:0:
442,283,164242,2,0,L|450:336,2,50,8|8|12,0:0|0:0|1:3,0:0:0:0:
373,210,164894,6,0,P|319:201|263:220,1,100,12|0,1:3|1:3,0:0:0:0:
193,269,165547,1,8,1:3:0:0:
106,219,165873,2,0,L|41:220,2,50,12|0|12,1:3|0:0|1:3,0:0:0:0:
165,139,166525,2,0,P|221:128|269:142,2,100,0|12|0,0:0|1:3|0:0,0:0:0:0:
76,106,167503,5,12,0:0:0:0:
76,106,167666,1,12,0:0:0:0:
113,204,167992,1,12,0:0:0:0:
113,204,168155,1,12,0:0:0:0:
55,286,168481,1,12,1:3:0:0:
55,286,168644,1,12,0:0:0:0:
92,384,168970,1,12,0:0:0:0:
92,384,169133,1,12,1:3:0:0:
391,358,170112,6,4,L|383:258,1,100,12|12,1:3|1:3,0:0:0:0:
440,176,170764,1,8,1:3:0:0:
486,89,171090,1,12,1:3:0:0:
486,89,171253,2,0,P|427:77|373:102,1,100,0|8,1:3|0:0,0:0:0:0:
353,122,171742,1,12,0:0:0:0:
284,194,172068,2,0,L|227:189,2,50,8|8|12,0:0|0:0|0:0,0:0:0:0:
364,253,172721,5,8,1:3:0:0:
322,343,173047,1,12,1:3:0:0:
250,273,173373,1,8,1:3:0:0:
182,347,173699,1,12,1:3:0:0:
182,347,173862,2,0,L|77:343,1,100,0|8,1:3|0:0,0:0:0:0:
36,322,174351,5,12,1:3:0:0:
106,251,174677,1,12,1:3:0:0:
35,180,175003,1,12,1:3:0:0:
105,109,175329,2,0,L|210:103,1,100,12|12,1:3|1:3,0:0:0:0:
290,155,175981,2,0,L|297:210,2,50,8|8|12,1:3|0:0|1:3,0:0:0:0:
351,76,176634,1,8,0:0:0:0:
436,127,176960,6,0,P|451:174|441:228,1,100,12|8,1:3|1:3,0:0:0:0:
381,302,177612,1,12,1:3:0:0:
381,302,177775,2,0,P|326:294|261:308,1,100,0|8,1:3|0:0,0:0:0:0:
235,317,178264,1,12,0:0:0:0:
164,246,178590,1,8,0:0:0:0:
234,175,178916,5,12,0:3:0:0:
163,104,179242,1,12,1:3:0:0:
92,174,179568,1,12,1:3:0:0:
21,103,179894,2,0,B|9:72|9:72|10:2,1,100,8|8,0:0|0:0,0:0:0:0:
107,26,180547,6,0,L|213:15,1,100,12|8,1:3|0:0,0:0:0:0:
306,17,181199,1,12,0:0:0:0:
380,83,181525,2,0,P|446:83|486:68,2,100,8|12|8,0:0|0:0|0:0,0:0:0:0:
293,133,182503,1,12,0:0:0:0:
363,203,182829,5,8,0:0:0:0:
292,273,183155,2,0,L|181:262,1,100,12|8,0:0|0:0,0:0:0:0:
92,251,183808,1,12,0:0:0:0:
116,154,184134,2,0,L|105:51,2,100,8|12|8,0:0|0:0|0:0,0:0:0:0:
155,185,184949,1,12,0:0:0:0:
221,110,185275,1,12,0:0:0:0:
221,110,185438,1,12,0:0:0:0:
302,51,185764,6,0,P|318:105|309:157,1,100,12|8,0:0|0:0,0:0:0:0:
240,217,186416,1,8,0:0:0:0:
306,298,186742,1,8,0:0:0:0:
306,298,186905,2,0,P|260:326|168:297,1,150,8|8,0:0|0:0,0:0:0:0:
148,204,187721,1,8,0:0:0:0:
80,277,188047,1,8,0:0:0:0:
48,181,188373,6,0,L|-4:173,2,50,12|8|12,0:0|0:0|0:0,0:0:0:0:
124,116,189025,1,12,0:0:0:0:
45,54,189351,1,12,0:0:0:0:
132,6,189677,1,8,0:0:0:0:
132,6,189840,1,8,0:0:0:0:
228,31,190166,6,0,L|233:-32,2,50,8|8|8,0:0|0:0|0:0,0:0:0:0:
254,73,190655,2,0,L|250:132,2,50,8|8|12,0:0|0:0|0:0,0:0:0:0:
256,192,191144,12,0,197503,0:0:0:0:
