osu file format v14

[General]
AudioFilename: audio.mp3
AudioLeadIn: 0
PreviewTime: 159596
Countdown: 0
SampleSet: Drum
StackLeniency: 0.4
Mode: 0
LetterboxInBreaks: 0
WidescreenStoryboard: 1

[Editor]
Bookmarks: 181199,181851,183808,184460
DistanceSpacing: 2.2
BeatDivisor: 4
GridSize: 16
TimelineZoom: 1.8

[Metadata]
Title:Sad spring
TitleUnicode:Sad spring
Artist:Draw the Emotional
ArtistUnicode:Draw the Emotional
Creator:Resurreccion
Version:Lunatic
Source:東方妖々夢 ~ Perfect Cherry Blossom.
Tags:touhou doujin Seni Akitoshi -Laura- Corinn Seated with Liquor ゆよゆっぺ yuyoyuppe ルシュカ Luschka neko 幽雅に咲かせ、墨染の桜 ~ Border of Life yuuga ni sakase, sumizome no sakura bloom nobly, ink-black ink black cherry blossom stage 6 ネクロファンタジア Necrofantasia comiket 83 c83 saigyouji yuyuko yukari yakumo video game japanese rock metal 東方project project zun team shanghai alice pcb th07 th 07 youyoumu 妖々夢 ghostly dream phantasm stage yukari yakumo 八雲 紫 foreground eclipse
BeatmapID:2082715
BeatmapSetID:994604

[Difficulty]
HPDrainRate:4.5
CircleSize:4
OverallDifficulty:8
ApproachRate:9
SliderMultiplier:1.5
SliderTickRate:1

[Events]
//Background and Video events
0,0,"Seni pic.png",0,0
//Break Periods
//Storyboard Layer 0 (Background)
//Storyboard Layer 1 (Fail)
//Storyboard Layer 2 (Pass)
//Storyboard Layer 3 (Foreground)
//Storyboard Layer 4 (Overlay)
//Storyboard Sound Samples

[TimingPoints]
1350,326.086956521739,4,3,2,70,1,0
1676,-100,4,3,6,70,0,0
1839,-100,4,3,11,70,0,0
2165,-100,4,3,6,70,0,0
2328,-100,4,3,2,70,0,0
2654,-100,4,3,6,70,0,0
2817,-100,4,3,11,70,0,0
2980,-100,4,3,6,70,0,0
3143,-100,4,3,2,70,0,0
3306,-100,4,3,5,70,0,0
3632,-100,4,3,1,70,0,0
3795,-100,4,3,11,70,0,0
3958,-133.333333333333,4,3,9,60,0,0
4610,-133.333333333333,4,3,1,60,0,0
6241,-133.333333333333,4,3,5,60,0,0
6322,-133.333333333333,4,3,5,5,0,0
6404,-133.333333333333,4,3,5,60,0,0
6485,-133.333333333333,4,3,5,5,0,0
6567,-133.333333333333,4,3,9,60,0,0
7219,-133.333333333333,4,3,1,60,0,0
8523,-133.333333333333,4,3,2,60,0,0
8686,-133.333333333333,4,3,5,60,0,0
9013,-133.333333333333,4,3,6,60,0,0
9176,-133.333333333333,4,3,5,60,0,0
10480,-133.333333333333,4,3,2,60,0,0
11295,-133.333333333333,4,3,6,60,0,0
11621,-133.333333333333,4,3,2,60,0,0
11784,-133.333333333333,4,3,6,60,0,0
12273,-133.333333333333,4,3,2,60,0,0
12355,-133.333333333333,4,3,6,60,0,0
13252,-133.333333333333,4,3,2,60,0,0
13333,-133.333333333333,4,3,6,60,0,0
13415,-133.333333333333,4,3,11,60,0,0
13578,-133.333333333333,4,3,5,60,0,0
13741,-133.333333333333,4,3,1,60,0,0
14311,-133.333333333333,4,3,1,5,0,0
14393,-100,4,3,9,80,0,0
14474,-100,4,3,6,80,0,0
15045,-100,4,3,2,80,0,0
15127,-100,4,3,6,80,0,0
16349,-100,4,3,2,80,0,0
16431,-100,4,3,6,80,0,0
17654,-100,4,3,2,80,0,0
17735,-100,4,3,6,80,0,0
18958,-100,4,3,2,80,0,0
19040,-100,4,3,6,80,0,0
19284,-100,4,3,2,80,0,0
19447,-100,4,3,11,80,0,0
19610,-100,4,3,9,80,0,0
19692,-100,4,3,6,80,0,0
20263,-100,4,3,2,80,0,0
20344,-100,4,3,6,80,0,0
21567,-100,4,3,2,80,0,0
21648,-100,4,3,6,80,0,0
22871,-100,4,3,2,80,0,0
22953,-100,4,3,6,80,0,0
23523,-133.333333333333,4,3,6,80,0,0
24094,-100,4,3,6,80,0,0
24176,-100,4,3,2,80,0,0
24339,-100,4,3,6,80,0,0
24502,-100,4,3,2,80,0,0
24828,-100,4,3,9,80,0,0
24909,-100,4,3,1,80,0,0
25643,-100,4,3,5,80,0,0
25806,-100,4,3,1,80,0,0
25969,-100,4,3,5,80,0,0
26132,-100,4,3,1,80,0,0
26295,-100,4,3,5,80,0,0
26458,-100,4,3,1,80,0,0
26784,-100,4,3,5,80,0,0
27110,-100,4,3,1,80,0,0
27436,-100,4,3,5,80,0,0
27763,-100,4,3,1,80,0,0
28252,-100,4,3,5,80,0,0
28415,-100,4,3,1,80,0,0
28578,-100,4,3,5,80,0,0
28741,-100,4,3,5,80,0,0
28904,-100,4,3,5,80,0,0
29067,-100,4,3,1,80,0,0
29393,-100,4,3,5,80,0,0
29719,-100,4,3,1,80,0,0
29882,-100,4,3,11,80,0,0
29964,-100,4,3,12,80,0,0
30045,-100,4,3,9,80,0,0
30127,-100,4,3,1,80,0,0
30860,-100,4,3,5,80,0,0
31023,-100,4,3,1,80,0,0
31186,-100,4,3,5,80,0,0
31349,-100,4,3,1,80,0,0
31513,-100,4,3,5,80,0,0
31676,-100,4,3,1,80,0,0
32002,-100,4,3,5,80,0,0
32328,-100,4,3,1,80,0,0
32654,-100,4,3,5,80,0,0
32980,-100,4,3,1,80,0,0
33469,-100,4,3,5,80,0,0
33632,-100,4,3,1,80,0,0
33795,-100,4,3,5,80,0,0
33958,-100,4,3,5,80,0,0
34121,-100,4,3,5,80,0,0
34284,-100,4,3,1,80,0,0
34447,-100,4,3,5,80,0,0
34610,-100,4,3,2,80,0,0
34773,-100,4,3,6,80,0,0
34936,-100,4,3,12,70,0,0
35099,-100,4,3,7,70,0,0
35263,-100,4,3,6,60,0,0
36567,-100,4,3,2,60,0,0
36730,-100,4,3,6,60,0,0
39176,-100,4,3,2,60,0,0
39339,-100,4,3,6,60,0,0
39665,-100,4,3,11,60,0,0
39828,-100,4,3,6,60,0,0
39991,-100,4,3,2,60,0,0
40154,-100,4,3,6,60,0,0
40317,-100,4,3,2,60,0,0
40480,-100,4,3,6,60,0,0
41784,-100,4,3,2,60,0,0
41947,-100,4,3,6,60,0,0
42436,-100,4,3,2,60,0,0
42599,-100,4,3,6,60,0,0
42763,-100,4,3,2,60,0,0
42926,-100,4,3,6,60,0,0
43089,-100,4,3,2,60,0,0
43170,-100,4,3,4,60,0,0
45371,-100,4,3,9,60,0,0
45697,-76.9230769230769,4,3,5,90,0,1
46023,-76.9230769230769,4,3,1,90,0,1
46349,-76.9230769230769,4,3,5,90,0,1
46676,-76.9230769230769,4,3,1,90,0,1
47002,-76.9230769230769,4,3,5,90,0,1
47328,-76.9230769230769,4,3,1,90,0,1
47654,-76.9230769230769,4,3,5,90,0,1
47980,-76.9230769230769,4,3,1,90,0,1
48306,-76.9230769230769,4,3,5,90,0,1
48551,-76.9230769230769,4,3,5,90,0,1
48632,-76.9230769230769,4,3,1,90,0,1
48958,-76.9230769230769,4,3,5,90,0,1
49284,-76.9230769230769,4,3,1,90,0,1
49610,-76.9230769230769,4,3,5,90,0,1
49936,-76.9230769230769,4,3,2,90,0,1
50099,-76.9230769230769,4,3,6,90,0,1
50263,-76.9230769230769,4,3,2,90,0,1
50426,-76.9230769230769,4,3,6,90,0,1
50589,-76.9230769230769,4,3,2,90,0,1
50752,-76.9230769230769,4,3,6,90,0,1
50915,-76.9230769230769,4,3,9,90,0,1
50996,-76.9230769230769,4,3,5,90,0,1
51241,-76.9230769230769,4,3,1,90,0,1
51567,-76.9230769230769,4,3,5,90,0,1
51893,-76.9230769230769,4,3,1,90,0,1
52219,-76.9230769230769,4,3,5,90,0,1
52545,-76.9230769230769,4,3,1,90,0,1
52871,-76.9230769230769,4,3,5,90,0,1
53197,-76.9230769230769,4,3,1,90,0,1
53523,-76.9230769230769,4,3,5,90,0,1
53849,-76.9230769230769,4,3,1,90,0,1
54176,-76.9230769230769,4,3,5,90,0,1
54502,-76.9230769230769,4,3,2,90,0,1
54665,-76.9230769230769,4,3,6,90,0,1
54828,-76.9230769230769,4,3,2,90,0,1
54991,-76.9230769230769,4,3,6,90,0,1
55154,-76.9230769230769,4,3,2,90,0,1
55317,-76.9230769230769,4,3,6,90,0,1
55480,-76.9230769230769,4,3,1,100,0,1
55643,-76.9230769230769,4,3,5,100,0,1
55969,-76.9230769230769,4,3,5,100,0,0
56051,-76.9230769230769,4,3,1,90,0,0
56132,-76.9230769230769,4,3,9,90,0,1
56214,-76.9230769230769,4,3,6,90,0,1
56377,-76.9230769230769,4,3,6,90,0,1
56458,-76.9230769230769,4,3,6,90,0,1
56784,-76.9230769230769,4,3,2,90,0,1
56947,-76.9230769230769,4,3,6,90,0,1
58089,-76.9230769230769,4,3,2,90,0,1
58252,-76.9230769230769,4,3,6,90,0,1
58741,-76.9230769230769,4,3,9,90,0,1
58822,-76.9230769230769,4,3,6,90,0,1
58985,-76.9230769230769,4,3,6,90,0,1
59067,-76.9230769230769,4,3,6,90,0,1
59393,-76.9230769230769,4,3,2,90,0,1
59556,-76.9230769230769,4,3,6,90,0,1
60534,-76.9230769230769,4,3,2,90,0,1
60697,-76.9230769230769,4,3,6,90,0,1
60860,-76.9230769230769,4,3,2,90,0,1
61186,-76.9230769230769,4,3,6,90,0,1
61349,-76.9230769230769,4,3,5,90,0,1
62654,-76.9230769230769,4,3,6,90,0,1
63143,-76.9230769230769,4,3,2,90,0,1
63224,-76.9230769230769,4,3,6,90,0,1
63469,-76.9230769230769,4,3,2,90,0,1
63551,-76.9230769230769,4,3,6,90,0,1
63632,-76.9230769230769,4,3,2,90,0,1
63714,-76.9230769230769,4,3,6,90,0,1
63958,-76.9230769230769,4,3,2,90,0,1
64121,-76.9230769230769,4,3,6,90,0,1
64284,-76.9230769230769,4,3,2,90,0,1
64447,-76.9230769230769,4,3,6,90,0,1
64610,-76.9230769230769,4,3,2,90,0,1
65263,-76.9230769230769,4,3,6,90,0,1
65426,-76.9230769230769,4,3,2,90,0,1
65752,-76.9230769230769,4,3,6,90,0,1
65915,-76.9230769230769,4,3,11,90,0,1
66078,-76.9230769230769,4,3,5,90,0,1
66241,-76.9230769230769,4,3,1,90,0,1
66567,-100,4,3,6,80,0,0
67219,-100,4,3,2,80,0,0
67301,-100,4,3,6,80,0,0
68523,-100,4,3,2,80,0,0
68605,-100,4,3,6,80,0,0
69828,-100,4,3,2,80,0,0
69909,-100,4,3,6,80,0,0
70480,-100,4,3,2,80,0,0
70561,-100,4,3,6,80,0,0
71132,-100,4,3,2,80,0,0
71214,-100,4,3,6,80,0,0
71458,-100,4,3,2,80,0,0
71621,-100,4,3,12,80,0,0
71784,-100,4,3,6,80,0,0
72436,-100,4,3,2,80,0,0
72518,-100,4,3,6,80,0,0
73741,-100,4,3,2,80,0,0
73822,-100,4,3,6,80,0,0
74393,-100,4,3,2,80,0,0
74474,-100,4,3,6,80,0,0
74719,-100,4,3,2,80,0,0
74882,-100,4,3,6,80,0,0
75045,-100,4,3,2,80,0,0
75127,-100,4,3,6,80,0,0
75371,-100,4,3,2,80,0,0
75534,-100,4,3,6,80,0,0
75697,-100,4,3,2,80,0,0
75860,-100,4,3,6,80,0,0
76023,-100,4,3,12,70,0,0
76186,-100,4,3,5,70,0,0
76349,-133.333333333333,4,3,1,70,0,0
76920,-133.333333333333,4,3,1,5,0,0
77002,-100,4,3,9,60,0,0
77083,-100,4,3,6,60,0,0
78306,-100,4,3,2,60,0,0
79284,-100,4,3,6,60,0,0
80915,-100,4,3,2,60,0,0
81730,-100,4,3,6,60,0,0
83523,-100,4,3,2,60,0,0
84502,-100,4,3,6,60,0,0
86132,-100,4,3,2,60,0,0
86295,-100,4,3,6,60,0,0
86458,-100,4,3,2,60,0,0
86621,-100,4,3,6,60,0,0
86784,-100,4,3,1,60,0,0
86866,-100,4,3,11,60,0,0
86947,-100,4,3,5,60,0,0
87110,-100,4,3,1,60,0,0
87273,-100,4,3,5,60,0,0
87436,-100,4,3,9,60,0,0
87518,-100,4,3,1,5,0,0
87599,-100,4,3,1,60,0,0
88089,-100,4,3,5,60,0,0
88415,-100,4,3,1,60,0,0
88741,-100,4,3,5,60,0,0
89067,-100,4,3,1,60,0,0
89311,-100,4,3,1,5,0,0
89393,-100,4,3,5,60,0,0
89719,-100,4,3,1,60,0,0
90045,-100,4,3,5,60,0,0
90371,-100,4,3,1,60,0,0
90697,-100,4,3,5,60,0,0
91023,-100,4,3,1,60,0,0
91349,-100,4,3,5,60,0,0
91594,-100,4,3,1,5,0,0
91676,-100,4,3,1,60,0,0
91757,-100,4,3,1,5,0,0
91839,-100,4,3,5,60,0,0
92002,-100,4,3,2,60,0,0
92165,-100,4,3,6,60,0,0
92328,-100,4,3,2,60,0,0
92491,-100,4,3,6,60,0,0
92654,-100,4,3,1,45,0,0
95263,-100,4,3,2,80,0,0
95426,-100,4,3,6,80,0,0
95589,-100,4,3,2,80,0,0
95915,-100,4,3,6,80,0,0
96078,-100,4,3,2,80,0,0
96404,-100,4,3,6,80,0,0
96567,-100,4,3,2,80,0,0
96730,-100,4,3,6,80,0,0
96893,-100,4,3,12,80,0,0
97056,-100,4,3,5,80,0,0
97219,-100,4,3,1,60,0,0
97790,-100,4,3,1,5,0,0
97871,428.571428571429,4,3,7,60,1,0
97871,-111.111111111111,4,3,7,60,0,0
98299,-111.111111111111,4,3,1,60,0,0
101085,-111.111111111111,4,3,5,60,0,0
101299,-111.111111111111,4,3,6,60,0,0
101406,-111.111111111111,4,3,1,60,0,0
103013,-111.111111111111,4,3,5,60,0,0
103228,-111.111111111111,4,3,2,60,0,0
103656,-111.111111111111,4,3,6,60,0,0
103871,-111.111111111111,4,3,11,60,0,0
103978,-111.111111111111,4,3,6,60,0,0
104299,-111.111111111111,4,3,2,60,0,0
104513,-111.111111111111,4,3,6,60,0,0
104728,-111.111111111111,4,3,7,60,0,0
104835,-111.111111111111,4,3,1,60,0,0
106656,-111.111111111111,4,3,5,60,0,0
106871,-111.111111111111,4,3,11,60,0,0
106978,-111.111111111111,4,3,6,60,0,0
107299,-111.111111111111,4,3,2,60,0,0
107513,-111.111111111111,4,3,6,60,0,0
107728,-111.111111111111,4,3,2,60,0,0
107942,-111.111111111111,4,3,6,60,0,0
108156,-111.111111111111,4,3,2,60,0,0
111585,-90.9090909090909,4,3,9,80,0,0
111692,-90.9090909090909,4,3,6,80,0,0
112442,-90.9090909090909,4,3,2,80,0,0
113942,-90.9090909090909,4,3,6,80,0,0
115871,-90.9090909090909,4,3,2,80,0,0
117371,-90.9090909090909,4,3,6,80,0,0
117585,-90.9090909090909,4,3,2,80,0,0
117728,-90.9090909090909,4,3,6,80,0,0
118013,-90.9090909090909,4,3,2,80,0,0
118335,-90.9090909090909,4,3,1,5,0,0
118442,-90.9090909090909,4,3,9,80,0,0
118549,-90.9090909090909,4,3,6,80,0,0
119299,-90.9090909090909,4,3,2,80,0,0
120799,-90.9090909090909,4,3,6,80,0,0
122728,-90.9090909090909,4,3,2,80,0,0
124228,-90.9090909090909,4,3,6,80,0,0
124442,-90.9090909090909,4,3,2,80,0,0
124585,-90.9090909090909,4,3,6,80,0,0
125013,-90.9090909090909,4,3,2,80,0,0
125085,-90.9090909090909,4,3,2,80,0,0
125156,-90.9090909090909,4,3,2,80,0,0
125228,-90.9090909090909,4,3,2,80,0,0
125299,-90.9090909090909,4,3,9,80,0,0
125406,-90.9090909090909,4,3,6,80,0,0
126156,-90.9090909090909,4,3,2,80,0,0
127656,-90.9090909090909,4,3,6,80,0,0
128728,-90.9090909090909,4,3,2,80,0,0
128835,-90.9090909090909,4,3,6,80,0,0
129585,-90.9090909090909,4,3,2,80,0,0
131085,-90.9090909090909,4,3,6,80,0,0
131299,-90.9090909090909,4,3,2,80,0,0
131442,-90.9090909090909,4,3,6,80,0,0
131728,-90.9090909090909,4,3,2,80,0,0
132049,-90.9090909090909,4,3,2,5,0,0
132156,-90.9090909090909,4,3,9,80,0,0
132263,-90.9090909090909,4,3,6,80,0,0
133013,-90.9090909090909,4,3,2,80,0,0
134513,-90.9090909090909,4,3,6,80,0,0
136442,-90.9090909090909,4,3,2,80,0,0
136549,-90.9090909090909,4,3,6,80,0,0
136871,-90.9090909090909,4,3,2,80,0,0
136978,-90.9090909090909,4,3,6,80,0,0
137299,-90.9090909090909,4,3,2,80,0,0
137513,-90.9090909090909,4,3,6,80,0,0
137728,-90.9090909090909,4,3,11,80,0,0
137942,-90.9090909090909,4,3,5,80,0,0
138156,326.086956521739,4,3,1,70,1,0
138319,-100,4,3,5,70,0,0
138482,-100,4,3,12,60,0,0
138808,326.086956521739,4,3,7,60,1,0
138808,-100,4,3,7,60,0,0
138889,-100,4,3,4,60,0,0
139134,-100,4,3,8,60,0,0
139297,-100,4,3,4,60,0,0
139460,-100,4,3,8,60,0,0
139623,-100,4,3,4,60,0,0
139786,-100,4,3,8,60,0,0
139949,-100,4,3,4,60,0,0
140112,-100,4,3,8,60,0,0
140275,-100,4,3,4,60,0,0
140438,-100,4,3,8,60,0,0
140601,-100,4,3,4,60,0,0
140764,-100,4,3,8,60,0,0
140927,-100,4,3,4,60,0,0
141090,-100,4,3,8,60,0,0
141253,-100,4,3,1,60,0,0
141416,-100,4,3,8,60,0,0
141579,-100,4,3,4,60,0,0
141742,-100,4,3,8,60,0,0
141905,-100,4,3,4,60,0,0
142068,-100,4,3,8,60,0,0
142231,-100,4,3,4,60,0,0
142394,-100,4,3,8,60,0,0
142558,-100,4,3,4,60,0,0
142721,-100,4,3,8,60,0,0
142884,-100,4,3,4,60,0,0
143047,-100,4,3,8,60,0,0
143210,-100,4,3,4,60,0,0
143373,-100,4,3,8,60,0,0
143536,-100,4,3,4,60,0,0
143699,-100,4,3,2,60,0,0
143862,-100,4,3,12,60,0,0
143943,-100,4,3,11,60,0,0
144025,-100,4,3,7,60,0,0
144106,-100,4,3,4,60,0,0
144188,-100,4,3,4,60,0,0
144351,-100,4,3,8,60,0,0
144514,-100,4,3,4,60,0,0
144677,-100,4,3,8,60,0,0
144840,-100,4,3,4,60,0,0
145003,-100,4,3,8,60,0,0
145166,-100,4,3,4,60,0,0
145329,-100,4,3,8,60,0,0
145492,-100,4,3,4,60,0,0
145655,-100,4,3,8,60,0,0
145818,-100,4,3,4,60,0,0
145981,-100,4,3,8,60,0,0
146144,-100,4,3,4,60,0,0
146308,-100,4,3,8,60,0,0
146471,-100,4,3,1,60,0,0
146634,-100,4,3,8,60,0,0
146797,-100,4,3,4,60,0,0
146960,-100,4,3,8,60,0,0
147123,-100,4,3,4,60,0,0
147286,-100,4,3,8,60,0,0
147449,-100,4,3,4,60,0,0
147612,-100,4,3,8,60,0,0
147775,-100,4,3,4,60,0,0
147938,-100,4,3,8,60,0,0
148101,-100,4,3,4,60,0,0
148264,-100,4,3,8,60,0,0
148427,-100,4,3,4,60,0,0
148590,-100,4,3,8,60,0,0
148753,-100,4,3,4,60,0,0
149079,-100,4,3,12,60,0,0
149161,-100,4,3,11,60,0,0
149242,-100,4,3,7,60,0,0
149324,-100,4,3,8,60,0,0
151688,-100,4,3,4,60,0,0
151851,-100,4,3,8,60,0,0
152992,-100,4,3,4,60,0,0
153155,-100,4,3,8,60,0,0
153481,-100,4,3,4,60,0,0
153808,-100,4,3,8,60,0,0
154134,-100,4,3,2,60,0,0
154215,-100,4,3,8,60,0,0
154786,-100,4,3,4,60,0,0
155112,-100,4,3,8,60,0,0
155601,-100,4,3,4,60,0,0
155764,-100,4,3,8,60,0,0
156090,-100,4,3,4,60,0,0
156579,-100,4,3,8,60,0,0
156742,-100,4,3,4,60,0,0
157068,-100,4,3,9,80,0,0
157150,-100,4,3,1,5,0,0
159351,-100,4,3,1,90,0,0
159514,-100,4,3,1,5,0,0
159677,-90.9090909090909,4,3,7,90,0,0
159759,-90.9090909090909,4,3,2,90,0,0
161144,-90.9090909090909,4,3,6,90,0,0
161471,-90.9090909090909,4,3,11,90,0,0
161634,-90.9090909090909,4,3,6,90,0,0
161797,-90.9090909090909,4,3,2,90,0,0
162123,-90.9090909090909,4,3,6,90,0,0
162286,-90.9090909090909,4,3,7,90,0,0
162367,-90.9090909090909,4,3,2,90,0,0
163916,-90.9090909090909,4,3,6,60,0,0
164079,-90.9090909090909,4,3,2,60,0,0
164405,-90.9090909090909,4,3,6,60,0,0
164568,-90.9090909090909,4,3,2,60,0,0
164731,-90.9090909090909,4,3,12,60,0,0
164894,-90.9090909090909,4,3,9,60,0,0
164976,-90.9090909090909,4,3,6,60,0,0
167503,-90.9090909090909,4,3,2,60,0,0
167829,-90.9090909090909,4,3,6,60,0,0
167992,-90.9090909090909,4,3,2,60,0,0
168318,-90.9090909090909,4,3,6,60,0,0
168481,-90.9090909090909,4,3,2,60,0,0
168808,-90.9090909090909,4,3,6,60,0,0
168971,-90.9090909090909,4,3,2,60,0,0
169297,-90.9090909090909,4,3,6,60,0,0
169460,-90.9090909090909,4,3,12,60,0,0
170030,-90.9090909090909,4,3,1,5,0,0
170112,-76.9230769230769,4,3,9,90,0,1
170193,-76.9230769230769,4,3,5,90,0,1
170438,-76.9230769230769,4,3,1,90,0,1
170601,-76.9230769230769,4,3,5,90,0,1
171090,-76.9230769230769,4,3,1,90,0,1
171416,-76.9230769230769,4,3,5,90,0,1
171742,-76.9230769230769,4,3,1,90,0,1
172068,-76.9230769230769,4,3,5,90,0,1
172394,-76.9230769230769,4,3,1,90,0,1
172721,-76.9230769230769,4,3,5,90,0,1
172965,-76.9230769230769,4,3,1,5,0,1
173047,-76.9230769230769,4,3,1,90,0,1
173373,-76.9230769230769,4,3,5,90,0,1
173699,-76.9230769230769,4,3,1,90,0,1
174025,-76.9230769230769,4,3,5,90,0,1
174351,-76.9230769230769,4,3,1,90,0,1
174514,-76.9230769230769,4,3,5,90,0,1
174677,-76.9230769230769,4,3,2,90,0,1
174840,-76.9230769230769,4,3,6,90,0,1
175003,-76.9230769230769,4,3,2,90,0,1
175166,-76.9230769230769,4,3,6,90,0,1
175248,-76.9230769230769,4,3,12,90,0,1
175329,-76.9230769230769,4,3,9,90,0,1
175411,-76.9230769230769,4,3,1,90,0,1
175492,-76.9230769230769,4,3,5,90,0,1
175655,-76.9230769230769,4,3,1,90,0,1
175981,-76.9230769230769,4,3,5,90,0,1
176308,-76.9230769230769,4,3,1,90,0,1
176634,-76.9230769230769,4,3,5,90,0,1
176960,-76.9230769230769,4,3,1,90,0,1
177286,-76.9230769230769,4,3,5,90,0,1
177612,-76.9230769230769,4,3,1,90,0,1
177938,-76.9230769230769,4,3,5,90,0,1
178101,-76.9230769230769,4,3,5,90,0,1
178264,-76.9230769230769,4,3,1,90,0,1
178590,-76.9230769230769,4,3,5,90,0,1
178916,-76.9230769230769,4,3,2,90,0,1
179079,-76.9230769230769,4,3,6,90,0,1
179242,-76.9230769230769,4,3,2,90,0,1
179405,-76.9230769230769,4,3,6,90,0,1
179568,-76.9230769230769,4,3,2,90,0,1
179731,-76.9230769230769,4,3,6,90,0,1
179894,-76.9230769230769,4,3,2,90,0,1
180058,-76.9230769230769,4,3,6,90,0,1
180221,-76.9230769230769,4,3,11,90,0,1
180384,-76.9230769230769,4,3,12,90,0,1
180465,-100,4,3,12,90,0,0
180547,-100,4,3,9,90,0,1
180628,-100,4,3,6,90,0,1
181199,-100,4,3,2,90,0,1
181362,-100,4,3,6,90,0,1
182503,-100,4,3,2,90,0,1
182666,-100,4,3,6,90,0,1
183808,-100,4,3,2,90,0,1
183971,-100,4,3,6,90,0,1
184949,-100,4,3,2,90,0,1
185112,-100,4,3,6,90,0,1
185275,-100,4,3,2,90,0,1
185601,-100,4,3,6,90,0,1
185683,-100,4,3,1,90,0,1
185764,-90.9090909090909,4,3,7,90,0,1
185846,-90.9090909090909,4,3,5,90,0,1
186416,-90.9090909090909,4,3,1,90,0,1
186498,-90.9090909090909,4,3,5,90,0,1
187721,-90.9090909090909,4,3,1,90,0,1
187802,-90.9090909090909,4,3,5,90,0,1
188373,-90.9090909090909,4,3,6,90,0,1
188699,-90.9090909090909,4,3,2,90,0,1
188780,-90.9090909090909,4,3,6,90,0,1
189025,-90.9090909090909,4,3,2,90,0,1
189106,-90.9090909090909,4,3,6,90,0,1
189677,-90.9090909090909,4,3,2,90,0,1
189840,-90.9090909090909,4,3,6,90,0,1
190003,-90.9090909090909,4,3,11,90,0,1
190166,-90.9090909090909,4,3,5,90,0,1
190329,-90.9090909090909,4,3,1,90,0,1
190492,-90.9090909090909,4,3,5,90,0,1
190655,-90.9090909090909,4,3,1,90,0,1
190981,-500,4,3,9,90,0,0
191307,-500,4,3,9,85,0,0
191634,-500,4,3,9,80,0,0
191960,-500,4,3,9,75,0,0
192286,-500,4,3,9,70,0,0
192612,-500,4,3,9,65,0,0
192938,-500,4,3,9,60,0,0
193264,-500,4,3,9,55,0,0
193590,-500,4,3,9,50,0,0
193916,-500,4,3,9,45,0,0
194242,-500,4,3,9,40,0,0
194568,-500,4,3,9,35,0,0
194894,-500,4,3,9,30,0,0
195221,-500,4,3,9,25,0,0
195547,-500,4,3,9,20,0,0
195873,-500,4,3,9,15,0,0
196199,-500,4,3,9,10,0,0
196525,-500,4,3,9,5,0,0
196851,-500,4,3,9,5,0,0

[Colours]
Combo1 : 255,128,192
Combo2 : 192,192,192
Combo3 : 0,128,255

[HitObjects]
376,49,1350,5,12,0:0:0:0:
338,130,1513,1,12,0:0:0:0:
376,211,1676,2,0,P|385:250|375:292,3,75,8|8|8|8,0:0|0:3|0:3|0:0,0:0:0:0:
298,247,2328,5,12,0:0:0:0:
217,209,2491,1,12,0:0:0:0:
135,247,2654,2,0,P|93:256|46:237,3,75,8|8|8|8,0:0|0:3|0:3|0:0,0:0:0:0:
92,147,3306,5,8,0:0:0:0:
92,147,3388,1,12,0:0:0:0:
92,147,3469,1,8,0:0:0:0:
92,147,3551,1,12,0:0:0:0:
92,147,3632,6,0,L|93:93,3,37.5,8|8|8|8,0:0|0:0|0:3|0:3,0:0:0:0:
102,69,3958,6,0,B|123:52|157:55|157:55|184:91|240:98|240:98|272:69|327:67,2,225.000008583069,12|4|4,0:0|0:0|0:0,0:0:0:0:
303,69,5915,1,4,0:0:0:0:
405,130,6241,5,8,0:0:0:0:
315,207,6404,1,8,0:0:0:0:
407,301,6567,2,0,B|386:284|352:287|352:287|325:323|269:330|269:330|237:301|182:299,2,225.000008583069,12|4|4,0:0|0:0|0:0,0:0:0:0:
205,289,8523,5,12,0:0:0:0:
90,132,8686,1,8,0:0:0:0:
274,191,8849,1,8,0:0:0:0:
90,251,9013,1,12,0:0:0:0:
205,95,9176,6,0,P|271:85|328:106,1,112.500004291535,12|4,0:0|0:0,0:0:0:0:
283,298,9828,2,0,P|265:247|284:172,1,112.500004291535,4|4,0:0|0:0,0:0:0:0:
373,251,10480,5,4,0:0:0:0:
139,251,10806,1,4,0:0:0:0:
156,59,11132,6,0,P|186:57|227:64,1,56.2500021457673,12|8,0:0|0:0,0:0:0:0:
298,153,11458,2,0,P|334:160|364:153,1,56.2500021457673,8|12,0:0|0:0,0:0:0:0:
456,108,11784,5,8,0:0:0:0:
456,108,11866,1,8,0:0:0:0:
456,108,11947,1,8,0:0:0:0:
325,231,12110,1,8,0:0:0:0:
329,88,12273,6,0,L|331:49,2,28.1250010728836,12|8|8,0:0|0:0|0:0,0:0:0:0:
207,231,12599,1,8,0:0:0:0:
211,88,12763,6,0,L|212:48,2,28.1250010728836,8|8|8,0:0|0:0|0:0,0:0:0:0:
89,231,13089,1,8,0:0:0:0:
93,88,13252,5,12,0:0:0:0:
93,88,13333,1,8,0:0:0:0:
93,88,13415,1,8,0:0:0:0:
93,88,13496,2,0,L|93:48,2,28.1250010728836,8|8|8,0:0|0:0|0:0,0:0:0:0:
112,141,13741,6,0,L|161:133,1,28.1250010728836,0|0,1:3|1:3,0:0:0:0:
211,88,13904,2,0,L|258:97,1,28.1250010728836,0|0,1:3|1:3,0:0:0:0:
315,152,14067,2,0,P|325:195|306:246,1,84.3750032186509,0|0,1:3|0:0,0:0:0:0:
256,323,14393,6,0,L|258:378,2,37.5,12|8|8,0:0|0:0|0:0,0:0:0:0:
128,277,14719,2,0,L|82:271,2,37.5,8|8|8,0:0|0:0|0:0,0:0:0:0:
236,194,15045,5,12,0:0:0:0:
236,194,15127,1,8,0:0:0:0:
236,194,15208,1,8,0:0:0:0:
119,126,15371,2,0,L|124:82,2,37.5,8|8|8,0:0|0:0|0:0,0:0:0:0:
8,202,15697,6,0,L|13:246,2,37.5,12|8|8,0:0|0:0|0:0,0:0:0:0:
36,70,16023,2,0,L|-8:62,2,37.5,8|8|8,0:0|0:0|0:0,0:0:0:0:
105,202,16349,5,12,0:0:0:0:
105,202,16431,1,8,0:0:0:0:
105,202,16513,1,8,0:0:0:0:
214,122,16676,2,0,L|258:114,2,37.5,8|8|8,0:0|0:0|0:0,0:0:0:0:
321,203,17002,6,0,L|364:208,2,37.5,12|8|8,0:0|0:0|0:0,0:0:0:0:
443,147,17328,2,0,L|484:141,2,37.5,8|8|8,0:0|0:0|0:0,0:0:0:0:
371,44,17654,5,12,0:0:0:0:
371,44,17736,1,8,0:0:0:0:
371,44,17817,1,8,0:0:0:0:
315,165,17980,2,0,L|321:208,2,37.5,8|8|8,0:0|0:0|0:0,0:0:0:0:
219,260,18306,6,0,L|176:267,2,37.5,12|8|8,0:0|0:0|0:0,0:0:0:0:
115,173,18632,2,0,L|72:166,2,37.5,8|8|8,0:0|0:0|0:0,0:0:0:0:
261,74,18958,5,8,0:0:0:0:
283,95,19039,1,8,0:0:0:0:
291,125,19121,1,8,0:0:0:0:
280,154,19202,1,8,0:0:0:0:
255,172,19284,6,0,L|270:226,1,37.5,8|8,0:0|0:0,0:0:0:0:
348,311,19447,2,0,L|357:264,1,37.5,8|8,0:3|0:3,0:3:0:0:
408,173,19610,2,0,L|392:128,2,37.5,12|8|8,0:0|0:0|0:0,0:0:0:0:
476,287,19936,2,0,L|519:297,2,37.5,8|8|8,0:0|0:0|0:0,0:0:0:0:
348,311,20263,5,12,0:0:0:0:
348,311,20344,1,8,0:0:0:0:
348,311,20426,1,8,0:0:0:0:
213,322,20589,2,0,L|169:331,2,37.5,8|8|8,0:0|0:0|0:0,0:0:0:0:
108,237,20915,6,0,L|64:228,2,37.5,12|8|8,0:0|0:0|0:0,0:0:0:0:
226,171,21241,2,0,L|271:160,2,37.5,8|8|8,0:0|0:0|0:0,0:0:0:0:
114,114,21567,5,12,0:0:0:0:
114,114,21648,1,8,0:0:0:0:
114,114,21730,1,8,0:0:0:0:
224,35,21893,2,0,L|233:-8,2,37.5,8|8|8,0:0|0:0|0:0,0:0:0:0:
333,114,22219,6,0,L|342:157,2,37.5,12|8|8,0:0|0:0|0:0,0:0:0:0:
443,35,22545,2,0,L|452:-8,2,37.5,8|8|8,0:0|0:0|0:0,0:0:0:0:
470,175,22871,5,12,0:0:0:0:
470,175,22953,1,8,0:0:0:0:
470,175,23034,1,8,0:0:0:0:
346,228,23197,2,0,L|300:237,2,37.5,8|8|8,0:0|0:0|0:0,0:0:0:0:
249,173,23523,6,0,P|223:254|270:315,1,168.750006437302,12|8,0:0|0:0,0:0:0:0:
270,315,24094,1,8,0:0:0:0:
270,315,24176,1,8,0:0:0:0:
139,215,24339,5,8,0:0:0:0:
85,314,24502,1,8,0:0:0:0:
54,321,24583,1,8,0:0:0:0:
25,312,24665,1,8,0:0:0:0:
5,288,24746,1,8,0:0:0:0:
1,257,24828,6,0,L|18:90,1,150,12|12,1:3|0:0,0:0:0:0:
125,35,25317,2,0,B|205:74|202:2|289:42,1,150,0|8,1:3|0:0,0:0:0:0:
360,178,25806,1,12,1:3:0:0:
360,178,25969,1,8,0:0:0:0:
436,166,26132,6,0,P|386:105|305:124,1,150,4|12,1:3|0:0,0:0:0:0:
164,262,26621,2,0,P|140:182|175:108,1,150,0|8,1:3|0:0,0:0:0:0:
258,187,27110,2,0,L|264:277,1,75,12|0,1:3|0:0,0:0:0:0:
274,374,27436,5,12,1:3:0:0:
349,292,27599,1,8,0:0:0:0:
176,269,27763,2,0,L|81:259,1,75,12|0,1:3|0:0,0:0:0:0:
60,120,28089,1,4,1:3:0:0:
25,207,28252,1,8,0:0:0:0:
0,65,28415,2,0,P|37:44|83:42,1,75,12|8,1:3|1:3,0:0:0:0:
197,87,28741,6,0,L|190:178,1,75,4|8,0:0|0:0,0:0:0:0:
171,185,28985,1,8,0:0:0:0:
152,205,29067,2,0,L|159:295,1,75,12|0,0:0|0:0,0:0:0:0:
249,343,29393,1,12,0:0:0:0:
249,343,29556,1,8,0:0:0:0:
333,277,29719,2,0,P|372:270|419:290,1,75,12|8,0:0|0:3,0:0:0:0:
434,291,29964,1,8,0:3:0:0:
455,306,30045,6,4,B|485:227|427:227|465:133,1,150,12|12,1:3|0:0,0:0:0:0:
489,34,30534,2,0,L|318:22,1,150,0|8,1:3|0:0,0:0:0:0:
213,15,31023,1,12,1:3:0:0:
213,15,31186,1,8,0:0:0:0:
158,109,31349,6,0,B|158:166|158:166|176:199|176:199|176:275,1,150,4|12,1:3|0:0,0:0:0:0:
135,371,31839,2,0,P|203:338|275:389,1,150,0|8,1:3|0:0,0:0:0:0:
346,325,32328,2,0,L|336:232,1,75,12|0,1:3|0:0,0:0:0:0:
359,133,32654,5,12,1:3:0:0:
359,133,32817,1,8,0:0:0:0:
266,62,32980,2,0,P|312:24|350:22,1,75,12|0,1:3|0:0,0:0:0:0:
469,99,33306,2,8,P|475:165|452:197,1,75,8|8,1:3|0:0,0:0:0:0:
337,250,33632,1,12,1:3:0:0:
239,142,33795,2,0,P|173:136|141:159,1,75,8|4,1:3|0:0,0:0:0:0:
43,199,34121,1,8,0:0:0:0:
43,199,34203,1,8,0:0:0:0:
43,199,34284,1,12,0:0:0:0:
191,251,34447,5,8,0:0:0:0:
191,251,34529,1,8,0:0:0:0:
191,251,34610,2,0,L|154:257,1,37.5,12|8,0:0|0:0,0:0:0:0:
72,351,34773,5,8,0:0:0:0:
72,351,34855,1,8,0:0:0:0:
72,351,34936,2,0,L|85:315,1,37.5,8|8,0:3|0:3,0:0:0:0:
43,199,35099,5,12,0:3:0:0:
43,199,35181,1,8,0:3:0:0:
43,199,35263,2,0,L|66:228,1,37.5,8|8,1:3|0:0,0:0:0:0:
161,334,35425,5,8,0:0:0:0:
267,358,35589,1,8,0:0:0:0:
267,358,35752,1,8,1:3:0:0:
376,286,36078,5,8,0:0:0:0:
287,187,36241,1,8,1:3:0:0:
416,214,36404,1,8,0:0:0:0:
295,268,36567,1,12,1:3:0:0:
362,153,36730,6,0,L|370:69,2,75,8|8|8,0:0|0:0|1:3,0:0:0:0:
199,198,37382,5,8,0:0:0:0:
255,115,37545,1,8,1:3:0:0:
255,115,37708,1,8,0:0:0:0:
156,107,37871,6,0,L|98:75,2,37.5,8|8|8,1:3|0:0|0:0,0:0:0:0:
311,198,38197,1,8,1:3:0:0:
311,198,38360,1,8,0:0:0:0:
149,342,38686,5,8,0:0:0:0:
31,281,38849,1,8,1:3:0:0:
161,260,39012,1,8,1:3:0:0:
67,354,39175,1,12,0:0:0:0:
89,222,39338,6,0,L|66:140,2,75,8|8|8,0:0|0:0|0:0,0:0:0:0:
231,314,39828,5,8,0:0:0:0:
294,196,39991,1,12,0:0:0:0:
363,313,40154,1,8,0:0:0:0:
432,196,40317,1,8,0:0:0:0:
432,196,40398,1,8,0:0:0:0:
432,196,40480,6,0,L|450:147,2,37.5,8|8|8,1:3|0:0|0:0,0:0:0:0:
299,275,40806,1,8,0:0:0:0:
299,275,40969,1,8,1:3:0:0:
301,48,41295,5,8,0:0:0:0:
147,47,41458,1,8,1:3:0:0:
319,65,41621,1,8,0:0:0:0:
165,64,41784,1,12,1:3:0:0:
264,151,41947,5,8,0:0:0:0:
114,149,42110,1,8,0:0:0:0:
276,166,42273,1,8,1:3:0:0:
126,164,42436,1,12,0:0:0:0:
206,266,42599,5,8,0:0:0:0:
353,230,42763,2,0,P|357:283|349:314,1,75,12|8,1:3|0:0,0:0:0:0:
454,177,43089,1,4,1:3:0:0:
256,192,43252,12,4,45371,0:0:0:0:
88,182,45697,5,8,1:3:0:0:
241,208,45860,1,8,0:0:0:0:
160,332,46023,2,0,P|149:279|176:221,1,97.4999955368044,12|0,1:3|0:0,0:0:0:0:
213,96,46349,1,8,1:3:0:0:
324,183,46513,1,8,0:0:0:0:
220,287,46676,2,0,L|103:280,1,97.4999955368044,12|0,1:3|1:3,0:0:0:0:
333,300,47002,5,8,0:0:0:0:
333,300,47165,1,8,0:0:0:0:
430,217,47328,2,0,P|443:167|417:104,1,97.4999955368044,12|0,0:0|0:0,0:0:0:0:
338,21,47654,1,8,0:0:0:0:
338,21,47817,1,8,0:0:0:0:
181,130,47980,2,0,P|243:139|305:124,1,97.4999955368044,12|0,0:0|0:0,0:0:0:0:
144,60,48306,6,0,P|104:127|149:204,1,146.249993305207,8|0,1:3|0:0,0:0:0:0:
171,218,48632,2,0,L|46:207,1,97.4999955368044,12|0,1:3|0:0,0:0:0:0:
164,336,48958,2,0,L|288:327,1,97.4999955368044,8|8,1:3|0:0,0:0:0:0:
446,308,49284,1,12,1:3:0:0:
373,359,49447,2,0,P|361:303|379:246,1,97.4999955368044,0|8,1:3|0:0,0:0:0:0:
414,134,49773,5,8,0:0:0:0:
239,109,49936,1,12,1:3:0:0:
305,175,50099,5,8,0:0:0:0:
328,0,50262,1,12,1:3:0:0:
203,200,50426,5,8,0:0:0:0:
175,35,50589,1,12,1:3:0:0:
94,153,50752,5,8,1:3:0:0:
94,153,50833,1,8,0:0:0:0:
94,153,50915,1,12,0:0:0:0:
239,109,51078,1,8,0:0:0:0:
33,101,51241,6,0,P|14:151|44:210,1,97.4999955368044,12|0,1:3|0:0,0:0:0:0:
102,247,51567,2,0,P|119:303|85:357,1,97.4999955368044,8|8,1:3|0:0,0:0:0:0:
40,293,51893,1,12,1:3:0:0:
212,237,52056,2,0,P|257:223|307:239,1,97.4999955368044,0|8,1:3|0:0,0:0:0:0:
389,350,52382,5,8,0:0:0:0:
258,294,52545,2,0,L|258:175,1,97.4999955368044,12|0,1:3|0:0,0:0:0:0:
317,82,52871,1,8,1:3:0:0:
399,182,53034,1,8,0:0:0:0:
258,196,53197,2,0,L|151:204,1,97.4999955368044,12|0,1:3|1:3,0:0:0:0:
1,220,53523,5,8,0:0:0:0:
113,300,53686,1,8,0:0:0:0:
75,173,53849,2,0,P|61:125|74:70,1,97.4999955368044,12|0,0:0|0:0,0:0:0:0:
188,121,54176,1,8,0:0:0:0:
75,173,54339,1,8,0:0:0:0:
273,209,54502,6,0,P|227:223|165:201,1,97.4999955368044,12|8,1:3|0:0,0:0:0:0:
181,212,54746,1,8,0:0:0:0:
181,212,54828,1,12,1:3:0:0:
221,61,54991,1,8,0:0:0:0:
357,248,55154,5,12,1:3:0:0:
317,96,55317,1,8,0:0:0:0:
245,205,55480,5,8,1:3:0:0:
278,195,55643,1,8,0:0:0:0:
311,185,55806,1,12,0:0:0:0:
344,175,55969,1,12,0:0:0:0:
245,205,56132,6,0,L|76:213,1,146.249993305207,12|0,1:3|0:0,0:0:0:0:
52,211,56458,2,0,P|41:161|66:106,1,97.4999955368044,0|8,1:3|0:0,0:0:0:0:
236,42,56784,2,0,P|245:101|226:155,1,97.4999955368044,12|8,1:3|0:0,0:0:0:0:
166,225,57110,1,8,1:3:0:0:
258,277,57273,1,8,1:3:0:0:
121,353,57436,6,0,L|236:359,1,97.4999955368044,12|8,0:0|0:0,0:0:0:0:
345,359,57763,1,8,0:0:0:0:
345,359,57926,1,8,0:0:0:0:
426,260,58089,2,0,P|437:211|411:152,1,97.4999955368044,12|8,0:0|0:0,0:0:0:0:
362,35,58415,1,8,0:0:0:0:
472,105,58578,1,8,0:0:0:0:
335,156,58741,6,0,P|258:179|181:142,1,146.249993305207,12|0,1:3|0:0,0:0:0:0:
153,133,59067,2,0,L|164:249,1,97.4999955368044,8|8,1:3|0:0,0:0:0:0:
181,347,59393,2,0,P|244:344|286:312,1,97.4999955368044,12|8,1:3|0:0,0:0:0:0:
368,250,59719,1,8,1:3:0:0:
262,221,59882,1,8,1:3:0:0:
341,131,60045,2,0,P|384:166|441:166,1,97.4999955368044,12|8,0:0|0:0,0:0:0:0:
510,130,60371,5,8,1:3:0:0:
360,35,60534,1,12,0:0:0:0:
238,159,60697,1,8,1:3:0:0:
405,100,60860,1,12,0:0:0:0:
281,38,61023,2,0,P|240:25|176:46,1,97.4999955368044,12|8,1:3|0:0,0:0:0:0:
29,201,61349,5,8,1:3:0:0:
35,222,61430,1,8,0:0:0:0:
48,242,61512,1,8,0:0:0:0:
68,254,61593,1,8,0:0:0:0:
91,260,61676,1,8,1:3:0:0:
114,254,61758,1,8,0:0:0:0:
134,242,61839,1,8,0:0:0:0:
147,222,61921,1,8,0:0:0:0:
152,200,62002,2,0,L|234:191,3,48.7499977684022,8|8|8|8,1:3|0:0|0:0|0:0,0:0:0:0:
229,269,62328,2,0,L|285:275,3,48.7499977684022,8|8|8|8,1:3|0:0|0:0|0:0,0:0:0:0:
377,270,62654,5,12,1:3:0:0:
374,246,62735,1,8,0:0:0:0:
372,223,62817,1,8,0:0:0:0:
370,200,62898,1,8,0:0:0:0:
367,173,62980,2,0,L|355:106,3,48.7499977684022,8|8|12|8,1:3|0:0|0:0|0:0,0:0:0:0:
268,115,63306,2,0,L|280:47,3,48.7499977684022,8|8|12|8,1:3|0:0|0:0|0:0,0:0:0:0:
169,101,63632,1,12,1:3:0:0:
169,101,63714,1,8,0:0:0:0:
169,101,63795,2,0,L|178:157,1,48.7499977684022,8|8,1:3|0:0,0:0:0:0:
155,242,63958,6,0,P|107:256|51:240,1,97.4999955368044,12|8,0:0|0:0,0:0:0:0:
268,115,64284,2,0,P|330:103|376:128,1,97.4999955368044,12|8,0:0|0:0,0:0:0:0:
314,182,64610,1,12,0:0:0:0:
470,204,64773,2,0,P|488:261|463:313,1,97.4999955368044,12|0,0:0|0:0,0:0:0:0:
415,369,65099,1,12,0:0:0:0:
292,252,65263,1,8,1:3:0:0:
399,261,65425,1,12,0:0:0:0:
261,359,65589,1,12,0:0:0:0:
116,293,65752,5,8,0:0:0:0:
116,293,65833,1,8,0:0:0:0:
116,293,65915,2,0,L|110:220,1,48.7499977684022,8|8,1:3|0:0,0:0:0:0:
28,172,66078,5,8,0:0:0:0:
28,172,66159,1,8,0:0:0:0:
28,172,66241,2,0,L|84:134,1,48.7499977684022,8|8,0:0|0:0,0:0:0:0:
85,42,66404,5,8,0:0:0:0:
85,42,66485,1,8,0:0:0:0:
85,42,66567,2,0,L|147:47,2,37.5,12|8|8,0:0|0:0|0:0,0:0:0:0:
221,103,66893,2,0,L|261:98,2,37.5,8|8|8,0:0|0:0|0:0,0:0:0:0:
317,21,67219,5,12,0:0:0:0:
338,16,67301,1,8,0:0:0:0:
361,11,67382,1,8,0:0:0:0:
389,168,67545,6,0,L|401:123,2,37.5,8|8|8,0:0|0:0|0:0,0:0:0:0:
307,252,67871,2,0,L|295:207,2,37.5,12|8|8,0:0|0:0|0:0,0:0:0:0:
415,321,68197,2,0,L|427:276,2,37.5,8|8|8,0:0|0:0|0:0,0:0:0:0:
506,177,68523,5,12,0:0:0:0:
483,172,68604,1,8,0:0:0:0:
462,167,68686,1,8,0:0:0:0:
287,132,68849,6,0,L|330:129,2,37.5,8|8|8,0:0|0:0|0:0,0:0:0:0:
162,191,69176,2,0,L|204:195,2,37.5,12|8|8,0:0|0:0|0:0,0:0:0:0:
90,257,69502,2,0,L|93:300,2,37.5,8|8|8,0:0|0:0|0:0,0:0:0:0:
43,163,69828,5,12,0:0:0:0:
48,142,69910,1,8,0:0:0:0:
53,119,69991,1,8,0:0:0:0:
154,65,70154,6,0,L|191:60,2,37.5,8|8|8,0:0|0:0|0:0,0:0:0:0:
242,122,70480,5,12,0:0:0:0:
264,127,70562,1,8,0:0:0:0:
287,132,70643,1,8,0:0:0:0:
363,69,70806,6,0,L|404:65,2,37.5,8|8|8,0:0|0:0|0:0,0:0:0:0:
416,188,71132,5,12,0:0:0:0:
416,188,71214,1,8,0:0:0:0:
416,188,71295,1,8,0:0:0:0:
416,188,71377,1,8,0:0:0:0:
416,188,71458,6,0,L|419:228,3,37.5,8|8|8|8,0:0|0:0|0:3|0:3,0:0:0:0:
369,312,71784,5,12,0:0:0:0:
346,314,71865,1,8,0:0:0:0:
324,316,71947,1,8,0:0:0:0:
301,318,72028,1,8,0:0:0:0:
282,294,72110,1,8,0:0:0:0:
259,292,72191,1,8,0:0:0:0:
237,290,72273,1,8,0:0:0:0:
214,288,72354,1,8,0:0:0:0:
191,317,72436,6,0,L|131:320,3,37.5,12|8|8|8,0:0|0:0|0:0|0:0,0:0:0:0:
86,255,72763,2,0,L|42:250,3,37.5,8|8|8|8,0:0|0:0|0:0|0:0,0:0:0:0:
141,180,73089,5,12,0:0:0:0:
164,162,73170,1,8,0:0:0:0:
193,156,73252,1,8,0:0:0:0:
222,162,73333,1,8,0:0:0:0:
247,176,73415,1,8,0:0:0:0:
267,191,73496,1,8,0:0:0:0:
289,195,73578,1,8,0:0:0:0:
311,191,73659,1,8,0:0:0:0:
328,179,73741,6,0,L|378:165,3,37.5,12|8|8|8,0:0|0:0|0:0|0:0,0:0:0:0:
293,97,74067,2,0,L|245:83,3,37.5,8|8|8|8,0:0|0:0|0:0|0:0,0:0:0:0:
382,52,74393,5,12,0:0:0:0:
382,52,74474,1,8,0:0:0:0:
382,52,74556,1,8,0:0:0:0:
476,153,74719,6,0,P|488:195|469:240,1,75,8|8,0:0|0:0,0:0:0:0:
386,326,75045,2,0,L|378:370,2,37.5,12|8|8,0:0|0:0|0:0,0:0:0:0:
411,190,75371,6,0,P|379:183|325:192,1,75,8|8,0:0|0:0,0:0:0:0:
226,250,75697,2,0,L|171:258,3,37.5,8|8|8|8,0:0|0:0|0:0|0:0,0:0:0:0:
119,190,76023,6,0,L|66:182,3,37.5,8|8|8|8,0:3|0:3|0:3|0:3,0:0:0:0:
51,167,76349,6,0,P|42:95|157:61,1,196.875007510186,8|0,0:0|0:0,0:0:0:0:
142,52,77002,5,12,1:3:0:0:
142,52,77083,1,8,0:0:0:0:
142,52,77165,1,8,0:0:0:0:
199,191,77328,2,0,P|244:201|294:181,1,75,8|8,0:0|1:3,0:0:0:0:
425,149,77817,5,8,0:0:0:0:
424,189,77980,1,8,1:3:0:0:
423,230,78143,1,8,0:0:0:0:
424,109,78306,1,12,1:3:0:0:
84,259,79284,5,8,1:3:0:0:
147,334,79447,1,8,0:0:0:0:
210,259,79610,6,0,P|201:226|216:176,1,75,12|8,1:3|0:0,0:0:0:0:
308,224,79936,1,8,1:3:0:0:
245,343,80099,1,8,0:0:0:0:
400,305,80426,5,8,0:0:0:0:
439,306,80589,1,8,1:3:0:0:
481,307,80752,1,8,1:3:0:0:
360,306,80915,1,12,0:0:0:0:
137,40,81730,5,8,0:0:0:0:
170,130,81893,1,8,0:0:0:0:
63,102,82056,1,8,0:0:0:0:
244,68,82219,5,12,1:3:0:0:
244,68,82301,1,8,0:0:0:0:
244,68,82382,2,0,P|256:103|251:144,1,75,8|8,0:0|0:0,0:0:0:0:
233,258,82708,1,8,1:3:0:0:
127,209,83034,5,8,0:0:0:0:
88,210,83197,1,8,1:3:0:0:
46,211,83360,1,8,0:0:0:0:
167,210,83523,1,12,1:3:0:0:
382,47,84502,5,8,1:3:0:0:
393,138,84665,1,8,0:0:0:0:
404,229,84828,6,0,P|409:267|390:323,1,75,12|8,1:3|0:0,0:0:0:0:
311,255,85154,1,8,1:3:0:0:
404,229,85317,1,8,0:0:0:0:
257,122,85643,5,8,0:0:0:0:
135,45,85806,2,0,L|140:147,1,75,8|8,1:3|1:3,0:0:0:0:
142,239,86132,5,12,0:0:0:0:
200,180,86295,1,8,0:0:0:0:
82,180,86458,1,12,0:0:0:0:
67,314,86621,5,8,0:0:0:0:
67,314,86703,1,8,0:0:0:0:
67,314,86784,2,0,L|127:319,3,37.5,8|8|8|8,0:0|0:3|0:3|0:3,0:0:0:0:
222,333,87110,5,8,0:0:0:0:
222,333,87192,1,8,0:0:0:0:
222,333,87273,1,8,0:0:0:0:
222,333,87355,1,8,0:0:0:0:
222,333,87436,6,0,P|300:322|312:256,1,150,4|12,1:3|0:0,0:0:0:0:
292,163,87926,2,0,L|193:170,1,75,0|12,1:3|0:0,0:0:0:0:
268,58,88252,1,8,0:0:0:0:
161,22,88415,2,0,P|154:55|168:107,1,75,12|0,1:3|0:0,0:0:0:0:
246,229,88741,6,0,P|205:276|137:226,1,150,12|12,1:3|0:0,0:0:0:0:
293,160,89230,2,0,P|341:158|384:168,1,75,0|12,1:3|0:0,0:0:0:0:
474,263,89556,1,8,0:0:0:0:
385,304,89719,2,0,P|374:264|393:209,1,75,12|0,1:3|0:0,0:0:0:0:
391,75,90045,6,0,L|294:83,1,75,12|8,1:3|0:0,0:0:0:0:
173,91,90371,1,12,1:3:0:0:
228,19,90534,1,0,0:0:0:0:
248,153,90697,2,0,P|257:197|231:246,1,75,12|8,1:3|0:0,0:0:0:0:
144,291,91023,1,12,1:3:0:0:
102,188,91186,2,0,P|153:182|199:199,1,75,0|12,1:3|0:0,0:0:0:0:
331,217,91513,5,8,0:0:0:0:
331,217,91676,2,0,L|339:312,1,75,12|8,0:0|0:0,0:0:0:0:
445,232,92002,2,0,L|453:135,1,75,12|8,0:0|0:0,0:0:0:0:
468,42,92328,2,0,P|433:32|372:57,1,75,12|8,0:0|0:0,0:0:0:0:
395,39,92572,1,8,0:0:0:0:
395,39,92654,5,12,1:3:0:0:
272,57,95263,6,0,L|263:143,1,75,12|8,1:3|0:0,0:0:0:0:
227,241,95589,1,12,1:3:0:0:
227,240,95752,2,0,P|182:246|139:231,1,75,12|8,0:0|1:3,0:0:0:0:
83,105,96078,1,12,0:0:0:0:
83,105,96241,2,0,P|124:99|165:106,1,75,12|8,1:3|0:0,0:0:0:0:
157,103,96485,1,8,0:0:0:0:
185,113,96566,5,8,1:3:0:0:
217,114,96648,1,8,0:0:0:0:
245,103,96729,1,8,0:0:0:0:
269,82,96811,1,8,0:0:0:0:
285,55,96893,5,8,0:3:0:0:
327,43,96974,1,8,0:3:0:0:
369,59,97056,1,8,0:3:0:0:
393,96,97137,1,8,0:3:0:0:
392,140,97219,1,12,1:3:0:0:
335,188,97871,6,0,L|328:246,2,33.7499989700318,12|0|0,0:0|0:0|0:0,0:0:0:0:
425,275,98299,2,0,L|432:333,2,33.7499989700318,4|0|0,1:3|0:0|0:0,0:0:0:0:
117,85,99156,6,0,L|59:78,2,33.7499989700318,4|0|0,0:0|0:0|0:0,0:0:0:0:
217,100,99585,2,0,P|224:141|200:187,1,67.4999979400635,0|0,1:3|0:0,0:0:0:0:
149,316,100228,6,0,L|105:323,1,33.7499989700318,0|0,1:3|0:0,0:0:0:0:
38,308,100442,2,0,P|28:266|45:226,1,67.4999979400635,0|0,0:0|1:3,0:0:0:0:
76,159,100871,1,12,0:0:0:0:
124,236,101085,1,8,0:0:0:0:
172,159,101299,6,0,L|180:102,2,33.7499989700318,12|0|0,0:0|0:0|0:0,0:0:0:0:
220,236,101728,2,0,L|306:232,1,67.4999979400635,4|0,1:3|0:0,0:0:0:0:
467,112,102585,6,0,L|475:53,2,33.7499989700318,4|0|0,1:3|0:0|0:0,0:0:0:0:
406,178,103013,1,8,1:3:0:0:
325,111,103228,1,12,1:3:0:0:
239,203,103442,1,12,0:0:0:0:
148,78,103656,6,0,L|156:169,1,67.4999979400635,8|8,1:3|0:0,0:0:0:0:
138,261,104085,1,8,1:3:0:0:
32,305,104299,2,0,P|55:338|94:362,1,67.4999979400635,12|8,0:0|0:0,0:0:0:0:
218,375,104728,1,12,0:0:0:0:
421,267,105156,5,4,1:3:0:0:
421,117,106013,5,4,3:0:0:0:
186,32,106442,6,0,P|179:68|192:117,1,67.4999979400635,8|8,1:3|0:0,0:0:0:0:
250,193,106871,1,8,0:0:0:0:
123,206,107085,5,8,1:3:0:0:
123,206,107192,1,8,3:0:0:0:
123,206,107299,1,12,0:0:0:0:
97,306,107513,1,8,1:3:0:0:
196,278,107728,2,0,P|203:316|188:361,1,67.4999979400635,12|8,1:3|0:0,0:0:0:0:
292,305,108156,1,12,0:0:0:0:
331,118,111585,5,12,1:3:0:0:
331,118,111692,1,8,0:0:0:0:
331,118,111799,1,8,0:0:0:0:
193,135,112013,1,8,0:0:0:0:
282,241,112228,1,8,0:0:0:0:
193,137,113299,5,12,0:0:0:0:
81,91,113942,5,8,0:0:0:0:
81,91,114013,1,8,0:0:0:0:
81,91,114085,1,8,0:0:0:0:
81,91,114156,2,0,P|69:137|87:198,2,82.5000025177003,12|8|8,0:0|0:0|0:0,0:0:0:0:
210,42,114799,1,8,0:0:0:0:
344,95,115013,5,12,0:0:0:0:
344,95,115121,1,8,0:0:0:0:
344,95,115228,1,8,0:0:0:0:
210,148,115442,2,0,L|222:261,1,82.5000025177003,8|8,0:0|0:0,0:0:0:0:
412,273,116728,5,12,0:0:0:0:
264,327,117371,5,8,0:0:0:0:
262,302,117478,1,8,0:0:0:0:
261,277,117585,2,0,L|206:272,2,55.0000016784668,12|8|8,0:0|0:0|0:0,0:0:0:0:
318,230,118013,1,12,0:0:0:0:
347,129,118442,5,12,0:0:0:0:
347,129,118549,1,8,0:0:0:0:
347,129,118656,1,8,0:0:0:0:
286,27,118871,1,8,0:0:0:0:
228,130,119085,1,8,0:0:0:0:
192,224,120156,5,12,0:0:0:0:
144,336,120799,5,8,0:0:0:0:
144,336,120870,1,8,0:0:0:0:
144,336,120942,1,8,0:0:0:0:
144,336,121013,2,0,P|189:348|248:326,2,82.5000025177003,12|8|8,0:0|0:0|0:0,0:0:0:0:
71,221,121656,1,8,0:0:0:0:
192,224,121871,5,12,0:0:0:0:
192,224,121978,1,8,0:0:0:0:
192,224,122085,1,8,0:0:0:0:
195,104,122299,2,0,L|303:98,1,82.5000025177003,8|8,0:0|0:0,0:0:0:0:
391,78,123585,6,0,B|391:143|391:143|409:189|409:189|409:268,1,165.000005035401,6|0,0:0|0:0,0:0:0:0:
357,315,124228,5,8,0:0:0:0:
332,317,124335,1,8,0:0:0:0:
303,318,124442,6,0,L|227:323,2,55.0000016784668,12|8|8,0:0|0:0|0:0,0:0:0:0:
137,259,124871,5,8,0:0:0:0:
137,259,125013,1,8,0:0:0:0:
137,259,125155,1,8,0:0:0:0:
137,259,125299,6,0,L|160:211,2,41.2500012588501,12|8|8,0:0|0:0|0:0,0:0:0:0:
52,357,125728,2,0,P|17:325|9:267,1,82.5000025177003,8|8,0:0|0:0,0:0:0:0:
53,157,126156,1,12,0:0:0:0:
400,79,127657,5,8,0:0:0:0:
400,79,127728,1,8,0:0:0:0:
400,79,127800,1,8,0:0:0:0:
400,79,127871,2,0,P|412:125|391:183,1,82.5000025177003,12|8,0:0|0:0,0:0:0:0:
278,125,128299,5,8,0:0:0:0:
278,125,128406,1,8,0:0:0:0:
278,125,128513,1,8,0:0:0:0:
205,225,128728,5,12,0:0:0:0:
205,225,128835,1,8,0:0:0:0:
205,225,128942,1,8,0:0:0:0:
132,125,129156,6,0,L|26:129,1,82.5000025177003,8|8,0:0|0:0,0:0:0:0:
201,27,129585,1,12,0:0:0:0:
286,303,130442,5,4,0:0:0:0:
166,268,131085,5,8,0:0:0:0:
164,243,131192,1,8,0:0:0:0:
163,218,131299,2,0,L|108:213,2,55.0000016784668,12|8|8,0:0|0:0|0:0,0:0:0:0:
240,191,131727,5,12,0:0:0:0:
283,90,132156,5,12,0:0:0:0:
283,90,132263,1,8,0:0:0:0:
283,90,132371,1,8,0:0:0:0:
403,45,132585,2,0,P|418:97|401:141,2,82.5000025177003,8|8|12,0:0|0:0|0:0,0:0:0:0:
74,93,134513,5,8,0:0:0:0:
74,93,134585,1,8,0:0:0:0:
74,93,134656,1,8,0:0:0:0:
74,93,134728,2,0,L|69:204,1,82.5000025177003,12|8,0:0|0:0,0:0:0:0:
169,306,135156,5,8,0:0:0:0:
197,311,135263,1,8,0:0:0:0:
226,317,135371,1,8,0:0:0:0:
416,237,135585,5,12,0:0:0:0:
388,242,135692,1,8,0:0:0:0:
359,248,135800,1,8,0:0:0:0:
148,172,136014,5,8,0:0:0:0:
176,177,136121,1,8,0:0:0:0:
205,183,136229,1,8,0:0:0:0:
433,109,136442,5,12,0:0:0:0:
405,114,136549,1,8,0:0:0:0:
376,120,136657,1,8,0:0:0:0:
148,172,136871,5,12,0:0:0:0:
100,170,136978,1,8,0:0:0:0:
70,133,137085,1,8,0:0:0:0:
79,86,137192,1,8,0:0:0:0:
121,63,137299,5,12,0:0:0:0:
159,94,137406,1,8,0:0:0:0:
206,106,137513,1,8,0:0:0:0:
255,98,137620,1,8,0:0:0:0:
295,70,137727,5,8,0:3:0:0:
333,38,137835,1,8,0:3:0:0:
380,26,137942,1,8,0:0:0:0:
428,34,138049,1,8,0:0:0:0:
469,62,138156,6,0,L|477:124,3,37.5,12|8|8|8,0:0|0:0|0:0|0:0,0:0:0:0:
400,143,138482,6,0,L|395:204,3,37.5,8|8|8|8,0:3|0:3|0:3|0:3,0:0:0:0:
475,249,138808,5,12,1:3:0:0:
259,298,139134,1,12,0:0:0:0:
430,359,139460,1,12,0:0:0:0:
312,172,139786,1,12,1:3:0:0:
155,353,140112,5,12,1:3:0:0:
0,293,140438,1,12,0:0:0:0:
59,141,140764,1,12,0:0:0:0:
212,199,141090,1,12,1:3:0:0:
296,28,141416,5,12,1:3:0:0:
291,199,141742,1,12,1:3:0:0:
434,92,142068,1,12,1:3:0:0:
429,263,142394,1,12,1:3:0:0:
290,313,142721,5,12,0:0:0:0:
178,108,143047,1,12,0:0:0:0:
396,202,143373,1,12,0:0:0:0:
163,264,143699,2,0,L|68:266,1,75,12|8,0:0|0:0,0:0:0:0:
46,252,143943,1,8,0:0:0:0:
46,252,144025,6,0,P|41:195|54:154,1,75,12|4,1:3|0:0,0:0:0:0:
127,54,144351,1,12,0:0:0:0:
260,144,144677,1,12,0:0:0:0:
117,203,145003,1,12,1:3:0:0:
112,18,145329,5,12,1:3:0:0:
331,49,145655,1,12,0:0:0:0:
187,157,145981,1,12,0:0:0:0:
407,188,146307,1,14,1:3:0:0:
196,319,146634,5,12,1:3:0:0:
310,147,146960,1,12,1:3:0:0:
402,346,147286,1,12,1:3:0:0:
187,226,147612,1,12,1:3:0:0:
187,226,147775,6,0,L|83:217,1,75,8|12,1:3|0:0,0:0:0:0:
5,205,148101,1,4,0:0:0:0:
70,135,148264,1,12,0:0:0:0:
175,147,148427,2,0,L|263:156,1,75,12|12,0:0|0:0,0:0:0:0:
437,172,148753,1,12,0:0:0:0:
358,52,148916,1,12,0:0:0:0:
338,196,149079,1,8,0:3:0:0:
338,196,149161,1,8,0:3:0:0:
338,196,149242,6,0,L|343:302,1,75,12|0,1:3|0:0,0:0:0:0:
232,345,149568,2,0,L|236:258,1,75,8|0,0:0|1:3,0:0:0:0:
136,195,149894,2,0,L|139:302,1,75,8|0,0:0|0:0,0:0:0:0:
43,325,150221,2,0,L|49:239,1,75,8|0,1:3|0:0,0:0:0:0:
111,31,150547,6,0,P|138:71|138:112,1,75,8|0,1:3|0:0,0:0:0:0:
254,71,150873,2,0,P|246:114|220:145,1,75,8|0,0:0|1:3,0:0:0:0:
335,192,151199,2,0,P|298:217|260:220,1,75,12|0,0:0|0:0,0:0:0:0:
156,205,151525,1,8,1:3:0:0:
182,297,151688,1,8,0:0:0:0:
82,270,151851,6,0,P|50:202|89:129,3,150,8|12|12|12,1:3|1:3|1:3|1:3,0:0:0:0:
156,205,152992,1,8,1:3:0:0:
218,120,153155,6,0,L|229:22,1,75,8|0,0:0|0:0,0:0:0:0:
313,174,153481,2,0,L|303:87,1,75,12|0,0:0|0:0,0:0:0:0:
412,219,153808,2,0,L|388:136,1,75,8|0,0:0|0:0,0:0:0:0:
512,236,154134,2,0,L|475:156,1,75,12|0,0:0|0:0,0:0:0:0:
342,263,154460,6,0,P|327:314|343:352,1,75,8|0,1:3|0:0,0:0:0:0:
256,258,154786,2,0,P|209:283|194:318,1,75,8|0,0:0|1:3,0:0:0:0:
195,198,155112,2,0,P|143:183|106:200,1,75,8|0,0:0|0:0,0:0:0:0:
54,275,155438,1,12,1:3:0:0:
3,188,155601,1,8,0:0:0:0:
54,101,155764,6,0,L|150:95,1,75,8|0,1:3|0:0,0:0:0:0:
291,33,156090,2,0,L|204:28,1,75,8|0,0:0|1:3,0:0:0:0:
250,118,156416,5,8,0:0:0:0:
250,118,156498,1,8,0:0:0:0:
250,118,156579,2,0,L|300:129,1,37.5,8|8,0:0|0:0,0:0:0:0:
453,135,156742,5,12,1:3:0:0:
453,135,156824,1,12,0:0:0:0:
453,135,156905,2,0,L|417:172,1,37.5,12|12,0:0|0:0,0:0:0:0:
329,249,157068,6,0,B|283:347|397:395|490:333|418:201|418:201|349:88|443:23|531:82|509:151|509:151|479:233|336:163|336:163|264:129|143:215|278:244|159:329,1,1050,12|8,1:3|0:0,0:0:0:0:
126,66,159677,5,12,1:3:0:0:
126,66,160329,1,4,1:3:0:0:
367,92,160981,5,12,0:0:0:0:
367,92,161144,1,8,0:0:0:0:
276,161,161308,2,0,P|266:205|286:262,2,82.5000025177003,8|8|8,0:0|0:3|0:0,0:0:0:0:
362,206,161797,1,12,0:0:0:0:
187,202,161960,2,0,L|81:202,1,82.5000025177003,12|8,0:0|0:0,0:0:0:0:
138,312,162286,5,12,1:3:0:0:
138,312,162938,1,4,1:3:0:0:
374,325,163590,5,8,0:0:0:0:
372,305,163671,1,8,0:0:0:0:
371,285,163753,1,8,0:0:0:0:
370,265,163834,1,8,0:0:0:0:
367,243,163916,6,0,L|362:181,3,41.2500012588501,8|8|12|8,0:0|0:0|0:0|0:0,0:0:0:0:
256,171,164242,5,8,0:0:0:0:
258,151,164323,1,8,0:0:0:0:
259,131,164405,1,8,0:0:0:0:
260,111,164486,1,8,0:0:0:0:
263,89,164568,6,0,L|266:29,3,41.2500012588501,12|8|8|8,1:3|0:0|1:3|0:3,0:0:0:0:
344,3,164894,5,12,1:3:0:0:
470,125,165221,1,0,1:3:0:0:
256,171,165547,1,8,1:3:0:0:
382,293,165873,2,0,L|489:305,1,82.5000025177003,12|0,1:3|0:0,0:0:0:0:
263,320,166199,1,12,1:3:0:0:
127,157,166525,5,0,0:0:0:0:
127,157,166851,2,0,P|117:215|139:259,1,82.5000025177003,12|0,1:3|0:0,0:0:0:0:
204,199,167177,1,0,0:0:0:0:
329,367,167503,5,12,0:0:0:0:
464,346,167666,2,0,P|474:300|463:259,1,82.5000025177003,12|8,0:0|0:0,0:0:0:0:
466,266,167911,1,8,0:0:0:0:
467,266,167992,1,12,0:0:0:0:
361,158,168155,5,12,0:0:0:0:
344,277,168318,1,8,0:0:0:0:
344,277,168400,1,8,0:0:0:0:
344,277,168481,1,12,1:3:0:0:
246,160,168644,5,12,0:0:0:0:
229,279,168808,1,8,1:3:0:0:
229,279,168889,1,8,0:0:0:0:
229,279,168971,1,12,0:0:0:0:
131,162,169134,5,12,1:3:0:0:
114,281,169297,1,8,0:0:0:0:
114,281,169379,1,8,0:0:0:0:
114,281,169460,1,8,1:3:0:0:
100,69,170112,5,12,1:3:0:0:
176,152,170275,1,8,0:0:0:0:
222,52,170438,2,0,L|344:46,1,97.4999955368044,12|0,1:3|1:3,0:0:0:0:
491,146,170764,1,8,1:3:0:0:
410,6,170927,1,8,0:0:0:0:
339,148,171090,2,0,P|328:202|349:252,1,97.4999955368044,12|0,1:3|1:3,0:0:0:0:
461,291,171416,5,8,0:0:0:0:
461,291,171579,1,8,0:0:0:0:
295,346,171742,2,0,P|247:353|177:333,1,97.4999955368044,12|0,0:0|0:0,0:0:0:0:
255,233,172068,1,8,0:0:0:0:
255,233,172231,1,8,0:0:0:0:
122,293,172394,2,0,P|105:244|119:176,1,97.4999955368044,12|0,0:0|0:0,0:0:0:0:
165,72,172721,6,0,L|326:49,1,146.249993305207,8|0,1:3|0:0,0:0:0:0:
356,49,173047,2,0,P|369:106|353:167,1,97.4999955368044,12|0,1:3|0:0,0:0:0:0:
319,275,173373,1,8,1:3:0:0:
452,181,173536,1,8,0:0:0:0:
288,148,173699,2,0,L|158:157,1,97.4999955368044,12|0,1:3|1:3,0:0:0:0:
237,327,174025,6,0,P|223:284|242:225,1,97.4999955368044,8|8,0:0|0:0,0:0:0:0:
288,148,174351,1,12,1:3:0:0:
132,276,174514,5,8,0:0:0:0:
95,106,174677,1,12,1:3:0:0:
2,195,174840,5,8,0:0:0:0:
171,157,175003,1,12,1:3:0:0:
132,276,175166,5,8,0:0:0:0:
132,276,175248,1,0,0:0:0:0:
132,276,175329,1,12,1:3:0:0:
257,247,175492,1,8,0:0:0:0:
210,354,175655,2,0,P|264:366|327:342,1,97.4999955368044,12|0,1:3|0:0,0:0:0:0:
419,307,175981,1,8,1:3:0:0:
419,307,176144,1,8,0:0:0:0:
459,190,176308,2,0,L|447:64,1,97.4999955368044,12|0,1:3|1:3,0:0:0:0:
326,151,176634,5,8,0:0:0:0:
366,22,176797,1,8,0:0:0:0:
226,95,176960,2,0,P|180:107|107:76,1,97.4999955368044,12|0,1:3|0:0,0:0:0:0:
178,12,177286,1,8,1:3:0:0:
309,78,177449,1,8,0:0:0:0:
172,175,177612,2,0,L|183:292,1,97.4999955368044,12|0,1:3|1:3,0:0:0:0:
295,229,177938,5,8,0:0:0:0:
295,229,178101,1,8,0:0:0:0:
106,244,178264,2,0,P|50:248|-7:203,1,97.4999955368044,12|0,0:0|0:0,0:0:0:0:
74,145,178590,1,8,0:0:0:0:
74,145,178753,1,8,0:0:0:0:
178,45,178916,6,0,L|190:157,1,97.4999955368044,12|8,0:3|0:0,0:0:0:0:
189,142,179161,1,8,0:0:0:0:
189,142,179242,1,12,1:3:0:0:
223,293,179405,5,8,0:0:0:0:
348,178,179568,1,12,1:3:0:0:
399,341,179731,1,8,0:3:0:0:
484,237,179894,5,8,0:0:0:0:
480,216,179975,1,8,0:0:0:0:
477,196,180057,1,8,0:0:0:0:
474,176,180138,1,8,0:0:0:0:
471,156,180220,1,8,0:0:0:0:
467,135,180302,1,8,0:0:0:0:
464,115,180384,1,8,0:0:0:0:
461,95,180465,1,8,0:0:0:0:
458,78,180547,5,12,1:3:0:0:
329,24,180710,1,8,0:0:0:0:
264,146,180873,2,0,P|255:184|269:232,1,75,8|8,0:0|0:0,0:0:0:0:
306,307,181199,1,12,0:0:0:0:
359,184,181362,5,8,0:0:0:0:
172,183,181525,2,0,L|66:181,1,75,8|8,0:0|0:0,0:0:0:0:
16,276,181851,1,12,0:0:0:0:
122,335,182014,6,0,P|115:301|124:253,2,75,8|8|8,0:0|0:0|0:0,0:0:0:0:
219,293,182503,1,12,0:0:0:0:
311,339,182666,1,8,0:0:0:0:
403,293,182829,1,8,0:0:0:0:
495,339,182992,1,8,0:0:0:0:
489,232,183155,6,0,L|478:132,1,75,12|8,0:0|0:0,0:0:0:0:
404,44,183481,1,8,0:0:0:0:
331,174,183644,1,8,0:0:0:0:
179,151,183808,6,0,P|148:129|127:98,1,75,12|8,0:0|0:0,0:0:0:0:
215,224,184134,1,8,0:0:0:0:
276,84,184297,1,8,0:0:0:0:
135,21,184460,2,0,P|170:10|206:19,1,75,12|8,0:0|0:0,0:0:0:0:
34,96,184786,5,8,0:0:0:0:
130,171,184949,1,12,0:0:0:0:
34,246,185112,5,8,0:0:0:0:
130,321,185275,1,12,0:0:0:0:
130,171,185438,1,12,0:0:0:0:
226,246,185601,1,8,0:0:0:0:
343,356,185764,5,12,0:0:0:0:
370,350,185845,1,8,0:0:0:0:
392,331,185927,1,8,0:0:0:0:
398,301,186008,1,8,0:0:0:0:
387,275,186090,1,8,0:0:0:0:
360,269,186172,1,8,0:0:0:0:
338,250,186254,1,8,0:0:0:0:
332,220,186335,1,8,0:0:0:0:
345,195,186416,6,0,L|364:130,3,41.2500012588501,8|8|8|8,0:0|0:0|0:0|0:0,0:0:0:0:
288,103,186742,2,0,L|269:41,3,41.2500012588501,8|8|8|8,0:0|0:0|0:0|0:0,0:0:0:0:
227,179,187068,5,8,0:0:0:0:
201,193,187149,1,8,0:0:0:0:
171,194,187231,1,8,0:0:0:0:
145,181,187312,1,8,0:0:0:0:
127,158,187394,1,8,0:0:0:0:
109,135,187476,1,8,0:0:0:0:
83,122,187557,1,8,0:0:0:0:
53,123,187639,1,8,0:0:0:0:
27,137,187721,6,0,L|7:195,3,41.2500012588501,8|8|8|8,0:0|0:0|0:0|0:0,0:0:0:0:
72,255,188047,2,0,L|92:314,3,41.2500012588501,8|8|8|8,0:0|0:0|0:0|0:0,0:0:0:0:
180,275,188373,5,12,0:0:0:0:
209,258,188454,1,8,0:0:0:0:
244,257,188536,1,8,0:0:0:0:
274,273,188617,1,8,0:0:0:0:
292,302,188699,1,12,0:0:0:0:
310,331,188781,1,8,0:0:0:0:
340,347,188862,1,8,0:0:0:0:
375,346,188944,1,8,0:0:0:0:
404,329,189025,6,0,L|416:267,3,41.2500012588501,12|8|8|8,0:0|0:0|0:0|0:0,0:0:0:0:
363,212,189351,2,0,L|352:152,3,41.2500012588501,12|8|8|8,0:0|0:0|0:0|0:0,0:0:0:0:
327,68,189677,5,8,0:0:0:0:
327,68,189759,1,8,0:0:0:0:
327,68,189840,2,0,L|268:84,1,41.2500012588501,8|8,0:0|0:0,0:0:0:0:
216,201,190003,1,8,0:0:0:0:
216,201,190085,1,8,0:0:0:0:
216,200,190166,2,0,L|168:188,1,41.2500012588501,8|8,0:0|0:0,0:0:0:0:
71,121,190329,5,8,0:0:0:0:
71,121,190411,1,8,0:0:0:0:
70,121,190492,2,0,L|58:166,1,41.2500012588501,8|8,0:0|0:0,0:0:0:0:
25,287,190655,5,8,0:0:0:0:
25,287,190737,1,8,0:0:0:0:
25,286,190818,2,0,L|77:303,1,41.2500012588501,8|8,0:0|0:0,0:0:0:0:
161,308,190981,6,0,B|248:318|275:256|275:256|271:315|315:353|315:353|357:300|404:292|404:292|362:225|391:169|391:169|455:180|492:226,1,600,12|0,0:0|0:0,0:0:0:0:
