osu file format v14

[General]
AudioFilename: audio.mp3
AudioLeadIn: 0
PreviewTime: 159596
Countdown: 0
SampleSet: Drum
StackLeniency: 0.4
Mode: 0
LetterboxInBreaks: 0
WidescreenStoryboard: 1

[Editor]
Bookmarks: 39991,41784,42436,60045,60534,77002,124442,132263,185601
DistanceSpacing: 1.8
BeatDivisor: 4
GridSize: 32
TimelineZoom: 1.9

[Metadata]
Title:Sad spring
TitleUnicode:Sad spring
Artist:Draw the Emotional
ArtistUnicode:Draw the Emotional
Creator:Resurreccion
Version:Extreme
Source:東方妖々夢 ~ Perfect Cherry Blossom.
Tags:touhou doujin Seni Akitoshi -Laura- Corinn Seated with Liquor ゆよゆっぺ yuyoyuppe ルシュカ Luschka neko 幽雅に咲かせ、墨染の桜 ~ Border of Life yuuga ni sakase, sumizome no sakura bloom nobly, ink-black ink black cherry blossom stage 6 ネクロファンタジア Necrofantasia comiket 83 c83 saigyouji yuyuko yukari yakumo video game japanese rock metal 東方project project zun team shanghai alice pcb th07 th 07 youyoumu 妖々夢 ghostly dream phantasm stage yukari yakumo 八雲 紫 foreground eclipse
BeatmapID:2506713
BeatmapSetID:994604

[Difficulty]
HPDrainRate:5
CircleSize:4.2
OverallDifficulty:9.2
ApproachRate:9.3
SliderMultiplier:1.5
SliderTickRate:1

[Events]
//Background and Video events
0,0,"Seni pic.png",0,0
//Break Periods
//Storyboard Layer 0 (Background)
//Storyboard Layer 1 (Fail)
//Storyboard Layer 2 (Pass)
//Storyboard Layer 3 (Foreground)
//Storyboard Layer 4 (Overlay)
//Storyboard Sound Samples

[TimingPoints]
1350,326.086956521739,4,3,2,70,1,0
1676,-100,4,3,6,70,0,0
1839,-100,4,3,11,70,0,0
2165,-100,4,3,6,70,0,0
2328,-100,4,3,2,70,0,0
2654,-100,4,3,6,70,0,0
2817,-100,4,3,11,70,0,0
2980,-100,4,3,6,70,0,0
3143,-100,4,3,2,70,0,0
3306,-100,4,3,5,70,0,0
3632,-100,4,3,1,70,0,0
3795,-100,4,3,11,70,0,0
3958,-133.333333333333,4,3,9,60,0,0
4610,-133.333333333333,4,3,1,60,0,0
5955,-133.333333333333,4,3,1,5,0,0
6078,-133.333333333333,4,3,1,60,0,0
6241,-133.333333333333,4,3,5,60,0,0
6322,-133.333333333333,4,3,5,5,0,0
6404,-133.333333333333,4,3,5,60,0,0
6485,-133.333333333333,4,3,5,5,0,0
6567,-133.333333333333,4,3,9,60,0,0
7219,-133.333333333333,4,3,1,60,0,0
8523,-133.333333333333,4,3,2,60,0,0
8686,-133.333333333333,4,3,5,60,0,0
9013,-133.333333333333,4,3,6,60,0,0
9176,-133.333333333333,4,3,5,60,0,0
10480,-133.333333333333,4,3,2,60,0,0
11295,-133.333333333333,4,3,6,60,0,0
11621,-133.333333333333,4,3,2,60,0,0
11784,-133.333333333333,4,3,6,60,0,0
12273,-133.333333333333,4,3,2,60,0,0
12355,-133.333333333333,4,3,6,60,0,0
13252,-100,4,3,2,60,0,0
13333,-100,4,3,6,60,0,0
13415,-100,4,3,11,60,0,0
13578,-100,4,3,5,60,0,0
13741,-100,4,3,1,60,0,0
14067,-200,4,3,1,60,0,0
14311,-100,4,3,1,5,0,0
14393,-66.6666666666667,4,3,9,80,0,0
14474,-66.6666666666667,4,3,6,80,0,0
15045,-66.6666666666667,4,3,2,80,0,0
15127,-66.6666666666667,4,3,6,80,0,0
16349,-66.6666666666667,4,3,2,80,0,0
16431,-66.6666666666667,4,3,6,80,0,0
17654,-66.6666666666667,4,3,2,80,0,0
17735,-66.6666666666667,4,3,6,80,0,0
18958,-66.6666666666667,4,3,2,80,0,0
19040,-66.6666666666667,4,3,6,80,0,0
19284,-66.6666666666667,4,3,2,80,0,0
19447,-66.6666666666667,4,3,11,80,0,0
19610,-66.6666666666667,4,3,9,80,0,0
19692,-66.6666666666667,4,3,6,80,0,0
20263,-66.6666666666667,4,3,2,80,0,0
20344,-66.6666666666667,4,3,6,80,0,0
21567,-66.6666666666667,4,3,2,80,0,0
21648,-66.6666666666667,4,3,6,80,0,0
22871,-66.6666666666667,4,3,2,80,0,0
22953,-66.6666666666667,4,3,6,80,0,0
23523,-133.333333333333,4,3,6,80,0,0
24176,-133.333333333333,4,3,2,80,0,0
24339,-133.333333333333,4,3,6,80,0,0
24502,-133.333333333333,4,3,2,80,0,0
24828,-100,4,3,9,80,0,0
24909,-100,4,3,1,80,0,0
25643,-100,4,3,5,80,0,0
25806,-100,4,3,1,80,0,0
25969,-100,4,3,5,80,0,0
26132,-100,4,3,1,80,0,0
26295,-100,4,3,5,80,0,0
26458,-100,4,3,1,80,0,0
26784,-100,4,3,5,80,0,0
27110,-100,4,3,1,80,0,0
27436,-100,4,3,5,80,0,0
27763,-100,4,3,1,80,0,0
28252,-100,4,3,5,80,0,0
28415,-100,4,3,1,80,0,0
28578,-100,4,3,5,80,0,0
28741,-100,4,3,1,80,0,0
28904,-100,4,3,5,80,0,0
29067,-100,4,3,1,80,0,0
29393,-100,4,3,5,80,0,0
29719,-100,4,3,1,80,0,0
29882,-100,4,3,11,80,0,0
29964,-100,4,3,12,80,0,0
30045,-100,4,3,9,80,0,0
30127,-100,4,3,1,80,0,0
30860,-100,4,3,5,80,0,0
31023,-100,4,3,1,80,0,0
31186,-100,4,3,5,80,0,0
31349,-100,4,3,1,80,0,0
31513,-100,4,3,5,80,0,0
31676,-100,4,3,1,80,0,0
32002,-100,4,3,5,80,0,0
32328,-100,4,3,1,80,0,0
32654,-100,4,3,5,80,0,0
32980,-100,4,3,1,80,0,0
33469,-100,4,3,5,80,0,0
33632,-100,4,3,1,80,0,0
33795,-100,4,3,5,80,0,0
33958,-100,4,3,5,80,0,0
34121,-100,4,3,5,80,0,0
34284,-100,4,3,1,80,0,0
34447,-100,4,3,5,80,0,0
34610,-100,4,3,2,80,0,0
34773,-100,4,3,6,80,0,0
34936,-100,4,3,12,70,0,0
35099,-100,4,3,7,70,0,0
35263,-100,4,3,6,60,0,0
36567,-100,4,3,2,60,0,0
36608,-100,4,3,2,5,0,0
36730,-100,4,3,6,60,0,0
39176,-100,4,3,2,60,0,0
39216,-100,4,3,2,5,0,0
39339,-100,4,3,6,60,0,0
39665,-100,4,3,11,60,0,0
39828,-100,4,3,6,60,0,0
39991,-100,4,3,2,60,0,0
40032,-100,4,3,2,5,0,0
40154,-100,4,3,6,60,0,0
40317,-100,4,3,2,60,0,0
40480,-100,4,3,6,60,0,0
41784,-100,4,3,2,60,0,0
41825,-100,4,3,2,5,0,0
41947,-100,4,3,6,60,0,0
42436,-100,4,3,2,60,0,0
42477,-100,4,3,2,5,0,0
42599,-100,4,3,6,60,0,0
42763,-100,4,3,2,60,0,0
42803,-100,4,3,2,5,0,0
42926,-100,4,3,6,60,0,0
43089,-200,4,3,2,60,0,0
43170,-200,4,3,4,60,0,0
43333,-200,4,3,4,5,0,0
43415,-200,4,3,4,60,0,0
43659,-200,4,3,4,5,0,0
43741,-200,4,3,4,60,0,0
43985,-200,4,3,4,5,0,0
44067,-200,4,3,4,60,0,0
44311,-200,4,3,4,5,0,0
44393,-200,4,3,4,60,0,0
44964,-200,4,3,4,5,0,0
45045,-400,4,3,4,60,0,0
45208,-200,4,3,4,5,0,0
45371,-200,4,3,9,60,0,0
45412,-200,4,3,9,5,0,0
45697,-66.6666666666667,4,3,5,90,0,1
45942,-66.6666666666667,4,3,5,5,0,1
46023,-66.6666666666667,4,3,1,90,0,1
46349,-66.6666666666667,4,3,5,90,0,1
46676,-66.6666666666667,4,3,1,90,0,1
47002,-66.6666666666667,4,3,5,90,0,1
47328,-66.6666666666667,4,3,1,90,0,1
47654,-66.6666666666667,4,3,5,90,0,1
47980,-66.6666666666667,4,3,1,90,0,1
48306,-66.6666666666667,4,3,5,90,0,1
48551,-66.6666666666667,4,3,5,5,0,1
48632,-66.6666666666667,4,3,1,90,0,1
48958,-66.6666666666667,4,3,5,90,0,1
49284,-66.6666666666667,4,3,1,90,0,1
49610,-66.6666666666667,4,3,5,90,0,1
49936,-66.6666666666667,4,3,2,90,0,1
50099,-66.6666666666667,4,3,6,90,0,1
50263,-66.6666666666667,4,3,2,90,0,1
50426,-66.6666666666667,4,3,6,90,0,1
50589,-66.6666666666667,4,3,2,90,0,1
50752,-66.6666666666667,4,3,6,90,0,1
50915,-66.6666666666667,4,3,9,90,0,1
50996,-66.6666666666667,4,3,5,90,0,1
51241,-66.6666666666667,4,3,1,90,0,1
51567,-66.6666666666667,4,3,5,90,0,1
51893,-66.6666666666667,4,3,1,90,0,1
52219,-66.6666666666667,4,3,5,90,0,1
52545,-76.9230769230769,4,3,1,90,0,1
52871,-76.9230769230769,4,3,5,90,0,1
53197,-90.9090909090909,4,3,1,90,0,1
53523,-90.9090909090909,4,3,5,90,0,1
53849,-111.111111111111,4,3,1,90,0,1
54176,-66.6666666666667,4,3,5,90,0,1
54502,-66.6666666666667,4,3,2,90,0,1
54665,-66.6666666666667,4,3,6,90,0,1
54828,-66.6666666666667,4,3,2,90,0,1
54991,-66.6666666666667,4,3,6,90,0,1
55154,-66.6666666666667,4,3,2,90,0,1
55317,-66.6666666666667,4,3,6,90,0,1
55480,-66.6666666666667,4,3,1,100,0,1
55643,-66.6666666666667,4,3,5,100,0,1
55969,-66.6666666666667,4,3,5,100,0,0
56051,-66.6666666666667,4,3,1,90,0,0
56132,-66.6666666666667,4,3,9,90,0,1
56214,-66.6666666666667,4,3,6,90,0,1
56377,-66.6666666666667,4,3,6,5,0,1
56458,-66.6666666666667,4,3,6,90,0,1
56784,-66.6666666666667,4,3,2,90,0,1
56947,-66.6666666666667,4,3,6,90,0,1
58089,-66.6666666666667,4,3,2,90,0,1
58170,-66.6666666666667,4,3,2,5,0,1
58252,-66.6666666666667,4,3,6,90,0,1
58741,-66.6666666666667,4,3,9,90,0,1
58822,-66.6666666666667,4,3,6,90,0,1
58985,-66.6666666666667,4,3,6,5,0,1
59067,-66.6666666666667,4,3,6,90,0,1
59393,-66.6666666666667,4,3,2,90,0,1
59474,-66.6666666666667,4,3,2,5,0,1
59556,-66.6666666666667,4,3,6,90,0,1
60534,-66.6666666666667,4,3,2,90,0,1
60616,-66.6666666666667,4,3,2,5,0,1
60697,-66.6666666666667,4,3,6,90,0,1
60860,-66.6666666666667,4,3,2,90,0,1
60942,-66.6666666666667,4,3,2,5,0,1
61023,-66.6666666666667,4,3,2,90,0,1
61105,-66.6666666666667,4,3,2,5,0,1
61186,-66.6666666666667,4,3,6,90,0,1
61349,-83.3333333333333,4,3,5,90,0,1
62654,-83.3333333333333,4,3,6,90,0,1
63143,-83.3333333333333,4,3,2,90,0,1
63224,-83.3333333333333,4,3,6,90,0,1
63306,-71.4285714285714,4,3,6,90,0,1
63469,-71.4285714285714,4,3,2,90,0,1
63551,-71.4285714285714,4,3,6,90,0,1
63632,-71.4285714285714,4,3,2,90,0,1
63714,-71.4285714285714,4,3,6,90,0,1
63958,-66.6666666666667,4,3,2,90,0,1
64121,-66.6666666666667,4,3,6,90,0,1
64284,-66.6666666666667,4,3,2,90,0,1
64447,-66.6666666666667,4,3,6,90,0,1
64610,-66.6666666666667,4,3,2,90,0,1
65263,-66.6666666666667,4,3,6,90,0,1
65426,-66.6666666666667,4,3,2,90,0,1
65752,-100,4,3,6,90,0,1
65915,-76.9230769230769,4,3,11,90,0,1
66078,-76.9230769230769,4,3,5,90,0,1
66241,-76.9230769230769,4,3,1,90,0,1
66567,-66.6666666666667,4,3,6,80,0,0
67219,-66.6666666666667,4,3,2,80,0,0
67301,-66.6666666666667,4,3,6,80,0,0
68523,-66.6666666666667,4,3,2,80,0,0
68605,-66.6666666666667,4,3,6,80,0,0
69828,-66.6666666666667,4,3,2,80,0,0
69909,-66.6666666666667,4,3,6,80,0,0
70480,-66.6666666666667,4,3,2,80,0,0
70561,-66.6666666666667,4,3,6,80,0,0
71132,-83.3333333333333,4,3,2,80,0,0
71214,-83.3333333333333,4,3,6,80,0,0
71458,-83.3333333333333,4,3,2,80,0,0
71621,-83.3333333333333,4,3,12,80,0,0
71784,-83.3333333333333,4,3,6,80,0,0
72436,-83.3333333333333,4,3,2,80,0,0
72518,-83.3333333333333,4,3,6,80,0,0
73741,-83.3333333333333,4,3,2,80,0,0
73822,-83.3333333333333,4,3,6,80,0,0
74393,-83.3333333333333,4,3,2,80,0,0
74474,-83.3333333333333,4,3,6,80,0,0
74719,-83.3333333333333,4,3,2,80,0,0
74882,-83.3333333333333,4,3,6,80,0,0
75045,-83.3333333333333,4,3,2,80,0,0
75127,-83.3333333333333,4,3,6,80,0,0
75371,-83.3333333333333,4,3,2,80,0,0
75534,-83.3333333333333,4,3,6,80,0,0
75697,-83.3333333333333,4,3,2,80,0,0
75860,-83.3333333333333,4,3,6,80,0,0
76023,-83.3333333333333,4,3,12,70,0,0
76186,-83.3333333333333,4,3,5,70,0,0
76349,-90.9090909090909,4,3,1,70,0,0
76920,-133.333333333333,4,3,1,5,0,0
77002,-100,4,3,9,60,0,0
77083,-100,4,3,6,60,0,0
78306,-100,4,3,2,60,0,0
78347,-100,4,3,2,5,0,0
78469,-100,4,3,2,60,0,0
79284,-100,4,3,6,60,0,0
80915,-100,4,3,2,60,0,0
80955,-100,4,3,2,5,0,0
81078,-100,4,3,2,60,0,0
81730,-100,4,3,6,60,0,0
83523,-100,4,3,2,60,0,0
83564,-100,4,3,2,5,0,0
83686,-100,4,3,2,60,0,0
84502,-100,4,3,6,60,0,0
86132,-100,4,3,2,60,0,0
86295,-100,4,3,6,60,0,0
86458,-100,4,3,2,60,0,0
86621,-100,4,3,6,60,0,0
86784,-100,4,3,1,60,0,0
86866,-100,4,3,11,60,0,0
86947,-100,4,3,5,60,0,0
87110,-100,4,3,1,60,0,0
87273,-100,4,3,5,60,0,0
87436,-100,4,3,9,60,0,0
87518,-100,4,3,1,5,0,0
87599,-100,4,3,1,60,0,0
88089,-100,4,3,5,60,0,0
88415,-100,4,3,1,60,0,0
88659,-100,4,3,1,5,0,0
88741,-100,4,3,5,60,0,0
89067,-100,4,3,1,60,0,0
89311,-100,4,3,1,5,0,0
89393,-100,4,3,5,60,0,0
89719,-100,4,3,1,60,0,0
89964,-100,4,3,1,5,0,0
90045,-100,4,3,5,60,0,0
90371,-100,4,3,1,60,0,0
90697,-100,4,3,5,60,0,0
91023,-100,4,3,1,60,0,0
91349,-100,4,3,5,60,0,0
91594,-100,4,3,1,5,0,0
91676,-100,4,3,1,60,0,0
91757,-100,4,3,1,5,0,0
91839,-100,4,3,5,60,0,0
92002,-100,4,3,2,60,0,0
92165,-100,4,3,6,60,0,0
92328,-100,4,3,2,60,0,0
92491,-100,4,3,6,60,0,0
92654,-133.333333333333,4,3,1,45,0,0
95263,-100,4,3,2,80,0,0
95426,-100,4,3,6,80,0,0
95589,-100,4,3,2,80,0,0
95915,-100,4,3,6,80,0,0
96078,-100,4,3,2,80,0,0
96404,-100,4,3,6,80,0,0
96567,-100,4,3,2,80,0,0
96730,-100,4,3,6,80,0,0
96893,-100,4,3,12,80,0,0
97056,-100,4,3,5,80,0,0
97219,-100,4,3,1,60,0,0
97790,-100,4,3,1,5,0,0
97871,428.571428571429,4,3,7,60,1,0
97871,-111.111111111111,4,3,7,60,0,0
98299,-111.111111111111,4,3,1,60,0,0
101085,-111.111111111111,4,3,5,60,0,0
101299,-111.111111111111,4,3,6,60,0,0
101406,-111.111111111111,4,3,1,60,0,0
103013,-111.111111111111,4,3,5,60,0,0
103228,-111.111111111111,4,3,2,60,0,0
103656,-111.111111111111,4,3,6,60,0,0
103871,-111.111111111111,4,3,11,60,0,0
103978,-111.111111111111,4,3,6,60,0,0
104299,-111.111111111111,4,3,2,60,0,0
104513,-111.111111111111,4,3,6,60,0,0
104728,-111.111111111111,4,3,7,60,0,0
104835,-111.111111111111,4,3,1,60,0,0
106656,-111.111111111111,4,3,5,60,0,0
106871,-111.111111111111,4,3,11,60,0,0
106978,-111.111111111111,4,3,6,60,0,0
107299,-111.111111111111,4,3,2,60,0,0
107513,-111.111111111111,4,3,6,60,0,0
107728,-111.111111111111,4,3,2,60,0,0
107942,-111.111111111111,4,3,6,60,0,0
108156,-111.111111111111,4,3,2,60,0,0
111585,-111.111111111111,4,3,9,80,0,0
111692,-111.111111111111,4,3,6,80,0,0
112442,-111.111111111111,4,3,2,80,0,0
113942,-111.111111111111,4,3,6,80,0,0
115871,-111.111111111111,4,3,2,80,0,0
117371,-111.111111111111,4,3,6,80,0,0
117585,-111.111111111111,4,3,2,80,0,0
117728,-111.111111111111,4,3,6,80,0,0
118013,-111.111111111111,4,3,2,80,0,0
118335,-111.111111111111,4,3,1,5,0,0
118442,-111.111111111111,4,3,9,80,0,0
118549,-111.111111111111,4,3,6,80,0,0
119299,-111.111111111111,4,3,2,80,0,0
120799,-111.111111111111,4,3,6,80,0,0
122728,-111.111111111111,4,3,2,80,0,0
124228,-111.111111111111,4,3,6,80,0,0
124442,-111.111111111111,4,3,2,80,0,0
124585,-111.111111111111,4,3,6,80,0,0
125013,-111.111111111111,4,3,2,80,0,0
125085,-111.111111111111,4,3,2,80,0,0
125156,-111.111111111111,4,3,2,80,0,0
125228,-111.111111111111,4,3,2,80,0,0
125299,-111.111111111111,4,3,9,80,0,0
125406,-111.111111111111,4,3,6,80,0,0
126156,-111.111111111111,4,3,2,80,0,0
127656,-111.111111111111,4,3,6,80,0,0
128728,-111.111111111111,4,3,2,80,0,0
128835,-111.111111111111,4,3,6,80,0,0
129585,-111.111111111111,4,3,2,80,0,0
131085,-111.111111111111,4,3,6,80,0,0
131299,-111.111111111111,4,3,2,80,0,0
131442,-111.111111111111,4,3,6,80,0,0
131728,-111.111111111111,4,3,2,80,0,0
132049,-111.111111111111,4,3,2,5,0,0
132156,-111.111111111111,4,3,9,80,0,0
132263,-111.111111111111,4,3,6,80,0,0
133013,-111.111111111111,4,3,2,80,0,0
134513,-111.111111111111,4,3,6,80,0,0
136442,-111.111111111111,4,3,2,80,0,0
136549,-111.111111111111,4,3,6,80,0,0
136871,-111.111111111111,4,3,2,80,0,0
136978,-111.111111111111,4,3,6,80,0,0
137299,-111.111111111111,4,3,2,80,0,0
137513,-111.111111111111,4,3,6,80,0,0
137728,-111.111111111111,4,3,11,80,0,0
137942,-111.111111111111,4,3,5,80,0,0
138156,326.086956521739,4,3,1,70,1,0
138319,-100,4,3,5,70,0,0
138482,-100,4,3,12,60,0,0
138808,326.086956521739,4,3,7,60,1,0
138808,-90.9090909090909,4,3,7,60,0,0
138889,-90.9090909090909,4,3,4,60,0,0
139134,-90.9090909090909,4,3,8,60,0,0
139297,-90.9090909090909,4,3,4,60,0,0
139460,-90.9090909090909,4,3,8,60,0,0
139623,-90.9090909090909,4,3,4,60,0,0
139786,-90.9090909090909,4,3,8,60,0,0
139949,-90.9090909090909,4,3,4,60,0,0
140112,-90.9090909090909,4,3,8,60,0,0
140275,-90.9090909090909,4,3,4,60,0,0
140438,-90.9090909090909,4,3,8,60,0,0
140601,-90.9090909090909,4,3,4,60,0,0
140764,-90.9090909090909,4,3,8,60,0,0
140927,-90.9090909090909,4,3,4,60,0,0
141090,-90.9090909090909,4,3,8,60,0,0
141253,-90.9090909090909,4,3,1,60,0,0
141416,-90.9090909090909,4,3,8,60,0,0
141579,-90.9090909090909,4,3,4,60,0,0
141742,-90.9090909090909,4,3,8,60,0,0
141905,-90.9090909090909,4,3,4,60,0,0
142068,-90.9090909090909,4,3,8,60,0,0
142231,-90.9090909090909,4,3,4,60,0,0
142394,-90.9090909090909,4,3,8,60,0,0
142558,-90.9090909090909,4,3,4,60,0,0
142721,-90.9090909090909,4,3,8,60,0,0
142884,-90.9090909090909,4,3,4,60,0,0
143047,-90.9090909090909,4,3,8,60,0,0
143210,-90.9090909090909,4,3,4,60,0,0
143373,-90.9090909090909,4,3,8,60,0,0
143536,-90.9090909090909,4,3,4,60,0,0
143699,-90.9090909090909,4,3,2,60,0,0
143862,-90.9090909090909,4,3,12,60,0,0
143943,-90.9090909090909,4,3,11,60,0,0
144025,-90.9090909090909,4,3,7,60,0,0
144106,-90.9090909090909,4,3,4,60,0,0
144351,-90.9090909090909,4,3,8,60,0,0
144514,-90.9090909090909,4,3,4,60,0,0
144677,-90.9090909090909,4,3,8,60,0,0
144840,-90.9090909090909,4,3,4,60,0,0
145003,-90.9090909090909,4,3,8,60,0,0
145166,-90.9090909090909,4,3,4,60,0,0
145329,-90.9090909090909,4,3,8,60,0,0
145492,-90.9090909090909,4,3,4,60,0,0
145655,-90.9090909090909,4,3,8,60,0,0
145818,-90.9090909090909,4,3,4,60,0,0
145981,-90.9090909090909,4,3,8,60,0,0
146144,-90.9090909090909,4,3,4,60,0,0
146308,-90.9090909090909,4,3,8,60,0,0
146471,-90.9090909090909,4,3,1,60,0,0
146634,-90.9090909090909,4,3,8,60,0,0
146797,-90.9090909090909,4,3,4,60,0,0
146960,-90.9090909090909,4,3,8,60,0,0
147123,-90.9090909090909,4,3,4,60,0,0
147286,-90.9090909090909,4,3,8,60,0,0
147449,-90.9090909090909,4,3,4,60,0,0
147612,-90.9090909090909,4,3,8,60,0,0
147775,-90.9090909090909,4,3,4,60,0,0
147938,-90.9090909090909,4,3,8,60,0,0
148101,-90.9090909090909,4,3,4,60,0,0
148264,-90.9090909090909,4,3,8,60,0,0
148427,-90.9090909090909,4,3,4,60,0,0
148590,-90.9090909090909,4,3,8,60,0,0
148753,-90.9090909090909,4,3,4,60,0,0
149079,-90.9090909090909,4,3,12,60,0,0
149161,-90.9090909090909,4,3,11,60,0,0
149242,-90.9090909090909,4,3,7,60,0,0
149324,-90.9090909090909,4,3,8,60,0,0
151688,-90.9090909090909,4,3,4,60,0,0
151851,-90.9090909090909,4,3,8,60,0,0
152992,-90.9090909090909,4,3,4,60,0,0
153155,-90.9090909090909,4,3,8,60,0,0
153481,-90.9090909090909,4,3,4,60,0,0
153808,-90.9090909090909,4,3,8,60,0,0
154134,-90.9090909090909,4,3,2,60,0,0
154215,-90.9090909090909,4,3,8,60,0,0
154786,-90.9090909090909,4,3,4,60,0,0
155112,-90.9090909090909,4,3,8,60,0,0
155601,-90.9090909090909,4,3,4,60,0,0
155764,-90.9090909090909,4,3,8,60,0,0
156090,-90.9090909090909,4,3,4,60,0,0
156579,-90.9090909090909,4,3,8,60,0,0
156742,-90.9090909090909,4,3,4,60,0,0
157068,-200,4,3,9,80,0,0
157150,-100,4,3,1,5,0,0
159351,-100,4,3,1,90,0,0
159514,-100,4,3,1,5,0,0
159677,-133.333333333333,4,3,7,90,0,0
159759,-133.333333333333,4,3,2,90,0,0
160981,-100,4,3,2,90,0,0
161144,-100,4,3,6,90,0,0
161471,-100,4,3,11,90,0,0
161634,-100,4,3,6,90,0,0
161797,-100,4,3,2,90,0,0
162123,-100,4,3,6,90,0,0
162286,-133.333333333333,4,3,7,90,0,0
162367,-133.333333333333,4,3,2,90,0,0
163916,-133.333333333333,4,3,6,60,0,0
164079,-133.333333333333,4,3,2,60,0,0
164405,-133.333333333333,4,3,6,60,0,0
164568,-133.333333333333,4,3,2,60,0,0
164731,-133.333333333333,4,3,12,60,0,0
164894,-100,4,3,9,60,0,0
164976,-100,4,3,6,60,0,0
167503,-100,4,3,2,60,0,0
167829,-100,4,3,6,60,0,0
167992,-100,4,3,2,60,0,0
168318,-100,4,3,6,60,0,0
168481,-100,4,3,2,60,0,0
168808,-100,4,3,6,60,0,0
168971,-100,4,3,2,60,0,0
169297,-100,4,3,6,60,0,0
169460,-100,4,3,12,60,0,0
170030,-100,4,3,1,5,0,0
170112,-66.6666666666667,4,3,9,90,0,1
170193,-66.6666666666667,4,3,1,90,0,1
170356,-66.6666666666667,4,3,1,5,0,1
170438,-66.6666666666667,4,3,1,90,0,1
170601,-66.6666666666667,4,3,5,90,0,1
171090,-66.6666666666667,4,3,1,90,0,1
171416,-66.6666666666667,4,3,5,90,0,1
171742,-66.6666666666667,4,3,1,90,0,1
172068,-66.6666666666667,4,3,5,90,0,1
172394,-66.6666666666667,4,3,1,90,0,1
172721,-66.6666666666667,4,3,5,90,0,1
172965,-66.6666666666667,4,3,1,5,0,1
173047,-66.6666666666667,4,3,1,90,0,1
173373,-66.6666666666667,4,3,5,90,0,1
173699,-66.6666666666667,4,3,1,90,0,1
174025,-66.6666666666667,4,3,5,90,0,1
174351,-66.6666666666667,4,3,1,90,0,1
174514,-66.6666666666667,4,3,5,90,0,1
174677,-66.6666666666667,4,3,2,90,0,1
174840,-66.6666666666667,4,3,6,90,0,1
175003,-66.6666666666667,4,3,2,90,0,1
175166,-66.6666666666667,4,3,6,90,0,1
175248,-66.6666666666667,4,3,12,90,0,1
175329,-66.6666666666667,4,3,9,90,0,1
175411,-66.6666666666667,4,3,1,90,0,1
175492,-66.6666666666667,4,3,5,90,0,1
175655,-66.6666666666667,4,3,1,90,0,1
175981,-66.6666666666667,4,3,5,90,0,1
176308,-66.6666666666667,4,3,1,90,0,1
176634,-66.6666666666667,4,3,5,90,0,1
176960,-76.9230769230769,4,3,1,90,0,1
177286,-76.9230769230769,4,3,5,90,0,1
177612,-90.9090909090909,4,3,1,90,0,1
177938,-90.9090909090909,4,3,5,90,0,1
178101,-90.9090909090909,4,3,5,90,0,1
178264,-111.111111111111,4,3,1,90,0,1
178590,-66.6666666666667,4,3,5,90,0,1
178916,-66.6666666666667,4,3,2,90,0,1
179079,-66.6666666666667,4,3,6,90,0,1
179242,-66.6666666666667,4,3,2,90,0,1
179405,-66.6666666666667,4,3,6,90,0,1
179568,-66.6666666666667,4,3,2,90,0,1
179731,-66.6666666666667,4,3,6,90,0,1
179894,-66.6666666666667,4,3,2,90,0,1
180058,-66.6666666666667,4,3,6,90,0,1
180221,-66.6666666666667,4,3,11,90,0,1
180384,-66.6666666666667,4,3,12,90,0,1
180465,-66.6666666666667,4,3,12,90,0,0
180547,-100,4,3,9,90,0,1
180628,-100,4,3,6,90,0,1
181199,-100,4,3,2,90,0,1
181280,-100,4,3,2,5,0,1
181362,-100,4,3,6,90,0,1
182503,-100,4,3,2,90,0,1
182585,-100,4,3,2,5,0,1
182666,-100,4,3,6,90,0,1
183808,-100,4,3,2,90,0,1
183889,-100,4,3,2,5,0,1
183971,-100,4,3,6,90,0,1
184949,-100,4,3,2,90,0,1
185030,-100,4,3,2,5,0,1
185112,-100,4,3,6,90,0,1
185275,-100,4,3,2,90,0,1
185356,-100,4,3,2,5,0,1
185438,-100,4,3,2,90,0,1
185519,-100,4,3,2,5,0,1
185601,-100,4,3,6,90,0,0
185683,-100,4,3,1,90,0,0
185764,-90.9090909090909,4,3,7,90,0,1
185846,-90.9090909090909,4,3,5,90,0,1
186416,-90.9090909090909,4,3,1,90,0,1
186498,-90.9090909090909,4,3,5,90,0,1
187068,-86.9565217391304,4,3,5,90,0,1
187721,-86.9565217391304,4,3,1,90,0,1
187802,-86.9565217391304,4,3,5,90,0,1
188373,-80,4,3,6,90,0,1
188699,-80,4,3,2,90,0,1
188780,-80,4,3,6,90,0,1
189025,-80,4,3,2,90,0,1
189106,-80,4,3,6,90,0,1
189677,-74.0740740740741,4,3,2,90,0,1
189840,-74.0740740740741,4,3,6,90,0,1
190003,-74.0740740740741,4,3,11,90,0,1
190166,-74.0740740740741,4,3,5,90,0,1
190329,-66.6666666666667,4,3,1,90,0,1
190492,-66.6666666666667,4,3,5,90,0,1
190655,-66.6666666666667,4,3,1,90,0,1
190981,-333.333333333333,4,3,9,90,0,0
191307,-333.333333333333,4,3,9,85,0,0
191634,-333.333333333333,4,3,9,80,0,0
191960,-333.333333333333,4,3,9,75,0,0
192286,-333.333333333333,4,3,9,70,0,0
192612,-333.333333333333,4,3,9,65,0,0
192938,-333.333333333333,4,3,9,60,0,0
193264,-333.333333333333,4,3,9,55,0,0
193590,-333.333333333333,4,3,9,50,0,0
193916,-333.333333333333,4,3,9,45,0,0
194242,-333.333333333333,4,3,9,40,0,0
194568,-333.333333333333,4,3,9,35,0,0
194894,-333.333333333333,4,3,9,30,0,0
195221,-333.333333333333,4,3,9,25,0,0
195547,-333.333333333333,4,3,9,20,0,0
195873,-333.333333333333,4,3,9,15,0,0
196199,-333.333333333333,4,3,9,10,0,0
196525,-333.333333333333,4,3,9,5,0,0
196851,-1000,4,3,9,5,0,0
197177,-1000,4,3,9,5,0,0

[Colours]
Combo1 : 0,128,192
Combo2 : 192,192,192
Combo3 : 255,128,192

[HitObjects]
115,210,1350,5,12,0:0:0:0:
393,182,1513,1,12,0:0:0:0:
194,202,1676,5,8,0:0:0:0:
262,257,1839,1,8,0:3:0:0:
315,190,2002,1,8,0:3:0:0:
249,135,2165,1,8,0:0:0:0:
268,337,2328,5,12,0:0:0:0:
240,59,2491,1,12,0:0:0:0:
262,257,2654,5,8,0:0:0:0:
315,190,2817,1,8,0:3:0:0:
249,135,2980,1,8,0:3:0:0:
194,202,3143,1,8,0:0:0:0:
386,256,3306,5,8,0:0:0:0:
393,254,3388,1,12,0:0:0:0:
400,252,3469,1,8,0:0:0:0:
407,250,3551,1,12,0:0:0:0:
414,248,3632,5,8,0:0:0:0:
412,210,3714,1,8,0:0:0:0:
387,169,3795,1,8,0:3:0:0:
389,131,3877,1,8,0:3:0:0:
420,91,3958,6,0,P|366:104|299:85,1,112.500004291535,12|0,0:0|0:0,0:0:0:0:
256,247,4610,2,0,L|248:131,1,112.500004291535,4|0,0:0|0:0,0:0:0:0:
154,20,5263,2,0,L|146:136,1,112.500004291535,4|0,0:0|0:0,0:0:0:0:
146,132,5915,2,0,L|148:112,1,14.0625005364418,4|0,0:0|0:0,0:0:0:0:
10,33,6241,5,8,0:0:0:0:
227,78,6404,1,8,0:0:0:0:
66,192,6567,6,0,B|52:251|52:251|73:311,1,112.500004291535,12|0,0:0|0:0,0:0:0:0:
155,368,7219,2,0,B|254:356|254:356|234:338,1,112.500004291535,4|0,0:0|0:0,0:0:0:0:
343,268,7871,2,0,B|442:280|442:280|432:288,1,112.500004291535,4|0,0:0|0:0,0:0:0:0:
244,347,8523,5,12,0:0:0:0:
113,187,8686,1,8,0:0:0:0:
113,187,8849,1,8,0:0:0:0:
315,157,9013,1,12,0:0:0:0:
244,347,9176,1,12,0:0:0:0:
0,219,9502,6,0,B|10:257|5:301|5:301|17:261,1,112.500004291535,4|4,0:0|0:0,0:0:0:0:
13,272,10154,1,4,0:0:0:0:
205,149,10480,2,0,L|138:155,1,56.2500021457673,4|0,0:0|0:0,0:0:0:0:
13,272,10806,2,0,L|80:278,1,56.2500021457673,4|0,0:0|0:0,0:0:0:0:
294,299,11132,5,12,0:0:0:0:
148,154,11295,1,8,0:0:0:0:
148,154,11458,1,8,0:0:0:0:
345,103,11621,1,12,0:0:0:0:
294,299,11784,5,8,0:0:0:0:
287,326,11866,1,8,0:0:0:0:
280,353,11947,1,8,0:0:0:0:
222,103,12110,1,8,0:0:0:0:
171,299,12273,5,12,0:0:0:0:
165,326,12355,1,8,0:0:0:0:
158,353,12436,1,8,0:0:0:0:
99,103,12599,1,8,0:0:0:0:
48,299,12763,5,8,0:0:0:0:
42,326,12844,1,8,0:0:0:0:
35,353,12926,1,8,0:0:0:0:
197,206,13089,1,8,0:0:0:0:
24,139,13252,5,12,0:0:0:0:
12,103,13333,1,8,0:0:0:0:
18,66,13415,1,8,0:0:0:0:
40,37,13496,1,8,0:0:0:0:
74,20,13578,1,8,0:0:0:0:
111,21,13659,1,8,0:0:0:0:
149,40,13741,5,0,1:3:0:0:
196,65,13822,1,0,1:3:0:0:
250,66,13904,1,0,1:3:0:0:
298,42,13985,1,0,1:3:0:0:
331,1,14067,2,0,B|336:27|336:27|329:69,1,56.25,0|0,1:3|0:0,0:0:0:0:
203,164,14393,6,0,B|256:216,1,56.2500021457673,12|8,0:0|0:0,0:0:0:0:
298,252,14556,1,8,0:0:0:0:
422,214,14719,2,0,B|390:215|390:215|350:233,1,56.2500021457673,8|8,0:0|0:0,0:0:0:0:
298,252,14882,1,8,0:0:0:0:
393,341,15045,1,12,0:0:0:0:
372,321,15127,1,8,0:0:0:0:
352,301,15208,1,8,0:0:0:0:
250,373,15371,2,0,B|269:347|269:347|279:304,1,56.2500021457673,8|8,0:0|0:0,0:0:0:0:
298,252,15534,1,8,0:0:0:0:
183,306,15697,6,0,B|160:235,1,56.2500021457673,12|8,0:0|0:0,0:0:0:0:
140,183,15860,1,8,0:0:0:0:
13,159,16023,2,0,B|41:172|41:172|85:175,1,56.2500021457673,8|8,0:0|0:0,0:0:0:0:
140,183,16186,1,8,0:0:0:0:
98,60,16349,1,12,0:0:0:0:
107,86,16431,1,8,0:0:0:0:
115,113,16513,1,8,0:0:0:0:
239,99,16676,2,0,B|210:112|210:112|180:145,1,56.2500021457673,8|8,0:0|0:0,0:0:0:0:
140,183,16839,1,8,0:0:0:0:
266,189,17002,6,0,B|336:166,1,56.2500021457673,12|8,0:0|0:0,0:0:0:0:
389,146,17165,1,8,0:0:0:0:
413,19,17328,2,0,B|399:47|399:47|396:91,1,56.2500021457673,8|8,0:0|0:0,0:0:0:0:
389,146,17491,1,8,0:0:0:0:
512,104,17654,1,12,0:0:0:0:
486,113,17735,1,8,0:0:0:0:
459,121,17817,1,8,0:0:0:0:
473,245,17980,2,0,B|459:216|459:216|426:186,1,56.2500021457673,8|8,0:0|0:0,0:0:0:0:
389,146,18143,1,8,0:0:0:0:
362,236,18306,5,12,0:0:0:0:
334,238,18388,1,8,0:0:0:0:
305,240,18469,1,8,0:0:0:0:
102,263,18632,2,0,B|176:257,1,56.2500021457673,8|8,0:0|0:0,0:0:0:0:
231,249,18795,1,8,0:0:0:0:
71,355,18958,5,8,0:0:0:0:
27,326,19040,1,8,0:0:0:0:
3,277,19121,1,8,0:0:0:0:
8,222,19203,1,8,0:0:0:0:
40,176,19284,1,8,0:0:0:0:
70,150,19366,1,8,0:0:0:0:
83,112,19447,1,8,0:3:0:0:
72,75,19529,1,8,0:3:0:0:
44,47,19610,6,0,B|113:72,1,56.2500021457673,12|8,0:0|0:0,0:0:0:0:
167,88,19773,1,8,0:0:0:0:
264,4,19936,2,0,B|235:18|235:18|206:51,1,56.2500021457673,8|8,0:0|0:0,0:0:0:0:
167,88,20099,1,8,0:0:0:0:
290,131,20263,1,12,0:0:0:0:
264,122,20344,1,8,0:0:0:0:
237,112,20426,1,8,0:0:0:0:
172,218,20589,2,0,B|179:186|179:186|171:143,1,56.2500021457673,8|8,0:0|0:0,0:0:0:0:
167,88,20752,1,8,0:0:0:0:
301,234,20915,6,0,B|353:180,1,56.2500021457673,12|8,0:0|0:0,0:0:0:0:
388,138,21078,1,8,0:0:0:0:
350,16,21241,2,0,B|351:47|351:47|369:87,1,56.2500021457673,8|8,0:0|0:0,0:0:0:0:
388,138,21404,1,8,0:0:0:0:
478,44,21567,1,12,0:0:0:0:
459,63,21648,1,8,0:0:0:0:
439,85,21730,1,8,0:0:0:0:
509,187,21893,2,0,B|483:167|483:167|440:157,1,56.2500021457673,8|8,0:0|0:0,0:0:0:0:
388,138,22056,1,8,0:0:0:0:
284,105,22219,6,0,B|291:178,1,56.2500021457673,12|8,0:0|0:0,0:0:0:0:
301,234,22382,1,8,0:0:0:0:
419,283,22545,2,0,B|393:263|393:263|351:252,1,56.2500021457673,8|8,0:0|0:0,0:0:0:0:
301,234,22708,1,8,0:0:0:0:
315,363,22871,1,12,0:0:0:0:
312,336,22953,1,8,0:0:0:0:
309,307,23034,1,8,0:0:0:0:
186,294,23197,2,0,B|217:286|217:286|252:260,1,56.2500021457673,8|8,0:0|0:0,0:0:0:0:
301,234,23360,1,8,0:0:0:0:
219,125,23523,6,0,B|136:97|134:167|47:119,1,168.750006437302,12|8,0:0|0:0,0:0:0:0:
55,123,24094,1,8,0:0:0:0:
55,123,24176,1,8,0:0:0:0:
235,0,24339,5,8,0:0:0:0:
407,163,24502,1,8,0:0:0:0:
410,215,24583,1,8,0:0:0:0:
378,257,24665,1,8,0:0:0:0:
327,267,24746,1,8,0:0:0:0:
282,240,24828,6,0,B|362:207|362:274|442:240,1,150,12|12,1:3|0:0,0:0:0:0:
508,89,25317,2,0,L|500:-2,1,75,0|4,1:3|0:0,0:0:0:0:
512,209,25643,1,8,0:0:0:0:
351,97,25806,2,0,P|318:82|270:82,1,75,12|8,1:3|0:0,0:0:0:0:
427,245,26132,6,0,L|431:319,1,75,4|8,1:3|0:0,0:0:0:0:
301,156,26458,1,12,0:0:0:0:
206,256,26621,2,0,P|170:266|133:258,1,75,0|12,1:3|0:0,0:0:0:0:
172,125,26947,1,8,0:0:0:0:
293,346,27110,2,0,L|297:271,1,75,12|0,1:3|0:0,0:0:0:0:
167,50,27436,6,0,L|172:125,1,75,12|8,1:3|0:0,0:0:0:0:
296,271,27763,2,0,P|260:258|231:235,1,75,12|0,1:3|0:0,0:0:0:0:
155,68,28089,2,0,L|160:143,1,75,4|8,1:3|0:0,0:0:0:0:
284,289,28415,2,0,P|247:276|216:249,1,75,12|8,1:3|1:3,0:0:0:0:
326,143,28741,5,4,0:0:0:0:
124,213,28904,1,8,0:0:0:0:
110,220,28985,1,8,0:0:0:0:
98,224,29067,2,0,L|12:220,1,75,12|0,0:0|0:0,0:0:0:0:
171,124,29393,1,12,0:0:0:0:
60,293,29556,1,8,0:0:0:0:
0,83,29719,1,12,0:0:0:0:
124,213,29882,5,8,0:3:0:0:
138,220,29964,1,8,0:3:0:0:
152,227,30045,2,4,B|201:247|201:247|311:239,1,150,12|12,1:3|0:0,0:0:0:0:
379,105,30534,2,0,P|383:68|354:17,1,75,0|4,1:3|0:0,0:0:0:0:
452,224,30860,1,8,0:0:0:0:
302,81,31023,2,0,L|213:90,1,75,12|8,1:3|0:0,0:0:0:0:
16,195,31349,6,0,L|105:204,1,75,4|8,1:3|0:0,0:0:0:0:
227,88,31676,1,12,0:0:0:0:
297,239,31839,2,0,P|306:201|298:150,1,75,0|12,1:3|0:0,0:0:0:0:
162,285,32165,1,8,0:0:0:0:
328,364,32328,2,0,P|369:374|409:368,1,75,12|0,1:3|0:0,0:0:0:0:
510,271,32654,6,0,L|504:171,1,75,12|8,1:3|0:0,0:0:0:0:
384,17,32980,2,0,L|378:117,1,75,12|0,1:3|0:0,0:0:0:0:
488,279,33306,2,8,L|482:179,1,75,8|8,1:3|0:0,0:0:0:0:
360,28,33632,2,0,L|354:128,1,75,12|8,1:3|1:3,0:0:0:0:
498,75,33958,5,4,0:0:0:0:
366,174,34121,1,8,0:0:0:0:
352,181,34203,1,8,0:0:0:0:
338,188,34284,1,12,0:0:0:0:
151,185,34447,1,8,0:0:0:0:
165,192,34529,1,8,0:0:0:0:
179,199,34610,5,12,0:0:0:0:
176,152,34692,1,8,0:0:0:0:
174,105,34773,1,8,0:0:0:0:
172,58,34855,1,8,0:0:0:0:
137,34,34936,5,8,0:3:0:0:
135,59,35018,1,8,0:3:0:0:
133,84,35099,1,12,0:3:0:0:
132,110,35181,1,8,0:3:0:0:
131,137,35263,6,0,L|85:142,2,37.5,8|8|8,1:3|0:0|0:0,0:0:0:0:
249,128,35589,1,8,0:0:0:0:
367,119,35752,1,8,1:3:0:0:
427,235,36078,5,8,0:0:0:0:
309,226,36241,1,8,1:3:0:0:
191,217,36404,1,8,0:0:0:0:
73,208,36567,2,0,L|44:205,1,18.75,12|0,1:3|0:0,0:0:0:0:
232,338,36730,5,8,0:0:0:0:
298,240,36893,1,8,0:0:0:0:
180,231,37056,1,8,1:3:0:0:
180,231,37382,5,8,0:0:0:0:
100,99,37545,1,8,1:3:0:0:
53,248,37708,1,8,0:0:0:0:
142,367,37871,6,0,L|195:372,2,37.5,8|8|8,1:3|0:0|0:0,0:0:0:0:
62,235,38197,1,8,1:3:0:0:
189,218,38360,1,8,0:0:0:0:
189,218,38686,5,8,0:0:0:0:
354,187,38849,1,8,1:3:0:0:
325,22,39013,1,8,1:3:0:0:
158,50,39176,2,0,L|123:59,1,18.75,12|0,0:0|0:0,0:0:0:0:
365,194,39339,5,8,0:0:0:0:
336,27,39502,1,8,0:0:0:0:
169,57,39665,1,8,0:0:0:0:
199,223,39828,1,8,0:0:0:0:
384,104,39991,2,0,L|402:99,1,18.75,12|0,0:0|0:0,0:0:0:0:
148,146,40154,1,8,0:0:0:0:
288,243,40317,1,8,0:0:0:0:
288,243,40398,1,8,0:0:0:0:
288,243,40480,6,0,L|298:296,2,37.5,8|8|8,1:3|0:0|0:0,0:0:0:0:
245,7,40806,1,8,0:0:0:0:
266,122,40969,1,8,1:3:0:0:
266,122,41295,5,8,0:0:0:0:
113,92,41458,1,8,1:3:0:0:
395,35,41621,1,8,0:0:0:0:
271,136,41784,2,0,L|281:169,1,18.75,12|0,1:3|0:0,0:0:0:0:
394,222,41947,5,8,0:0:0:0:
197,262,42110,1,8,0:0:0:0:
380,201,42273,1,8,1:3:0:0:
183,241,42436,2,0,L|150:247,1,18.75,12|0,0:0|0:0,0:0:0:0:
301,319,42599,5,8,0:0:0:0:
366,180,42763,2,0,L|376:157,1,18.75,12|0,1:3|0:0,0:0:0:0:
169,220,42926,1,8,0:0:0:0:
153,32,43089,6,0,L|224:36,1,56.25,4|0,1:3|0:0,0:0:0:0:
153,32,43415,2,0,L|82:36,1,56.25,4|0,1:3|0:0,0:0:0:0:
289,70,43741,2,0,L|345:66,1,56.25,4|0,1:3|0:0,0:0:0:0:
289,70,44067,2,0,L|222:68,1,56.25,4|0,1:3|0:0,0:0:0:0:
345,66,44393,6,0,B|360:101|360:101|357:207,1,131.25,4|0,1:3|0:0,0:0:0:0:
357,194,45045,2,0,L|335:196,1,18.75,4|0,1:3|0:0,0:0:0:0:
131,212,45371,6,0,L|118:213,1,9.375,4|0,0:0|0:0,0:0:0:0:
223,212,45697,6,0,P|201:151|75:120,1,168.750006437302,8|0,1:3|0:0,0:0:0:0:
110,110,46023,2,0,P|67:153|6:162,1,112.500004291535,12|0,1:3|0:0,0:0:0:0:
227,1,46349,1,8,1:3:0:0:
15,49,46513,1,8,0:0:0:0:
223,212,46676,2,0,B|235:177|235:177|231:98,1,112.500004291535,12|0,1:3|1:3,0:0:0:0:
107,330,47002,5,8,0:0:0:0:
294,280,47165,1,8,0:0:0:0:
110,110,47328,2,0,B|98:145|98:145|102:224,1,112.500004291535,12|0,0:0|0:0,0:0:0:0:
206,324,47654,1,8,0:0:0:0:
362,210,47817,1,8,0:0:0:0:
101,220,47980,2,0,B|132:239|132:239|210:253,1,112.500004291535,12|0,0:0|0:0,0:0:0:0:
438,282,48306,6,0,P|465:226|424:121,1,168.750006437302,8|0,1:3|0:0,0:0:0:0:
329,107,48632,2,0,P|383:135|454:116,1,112.500004291535,12|0,1:3|0:0,0:0:0:0:
226,19,48958,2,0,P|164:18|108:65,1,112.500004291535,8|8,1:3|0:0,0:0:0:0:
398,39,49284,1,12,1:3:0:0:
199,123,49447,2,0,L|210:244,1,112.500004291535,0|8,1:3|0:0,0:0:0:0:
463,197,49773,5,8,0:0:0:0:
123,154,49936,1,12,1:3:0:0:
363,337,50099,1,8,0:0:0:0:
226,19,50263,1,12,1:3:0:0:
191,315,50426,1,8,0:0:0:0:
398,39,50589,1,12,1:3:0:0:
305,184,50752,1,8,1:3:0:0:
305,184,50833,1,8,0:0:0:0:
305,184,50915,6,0,B|292:214|292:214|302:293,1,112.500004291535,12|8,0:0|0:0,0:0:0:0:
131,170,51241,2,0,B|118:140|118:140|130:46,1,112.500004291535,12|0,1:3|0:0,0:0:0:0:
319,2,51567,1,8,1:3:0:0:
199,117,51730,1,8,0:0:0:0:
388,233,51893,2,0,L|517:223,1,112.500004291535,12|0,1:3|1:3,0:0:0:0:
346,83,52219,5,8,0:0:0:0:
199,117,52382,1,8,0:0:0:0:
294,292,52545,2,0,L|396:341,1,97.4999955368044,12|0,1:3|0:0,0:0:0:0:
329,157,52871,1,8,1:3:0:0:
199,117,53034,1,8,0:0:0:0:
194,296,53197,2,0,L|257:388,1,82.5000025177003,12|0,1:3|1:3,0:0:0:0:
283,207,53523,5,8,0:0:0:0:
199,117,53686,1,8,0:0:0:0:
115,254,53849,2,0,L|121:348,1,67.4999979400635,12|0,0:0|0:0,0:0:0:0:
60,45,54176,1,8,0:0:0:0:
220,182,54339,1,8,0:0:0:0:
11,167,54502,5,12,1:3:0:0:
336,79,54665,1,8,0:0:0:0:
336,79,54746,1,8,0:0:0:0:
336,79,54828,1,12,1:3:0:0:
125,341,54991,1,8,0:0:0:0:
141,6,55154,1,12,1:3:0:0:
325,287,55317,1,8,0:0:0:0:
137,215,55480,5,8,1:3:0:0:
332,162,55643,1,8,0:0:0:0:
205,320,55806,1,12,0:0:0:0:
216,118,55969,1,12,0:0:0:0:
325,287,56132,6,0,P|387:284|460:199,1,168.750006437302,12|0,1:3|0:0,0:0:0:0:
457,211,56458,2,0,P|421:171|416:106,1,112.500004291535,0|8,1:3|0:0,0:0:0:0:
333,0,56784,2,0,P|326:55|289:96,1,112.500004291535,12|8,1:3|0:0,0:0:0:0:
42,158,57110,1,8,1:3:0:0:
213,355,57273,1,8,1:3:0:0:
170,134,57436,5,12,0:0:0:0:
85,379,57599,1,8,0:0:0:0:
259,236,57763,1,8,0:0:0:0:
0,281,57926,1,8,0:0:0:0:
259,236,58089,2,0,L|204:245,1,56.2500021457673,12|0,0:0|0:0,0:0:0:0:
0,281,58252,1,8,0:0:0:0:
84,37,58415,1,8,0:0:0:0:
119,208,58578,1,8,0:0:0:0:
299,109,58741,6,0,P|361:112|434:197,1,168.750006437302,12|0,1:3|0:0,0:0:0:0:
421,297,59067,2,0,L|431:177,1,112.500004291535,8|8,1:3|0:0,0:0:0:0:
447,52,59393,2,0,L|441:116,1,56.2500021457673,12|0,1:3|0:0,0:0:0:0:
421,297,59556,1,8,0:0:0:0:
149,204,59719,1,8,1:3:0:0:
299,109,59882,1,8,1:3:0:0:
194,366,60045,1,12,0:0:0:0:
344,271,60208,1,8,0:0:0:0:
149,204,60371,5,8,1:3:0:0:
349,187,60534,2,0,L|430:186,1,56.2500021457673,12|0,0:0|0:0,0:0:0:0:
299,109,60697,1,8,1:3:0:0:
286,345,60860,2,0,P|277:316|277:286,1,56.2500021457673,12|0,0:0|0:0,0:0:0:0:
210,126,61023,2,0,P|219:155|219:185,1,56.2500021457673,12|0,1:3|0:0,0:0:0:0:
145,296,61186,1,8,0:0:0:0:
66,237,61349,5,8,1:3:0:0:
93,202,61431,1,8,0:0:0:0:
134,185,61513,1,8,0:0:0:0:
178,191,61594,1,8,0:0:0:0:
214,217,61676,1,8,1:3:0:0:
241,251,61757,1,8,0:0:0:0:
282,268,61839,1,8,0:0:0:0:
326,262,61920,1,8,0:0:0:0:
362,236,62002,5,8,1:3:0:0:
320,218,62083,1,8,0:0:0:0:
291,184,62165,1,8,0:0:0:0:
281,141,62246,1,8,0:0:0:0:
290,98,62328,1,8,1:3:0:0:
319,63,62409,1,8,0:0:0:0:
359,45,62491,1,8,0:0:0:0:
404,47,62572,1,8,0:0:0:0:
443,69,62654,5,12,1:3:0:0:
406,95,62735,1,8,0:0:0:0:
363,105,62817,1,8,0:0:0:0:
319,96,62898,1,8,0:0:0:0:
282,71,62980,1,8,1:3:0:0:
245,44,63061,1,8,0:0:0:0:
202,34,63143,2,0,P|179:36|157:45,1,44.999998626709,12|8,0:0|0:0,0:0:0:0:
21,161,63306,5,8,1:3:0:0:
21,161,63388,1,8,0:0:0:0:
21,161,63469,2,0,P|44:159|71:146,1,52.4999983978272,12|8,0:0|0:0,0:0:0:0:
238,231,63632,2,0,P|215:229|188:216,1,52.4999983978272,12|8,1:3|0:0,0:0:0:0:
210,113,63795,1,8,1:3:0:0:
210,113,63877,1,8,0:0:0:0:
210,113,63958,5,12,0:0:0:0:
279,364,64121,1,8,0:0:0:0:
425,86,64284,5,12,0:0:0:0:
362,335,64447,1,8,0:0:0:0:
288,179,64610,5,12,0:0:0:0:
441,259,64773,1,12,0:0:0:0:
269,286,64936,1,0,0:0:0:0:
393,161,65099,1,12,0:0:0:0:
362,335,65263,5,8,1:3:0:0:
234,63,65426,1,12,0:0:0:0:
501,202,65589,1,12,0:0:0:0:
199,249,65752,1,8,0:0:0:0:
183,253,65833,1,8,0:0:0:0:
168,257,65915,5,8,1:3:0:0:
137,220,65996,1,8,0:0:0:0:
141,172,66078,1,8,0:0:0:0:
177,140,66159,1,8,0:0:0:0:
224,142,66241,1,8,0:0:0:0:
277,172,66322,1,8,0:0:0:0:
341,177,66404,1,8,0:0:0:0:
399,155,66485,1,8,0:0:0:0:
445,112,66567,6,0,B|420:182,1,56.2500021457673,12|8,0:0|0:0,0:0:0:0:
405,235,66730,1,8,0:0:0:0:
492,331,66893,2,0,B|477:302|477:302|444:273,1,56.2500021457673,8|8,0:0|0:0,0:0:0:0:
405,235,67056,1,8,0:0:0:0:
364,359,67219,1,12,0:0:0:0:
374,331,67301,1,8,0:0:0:0:
383,304,67382,1,8,0:0:0:0:
275,242,67545,2,0,B|306:248|306:248|349:239,1,56.2500021457673,8|8,0:0|0:0,0:0:0:0:
405,235,67708,1,8,0:0:0:0:
308,174,67871,6,0,B|238:147,1,56.2500021457673,12|8,0:0|0:0,0:0:0:0:
184,131,68034,1,8,0:0:0:0:
88,217,68197,2,0,B|117:202|117:202|146:170,1,56.2500021457673,8|8,0:0|0:0,0:0:0:0:
184,131,68360,1,8,0:0:0:0:
62,88,68523,1,12,0:0:0:0:
90,99,68605,1,8,0:0:0:0:
117,108,68686,1,8,0:0:0:0:
180,1,68849,2,0,B|173:31|173:31|181:75,1,56.2500021457673,8|8,0:0|0:0,0:0:0:0:
184,131,69013,1,8,0:0:0:0:
254,36,69176,6,0,B|322:64,1,56.2500021457673,12|8,0:0|0:0,0:0:0:0:
376,83,69339,1,8,0:0:0:0:
475,0,69502,2,0,B|445:13|445:13|414:44,1,56.2500021457673,8|8,0:0|0:0,0:0:0:0:
376,83,69665,1,8,0:0:0:0:
496,130,69828,1,12,0:0:0:0:
469,118,69909,1,8,0:0:0:0:
442,108,69991,1,8,0:0:0:0:
375,213,70154,2,0,B|382:182|382:182|375:138,1,56.2500021457673,8|8,0:0|0:0,0:0:0:0:
376,83,70317,1,8,0:0:0:0:
309,174,70480,6,0,B|240:145,1,56.2500021457673,12|8,0:0|0:0,0:0:0:0:
187,127,70643,1,8,0:0:0:0:
88,210,70806,2,0,B|117:196|117:196|148:165,1,56.2500021457673,8|8,0:0|0:0,0:0:0:0:
187,127,70969,1,8,0:0:0:0:
376,83,71132,5,12,0:0:0:0:
385,139,71214,1,8,0:0:0:0:
368,194,71295,1,8,0:0:0:0:
323,233,71377,1,8,0:0:0:0:
268,245,71458,5,8,0:0:0:0:
241,187,71540,1,8,0:0:0:0:
186,156,71621,1,8,0:3:0:0:
124,163,71703,1,8,0:3:0:0:
75,204,71784,5,12,0:0:0:0:
117,222,71866,1,8,0:0:0:0:
161,224,71947,1,8,0:0:0:0:
202,206,72029,1,8,0:0:0:0:
232,173,72110,1,8,0:0:0:0:
264,141,72192,1,8,0:0:0:0:
306,124,72273,1,8,0:0:0:0:
350,127,72355,1,8,0:0:0:0:
389,148,72436,5,12,0:0:0:0:
349,164,72518,1,8,0:0:0:0:
320,198,72599,1,8,0:0:0:0:
306,241,72681,1,8,0:0:0:0:
313,282,72763,1,8,0:0:0:0:
339,321,72844,1,8,0:0:0:0:
377,343,72926,1,8,0:0:0:0:
422,348,73007,1,8,0:0:0:0:
464,332,73089,5,12,0:0:0:0:
427,306,73170,1,8,0:0:0:0:
384,297,73252,1,8,0:0:0:0:
339,309,73333,1,8,0:0:0:0:
305,335,73415,1,8,0:0:0:0:
272,362,73496,1,8,0:0:0:0:
228,371,73578,1,8,0:0:0:0:
185,363,73659,1,8,0:0:0:0:
149,336,73741,5,12,0:0:0:0:
192,322,73822,1,8,0:0:0:0:
224,293,73904,1,8,0:0:0:0:
243,252,73985,1,8,0:0:0:0:
244,208,74067,1,8,0:0:0:0:
224,167,74148,1,8,0:0:0:0:
191,139,74230,1,8,0:0:0:0:
148,125,74311,1,8,0:0:0:0:
103,133,74393,5,12,0:0:0:0:
111,151,74474,1,8,0:0:0:0:
121,171,74556,1,8,0:0:0:0:
228,371,74719,1,8,0:0:0:0:
295,159,74882,1,8,0:0:0:0:
409,266,75045,5,12,0:0:0:0:
401,248,75127,1,8,0:0:0:0:
391,228,75208,1,8,0:0:0:0:
284,28,75371,1,8,0:0:0:0:
217,240,75534,1,8,0:0:0:0:
403,149,75697,5,8,0:0:0:0:
353,117,75779,1,8,0:0:0:0:
296,106,75860,1,8,0:0:0:0:
239,116,75942,1,8,0:0:0:0:
190,147,76023,5,8,0:3:0:0:
153,122,76105,1,8,0:3:0:0:
141,80,76186,1,8,0:3:0:0:
160,40,76268,1,8,0:3:0:0:
200,23,76349,6,0,B|337:-33|334:109|493:15,1,288.750008811951,8|0,0:0|0:0,0:0:0:0:
475,25,77002,5,12,1:3:0:0:
475,25,77083,1,8,0:0:0:0:
475,25,77165,1,8,0:0:0:0:
399,256,77328,1,8,0:0:0:0:
262,87,77491,1,8,1:3:0:0:
113,354,77817,5,8,0:0:0:0:
18,259,77980,1,8,1:3:0:0:
113,164,78143,1,8,0:0:0:0:
207,259,78306,2,0,L|227:281,1,18.75,12|0,1:3|0:0,0:0:0:0:
239,74,79284,5,8,1:3:0:0:
337,219,79447,1,8,0:0:0:0:
434,74,79610,5,12,1:3:0:0:
240,199,79773,1,8,0:0:0:0:
337,54,79936,1,8,1:3:0:0:
435,199,80099,1,8,0:0:0:0:
211,137,80426,5,8,0:0:0:0:
463,136,80589,1,8,1:3:0:0:
337,54,80752,1,8,1:3:0:0:
337,219,80915,2,0,L|337:252,1,18.75,12|0,0:0|0:0,0:0:0:0:
153,101,81730,5,8,0:0:0:0:
209,274,81893,1,8,0:0:0:0:
94,215,82056,1,8,0:0:0:0:
267,159,82219,5,12,1:3:0:0:
267,159,82301,1,8,0:0:0:0:
267,159,82382,1,8,0:0:0:0:
153,101,82545,1,8,0:0:0:0:
209,274,82708,1,8,1:3:0:0:
222,106,83034,5,8,0:0:0:0:
139,268,83197,1,8,1:3:0:0:
100,146,83360,1,8,0:0:0:0:
261,228,83523,2,0,L|293:216,1,18.75,12|0,1:3|0:0,0:0:0:0:
357,132,84502,5,8,1:3:0:0:
358,325,84665,1,8,0:0:0:0:
425,159,84828,5,12,1:3:0:0:
289,297,84991,1,8,0:0:0:0:
454,228,85154,1,8,1:3:0:0:
261,228,85317,1,8,0:0:0:0:
425,296,85643,5,8,0:0:0:0:
289,159,85806,1,8,1:3:0:0:
153,296,85969,1,8,1:3:0:0:
17,159,86132,6,0,L|72:155,1,37.5,12|0,0:0|0:0,0:0:0:0:
176,146,86295,1,8,0:0:0:0:
17,22,86458,1,12,0:0:0:0:
1,241,86621,1,8,0:0:0:0:
4,259,86703,1,8,0:0:0:0:
7,277,86784,5,8,0:0:0:0:
38,257,86866,1,8,0:3:0:0:
75,249,86947,1,8,0:3:0:0:
112,255,87029,1,8,0:3:0:0:
144,273,87110,5,8,0:0:0:0:
184,299,87192,1,8,0:0:0:0:
233,309,87273,1,8,0:0:0:0:
282,301,87355,1,8,0:0:0:0:
324,277,87436,6,0,L|319:181,1,75,4|0,1:3|0:0,0:0:0:0:
312,24,87763,1,12,0:0:0:0:
191,156,87926,2,0,L|287:151,1,75,0|12,1:3|0:0,0:0:0:0:
444,144,88252,1,8,0:0:0:0:
110,210,88415,2,0,P|93:149|116:95,1,112.5,12|0,1:3|0:0,0:0:0:0:
140,68,88741,6,0,L|55:49,1,75,12|8,1:3|0:0,0:0:0:0:
312,24,89067,1,12,0:0:0:0:
330,191,89230,2,0,L|338:276,1,75,0|12,1:3|0:0,0:0:0:0:
191,156,89556,1,8,0:0:0:0:
68,229,89719,2,0,P|46:279|74:340,1,112.5,12|0,1:3|0:0,0:0:0:0:
89,367,90045,6,0,L|15:371,1,75,12|8,1:3|0:0,0:0:0:0:
134,283,90371,1,12,1:3:0:0:
5,179,90534,1,0,0:0:0:0:
197,126,90697,2,0,L|111:124,1,75,12|8,1:3|0:0,0:0:0:0:
298,244,91023,1,12,1:3:0:0:
356,148,91186,1,0,1:3:0:0:
356,340,91349,5,12,0:0:0:0:
414,244,91513,1,8,0:0:0:0:
356,148,91676,1,12,0:0:0:0:
298,244,91839,1,8,0:0:0:0:
266,43,92002,5,12,0:0:0:0:
298,244,92165,1,8,0:0:0:0:
414,101,92328,5,12,0:0:0:0:
215,207,92491,1,8,0:0:0:0:
215,207,92572,1,8,0:0:0:0:
215,207,92654,6,0,B|187:187|158:195|158:195|133:224|98:220|98:220|71:206|38:214,2,168.750006437302,12|0|0,1:3|1:3|1:3,0:0:0:0:
291,301,93958,6,0,B|319:321|348:313|348:313|373:284|408:288|408:288|435:302|468:294,2,168.750006437302,0|0|0,1:3|1:3|1:3,0:0:0:0:
392,98,95263,6,0,L|308:92,1,75,12|8,1:3|0:0,0:0:0:0:
103,77,95589,1,12,1:3:0:0:
152,299,95752,2,0,L|158:215,1,75,12|8,0:0|1:3,0:0:0:0:
173,10,96078,1,12,0:0:0:0:
306,232,96241,1,12,1:3:0:0:
385,60,96404,1,8,0:0:0:0:
388,78,96485,1,8,0:0:0:0:
391,97,96567,5,8,1:3:0:0:
345,130,96648,1,8,0:0:0:0:
291,143,96730,1,8,0:0:0:0:
237,131,96811,1,8,0:0:0:0:
192,98,96893,5,8,0:3:0:0:
158,73,96974,1,8,0:3:0:0:
120,64,97056,1,8,0:3:0:0:
80,72,97138,1,8,0:3:0:0:
48,97,97219,6,0,P|37:195|175:212,1,262.5,12|0,1:3|0:0,0:0:0:0:
116,153,97871,6,0,L|116:114,2,33.7499989700318,12|0|0,0:0|0:0|0:0,0:0:0:0:
273,47,98299,5,4,1:3:0:0:
273,47,98406,1,0,0:0:0:0:
273,47,98513,1,0,0:0:0:0:
239,154,99156,5,4,0:0:0:0:
239,154,99263,1,0,0:0:0:0:
239,154,99371,1,0,0:0:0:0:
130,181,99585,1,0,1:3:0:0:
101,287,99799,1,0,0:0:0:0:
208,260,100013,1,4,0:0:0:0:
316,234,100228,5,0,1:3:0:0:
316,234,100335,1,0,0:0:0:0:
316,234,100442,1,0,0:0:0:0:
400,151,100656,1,0,1:3:0:0:
473,314,100871,1,12,0:0:0:0:
398,236,101085,1,8,0:0:0:0:
316,234,101299,5,12,0:0:0:0:
316,234,101406,1,0,0:0:0:0:
316,234,101513,1,0,0:0:0:0:
235,153,101728,1,4,1:3:0:0:
154,73,101942,1,0,0:0:0:0:
68,131,102585,5,4,1:3:0:0:
68,131,102692,1,0,0:0:0:0:
68,131,102799,1,0,0:0:0:0:
150,210,103013,5,8,1:3:0:0:
40,241,103228,1,12,1:3:0:0:
260,241,103442,1,12,0:0:0:0:
384,39,103656,5,8,1:3:0:0:
385,221,103871,1,8,0:0:0:0:
463,84,104085,1,8,1:3:0:0:
305,175,104299,1,12,0:0:0:0:
463,175,104513,1,8,0:0:0:0:
305,84,104728,1,12,0:0:0:0:
389,130,105156,5,4,1:3:0:0:
76,78,106013,5,4,3:0:0:0:
76,78,106121,1,0,3:0:0:0:
76,78,106228,1,0,3:0:0:0:
238,272,106442,5,8,1:3:0:0:
233,111,106656,1,8,0:0:0:0:
97,196,106871,1,8,0:0:0:0:
293,193,107085,5,8,1:3:0:0:
293,193,107192,1,8,3:0:0:0:
293,193,107299,2,0,L|352:186,1,33.7499989700318,12|0,0:0|0:0,0:0:0:0:
486,171,107513,1,8,1:3:0:0:
226,86,107728,5,12,1:3:0:0:
49,197,107942,1,8,0:0:0:0:
232,296,108156,1,12,0:0:0:0:
183,161,111585,5,12,1:3:0:0:
123,108,111692,1,8,0:0:0:0:
108,185,111799,1,8,0:0:0:0:
207,73,112013,5,8,0:0:0:0:
173,246,112228,1,8,0:0:0:0:
37,126,112442,1,4,0:0:0:0:
368,96,113299,5,12,0:0:0:0:
368,96,113942,5,8,0:0:0:0:
342,73,114013,1,8,0:0:0:0:
364,48,114085,1,8,0:0:0:0:
389,70,114156,1,12,0:0:0:0:
381,172,114371,1,8,0:0:0:0:
492,13,114585,1,8,0:0:0:0:
221,55,114799,1,8,0:0:0:0:
218,268,115013,5,12,0:0:0:0:
241,340,115121,1,8,0:0:0:0:
294,280,115228,1,8,0:0:0:0:
151,330,115442,5,8,0:0:0:0:
265,195,115656,1,8,0:0:0:0:
326,365,115871,1,4,0:0:0:0:
97,107,116728,5,12,0:0:0:0:
97,107,117371,5,8,0:0:0:0:
165,152,117478,1,8,0:0:0:0:
114,26,117585,1,12,0:0:0:0:
29,52,117728,5,8,0:0:0:0:
16,139,117871,5,8,0:0:0:0:
86,192,118013,5,12,0:0:0:0:
414,126,118442,5,12,0:0:0:0:
397,52,118549,1,8,0:0:0:0:
339,107,118656,1,8,0:0:0:0:
486,70,118871,5,8,0:0:0:0:
360,194,119085,1,8,0:0:0:0:
314,19,119299,1,4,0:0:0:0:
338,316,120156,5,12,0:0:0:0:
338,316,120799,5,8,0:0:0:0:
340,281,120870,1,8,0:0:0:0:
373,283,120942,1,8,0:0:0:0:
371,317,121013,1,12,0:0:0:0:
285,372,121228,1,8,0:0:0:0:
478,365,121442,1,8,0:0:0:0:
282,173,121656,1,8,0:0:0:0:
93,331,121871,5,12,0:0:0:0:
35,281,121978,1,8,0:0:0:0:
111,255,122085,1,8,0:0:0:0:
9,368,122299,1,8,0:0:0:0:
45,192,122513,1,8,0:0:0:0:
178,315,122728,1,4,0:0:0:0:
255,207,123585,5,6,0:0:0:0:
255,207,124228,5,8,0:0:0:0:
178,230,124335,1,8,0:0:0:0:
234,282,124442,1,12,0:0:0:0:
190,118,124585,5,8,0:0:0:0:
136,324,124728,5,8,0:0:0:0:
339,268,124871,5,8,0:0:0:0:
104,204,125013,5,8,0:0:0:0:
256,356,125156,5,8,0:0:0:0:
308,150,125299,5,12,0:0:0:0:
230,169,125406,1,8,0:0:0:0:
292,220,125513,1,8,0:0:0:0:
246,81,125728,5,8,0:0:0:0:
208,256,125942,1,8,0:0:0:0:
378,198,126156,1,12,0:0:0:0:
67,141,127656,5,8,0:0:0:0:
34,126,127727,1,8,0:0:0:0:
48,96,127799,1,8,0:0:0:0:
78,109,127870,1,12,0:0:0:0:
100,209,128085,1,8,0:0:0:0:
222,19,128299,5,8,0:0:0:0:
228,88,128406,1,8,0:0:0:0:
235,161,128513,1,8,0:0:0:0:
349,313,128728,5,12,0:0:0:0:
355,244,128835,1,8,0:0:0:0:
362,171,128942,1,8,0:0:0:0:
242,234,129156,5,8,0:0:0:0:
369,98,129371,1,8,0:0:0:0:
423,275,129585,1,12,0:0:0:0:
98,288,130442,5,4,0:0:0:0:
98,288,131085,5,8,0:0:0:0:
52,220,131192,1,8,0:0:0:0:
52,356,131299,1,12,0:0:0:0:
141,364,131442,5,8,0:0:0:0:
186,288,131585,5,8,0:0:0:0:
141,213,131727,5,12,0:0:0:0:
400,329,132156,5,12,0:0:0:0:
342,279,132263,1,8,0:0:0:0:
418,253,132371,1,8,0:0:0:0:
316,366,132585,5,8,0:0:0:0:
485,313,132799,1,8,0:0:0:0:
352,190,133013,1,12,0:0:0:0:
478,240,134514,5,8,0:0:0:0:
469,274,134585,1,8,0:0:0:0:
501,281,134657,1,8,0:0:0:0:
509,250,134728,1,12,0:0:0:0:
443,172,134943,1,8,0:0:0:0:
365,363,135156,5,8,0:0:0:0:
359,294,135263,1,8,0:0:0:0:
352,221,135371,1,8,0:0:0:0:
267,248,135585,5,12,0:0:0:0:
273,179,135692,1,8,0:0:0:0:
280,106,135799,1,8,0:0:0:0:
186,142,136013,5,8,0:0:0:0:
179,69,136121,1,8,0:0:0:0:
173,0,136228,1,8,0:0:0:0:
96,192,136442,5,12,0:0:0:0:
89,265,136549,1,8,0:0:0:0:
83,334,136656,1,8,0:0:0:0:
9,131,136871,5,12,0:0:0:0:
51,80,136978,1,8,0:0:0:0:
116,69,137085,1,8,0:0:0:0:
172,103,137192,1,8,0:0:0:0:
193,165,137299,5,12,0:0:0:0:
226,205,137406,1,8,0:0:0:0:
278,213,137513,1,8,0:0:0:0:
323,186,137621,1,8,0:0:0:0:
340,137,137728,5,8,0:3:0:0:
377,153,137835,1,8,0:3:0:0:
395,191,137942,1,8,0:0:0:0:
384,232,138049,1,8,0:0:0:0:
349,256,138156,5,12,0:0:0:0:
347,237,138237,1,8,0:0:0:0:
346,218,138319,1,8,0:0:0:0:
345,199,138400,1,8,0:0:0:0:
321,179,138482,5,8,0:3:0:0:
322,160,138563,1,8,0:3:0:0:
323,141,138645,1,8,0:3:0:0:
324,122,138726,1,8,0:3:0:0:
325,104,138808,6,0,P|291:72|242:60,1,82.5000025177003,12|4,1:3|0:0,0:0:0:0:
77,163,139134,2,0,P|111:131|160:119,1,82.5000025177003,12|4,0:0|1:3,0:0:0:0:
347,222,139460,2,0,P|313:190|264:178,1,82.5000025177003,12|4,0:0|0:0,0:0:0:0:
98,280,139786,2,4,P|132:248|181:236,1,82.5000025177003,12|4,1:3|0:0,0:0:0:0:
444,288,140112,6,4,P|453:345|491:385,1,82.5000025177003,12|4,1:3|0:0,0:0:0:0:
350,237,140438,2,0,P|316:283|314:338,1,82.5000025177003,12|4,0:0|1:3,0:0:0:0:
306,134,140764,2,0,P|248:143|208:181,1,82.5000025177003,12|4,0:0|0:0,0:0:0:0:
356,39,141090,2,0,P|309:5|254:3,1,82.5000025177003,12|4,1:3|0:0,0:0:0:0:
35,27,141416,6,0,L|45:134,1,82.5000025177003,12|4,1:3|0:0,0:0:0:0:
137,102,141742,2,0,L|125:210,1,82.5000025177003,12|4,1:3|0:0,0:0:0:0:
34,200,142068,2,4,L|45:308,1,82.5000025177003,12|4,1:3|0:0,0:0:0:0:
136,275,142394,2,0,L|124:383,1,82.5000025177003,12|4,1:3|1:3,0:0:0:0:
295,348,142721,6,0,P|331:307|341:250,1,82.5000025177003,12|4,0:0|0:0,0:0:0:0:
274,99,143047,2,0,P|277:153|310:201,1,82.5000025177003,12|4,0:0|0:0,0:0:0:0:
472,244,143373,2,0,P|431:208|374:197,1,82.5000025177003,12|4,0:0|0:0,0:0:0:0:
229,288,143699,1,12,0:0:0:0:
95,182,143862,1,8,0:0:0:0:
95,182,143943,1,8,0:0:0:0:
95,182,144025,6,0,L|114:78,1,82.5000025177003,12|4,1:3|0:0,0:0:0:0:
188,29,144351,2,0,L|206:123,1,82.5000025177003,12|4,0:0|1:3,0:0:0:0:
284,195,144677,2,0,L|301:99,1,82.5000025177003,12|4,0:0|0:0,0:0:0:0:
377,42,145003,2,0,L|395:135,1,82.5000025177003,12|4,1:3|0:0,0:0:0:0:
282,331,145329,6,0,P|219:340|168:316,1,82.5000025177003,12|4,1:3|0:0,0:0:0:0:
189,107,145655,2,0,P|251:97|301:118,1,82.5000025177003,12|4,0:0|1:3,0:0:0:0:
122,266,145981,2,0,P|112:203|136:152,1,82.5000025177003,12|4,0:0|0:0,0:0:0:0:
346,173,146308,2,4,P|355:235|334:287,1,82.5000025177003,14|4,1:3|0:0,0:0:0:0:
122,266,146634,6,0,L|13:254,1,82.5000025177003,12|4,1:3|0:0,0:0:0:0:
198,178,146960,2,0,L|90:191,1,82.5000025177003,12|4,1:3|0:0,0:0:0:0:
295,284,147286,2,4,L|199:272,1,82.5000025177003,12|4,1:3|0:0,0:0:0:0:
16,183,147612,1,12,1:3:0:0:
292,93,147775,1,8,1:3:0:0:
149,41,147938,6,0,P|136:82|148:152,1,82.5000025177003,12|4,0:0|0:0,0:0:0:0:
213,273,148264,1,12,0:0:0:0:
292,93,148427,1,12,0:0:0:0:
39,105,148590,1,12,0:0:0:0:
203,192,148753,5,12,0:0:0:0:
39,279,148916,1,12,0:0:0:0:
203,366,149079,1,8,0:3:0:0:
203,366,149161,1,8,0:3:0:0:
203,366,149242,6,0,P|261:379|316:357,1,82.5000025177003,12|0,1:3|0:0,0:0:0:0:
410,285,149568,2,0,P|351:271|295:288,1,82.5000025177003,8|0,0:0|1:3,0:0:0:0:
88,276,149894,2,0,P|135:289|181:281,1,82.5000025177003,8|0,0:0|0:0,0:0:0:0:
294,195,150221,2,0,P|246:181|201:188,1,82.5000025177003,8|0,1:3|0:0,0:0:0:0:
63,175,150547,6,0,L|89:57,1,82.5000025177003,8|0,1:3|0:0,0:0:0:0:
185,110,150873,2,0,L|284:46,1,82.5000025177003,8|0,0:0|1:3,0:0:0:0:
354,110,151199,2,0,L|473:136,1,82.5000025177003,12|0,0:0|0:0,0:0:0:0:
296,286,151525,1,8,1:3:0:0:
185,110,151688,1,8,0:0:0:0:
84,259,151851,6,0,P|88:324|113:374,1,82.5000025177003,8|0,1:3|0:0,0:0:0:0:
233,250,152177,2,0,P|189:228|157:193,1,82.5000025177003,12|0,1:3|0:0,0:0:0:0:
185,110,152503,2,0,P|250:105|298:82,1,82.5000025177003,12|0,1:3|0:0,0:0:0:0:
408,14,152829,1,12,1:3:0:0:
330,206,152992,1,8,1:3:0:0:
471,90,153155,6,0,P|482:139|475:199,1,82.5000025177003,8|0,0:0|0:0,0:0:0:0:
241,355,153481,2,0,P|230:306|236:243,1,82.5000025177003,12|0,0:0|0:0,0:0:0:0:
274,157,153808,2,0,P|235:151|162:164,1,82.5000025177003,8|0,0:0|0:0,0:0:0:0:
16,325,154134,2,0,P|65:336|118:328,1,82.5000025177003,12|0,0:0|0:0,0:0:0:0:
375,250,154460,6,0,L|383:356,1,82.5000025177003,8|0,1:3|0:0,0:0:0:0:
292,177,154786,2,0,L|299:78,1,82.5000025177003,8|0,0:0|1:3,0:0:0:0:
212,250,155112,2,0,L|220:345,1,82.5000025177003,8|0,0:0|0:0,0:0:0:0:
292,177,155438,1,12,1:3:0:0:
101,239,155601,1,8,0:0:0:0:
163,49,155764,6,0,P|218:42|276:54,1,82.5000025177003,8|0,1:3|0:0,0:0:0:0:
476,133,156090,2,0,L|457:248,1,82.5000025177003,8|0,0:0|1:3,0:0:0:0:
420,348,156416,5,8,0:0:0:0:
372,366,156498,1,8,0:0:0:0:
321,364,156579,1,8,0:0:0:0:
277,337,156661,1,8,0:0:0:0:
249,294,156742,1,12,1:3:0:0:
211,235,156824,1,12,0:0:0:0:
151,199,156905,1,12,0:0:0:0:
83,198,156987,1,12,0:0:0:0:
17,220,157068,6,0,B|-29:175|-21:100|51:74|51:74|71:170|163:184|163:184|219:111|170:28,1,506.25,12|0,1:3|0:0,0:0:0:0:
175,38,159351,5,8,0:0:0:0:
354,246,159677,6,0,B|380:185|354:85|354:85|391:117|393:161,1,225.000008583069,12|4,1:3|1:3,0:0:0:0:
388,134,160981,5,12,0:0:0:0:
343,145,161144,1,8,0:0:0:0:
298,156,161308,1,8,0:0:0:0:
253,167,161471,1,8,0:3:0:0:
208,178,161634,1,8,0:0:0:0:
340,47,161797,1,12,0:0:0:0:
267,339,161960,1,12,0:0:0:0:
163,189,162123,1,8,0:0:0:0:
160,170,162204,1,8,0:0:0:0:
158,151,162286,6,0,B|132:212|158:312|158:312|121:280|119:236,1,225.000008583069,12|4,1:3|1:3,0:0:0:0:
279,76,163590,5,8,0:0:0:0:
319,87,163672,1,8,0:0:0:0:
348,117,163753,1,8,0:0:0:0:
360,157,163835,1,8,0:0:0:0:
351,197,163916,2,0,L|339:231,1,28.1250010728836,8|8,0:0|0:0,0:0:0:0:
175,287,164079,5,12,0:0:0:0:
166,246,164161,1,8,0:0:0:0:
176,206,164242,1,8,0:0:0:0:
205,175,164324,1,8,0:0:0:0:
245,163,164405,2,0,L|279:157,1,28.1250010728836,8|8,0:0|0:0,0:0:0:0:
411,270,164568,5,12,1:3:0:0:
379,298,164650,1,8,0:0:0:0:
340,309,164731,1,8,1:3:0:0:
299,300,164813,1,8,0:3:0:0:
268,271,164894,6,0,L|263:362,1,75,12|0,1:3|0:0,0:0:0:0:
161,171,165221,2,0,L|166:262,1,75,0|0,1:3|0:0,0:0:0:0:
282,45,165547,2,0,L|277:136,1,75,8|0,1:3|0:0,0:0:0:0:
122,0,165873,1,12,1:3:0:0:
375,90,166036,1,0,0:0:0:0:
161,171,166199,6,0,B|118:185|118:185|-2:171,1,150,12|0,1:3|0:0,0:0:0:0:
268,271,166851,2,0,B|311:257|311:257|431:271,1,150,12|0,1:3|0:0,0:0:0:0:
477,90,167503,5,12,0:0:0:0:
415,269,167666,1,12,0:0:0:0:
385,78,167829,2,0,L|383:117,1,37.5,8|8,0:0|0:0,0:0:0:0:
365,333,167992,1,12,0:0:0:0:
291,98,168155,5,12,0:0:0:0:
261,289,168318,2,0,L|259:250,1,37.5,8|8,0:0|0:0,0:0:0:0:
241,34,168481,1,12,1:3:0:0:
174,289,168644,5,12,0:0:0:0:
144,98,168808,2,0,L|142:137,1,37.5,8|8,1:3|0:0,0:0:0:0:
124,353,168971,1,12,0:0:0:0:
50,118,169134,5,12,1:3:0:0:
20,309,169297,2,0,L|18:270,1,37.5,8|8,0:0|0:0,0:0:0:0:
0,54,169460,1,8,1:3:0:0:
277,34,170112,6,4,P|299:94|425:125,1,168.750006437302,12|0,1:3|0:0,0:0:0:0:
389,135,170438,2,0,P|431:91|493:83,1,112.500004291535,12|0,1:3|1:3,0:0:0:0:
266,237,170764,1,8,1:3:0:0:
482,185,170927,1,8,0:0:0:0:
277,34,171090,2,0,L|150:30,1,112.500004291535,12|0,1:3|1:3,0:0:0:0:
39,180,171416,5,8,0:0:0:0:
164,30,171579,1,8,0:0:0:0:
266,237,171742,2,0,L|256:358,1,112.500004291535,12|0,0:0|0:0,0:0:0:0:
159,147,172068,1,8,0:0:0:0:
367,240,172231,1,8,0:0:0:0:
136,377,172394,2,0,L|23:362,1,112.500004291535,12|0,0:0|0:0,0:0:0:0:
185,211,172721,6,0,P|234:172|345:191,1,168.750006437302,8|0,1:3|0:0,0:0:0:0:
377,279,173047,2,0,P|338:232|342:158,1,112.500004291535,12|0,1:3|0:0,0:0:0:0:
398,64,173373,2,0,P|458:54|504:-2,1,112.500004291535,8|8,1:3|0:0,0:0:0:0:
434,201,173699,1,12,1:3:0:0:
280,70,173862,2,0,L|153:80,1,112.500004291535,0|8,1:3|0:0,0:0:0:0:
1,145,174188,5,8,0:0:0:0:
324,232,174351,1,12,1:3:0:0:
43,307,174514,1,8,0:0:0:0:
280,70,174677,1,12,1:3:0:0:
208,353,174840,1,8,0:0:0:0:
119,27,175003,1,12,1:3:0:0:
154,230,175166,1,8,0:0:0:0:
154,230,175248,1,0,0:0:0:0:
154,230,175329,6,0,P|210:203|234:138,1,112.500004291535,12|8,1:3|0:0,0:0:0:0:
378,136,175655,2,0,P|350:88|356:33,1,112.500004291535,12|0,1:3|0:0,0:0:0:0:
453,66,175981,1,8,1:3:0:0:
203,176,176144,1,8,0:0:0:0:
353,374,176308,2,0,L|348:232,1,112.500004291535,12|0,1:3|1:3,0:0:0:0:
381,56,176634,5,8,0:0:0:0:
205,228,176797,1,8,0:0:0:0:
386,351,176960,2,0,L|336:230,1,97.4999955368044,12|0,1:3|0:0,0:0:0:0:
313,67,177286,1,8,1:3:0:0:
220,267,177449,1,8,0:0:0:0:
404,322,177612,2,0,L|326:235,1,82.5000025177003,12|0,1:3|1:3,0:0:0:0:
258,99,177938,5,8,0:0:0:0:
241,298,178101,1,8,0:0:0:0:
408,292,178264,2,0,L|321:245,1,67.4999979400635,12|0,0:0|0:0,0:0:0:0:
163,156,178590,1,8,0:0:0:0:
241,298,178753,1,8,0:0:0:0:
395,98,178916,5,12,0:3:0:0:
66,172,179079,1,8,0:0:0:0:
66,172,179161,1,8,0:0:0:0:
66,172,179242,1,12,1:3:0:0:
376,305,179405,1,8,0:0:0:0:
204,16,179568,1,12,1:3:0:0:
174,351,179731,1,8,0:3:0:0:
221,165,179894,5,8,0:0:0:0:
266,123,179975,1,8,0:0:0:0:
325,107,180057,1,8,0:0:0:0:
385,120,180138,1,8,0:0:0:0:
432,159,180220,5,8,0:0:0:0:
398,185,180302,1,8,0:0:0:0:
381,224,180383,1,8,0:0:0:0:
384,267,180465,1,8,0:0:0:0:
408,301,180547,5,12,1:3:0:0:
294,132,180710,1,8,0:0:0:0:
268,270,180873,1,8,0:0:0:0:
432,159,181036,1,8,0:0:0:0:
207,187,181199,2,0,L|252:198,1,37.5,12|0,0:0|0:0,0:0:0:0:
490,242,181362,1,8,0:0:0:0:
374,98,181525,1,8,0:0:0:0:
329,328,181688,1,8,0:0:0:0:
244,196,181851,5,12,0:0:0:0:
320,367,182014,1,8,0:0:0:0:
414,114,182177,1,8,0:0:0:0:
493,286,182340,1,8,0:0:0:0:
284,279,182503,2,0,L|321:295,1,37.5,12|0,0:0|0:0,0:0:0:0:
406,326,182666,1,8,0:0:0:0:
327,155,182829,1,8,0:0:0:0:
452,201,182992,1,8,0:0:0:0:
214,255,183155,5,12,0:0:0:0:
89,85,183318,1,8,0:0:0:0:
211,124,183481,1,8,0:0:0:0:
89,293,183644,1,8,0:0:0:0:
15,188,183808,2,0,L|73:168,1,37.5,12|0,0:0|0:0,0:0:0:0:
211,124,183971,1,8,0:0:0:0:
135,319,184134,1,8,0:0:0:0:
135,59,184297,1,8,0:0:0:0:
237,235,184460,5,12,0:0:0:0:
311,67,184623,1,8,0:0:0:0:
211,124,184786,1,8,0:0:0:0:
348,246,184949,2,0,L|292:240,1,37.5,12|0,0:0|0:0,0:0:0:0:
128,203,185112,1,8,0:0:0:0:
311,67,185275,2,0,L|314:114,1,37.5,12|0,0:0|0:0,0:0:0:0:
348,246,185438,2,0,L|351:199,1,37.5,12|0,0:0|0:0,0:0:0:0:
420,10,185601,1,8,0:0:0:0:
350,208,185764,5,12,0:0:0:0:
319,235,185846,1,8,0:0:0:0:
280,246,185927,1,8,0:0:0:0:
240,239,186009,1,8,0:0:0:0:
208,214,186090,1,8,0:0:0:0:
177,186,186172,1,8,0:0:0:0:
138,175,186253,1,8,0:0:0:0:
98,182,186335,1,8,0:0:0:0:
66,207,186416,5,8,0:0:0:0:
104,193,186498,1,8,0:0:0:0:
144,200,186579,1,8,0:0:0:0:
175,227,186661,1,8,0:0:0:0:
188,265,186742,1,8,0:0:0:0:
181,305,186824,1,8,0:0:0:0:
154,336,186905,1,8,0:0:0:0:
115,349,186987,1,8,0:0:0:0:
75,340,187068,5,8,0:0:0:0:
112,318,187150,1,8,0:0:0:0:
154,310,187231,1,8,0:0:0:0:
196,318,187313,1,8,0:0:0:0:
233,340,187394,1,8,0:0:0:0:
270,361,187476,1,8,0:0:0:0:
312,369,187558,1,8,0:0:0:0:
354,361,187639,1,8,0:0:0:0:
391,339,187721,5,8,0:0:0:0:
352,320,187802,1,8,0:0:0:0:
333,283,187884,1,8,0:0:0:0:
339,241,187965,1,8,0:0:0:0:
369,211,188047,1,8,0:0:0:0:
407,192,188128,1,8,0:0:0:0:
426,155,188210,1,8,0:0:0:0:
420,113,188291,1,8,0:0:0:0:
386,79,188373,5,12,0:0:0:0:
431,67,188454,1,8,0:0:0:0:
475,81,188536,1,8,0:0:0:0:
505,116,188617,1,8,0:0:0:0:
512,161,188699,1,12,0:0:0:0:
496,204,188780,1,8,0:0:0:0:
458,231,188862,1,8,0:0:0:0:
412,235,188943,1,8,0:0:0:0:
369,211,189025,5,12,0:0:0:0:
323,221,189106,1,8,0:0:0:0:
282,199,189188,1,8,0:0:0:0:
236,209,189269,1,8,0:0:0:0:
193,190,189351,1,12,0:0:0:0:
147,200,189432,1,8,0:0:0:0:
105,175,189514,1,8,0:0:0:0:
59,185,189595,1,8,0:0:0:0:
17,160,189677,5,8,0:0:0:0:
27,111,189758,1,8,0:0:0:0:
59,72,189840,1,8,0:0:0:0:
106,53,189921,1,8,0:0:0:0:
155,57,190003,1,8,0:0:0:0:
198,84,190084,1,8,0:0:0:0:
223,127,190166,1,8,0:0:0:0:
225,177,190247,1,8,0:0:0:0:
204,223,190329,5,8,0:0:0:0:
165,171,190411,1,8,0:0:0:0:
108,149,190492,1,8,0:0:0:0:
46,165,190574,1,8,0:0:0:0:
7,212,190655,1,8,0:0:0:0:
0,273,190737,1,8,0:0:0:0:
28,327,190818,1,8,0:0:0:0:
82,358,190900,1,8,0:0:0:0:
147,354,190981,6,0,B|199:335|243:376|243:376|253:312|173:300|202:223|202:223|123:209|135:132|135:132|192:75|249:135|249:135|266:72|225:28|225:28|135:12|82:74|82:74|59:24|2:18,1,899.999972534181,12|0,0:0|0:0,0:0:0:0:
