osu file format v14

[General]
AudioFilename: audio.mp3
AudioLeadIn: 0
PreviewTime: 159596
Countdown: 0
SampleSet: Drum
StackLeniency: 0.6
Mode: 0
LetterboxInBreaks: 0
WidescreenStoryboard: 1

[Editor]
DistanceSpacing: 1.8
BeatDivisor: 4
GridSize: 16
TimelineZoom: 2.599999

[Metadata]
Title:Sad spring
TitleUnicode:Sad spring
Artist:Draw the Emotional
ArtistUnicode:Draw the Emotional
Creator:Resurreccion
Version:Akitoshi's Expert
Source:東方妖々夢 ~ Perfect Cherry Blossom.
Tags:touhou doujin Seni Akitoshi -Laura- Corinn Seated with Liquor ゆよゆっぺ yuyoyuppe ルシュカ Luschka neko 幽雅に咲かせ、墨染の桜 ~ Border of Life yuuga ni sakase, sumizome no sakura bloom nobly, ink-black ink black cherry blossom stage 6 ネクロファンタジア Necrofantasia comiket 83 c83 saigyouji yuyuko yukari yakumo video game japanese rock metal 東方project project zun team shanghai alice pcb th07 th 07 youyoumu 妖々夢 ghostly dream phantasm stage yukari yakumo 八雲 紫 foreground eclipse
BeatmapID:2094186
BeatmapSetID:994604

[Difficulty]
HPDrainRate:6
CircleSize:4
OverallDifficulty:8.6
ApproachRate:9.3
SliderMultiplier:1.6
SliderTickRate:1

[Events]
//Background and Video events
0,0,"Seni pic.png",0,0
//Break Periods
2,98071,111031
//Storyboard Layer 0 (Background)
//Storyboard Layer 1 (Fail)
//Storyboard Layer 2 (Pass)
//Storyboard Layer 3 (Foreground)
//Storyboard Layer 4 (Overlay)
//Storyboard Sound Samples

[TimingPoints]
1350,326.086956521739,4,3,2,70,1,0
1676,-100,4,3,6,70,0,0
1839,-100,4,3,11,70,0,0
2165,-100,4,3,6,70,0,0
2328,-100,4,3,2,70,0,0
2654,-100,4,3,6,70,0,0
2817,-100,4,3,11,70,0,0
2980,-100,4,3,6,70,0,0
3143,-100,4,3,2,70,0,0
3306,-100,4,3,5,70,0,0
3632,-100,4,3,1,70,0,0
3795,-100,4,3,11,70,0,0
3958,-200,4,3,9,60,0,0
4610,-200,4,3,1,60,0,0
6241,-200,4,3,5,60,0,0
6322,-200,4,3,5,5,0,0
6404,-200,4,3,5,60,0,0
6485,-200,4,3,5,5,0,0
6567,-200,4,3,9,60,0,0
7219,-200,4,3,1,60,0,0
8523,-200,4,3,2,60,0,0
8686,-200,4,3,5,60,0,0
9013,-200,4,3,6,60,0,0
9176,-200,4,3,5,60,0,0
10480,-200,4,3,2,60,0,0
11295,-200,4,3,6,60,0,0
11621,-200,4,3,2,60,0,0
11784,-125,4,3,6,60,0,0
12273,-125,4,3,2,60,0,0
12355,-125,4,3,6,60,0,0
13252,-125,4,3,2,60,0,0
13333,-125,4,3,6,60,0,0
13415,-125,4,3,11,60,0,0
13578,-125,4,3,5,60,0,0
13741,-66.6666666666667,4,3,1,60,0,0
14311,-66.6666666666667,4,3,1,5,0,0
14393,-100,4,3,9,80,0,0
14474,-100,4,3,6,80,0,0
15045,-100,4,3,2,80,0,0
15127,-100,4,3,6,80,0,0
16349,-100,4,3,2,80,0,0
16431,-100,4,3,6,80,0,0
17654,-100,4,3,2,80,0,0
17735,-100,4,3,6,80,0,0
18958,-100,4,3,2,80,0,0
19040,-100,4,3,6,80,0,0
19284,-100,4,3,2,80,0,0
19447,-100,4,3,11,80,0,0
19610,-100,4,3,9,80,0,0
19692,-100,4,3,6,80,0,0
20263,-100,4,3,2,80,0,0
20344,-100,4,3,6,80,0,0
21567,-100,4,3,2,80,0,0
21648,-100,4,3,6,80,0,0
22871,-100,4,3,2,80,0,0
22953,-100,4,3,6,80,0,0
23523,-100,4,3,6,80,0,0
24176,-100,4,3,2,80,0,0
24339,-100,4,3,6,80,0,0
24502,-100,4,3,2,80,0,0
24828,-100,4,3,9,80,0,0
24909,-100,4,3,1,80,0,0
25643,-100,4,3,5,80,0,0
25806,-100,4,3,1,80,0,0
25969,-100,4,3,5,80,0,0
26132,-100,4,3,1,80,0,0
26295,-100,4,3,5,80,0,0
26458,-100,4,3,1,80,0,0
26784,-100,4,3,5,80,0,0
27110,-100,4,3,1,80,0,0
27436,-100,4,3,5,80,0,0
27763,-100,4,3,1,80,0,0
28252,-100,4,3,5,80,0,0
28415,-100,4,3,1,80,0,0
28578,-100,4,3,5,80,0,0
29067,-100,4,3,1,80,0,0
29393,-100,4,3,5,80,0,0
29719,-100,4,3,1,80,0,0
29882,-100,4,3,11,80,0,0
29964,-100,4,3,12,80,0,0
30045,-100,4,3,9,80,0,0
30127,-100,4,3,1,80,0,0
30860,-100,4,3,5,80,0,0
31023,-100,4,3,1,80,0,0
31186,-100,4,3,5,80,0,0
31349,-100,4,3,1,80,0,0
31513,-100,4,3,5,80,0,0
31676,-100,4,3,1,80,0,0
32002,-100,4,3,5,80,0,0
32328,-100,4,3,1,80,0,0
32654,-100,4,3,5,80,0,0
32980,-100,4,3,1,80,0,0
33469,-100,4,3,5,80,0,0
33632,-100,4,3,1,80,0,0
33795,-100,4,3,5,80,0,0
34284,-100,4,3,1,80,0,0
34447,-100,4,3,5,80,0,0
34610,-100,4,3,2,80,0,0
34773,-100,4,3,6,80,0,0
34936,-100,4,3,12,70,0,0
35099,-100,4,3,7,70,0,0
35263,-111.111111111111,4,3,6,60,0,0
36567,-111.111111111111,4,3,2,60,0,0
36730,-111.111111111111,4,3,6,60,0,0
39176,-111.111111111111,4,3,2,60,0,0
39339,-111.111111111111,4,3,6,60,0,0
39665,-111.111111111111,4,3,11,60,0,0
39828,-111.111111111111,4,3,6,60,0,0
39991,-111.111111111111,4,3,2,60,0,0
40154,-111.111111111111,4,3,6,60,0,0
40317,-111.111111111111,4,3,2,60,0,0
40480,-111.111111111111,4,3,6,60,0,0
41784,-111.111111111111,4,3,2,60,0,0
41947,-111.111111111111,4,3,6,60,0,0
42436,-111.111111111111,4,3,2,60,0,0
42599,-111.111111111111,4,3,6,60,0,0
42763,-111.111111111111,4,3,2,60,0,0
42926,-111.111111111111,4,3,6,60,0,0
43089,-166.666666666667,4,3,2,60,0,0
43170,-166.666666666667,4,3,4,60,0,0
45371,-66.6666666666667,4,3,9,60,0,0
45697,-83.3333333333333,4,3,5,90,0,1
46023,-83.3333333333333,4,3,1,90,0,1
46349,-83.3333333333333,4,3,5,90,0,1
46676,-83.3333333333333,4,3,1,90,0,1
47002,-83.3333333333333,4,3,5,90,0,1
47328,-83.3333333333333,4,3,1,90,0,1
47654,-83.3333333333333,4,3,5,90,0,1
47980,-83.3333333333333,4,3,1,90,0,1
48306,-83.3333333333333,4,3,5,90,0,1
48632,-83.3333333333333,4,3,1,90,0,1
48958,-83.3333333333333,4,3,5,90,0,1
49284,-83.3333333333333,4,3,1,90,0,1
49610,-83.3333333333333,4,3,5,90,0,1
49936,-83.3333333333333,4,3,2,90,0,1
50099,-83.3333333333333,4,3,6,90,0,1
50263,-83.3333333333333,4,3,2,90,0,1
50426,-83.3333333333333,4,3,6,90,0,1
50589,-83.3333333333333,4,3,2,90,0,1
50752,-83.3333333333333,4,3,6,90,0,1
50915,-83.3333333333333,4,3,9,90,0,1
50996,-83.3333333333333,4,3,5,90,0,1
51241,-83.3333333333333,4,3,1,90,0,1
51567,-83.3333333333333,4,3,5,90,0,1
51893,-83.3333333333333,4,3,1,90,0,1
52219,-83.3333333333333,4,3,5,90,0,1
52545,-83.3333333333333,4,3,1,90,0,1
52871,-83.3333333333333,4,3,5,90,0,1
53197,-83.3333333333333,4,3,1,90,0,1
53523,-83.3333333333333,4,3,5,90,0,1
53849,-83.3333333333333,4,3,1,90,0,1
54176,-83.3333333333333,4,3,5,90,0,1
54502,-83.3333333333333,4,3,2,90,0,1
54665,-83.3333333333333,4,3,6,90,0,1
54828,-83.3333333333333,4,3,2,90,0,1
54991,-83.3333333333333,4,3,6,90,0,1
55154,-83.3333333333333,4,3,2,90,0,1
55317,-83.3333333333333,4,3,6,90,0,1
55480,-83.3333333333333,4,3,1,100,0,1
55643,-83.3333333333333,4,3,5,100,0,1
56051,-83.3333333333333,4,3,1,90,0,1
56132,-83.3333333333333,4,3,9,90,0,1
56214,-83.3333333333333,4,3,6,90,0,1
56295,-83.3333333333333,4,3,6,90,0,1
56458,-83.3333333333333,4,3,6,90,0,1
56784,-83.3333333333333,4,3,2,90,0,1
56947,-83.3333333333333,4,3,6,90,0,1
58089,-83.3333333333333,4,3,2,90,0,1
58252,-83.3333333333333,4,3,6,90,0,1
58741,-83.3333333333333,4,3,9,90,0,1
58822,-83.3333333333333,4,3,6,90,0,1
58904,-83.3333333333333,4,3,6,90,0,1
59067,-83.3333333333333,4,3,6,90,0,1
59393,-83.3333333333333,4,3,2,90,0,1
59556,-83.3333333333333,4,3,6,90,0,1
60534,-83.3333333333333,4,3,2,90,0,1
60697,-83.3333333333333,4,3,6,90,0,1
60860,-83.3333333333333,4,3,2,90,0,1
61186,-83.3333333333333,4,3,6,90,0,1
61349,-83.3333333333333,4,3,5,90,0,1
62654,-83.3333333333333,4,3,6,90,0,1
63143,-83.3333333333333,4,3,2,90,0,1
63224,-83.3333333333333,4,3,6,90,0,1
63469,-83.3333333333333,4,3,2,90,0,1
63551,-83.3333333333333,4,3,6,90,0,1
63632,-83.3333333333333,4,3,2,90,0,1
63714,-83.3333333333333,4,3,6,90,0,1
63958,-83.3333333333333,4,3,2,90,0,1
64121,-83.3333333333333,4,3,6,90,0,1
64284,-83.3333333333333,4,3,2,90,0,1
64447,-83.3333333333333,4,3,6,90,0,1
64610,-83.3333333333333,4,3,2,90,0,1
65263,-83.3333333333333,4,3,6,90,0,1
65426,-83.3333333333333,4,3,2,90,0,1
65752,-83.3333333333333,4,3,6,90,0,1
65915,-83.3333333333333,4,3,11,90,0,1
66078,-83.3333333333333,4,3,5,90,0,1
66241,-83.3333333333333,4,3,1,90,0,1
66567,-100,4,3,6,80,0,0
67219,-100,4,3,2,80,0,0
67301,-100,4,3,6,80,0,0
68523,-100,4,3,2,80,0,0
68605,-100,4,3,6,80,0,0
69828,-100,4,3,2,80,0,0
69909,-100,4,3,6,80,0,0
70480,-100,4,3,2,80,0,0
70561,-100,4,3,6,80,0,0
71132,-100,4,3,2,80,0,0
71214,-100,4,3,6,80,0,0
71458,-100,4,3,2,80,0,0
71621,-100,4,3,12,80,0,0
71784,-100,4,3,6,80,0,0
72436,-100,4,3,2,80,0,0
72518,-100,4,3,6,80,0,0
73741,-100,4,3,2,80,0,0
73822,-100,4,3,6,80,0,0
74393,-100,4,3,2,80,0,0
74474,-100,4,3,6,80,0,0
74719,-100,4,3,2,80,0,0
74882,-100,4,3,6,80,0,0
75045,-100,4,3,2,80,0,0
75127,-100,4,3,6,80,0,0
75371,-100,4,3,2,80,0,0
75534,-100,4,3,6,80,0,0
75697,-100,4,3,2,80,0,0
75860,-100,4,3,6,80,0,0
76023,-100,4,3,12,70,0,0
76186,-100,4,3,5,70,0,0
76349,-142.857142857143,4,3,1,70,0,0
76920,-142.857142857143,4,3,1,5,0,0
77002,-111.111111111111,4,3,9,60,0,0
77083,-111.111111111111,4,3,6,60,0,0
78306,-111.111111111111,4,3,2,60,0,0
79284,-111.111111111111,4,3,6,60,0,0
80915,-111.111111111111,4,3,2,60,0,0
81730,-111.111111111111,4,3,6,60,0,0
83523,-111.111111111111,4,3,2,60,0,0
84502,-111.111111111111,4,3,6,60,0,0
86132,-111.111111111111,4,3,2,60,0,0
86295,-111.111111111111,4,3,6,60,0,0
86458,-111.111111111111,4,3,2,60,0,0
86621,-111.111111111111,4,3,6,60,0,0
86784,-111.111111111111,4,3,1,60,0,0
86866,-111.111111111111,4,3,11,60,0,0
86947,-111.111111111111,4,3,5,60,0,0
87110,-111.111111111111,4,3,1,60,0,0
87273,-111.111111111111,4,3,5,60,0,0
87436,-100,4,3,9,60,0,0
87518,-100,4,3,1,5,0,0
87599,-100,4,3,1,60,0,0
88089,-100,4,3,5,60,0,0
88415,-100,4,3,1,60,0,0
88741,-100,4,3,5,60,0,0
89067,-100,4,3,1,60,0,0
89311,-100,4,3,1,5,0,0
89393,-100,4,3,5,60,0,0
89719,-100,4,3,1,60,0,0
90045,-100,4,3,5,60,0,0
90371,-100,4,3,1,60,0,0
90697,-100,4,3,5,60,0,0
91023,-100,4,3,1,60,0,0
91349,-100,4,3,5,60,0,0
91594,-100,4,3,1,5,0,0
91676,-100,4,3,1,60,0,0
91757,-100,4,3,1,5,0,0
91839,-100,4,3,5,60,0,0
92002,-100,4,3,2,60,0,0
92165,-100,4,3,6,60,0,0
92328,-100,4,3,2,60,0,0
92491,-100,4,3,6,60,0,0
92654,-100,4,3,1,45,0,0
95181,-100,4,3,1,45,0,0
95263,-100,4,3,2,80,0,0
95426,-100,4,3,6,80,0,0
95589,-100,4,3,2,80,0,0
95915,-100,4,3,6,80,0,0
96078,-100,4,3,2,80,0,0
96404,-100,4,3,6,80,0,0
96567,-100,4,3,2,80,0,0
96730,-100,4,3,6,80,0,0
96893,-100,4,3,12,80,0,0
97056,-100,4,3,5,80,0,0
97219,-125,4,3,1,60,0,0
97790,-125,4,3,1,5,0,0
97871,428.571428571429,4,3,7,60,1,0
98299,-100,4,3,1,60,0,0
101085,-100,4,3,5,60,0,0
101299,-100,4,3,6,60,0,0
101406,-100,4,3,1,60,0,0
103013,-100,4,3,5,60,0,0
103228,-100,4,3,2,60,0,0
103656,-100,4,3,6,60,0,0
103871,-100,4,3,11,60,0,0
103978,-100,4,3,6,60,0,0
104299,-100,4,3,2,60,0,0
104513,-100,4,3,6,60,0,0
104728,-100,4,3,7,60,0,0
104835,-100,4,3,1,60,0,0
106656,-100,4,3,5,60,0,0
106871,-100,4,3,11,60,0,0
106978,-100,4,3,6,60,0,0
107299,-100,4,3,2,60,0,0
107513,-100,4,3,6,60,0,0
107728,-100,4,3,2,60,0,0
107942,-100,4,3,6,60,0,0
108156,-100,4,3,2,60,0,0
111585,-100,4,3,9,80,0,0
111692,-100,4,3,6,80,0,0
112442,-100,4,3,2,80,0,0
113942,-100,4,3,6,80,0,0
115871,-100,4,3,2,80,0,0
117371,-100,4,3,6,80,0,0
117585,-100,4,3,2,80,0,0
117728,-100,4,3,6,80,0,0
118013,-100,4,3,2,80,0,0
118335,-100,4,3,1,5,0,0
118442,-100,4,3,9,80,0,0
118549,-100,4,3,6,80,0,0
119299,-100,4,3,2,80,0,0
120799,-100,4,3,6,80,0,0
122728,-100,4,3,2,80,0,0
124228,-100,4,3,6,80,0,0
124442,-100,4,3,2,80,0,0
124585,-100,4,3,6,80,0,0
125013,-100,4,3,2,80,0,0
125085,-100,4,3,2,80,0,0
125156,-100,4,3,2,80,0,0
125228,-100,4,3,2,80,0,0
125299,-100,4,3,9,80,0,0
125406,-100,4,3,6,80,0,0
126156,-100,4,3,2,80,0,0
127656,-100,4,3,6,80,0,0
128728,-100,4,3,2,80,0,0
128835,-100,4,3,6,80,0,0
129585,-100,4,3,2,80,0,0
131085,-100,4,3,6,80,0,0
131299,-100,4,3,2,80,0,0
131442,-100,4,3,6,80,0,0
131728,-100,4,3,2,80,0,0
132049,-100,4,3,2,5,0,0
132156,-100,4,3,9,80,0,0
132263,-100,4,3,6,80,0,0
133013,-100,4,3,2,80,0,0
134513,-100,4,3,6,80,0,0
136442,-100,4,3,2,80,0,0
136549,-100,4,3,6,80,0,0
136871,-100,4,3,2,80,0,0
136978,-100,4,3,6,80,0,0
137299,-100,4,3,2,80,0,0
137513,-100,4,3,6,80,0,0
137728,-100,4,3,11,80,0,0
137942,-100,4,3,5,80,0,0
138156,326.086956521739,4,3,1,70,1,0
138319,-100,4,3,5,70,0,0
138482,-100,4,3,12,60,0,0
138808,326.086956521739,4,3,7,60,1,0
138808,-125,4,3,7,60,0,0
138889,-125,4,3,4,60,0,0
139134,-125,4,3,8,60,0,0
139297,-125,4,3,4,60,0,0
139460,-125,4,3,8,60,0,0
139623,-125,4,3,4,60,0,0
139786,-125,4,3,8,60,0,0
139949,-125,4,3,4,60,0,0
140112,-125,4,3,8,60,0,0
140275,-125,4,3,4,60,0,0
140438,-125,4,3,8,60,0,0
140601,-125,4,3,4,60,0,0
140764,-125,4,3,8,60,0,0
140927,-125,4,3,4,60,0,0
141090,-125,4,3,8,60,0,0
141253,-125,4,3,1,60,0,0
141416,-125,4,3,8,60,0,0
141579,-125,4,3,4,60,0,0
141742,-125,4,3,8,60,0,0
141905,-125,4,3,4,60,0,0
142068,-125,4,3,8,60,0,0
142231,-125,4,3,4,60,0,0
142394,-125,4,3,8,60,0,0
142558,-125,4,3,4,60,0,0
142721,-125,4,3,8,60,0,0
142884,-125,4,3,4,60,0,0
143047,-125,4,3,8,60,0,0
143210,-125,4,3,4,60,0,0
143373,-125,4,3,8,60,0,0
143536,-125,4,3,4,60,0,0
143699,-125,4,3,2,60,0,0
143862,-125,4,3,12,60,0,0
143943,-125,4,3,11,60,0,0
144025,-125,4,3,7,60,0,0
144106,-125,4,3,4,60,0,0
144351,-125,4,3,8,60,0,0
144514,-125,4,3,4,60,0,0
144677,-125,4,3,8,60,0,0
144840,-125,4,3,4,60,0,0
145003,-125,4,3,8,60,0,0
145166,-125,4,3,4,60,0,0
145329,-125,4,3,8,60,0,0
145492,-125,4,3,4,60,0,0
145655,-125,4,3,8,60,0,0
145818,-125,4,3,4,60,0,0
145981,-125,4,3,8,60,0,0
146144,-125,4,3,4,60,0,0
146308,-125,4,3,8,60,0,0
146471,-125,4,3,1,60,0,0
146634,-125,4,3,8,60,0,0
146797,-125,4,3,4,60,0,0
146960,-125,4,3,8,60,0,0
147123,-125,4,3,4,60,0,0
147286,-125,4,3,8,60,0,0
147449,-125,4,3,4,60,0,0
147612,-125,4,3,8,60,0,0
147775,-125,4,3,4,60,0,0
147938,-125,4,3,8,60,0,0
148101,-125,4,3,4,60,0,0
148264,-125,4,3,8,60,0,0
148427,-125,4,3,4,60,0,0
148590,-125,4,3,8,60,0,0
148753,-125,4,3,4,60,0,0
149079,-125,4,3,12,60,0,0
149161,-125,4,3,11,60,0,0
149242,-100,4,3,7,60,0,0
149324,-100,4,3,8,60,0,0
151688,-100,4,3,4,60,0,0
151851,-100,4,3,8,60,0,0
152992,-100,4,3,4,60,0,0
153155,-100,4,3,8,60,0,0
153481,-100,4,3,4,60,0,0
153808,-100,4,3,8,60,0,0
154134,-100,4,3,2,60,0,0
154215,-100,4,3,8,60,0,0
154378,-100,4,3,8,60,0,0
154460,-100,4,3,8,60,0,0
154786,-100,4,3,4,60,0,0
155112,-100,4,3,8,60,0,0
155601,-100,4,3,4,60,0,0
155764,-100,4,3,8,60,0,0
156090,-100,4,3,4,60,0,0
156579,-100,4,3,8,60,0,0
156742,-100,4,3,4,60,0,0
157068,-100,4,3,9,80,0,0
157150,-100,4,3,1,5,0,0
159351,-66.6666666666667,4,3,1,90,0,0
159514,-66.6666666666667,4,3,1,5,0,0
159677,-166.666666666667,4,3,7,90,0,0
159759,-166.666666666667,4,3,2,90,0,0
161144,-166.666666666667,4,3,6,90,0,0
161471,-166.666666666667,4,3,11,90,0,0
161634,-166.666666666667,4,3,6,90,0,0
161797,-166.666666666667,4,3,2,90,0,0
162123,-166.666666666667,4,3,6,90,0,0
162286,-166.666666666667,4,3,7,90,0,0
162367,-166.666666666667,4,3,2,90,0,0
163916,-166.666666666667,4,3,6,60,0,0
164079,-166.666666666667,4,3,2,60,0,0
164405,-166.666666666667,4,3,6,60,0,0
164568,-166.666666666667,4,3,2,60,0,0
164731,-166.666666666667,4,3,12,60,0,0
164894,-166.666666666667,4,3,9,60,0,0
164976,-166.666666666667,4,3,6,60,0,0
167503,-100,4,3,2,60,0,0
167829,-100,4,3,6,60,0,0
167992,-100,4,3,2,60,0,0
168318,-100,4,3,6,60,0,0
168481,-100,4,3,2,60,0,0
168808,-100,4,3,6,60,0,0
168971,-100,4,3,2,60,0,0
169297,-100,4,3,6,60,0,0
169460,-142.857142857143,4,3,12,60,0,0
170030,-142.857142857143,4,3,1,5,0,0
170112,-83.3333333333333,4,3,9,90,0,1
170193,-83.3333333333333,4,3,1,90,0,1
170275,-83.3333333333333,4,3,5,90,0,1
170438,-83.3333333333333,4,3,1,90,0,1
170601,-83.3333333333333,4,3,5,90,0,1
171090,-83.3333333333333,4,3,1,90,0,1
171416,-83.3333333333333,4,3,5,90,0,1
171742,-83.3333333333333,4,3,1,90,0,1
172068,-83.3333333333333,4,3,5,90,0,1
172394,-83.3333333333333,4,3,1,90,0,1
172721,-83.3333333333333,4,3,5,90,0,1
172965,-83.3333333333333,4,3,1,5,0,1
173047,-83.3333333333333,4,3,1,90,0,1
173373,-83.3333333333333,4,3,5,90,0,1
173699,-83.3333333333333,4,3,1,90,0,1
174025,-83.3333333333333,4,3,5,90,0,1
174351,-83.3333333333333,4,3,1,90,0,1
174514,-83.3333333333333,4,3,5,90,0,1
174677,-83.3333333333333,4,3,2,90,0,1
174840,-83.3333333333333,4,3,6,90,0,1
175003,-83.3333333333333,4,3,2,90,0,1
175166,-83.3333333333333,4,3,6,90,0,1
175248,-83.3333333333333,4,3,12,90,0,1
175329,-83.3333333333333,4,3,9,90,0,1
175411,-83.3333333333333,4,3,1,90,0,1
175492,-83.3333333333333,4,3,5,90,0,1
175655,-83.3333333333333,4,3,1,90,0,1
175981,-83.3333333333333,4,3,5,90,0,1
176308,-83.3333333333333,4,3,1,90,0,1
176634,-83.3333333333333,4,3,5,90,0,1
176960,-83.3333333333333,4,3,1,90,0,1
177286,-83.3333333333333,4,3,5,90,0,1
177612,-83.3333333333333,4,3,1,90,0,1
177938,-83.3333333333333,4,3,5,90,0,1
178101,-83.3333333333333,4,3,5,90,0,1
178264,-83.3333333333333,4,3,1,90,0,1
178590,-83.3333333333333,4,3,5,90,0,1
178916,-83.3333333333333,4,3,2,90,0,1
179079,-83.3333333333333,4,3,6,90,0,1
179242,-83.3333333333333,4,3,2,90,0,1
179405,-83.3333333333333,4,3,6,90,0,1
179568,-83.3333333333333,4,3,2,90,0,1
179731,-83.3333333333333,4,3,6,90,0,1
179894,-83.3333333333333,4,3,2,90,0,0
180058,-83.3333333333333,4,3,6,90,0,0
180221,-83.3333333333333,4,3,11,90,0,0
180384,-83.3333333333333,4,3,12,90,0,0
180547,-83.3333333333333,4,3,9,90,0,1
180628,-83.3333333333333,4,3,6,90,0,1
181199,-83.3333333333333,4,3,2,90,0,1
181362,-83.3333333333333,4,3,6,90,0,1
182503,-83.3333333333333,4,3,2,90,0,1
182666,-83.3333333333333,4,3,6,90,0,1
183808,-83.3333333333333,4,3,2,90,0,1
183971,-83.3333333333333,4,3,6,90,0,1
184949,-83.3333333333333,4,3,2,90,0,1
185112,-83.3333333333333,4,3,6,90,0,1
185275,-83.3333333333333,4,3,2,90,0,1
185601,-83.3333333333333,4,3,6,90,0,1
185683,-83.3333333333333,4,3,1,90,0,1
185764,-83.3333333333333,4,3,7,90,0,1
185846,-83.3333333333333,4,3,5,90,0,1
186416,-83.3333333333333,4,3,1,90,0,1
186498,-83.3333333333333,4,3,5,90,0,1
187721,-83.3333333333333,4,3,1,90,0,1
187802,-83.3333333333333,4,3,5,90,0,1
188373,-83.3333333333333,4,3,6,90,0,1
188699,-83.3333333333333,4,3,2,90,0,1
188780,-83.3333333333333,4,3,6,90,0,1
189025,-83.3333333333333,4,3,2,90,0,1
189106,-83.3333333333333,4,3,6,90,0,1
189677,-83.3333333333333,4,3,2,90,0,1
189840,-83.3333333333333,4,3,6,90,0,1
190003,-83.3333333333333,4,3,11,90,0,1
190166,-83.3333333333333,4,3,5,90,0,1
190329,-83.3333333333333,4,3,1,90,0,1
190492,-83.3333333333333,4,3,5,90,0,1
190655,-83.3333333333333,4,3,1,90,0,1
190981,-100,4,3,9,90,0,0
191063,-100,4,3,9,5,0,0
191307,-100,4,3,9,85,0,0
191634,-100,4,3,9,80,0,0
191960,-100,4,3,9,75,0,0
192286,-100,4,3,9,70,0,0
192612,-100,4,3,9,65,0,0
192938,-100,4,3,9,60,0,0
193264,-100,4,3,9,55,0,0
193590,-100,4,3,9,50,0,0
193916,-100,4,3,9,45,0,0
194242,-100,4,3,9,40,0,0
194568,-100,4,3,9,35,0,0
194894,-100,4,3,9,30,0,0
195221,-100,4,3,9,25,0,0
195547,-100,4,3,9,20,0,0
195873,-100,4,3,9,15,0,0
196199,-100,4,3,9,10,0,0
196525,-100,4,3,9,5,0,0
197503,-100,4,3,9,5,0,0

[Colours]
Combo1 : 0,255,255
Combo2 : 255,83,255
Combo3 : 82,82,252

[HitObjects]
175,119,1350,5,12,0:0:0:0:
236,292,1513,1,12,0:0:0:0:
335,224,1676,5,8,0:0:0:0:
335,224,1839,1,8,0:3:0:0:
335,224,2002,2,0,P|345:162|336:137,1,80,8|8,0:3|0:0,0:0:0:0:
204,22,2328,5,12,0:0:0:0:
224,204,2491,1,12,0:0:0:0:
110,165,2654,5,8,0:0:0:0:
110,165,2817,1,8,0:3:0:0:
110,165,2980,1,8,0:3:0:0:
274,82,3143,5,8,0:0:0:0:
148,256,3306,1,8,0:0:0:0:
148,256,3388,1,12,0:0:0:0:
148,256,3469,2,0,L|152:309,1,40,8|12,0:0|0:0,0:0:0:0:
283,355,3632,1,8,0:0:0:0:
283,355,3714,1,8,0:0:0:0:
283,355,3795,2,0,L|286:315,1,40,8|8,0:3|0:3,0:0:0:0:
303,139,3958,6,0,B|356:127|356:127|392:100|392:100|467:91,1,160,12|4,0:0|0:0,0:0:0:0:
167,283,5263,2,0,B|114:271|114:271|78:244|78:244|3:235,1,160,4|4,0:0|0:0,0:0:0:0:
202,129,6241,5,8,0:0:0:0:
279,232,6404,1,8,0:0:0:0:
347,123,6567,6,0,B|438:112|408:162|509:151,1,160,12|4,0:0|0:0,0:0:0:0:
166,38,7871,2,0,B|75:27|105:77|4:66,1,160,4|12,0:0|0:0,0:0:0:0:
143,150,8686,5,8,0:0:0:0:
188,17,8849,1,8,0:0:0:0:
137,180,9013,1,12,0:0:0:0:
324,125,9176,6,0,P|330:160|340:209,1,80,12|4,0:0|0:0,0:0:0:0:
127,212,9828,2,0,P|121:247|111:296,1,80,4|4,0:0|0:0,0:0:0:0:
312,294,10480,2,0,P|318:329|328:378,1,80,4|4,0:0|0:0,0:0:0:0:
452,210,11132,5,12,0:0:0:0:
343,291,11295,1,8,0:0:0:0:
330,133,11458,1,8,0:0:0:0:
477,225,11621,1,12,0:0:0:0:
261,213,11784,5,8,0:0:0:0:
261,213,11866,1,8,0:0:0:0:
261,213,11947,1,8,0:0:0:0:
346,109,12110,1,8,0:0:0:0:
184,114,12273,1,12,0:0:0:0:
184,114,12355,1,8,0:0:0:0:
184,114,12436,1,8,0:0:0:0:
276,16,12599,1,8,0:0:0:0:
273,195,12763,5,8,0:0:0:0:
273,195,12844,1,8,0:0:0:0:
273,195,12926,1,8,0:0:0:0:
143,230,13089,1,8,0:0:0:0:
283,318,13252,1,12,0:0:0:0:
283,318,13333,1,8,0:0:0:0:
283,318,13415,2,0,L|289:367,1,32,8|8,0:0|0:0,0:0:0:0:
403,373,13578,2,0,L|406:341,1,32,8|8,0:0|0:0,0:0:0:0:
428,185,13741,6,0,P|460:175|494:180,1,60.0000022888184,0|0,1:3|1:3,0:0:0:0:
325,108,13904,1,0,1:3:0:0:
325,108,13985,1,0,1:3:0:0:
325,108,14067,2,0,B|265:158|195:138|172:91|232:78|268:106,1,180.000006866455,0|0,1:3|0:0,0:0:0:0:
314,210,14393,6,0,L|310:264,2,40,12|8|8,0:0|0:0|0:0,0:0:0:0:
451,128,14719,1,8,0:0:0:0:
451,128,14801,1,8,0:0:0:0:
451,128,14882,1,8,0:0:0:0:
408,290,15045,1,12,0:0:0:0:
408,290,15127,1,8,0:0:0:0:
408,290,15208,1,8,0:0:0:0:
325,108,15371,1,8,0:0:0:0:
325,108,15453,1,8,0:0:0:0:
325,108,15534,1,8,0:0:0:0:
201,222,15697,6,0,L|144:218,2,40,12|8|8,0:0|0:0|0:0,0:0:0:0:
285,367,16023,1,8,0:0:0:0:
285,367,16105,1,8,0:0:0:0:
285,367,16186,1,8,0:0:0:0:
89,295,16349,1,12,0:0:0:0:
89,295,16431,1,8,0:0:0:0:
89,295,16513,1,8,0:0:0:0:
234,211,16676,1,8,0:0:0:0:
234,211,16757,1,8,0:0:0:0:
234,211,16839,1,8,0:0:0:0:
78,148,17002,6,0,L|27:152,2,40,12|8|8,0:0|0:0|0:0,0:0:0:0:
202,35,17328,1,8,0:0:0:0:
202,35,17409,1,8,0:0:0:0:
202,35,17491,1,8,0:0:0:0:
264,236,17654,1,12,0:0:0:0:
264,236,17735,1,8,0:0:0:0:
264,236,17817,1,8,0:0:0:0:
374,109,17980,1,8,0:0:0:0:
374,109,18061,1,8,0:0:0:0:
374,109,18143,1,8,0:0:0:0:
483,236,18306,6,0,L|477:294,2,40,12|8|8,0:0|0:0|0:0,0:0:0:0:
508,69,18632,1,8,0:0:0:0:
508,69,18714,1,8,0:0:0:0:
508,69,18795,1,8,0:0:0:0:
350,126,18958,5,8,0:0:0:0:
326,124,19039,1,8,0:0:0:0:
302,122,19121,1,8,0:0:0:0:
278,120,19202,1,8,0:0:0:0:
247,100,19284,5,8,0:0:0:0:
208,101,19365,1,8,0:0:0:0:
168,105,19447,1,8,0:3:0:0:
128,108,19528,1,8,0:3:0:0:
98,135,19610,6,0,L|48:130,2,40,12|8|8,0:0|0:0|0:0,0:0:0:0:
242,220,19936,1,8,0:0:0:0:
242,220,20018,1,8,0:0:0:0:
242,220,20099,1,8,0:0:0:0:
45,263,20263,1,12,0:0:0:0:
45,263,20344,1,8,0:0:0:0:
45,263,20426,1,8,0:0:0:0:
219,359,20589,1,8,0:0:0:0:
219,359,20670,1,8,0:0:0:0:
219,359,20752,1,8,0:0:0:0:
136,203,20915,6,0,L|143:147,2,40,12|8|8,0:0|0:0|0:0,0:0:0:0:
118,378,21241,1,8,0:0:0:0:
118,378,21322,1,8,0:0:0:0:
118,378,21404,1,8,0:0:0:0:
278,245,21567,1,12,0:0:0:0:
278,245,21648,1,8,0:0:0:0:
278,245,21730,1,8,0:0:0:0:
113,213,21893,1,8,0:0:0:0:
113,213,21974,1,8,0:0:0:0:
113,213,22056,1,8,0:0:0:0:
213,78,22219,6,0,L|206:22,2,40,12|8|8,0:0|0:0|0:0,0:0:0:0:
278,245,22545,1,8,0:0:0:0:
278,245,22627,1,8,0:0:0:0:
278,245,22708,1,8,0:0:0:0:
326,42,22871,1,12,0:0:0:0:
326,42,22953,1,8,0:0:0:0:
326,42,23034,1,8,0:0:0:0:
209,173,23197,1,8,0:0:0:0:
209,173,23279,1,8,0:0:0:0:
209,173,23360,1,8,0:0:0:0:
416,173,23523,6,0,B|444:220|444:220|412:329,1,160,12|0,0:0|0:0,0:0:0:0:
255,378,24013,1,8,0:0:0:0:
255,378,24094,1,8,0:0:0:0:
255,378,24176,1,8,0:0:0:0:
306,218,24339,1,8,0:0:0:0:
154,289,24502,1,8,0:0:0:0:
118,306,24583,1,8,0:0:0:0:
77,307,24665,1,8,0:0:0:0:
37,299,24746,1,8,0:0:0:0:
6,273,24828,6,0,P|17:191|26:108,1,160,12|12,1:3|0:0,0:0:0:0:
138,64,25317,2,0,P|157:104|160:149,1,80,0|4,1:3|0:0,0:0:0:0:
239,250,25643,1,8,0:0:0:0:
303,103,25806,1,12,1:3:0:0:
159,174,25969,1,8,0:0:0:0:
353,218,26132,6,0,P|435:206|511:194,1,160,4|12,1:3|0:0,0:0:0:0:
394,73,26621,2,0,P|333:71|302:84,1,80,0|12,1:3|0:0,0:0:0:0:
179,143,26947,1,8,0:0:0:0:
321,223,27110,2,0,P|341:265|322:346,1,120,12|0,1:3|0:0,0:0:0:0:
329,335,27436,5,12,1:3:0:0:
189,275,27599,1,8,0:0:0:0:
318,193,27763,2,0,P|359:187|411:180,1,80,12|0,1:3|0:0,0:0:0:0:
224,66,28089,2,0,P|184:60|144:54,1,80,4|8,1:3|0:0,0:0:0:0:
14,184,28415,1,12,1:3:0:0:
165,185,28578,6,0,P|189:233|183:344,1,160,8|8,1:3|0:0,0:0:0:0:
180,376,28985,1,8,0:0:0:0:
180,376,29067,2,0,P|220:370|278:359,1,80,12|0,0:0|0:0,0:0:0:0:
400,339,29393,1,12,0:0:0:0:
297,238,29556,1,8,0:0:0:0:
469,205,29719,1,12,0:0:0:0:
342,84,29882,1,8,0:3:0:0:
342,84,29964,1,8,0:3:0:0:
342,84,30045,6,4,P|295:102|183:44,1,160,12|12,1:3|0:0,0:0:0:0:
61,54,30534,2,0,P|67:94|72:142,1,80,0|4,1:3|0:0,0:0:0:0:
90,269,30860,1,8,0:0:0:0:
197,169,31023,1,12,1:3:0:0:
61,161,31186,1,8,0:0:0:0:
203,276,31349,6,0,P|281:264|379:251,1,160,4|12,1:3|0:0,0:0:0:0:
403,122,31839,2,0,P|357:123|308:106,1,80,0|12,1:3|0:0,0:0:0:0:
466,9,32165,1,8,0:0:0:0:
507,179,32328,2,0,P|484:228|498:295,1,120,12|0,1:3|0:0,0:0:0:0:
495,290,32654,5,12,1:3:0:0:
390,377,32817,1,8,0:0:0:0:
290,284,32980,2,0,P|280:241|287:194,1,80,12|0,1:3|0:0,0:0:0:0:
155,286,33306,2,8,P|158:325|148:364,1,80,8|8,1:3|0:0,0:0:0:0:
25,216,33632,1,12,1:3:0:0:
147,140,33795,6,0,P|209:155|285:100,1,160,8|8,1:3|0:0,0:0:0:0:
301,76,34203,1,8,0:0:0:0:
301,76,34284,2,0,L|357:81,1,40,12|0,0:0|0:0,0:0:0:0:
432,164,34447,1,8,0:0:0:0:
432,164,34529,1,8,0:0:0:0:
432,164,34610,6,0,P|439:201|436:220,1,40,12|8,0:0|0:0,0:0:0:0:
348,288,34773,1,8,0:0:0:0:
348,288,34855,1,8,0:0:0:0:
348,288,34936,1,8,0:3:0:0:
312,284,35017,1,8,0:3:0:0:
276,280,35099,1,12,0:3:0:0:
240,276,35180,1,8,0:3:0:0:
203,272,35263,6,0,L|210:214,2,35.9999989013672,8|8|8,1:3|0:0|0:0,0:0:0:0:
112,374,35589,1,8,0:0:0:0:
18,273,35752,2,0,P|1:202|42:129,1,143.999995605469,8|8,1:3|0:0,0:0:0:0:
170,112,36241,2,0,P|205:115|241:119,1,71.9999978027344,8|8,1:3|0:0,0:0:0:0:
422,130,36567,5,12,1:3:0:0:
314,45,36730,1,8,0:0:0:0:
335,184,36893,1,8,0:0:0:0:
335,184,37056,2,0,B|324:270|330:233|315:338,1,143.999995605469,8|8,1:3|0:0,0:0:0:0:
198,373,37545,1,8,1:3:0:0:
198,373,37708,1,8,0:0:0:0:
149,252,37871,6,0,L|153:205,2,35.9999989013672,8|8|8,1:3|0:0|0:0,0:0:0:0:
46,330,38197,1,8,1:3:0:0:
28,202,38360,2,0,P|93:178|155:223,1,143.999995605469,8|8,0:0|0:0,0:0:0:0:
243,124,38849,2,0,P|211:118|168:104,1,71.9999978027344,8|8,1:3|1:3,0:0:0:0:
347,17,39176,5,12,0:0:0:0:
453,101,39339,1,8,0:0:0:0:
453,101,39502,2,0,P|446:139|441:191,1,71.9999978027344,8|8,0:0|0:0,0:0:0:0:
348,261,39828,1,8,0:0:0:0:
253,116,39991,1,12,0:0:0:0:
199,249,40154,1,8,0:0:0:0:
350,165,40317,1,8,0:0:0:0:
350,165,40398,1,8,0:0:0:0:
350,165,40480,6,0,L|347:109,2,35.9999989013672,8|8|8,1:3|0:0|0:0,0:0:0:0:
441,266,40806,1,8,0:0:0:0:
333,351,40969,2,0,B|248:335|272:381|169:363,1,143.999995605469,8|8,1:3|0:0,0:0:0:0:
82,293,41458,1,8,1:3:0:0:
82,293,41621,1,8,0:0:0:0:
232,244,41784,5,12,1:3:0:0:
121,175,41947,1,8,0:0:0:0:
121,175,42110,2,0,P|83:178|43:183,1,71.9999978027344,8|8,0:0|1:3,0:0:0:0:
199,70,42436,1,12,0:0:0:0:
245,221,42599,1,8,0:0:0:0:
339,49,42763,1,12,1:3:0:0:
187,94,42926,1,8,0:0:0:0:
368,175,43089,6,0,P|415:169|462:160,1,95.9999970703126,4|4,1:3|1:3,0:0:0:0:
512,344,43741,2,0,P|454:334|405:329,1,95.9999970703126,4|4,1:3|1:3,0:0:0:0:
201,311,44393,6,0,P|156:326|103:315,1,95.9999970703126,4|0,1:3|0:0,0:0:0:0:
14,131,45045,1,4,1:3:0:0:
14,131,45371,6,0,B|77:166|134:117|134:117|96:117|61:98,1,180.000006866455,4|0,0:0|0:0,0:0:0:0:
46,30,45697,6,0,P|94:26|159:22,1,95.9999970703126,8|8,1:3|0:0,0:0:0:0:
323,147,46023,2,0,P|275:143|227:139,1,95.9999970703126,12|0,1:3|0:0,0:0:0:0:
440,82,46349,1,8,1:3:0:0:
363,248,46513,1,8,0:0:0:0:
292,38,46676,1,12,1:3:0:0:
213,223,46839,6,0,P|150:228|108:208,1,95.9999970703126,0|8,1:3|0:0,0:0:0:0:
323,147,47165,1,8,0:0:0:0:
242,342,47328,2,0,P|193:336|145:329,1,95.9999970703126,12|0,0:0|0:0,0:0:0:0:
32,187,47654,1,8,0:0:0:0:
213,223,47817,1,8,0:0:0:0:
18,277,47980,2,0,P|5:322|11:369,1,95.9999970703126,12|0,0:0|0:0,0:0:0:0:
189,209,48306,6,0,P|185:159|181:105,1,95.9999970703126,8|8,1:3|0:0,0:0:0:0:
349,256,48632,2,0,P|345:303|341:351,1,95.9999970703126,12|0,1:3|0:0,0:0:0:0:
487,186,48958,1,8,1:3:0:0:
318,148,49121,1,8,0:0:0:0:
475,288,49284,1,12,1:3:0:0:
491,77,49447,6,0,P|440:83|396:90,1,95.9999970703126,0|8,1:3|0:0,0:0:0:0:
199,135,49773,1,8,0:0:0:0:
377,258,49936,1,12,1:3:0:0:
289,68,50099,1,8,0:0:0:0:
208,287,50263,1,12,1:3:0:0:
406,174,50426,1,8,0:0:0:0:
169,128,50589,1,12,1:3:0:0:
364,280,50752,1,8,1:3:0:0:
364,280,50833,1,8,0:0:0:0:
364,280,50915,6,0,P|417:273|472:267,1,95.9999970703126,12|8,0:0|0:0,0:0:0:0:
214,316,51241,2,0,P|166:310|118:304,1,95.9999970703126,12|0,1:3|0:0,0:0:0:0:
7,159,51567,1,8,1:3:0:0:
189,169,51730,1,8,0:0:0:0:
3,289,51893,1,12,1:3:0:0:
95,88,52056,6,0,P|136:73|195:76,1,95.9999970703126,0|8,1:3|0:0,0:0:0:0:
361,128,52382,1,8,0:0:0:0:
230,255,52545,2,0,P|234:302|239:353,1,95.9999970703126,12|0,1:3|0:0,0:0:0:0:
402,232,52871,1,8,1:3:0:0:
229,224,53034,1,8,0:0:0:0:
385,365,53197,1,12,1:3:0:0:
339,149,53360,6,0,P|343:102|347:35,1,95.9999970703126,0|8,1:3|0:0,0:0:0:0:
431,256,53686,1,8,0:0:0:0:
227,196,53849,2,0,P|181:185|134:193,1,95.9999970703126,12|0,0:0|0:0,0:0:0:0:
246,338,54176,1,8,0:0:0:0:
337,180,54339,1,8,0:0:0:0:
141,282,54502,1,12,1:3:0:0:
185,55,54665,1,8,0:0:0:0:
185,55,54746,1,8,0:0:0:0:
185,55,54828,5,12,1:3:0:0:
322,280,54991,1,8,0:0:0:0:
377,15,55154,1,12,1:3:0:0:
158,176,55317,1,8,0:0:0:0:
443,175,55480,5,8,1:3:0:0:
208,65,55643,1,8,0:0:0:0:
443,175,55806,1,12,0:0:0:0:
208,65,55969,1,12,0:0:0:0:
267,277,56132,6,0,P|258:327|249:388,1,95.9999970703126,12|8,1:3|0:0,0:0:0:0:
95,249,56458,2,0,P|87:201|79:154,1,95.9999970703126,0|8,1:3|0:0,0:0:0:0:
262,246,56784,1,12,1:3:0:0:
110,347,56947,1,8,0:0:0:0:
189,181,57110,1,8,1:3:0:0:
251,371,57273,1,8,1:3:0:0:
95,249,57436,6,0,P|46:259|0:247,1,95.9999970703126,12|8,0:0|0:0,0:0:0:0:
194,156,57763,2,0,P|243:146|289:158,1,95.9999970703126,8|8,0:0|0:0,0:0:0:0:
464,270,58089,1,12,0:0:0:0:
300,263,58252,1,8,0:0:0:0:
409,141,58415,1,8,0:0:0:0:
446,299,58578,1,8,0:0:0:0:
286,156,58741,6,0,P|291:110|297:60,1,95.9999970703126,12|8,1:3|0:0,0:0:0:0:
97,155,59067,2,0,P|102:202|107:250,1,95.9999970703126,8|8,1:3|0:0,0:0:0:0:
279,373,59393,1,12,1:3:0:0:
204,227,59556,1,8,0:0:0:0:
120,367,59719,1,8,1:3:0:0:
281,344,59882,1,8,1:3:0:0:
107,250,60045,6,0,P|43:253|1:234,1,95.9999970703126,12|8,0:0|0:0,0:0:0:0:
173,89,60371,1,8,1:3:0:0:
296,249,60534,2,0,P|289:290|280:350,1,95.9999970703126,12|8,0:0|1:3,0:0:0:0:
110,161,60860,1,12,0:0:0:0:
329,137,61023,2,0,B|376:153|376:153|436:136,1,95.9999970703126,12|8,1:3|0:0,0:0:0:0:
223,40,61349,5,8,1:3:0:0:
191,27,61430,1,8,0:0:0:0:
158,22,61512,1,8,0:0:0:0:
125,25,61593,1,8,0:0:0:0:
93,35,61675,1,8,1:3:0:0:
64,52,61756,1,8,0:0:0:0:
39,74,61838,1,8,0:0:0:0:
20,102,61919,1,8,0:0:0:0:
9,144,62002,5,8,1:3:0:0:
41,131,62083,1,8,0:0:0:0:
74,126,62165,1,8,0:0:0:0:
107,129,62246,1,8,0:0:0:0:
139,139,62328,1,8,1:3:0:0:
168,156,62409,1,8,0:0:0:0:
193,178,62491,1,8,0:0:0:0:
212,206,62572,1,8,0:0:0:0:
224,247,62654,6,0,L|215:302,3,47.9999985351563,12|8|8|8,1:3|0:0|0:0|0:0,0:0:0:0:
317,228,62980,2,0,L|308:173,1,47.9999985351563,8|8,1:3|0:0,0:0:0:0:
414,240,63143,2,0,L|405:295,1,47.9999985351563,12|8,0:0|0:0,0:0:0:0:
339,342,63306,6,0,P|295:346|267:337,1,47.9999985351563,8|8,1:3|0:0,0:0:0:0:
168,297,63469,2,0,P|212:293|240:302,1,47.9999985351563,12|8,0:0|0:0,0:0:0:0:
118,372,63632,2,0,P|74:376|46:367,1,47.9999985351563,12|8,1:3|0:0,0:0:0:0:
14,228,63795,1,8,1:3:0:0:
14,228,63877,1,8,0:0:0:0:
14,228,63958,5,12,0:0:0:0:
168,297,64121,1,8,0:0:0:0:
150,76,64284,1,12,0:0:0:0:
296,185,64447,1,8,0:0:0:0:
67,152,64610,1,12,0:0:0:0:
271,46,64773,2,0,P|318:49|366:53,1,95.9999970703126,12|0,0:0|0:0,0:0:0:0:
504,237,65099,1,12,0:0:0:0:
328,183,65263,5,8,1:3:0:0:
503,65,65426,1,12,0:0:0:0:
380,293,65589,2,0,P|333:306|283:289,1,95.9999970703126,12|8,0:0|0:0,0:0:0:0:
214,250,65833,1,8,0:0:0:0:
214,250,65915,6,0,L|134:256,1,47.9999985351563,8|8,1:3|0:0,0:0:0:0:
240,165,66078,2,0,L|287:168,1,47.9999985351563,8|8,0:0|0:0,0:0:0:0:
389,174,66241,1,8,0:0:0:0:
412,138,66322,1,8,0:0:0:0:
423,96,66404,1,8,0:0:0:0:
420,53,66485,1,8,0:0:0:0:
403,13,66567,6,0,L|454:17,2,40,12|8|8,0:0|0:0|0:0,0:0:0:0:
243,65,66893,1,8,0:0:0:0:
243,65,66974,1,8,0:0:0:0:
243,65,67056,1,8,0:0:0:0:
387,150,67219,1,12,0:0:0:0:
387,150,67301,1,8,0:0:0:0:
387,150,67382,1,8,0:0:0:0:
227,202,67545,1,8,0:0:0:0:
227,202,67627,1,8,0:0:0:0:
227,202,67708,1,8,0:0:0:0:
131,63,67871,6,0,L|140:1,2,40,12|8|8,0:0|0:0|0:0,0:0:0:0:
101,228,68197,1,8,0:0:0:0:
101,228,68279,1,8,0:0:0:0:
101,228,68360,1,8,0:0:0:0:
243,99,68523,1,12,0:0:0:0:
243,99,68605,1,8,0:0:0:0:
243,99,68686,1,8,0:0:0:0:
70,138,68849,1,8,0:0:0:0:
70,138,68931,1,8,0:0:0:0:
70,138,69013,1,8,0:0:0:0:
227,202,69176,6,0,L|285:194,2,40,12|8|8,0:0|0:0|0:0,0:0:0:0:
112,325,69502,1,8,0:0:0:0:
112,325,69583,1,8,0:0:0:0:
112,325,69665,1,8,0:0:0:0:
300,289,69828,1,12,0:0:0:0:
300,289,69909,1,8,0:0:0:0:
300,289,69991,1,8,0:0:0:0:
137,222,70154,1,8,0:0:0:0:
137,222,70235,1,8,0:0:0:0:
137,222,70317,1,8,0:0:0:0:
268,117,70480,6,0,L|321:122,2,40,12|8|8,0:0|0:0|0:0,0:0:0:0:
100,102,70806,1,8,0:0:0:0:
100,102,70888,1,8,0:0:0:0:
100,102,70969,1,8,0:0:0:0:
255,19,71132,1,12,0:0:0:0:
286,10,71213,1,8,0:0:0:0:
318,7,71295,1,8,0:0:0:0:
349,11,71376,1,8,0:0:0:0:
379,21,71458,2,0,L|387:75,3,40,8|8|8|8,0:0|0:0|0:3|0:3,0:0:0:0:
456,112,71784,5,12,0:0:0:0:
452,143,71865,1,8,0:0:0:0:
448,175,71947,1,8,0:0:0:0:
445,207,72028,1,8,0:0:0:0:
441,239,72110,1,8,0:0:0:0:
437,270,72191,1,8,0:0:0:0:
434,302,72273,1,8,0:0:0:0:
430,334,72354,1,8,0:0:0:0:
426,374,72436,5,12,0:0:0:0:
405,349,72517,1,8,0:0:0:0:
381,328,72599,1,8,0:0:0:0:
353,312,72680,1,8,0:0:0:0:
323,302,72762,1,8,0:0:0:0:
291,298,72843,1,8,0:0:0:0:
259,300,72925,1,8,0:0:0:0:
228,308,73006,1,8,0:0:0:0:
193,329,73089,6,0,L|201:391,3,40,12|8|8|8,0:0|0:0|0:0|0:0,0:0:0:0:
101,318,73415,2,0,L|109:256,3,40,8|8|8|8,0:0|0:0|0:0|0:0,0:0:0:0:
118,198,73741,5,12,0:0:0:0:
149,195,73822,1,8,0:0:0:0:
181,192,73904,1,8,0:0:0:0:
213,189,73985,1,8,0:0:0:0:
247,168,74067,5,8,0:0:0:0:
279,171,74148,1,8,0:0:0:0:
311,174,74230,1,8,0:0:0:0:
343,177,74311,1,8,0:0:0:0:
376,199,74393,6,12,L|371:250,2,40,12|8|8,0:0|0:0|0:0,0:0:0:0:
301,39,74719,1,8,0:0:0:0:
213,189,74882,1,8,0:0:0:0:
393,102,75045,5,12,0:0:0:0:
393,102,75127,1,8,0:0:0:0:
393,102,75208,1,8,0:0:0:0:
207,53,75371,1,8,0:0:0:0:
238,209,75534,1,8,0:0:0:0:
79,133,75697,6,0,L|22:141,1,40,8|8,0:0|0:0,0:0:0:0:
1,254,75860,2,0,L|58:262,1,40,8|8,0:0|0:0,0:0:0:0:
149,325,76023,5,8,0:3:0:0:
176,321,76104,1,8,0:3:0:0:
204,317,76186,1,8,0:3:0:0:
232,313,76267,1,8,0:3:0:0:
259,309,76349,6,0,B|233:227|285:244|252:164|252:164|251:188|235:212,1,195.999994018555,8|0,0:0|0:0,0:0:0:0:
172,162,77002,6,0,L|122:167,2,35.9999989013672,12|8|8,1:3|0:0|0:0,0:0:0:0:
289,79,77328,1,8,0:0:0:0:
149,44,77491,1,8,1:3:0:0:
259,309,77817,5,8,0:0:0:0:
184,185,77980,1,8,1:3:0:0:
117,312,78143,1,8,0:0:0:0:
11,203,78306,5,12,1:3:0:0:
11,203,79284,2,0,P|48:197|92:210,1,71.9999978027344,8|8,1:3|0:0,0:0:0:0:
215,324,79610,5,12,1:3:0:0:
286,199,79773,1,8,0:0:0:0:
362,320,79936,1,8,1:3:0:0:
219,297,80099,1,8,0:0:0:0:
326,29,80426,5,8,0:0:0:0:
368,177,80589,1,8,1:3:0:0:
229,136,80752,1,8,1:3:0:0:
401,85,80915,5,12,0:0:0:0:
401,85,81730,2,0,P|439:77|477:82,2,71.9999978027344,8|8|8,0:0|0:0|0:0,0:0:0:0:
250,142,82219,5,12,1:3:0:0:
250,142,82301,1,8,0:0:0:0:
250,142,82382,1,8,0:0:0:0:
328,21,82545,1,8,0:0:0:0:
357,163,82708,1,8,1:3:0:0:
95,41,83034,5,8,0:0:0:0:
122,182,83197,1,8,1:3:0:0:
199,60,83360,1,8,0:0:0:0:
35,118,83523,5,12,1:3:0:0:
35,118,84502,2,0,P|70:113|113:108,1,71.9999978027344,8|8,1:3|0:0,0:0:0:0:
277,84,84828,5,12,1:3:0:0:
179,190,84991,1,8,0:0:0:0:
322,206,85154,1,8,1:3:0:0:
249,81,85317,1,8,0:0:0:0:
6,236,85643,5,8,0:0:0:0:
149,261,85806,1,8,1:3:0:0:
44,360,85969,1,8,1:3:0:0:
124,168,86132,5,12,0:0:0:0:
323,198,86295,1,8,0:0:0:0:
182,352,86458,1,12,0:0:0:0:
228,130,86621,1,8,0:0:0:0:
228,130,86703,1,8,0:0:0:0:
228,130,86784,6,0,L|220:71,1,35.9999989013672,8|8,0:0|0:3,0:0:0:0:
134,18,86947,1,8,0:3:0:0:
134,18,87029,1,8,0:3:0:0:
134,18,87110,2,0,L|126:77,1,35.9999989013672,8|8,0:0|0:0,0:0:0:0:
36,139,87273,1,8,0:0:0:0:
36,139,87355,1,8,0:0:0:0:
36,139,87436,6,0,P|87:143|169:227,1,160,4|12,1:3|0:0,0:0:0:0:
280,313,87926,2,0,P|321:305|386:296,1,80,0|12,1:3|0:0,0:0:0:0:
254,188,88252,1,8,0:0:0:0:
111,291,88415,2,0,P|115:329|119:370,1,80,12|0,1:3|0:0,0:0:0:0:
255,303,88741,5,12,1:3:0:0:
152,190,88904,2,0,P|104:183|63:194,2,80,8|12|0,0:0|0:0|1:3,0:0:0:0:
255,303,89393,1,12,0:0:0:0:
276,168,89556,1,8,0:0:0:0:
389,256,89719,2,0,P|427:269|501:246,1,120,12|0,1:3|0:0,0:0:0:0:
500,246,90045,5,12,1:3:0:0:
434,109,90208,1,8,0:0:0:0:
364,244,90371,2,0,P|359:284|353:338,1,80,12|0,1:3|0:0,0:0:0:0:
254,178,90697,2,0,P|249:138|244:98,1,80,12|8,1:3|0:0,0:0:0:0:
117,15,91023,1,12,1:3:0:0:
22,134,91186,6,0,P|71:141|107:130,1,80,0|12,1:3|0:0,0:0:0:0:
240,74,91513,1,8,0:0:0:0:
160,230,91676,2,0,P|164:269|171:329,1,80,12|8,0:0|0:0,0:0:0:0:
362,261,92002,1,12,0:0:0:0:
183,214,92165,1,8,0:0:0:0:
317,382,92328,1,12,0:0:0:0:
367,155,92491,1,8,0:0:0:0:
367,155,92572,1,8,0:0:0:0:
367,155,92654,5,12,1:3:0:0:
367,155,94936,2,0,P|316:164|252:126,1,120
236,103,95263,6,0,P|195:106|141:112,1,80,12|8,1:3|0:0,0:0:0:0:
15,216,95589,1,12,1:3:0:0:
187,251,95752,1,12,0:0:0:0:
128,114,95915,1,8,1:3:0:0:
88,309,96078,1,12,0:0:0:0:
16,105,96241,1,12,1:3:0:0:
243,152,96404,1,8,0:0:0:0:
243,152,96485,1,8,0:0:0:0:
243,152,96567,5,8,1:3:0:0:
270,148,96648,1,8,0:0:0:0:
298,145,96730,1,8,0:0:0:0:
326,142,96811,1,8,0:0:0:0:
354,138,96893,1,8,0:3:0:0:
382,135,96974,1,8,0:3:0:0:
409,132,97056,1,8,0:3:0:0:
437,129,97137,1,8,0:3:0:0:
465,125,97219,6,0,B|452:84|408:66|408:66|339:153|424:237,1,256,12|12,1:3|0:0,0:0:0:0:
137,126,111585,5,12,1:3:0:0:
137,126,111692,1,8,0:0:0:0:
137,126,111799,1,8,0:0:0:0:
213,310,112013,1,8,0:0:0:0:
329,146,112228,1,8,0:0:0:0:
172,216,112442,1,4,0:0:0:0:
480,285,113299,5,12,0:0:0:0:
206,89,113942,5,8,0:0:0:0:
197,95,114013,1,8,0:0:0:0:
189,102,114085,1,8,0:0:0:0:
181,109,114156,2,0,P|139:105|96:101,1,80,12|8,0:0|0:0,0:0:0:0:
265,16,114585,1,8,0:0:0:0:
245,190,114799,1,8,0:0:0:0:
119,14,115013,5,12,0:0:0:0:
119,14,115121,1,8,0:0:0:0:
119,14,115228,1,8,0:0:0:0:
293,110,115442,1,8,0:0:0:0:
112,195,115656,1,8,0:0:0:0:
208,63,115871,1,4,0:0:0:0:
351,374,116728,5,12,0:0:0:0:
108,191,117371,5,8,0:0:0:0:
108,191,117478,1,8,0:0:0:0:
108,191,117585,2,0,L|34:198,2,53.3333333333333,12|8|8,0:0|0:0|0:0,0:0:0:0:
197,143,118013,2,0,B|269:158|269:158|289:147|303:127,1,120,12|0,0:0|0:0,0:0:0:0:
347,59,118442,5,12,0:0:0:0:
347,59,118549,1,8,0:0:0:0:
347,59,118656,1,8,0:0:0:0:
288,250,118871,1,8,0:0:0:0:
231,58,119085,1,8,0:0:0:0:
383,174,119299,1,4,0:0:0:0:
69,152,120156,5,12,0:0:0:0:
248,312,120799,5,8,0:0:0:0:
255,315,120871,1,8,0:0:0:0:
262,318,120942,1,8,0:0:0:0:
269,321,121013,2,0,P|306:317|355:310,1,80,12|8,0:0|0:0,0:0:0:0:
483,174,121442,1,8,0:0:0:0:
295,212,121656,1,8,0:0:0:0:
483,301,121871,5,12,0:0:0:0:
483,301,121978,1,8,0:0:0:0:
483,301,122085,1,8,0:0:0:0:
380,129,122299,1,8,0:0:0:0:
311,317,122513,1,8,0:0:0:0:
432,215,122728,1,4,0:0:0:0:
110,206,123585,6,0,B|80:109|80:109|90:88|126:65,1,160,6|0,0:0|0:0,0:0:0:0:
311,41,124228,5,8,0:0:0:0:
311,41,124335,1,8,0:0:0:0:
311,41,124442,2,0,P|342:44|383:48,2,53.3333333333333,12|8|8,0:0|0:0|0:0,0:0:0:0:
244,125,124871,1,8,0:0:0:0:
264,173,125013,1,8,0:0:0:0:
307,203,125156,1,8,0:0:0:0:
359,209,125299,6,0,L|406:202,2,40,12|8|8,0:0|0:0|0:0,0:0:0:0:
179,297,125728,1,8,0:0:0:0:
377,322,125942,1,8,0:0:0:0:
226,156,126156,6,0,B|137:146|137:146|85:99|85:99|-14:86,1,240,12|0,0:0|0:0,0:0:0:0:
184,42,127013,2,0,P|243:18|344:33,1,160,4|0,0:0|0:0,0:0:0:0:
455,137,127656,5,8,0:0:0:0:
452,144,127728,1,8,0:0:0:0:
450,151,127799,1,8,0:0:0:0:
447,158,127871,2,0,L|361:166,1,80,12|8,0:0|0:0,0:0:0:0:
209,190,128299,1,8,0:0:0:0:
209,190,128406,1,8,0:0:0:0:
209,190,128513,1,8,0:0:0:0:
397,279,128728,5,12,0:0:0:0:
397,279,128835,1,8,0:0:0:0:
397,279,128942,1,8,0:0:0:0:
279,117,129156,1,8,0:0:0:0:
220,308,129371,1,8,0:0:0:0:
96,150,129585,6,0,B|57:93|57:93|12:195|12:195|53:249,1,240,12|0,0:0|0:0,0:0:0:0:
203,178,130442,2,0,B|217:129|183:79|183:79|215:4,1,160,4|0,0:0|0:0,0:0:0:0:
372,16,131085,5,8,0:0:0:0:
372,16,131192,1,8,0:0:0:0:
372,16,131299,2,0,L|446:11,2,53.3333333333333,12|8|8,0:0|0:0|0:0,0:0:0:0:
296,92,131728,2,0,P|341:100|390:162,1,120,12|0,0:0|0:0,0:0:0:0:
404,244,132156,5,12,0:0:0:0:
404,242,132263,1,8,0:0:0:0:
404,242,132371,1,8,0:0:0:0:
216,174,132585,1,8,0:0:0:0:
344,327,132799,1,8,0:0:0:0:
467,169,133013,6,0,B|506:14|506:14|473:49|424:56,1,240,12|0,0:0|0:0,0:0:0:0:
261,34,133871,2,0,P|251:113|241:204,1,160,4|0,0:0|0:0,0:0:0:0:
118,317,134513,5,8,0:0:0:0:
113,323,134585,1,8,0:0:0:0:
108,329,134656,1,8,0:0:0:0:
103,335,134728,2,0,P|61:331|18:328,1,80,12|8,0:0|0:0,0:0:0:0:
127,177,135156,1,8,0:0:0:0:
127,177,135263,1,8,0:0:0:0:
127,177,135371,1,8,0:0:0:0:
231,356,135585,5,12,0:0:0:0:
231,356,135692,1,8,0:0:0:0:
231,356,135799,1,8,0:0:0:0:
358,191,136013,1,8,0:0:0:0:
358,191,136121,1,8,0:0:0:0:
358,191,136228,1,8,0:0:0:0:
127,210,136442,1,12,0:0:0:0:
127,210,136549,1,8,0:0:0:0:
127,210,136656,1,8,0:0:0:0:
336,310,136871,1,12,0:0:0:0:
371,306,136978,1,8,0:0:0:0:
407,302,137085,1,8,0:0:0:0:
443,299,137192,1,8,0:0:0:0:
479,295,137299,6,0,L|485:235,1,40,12|8,0:0|0:0,0:0:0:0:
391,178,137513,2,0,L|396:238,1,40,8|8,0:0|0:0,0:0:0:0:
280,178,137728,2,0,L|285:117,1,40,8|8,0:3|0:3,0:0:0:0:
192,60,137942,2,0,L|197:120,1,40,8|8,0:0|0:0,0:0:0:0:
201,236,138156,6,0,L|138:244,3,40,12|8|8|8,0:0|0:0|0:0|0:0,0:0:0:0:
70,257,138482,1,8,0:3:0:0:
65,263,138563,1,8,0:3:0:0:
60,269,138645,1,8,0:3:0:0:
55,275,138726,1,8,0:3:0:0:
51,282,138808,6,0,P|59:226|39:142,1,128,12|12,1:3|0:0,0:0:0:0:
130,78,139297,2,8,P|135:113|151:146,2,64,4|12|4,1:3|0:0|0:0,0:0:0:0:
253,98,139786,2,4,P|248:133|232:166,1,64,12|4,1:3|0:0,0:0:0:0:
174,256,140112,6,4,P|237:262|323:271,1,128,12|12,1:3|0:0,0:0:0:0:
415,280,140601,2,0,P|417:313|426:345,2,64,4|12|4,1:3|0:0|0:0,0:0:0:0:
487,190,141090,2,0,P|495:159|497:127,1,64,12|4,1:3|0:0,0:0:0:0:
398,68,141416,6,0,P|338:94|261:66,2,128,12|12|12,1:3|1:3|1:3,0:0:0:0:
173,14,142394,2,0,L|98:25,1,64,12|4,1:3|1:3,0:0:0:0:
33,110,142721,6,0,P|72:111|143:160,2,128,12|12|12,0:0|0:0|0:0,0:0:0:0:
122,322,143699,1,12,0:0:0:0:
215,254,143862,1,8,0:0:0:0:
215,254,143943,1,8,0:0:0:0:
215,254,144025,6,0,B|285:251|270:284|346:276,1,128,12|12,1:3|0:0,0:0:0:0:
447,242,144514,2,0,P|463:197|463:173,2,64,4|12|4,1:3|0:0|0:0,0:0:0:0:
355,171,145003,2,0,P|339:126|339:102,1,64,12|4,1:3|0:0,0:0:0:0:
232,64,145329,6,0,P|166:74|101:86,1,128,12|12,1:3|0:0,0:0:0:0:
53,187,145818,2,0,P|92:190|128:206,2,64,4|12|4,1:3|0:0|0:0,0:0:0:0:
97,294,146308,2,4,P|136:291|172:275,1,64,14|4,1:3|0:0,0:0:0:0:
263,234,146634,6,0,P|258:303|252:379,2,128,12|12|12,1:3|1:3|1:3,0:0:0:0:
415,61,147612,1,12,1:3:0:0:
447,171,147775,1,8,1:3:0:0:
415,61,147938,6,0,P|352:82|283:63,1,128,12|12,0:0|0:0,0:0:0:0:
183,34,148427,2,0,P|147:40|100:47,1,64,12|12,0:0|0:0,0:0:0:0:
35,122,148753,1,12,0:0:0:0:
146,150,148916,1,12,0:0:0:0:
57,224,149079,1,8,0:3:0:0:
57,224,149161,1,8,0:3:0:0:
57,224,149242,6,0,B|97:262|97:262|65:373,1,160,12|8,1:3|0:0,0:0:0:0:
218,310,149731,2,0,P|215:265|211:223,2,80,0|8|0,1:3|0:0|0:0,0:0:0:0:
345,378,150221,2,0,P|348:338|351:298,1,80,8|0,1:3|0:0,0:0:0:0:
364,154,150547,6,0,P|302:113|202:128,1,160,8|8,1:3|0:0,0:0:0:0:
81,160,151036,2,0,P|38:155|-3:150,2,80,0|12|0,1:3|0:0|0:0,0:0:0:0:
190,253,151525,1,8,1:3:0:0:
49,283,151688,1,8,0:0:0:0:
162,371,151851,6,0,P|220:362|301:351,1,120,8|0,1:3|0:0,0:0:0:0:
316,347,152177,2,0,P|326:310|315:247,1,80,12|0,1:3|0:0,0:0:0:0:
197,175,152503,2,0,P|186:213|190:253,1,80,12|0,1:3|0:0,0:0:0:0:
309,112,152829,1,12,1:3:0:0:
151,85,152992,1,8,1:3:0:0:
309,112,153155,6,0,P|351:106|398:100,1,80,8|0,0:0|0:0,0:0:0:0:
462,224,153481,2,0,P|420:218|373:212,1,80,12|0,0:0|0:0,0:0:0:0:
272,306,153808,2,0,P|260:358|265:389,1,80,8|0,0:0|0:0,0:0:0:0:
101,316,154134,2,0,P|117:260|96:193,1,120,12|0,0:0|0:0,0:0:0:0:
83,170,154460,6,0,P|151:160|245:146,1,160,8|8,1:3|0:0,0:0:0:0:
380,183,154949,2,0,P|391:215|388:273,2,80,0|8|0,1:3|0:0|0:0,0:0:0:0:
319,52,155438,1,12,1:3:0:0:
244,175,155601,1,8,0:0:0:0:
156,60,155764,6,0,P|114:49|16:108,1,160,8|8,1:3|0:0,0:0:0:0:
101,220,156253,1,0,1:3:0:0:
244,175,156416,5,8,0:0:0:0:
269,176,156497,1,8,0:0:0:0:
296,177,156579,1,8,0:0:0:0:
322,179,156660,1,8,0:0:0:0:
358,196,156742,5,12,1:3:0:0:
395,193,156823,1,12,0:0:0:0:
431,188,156905,1,12,0:0:0:0:
468,184,156986,1,12,0:0:0:0:
504,180,157068,5,12,1:3:0:0:
256,192,157150,12,0,159188,0:0:0:0:
271,129,159351,6,0,B|218:104|218:104|246:227,1,180.000006866455,8|0,0:0|0:0,0:0:0:0:
251,245,159677,6,0,B|183:255|183:255|140:287|140:287|62:298,1,191.999994140625,12|4,1:3|1:3,0:0:0:0:
287,92,160981,1,12,0:0:0:0:
276,235,161144,1,8,0:0:0:0:
176,129,161308,1,8,0:0:0:0:
313,85,161471,1,8,0:3:0:0:
301,228,161634,5,8,0:0:0:0:
219,49,161797,1,12,0:0:0:0:
376,166,161960,1,12,0:0:0:0:
184,229,162123,1,8,0:0:0:0:
184,229,162204,1,8,0:0:0:0:
182,228,162286,6,0,B|154:216|119:224|119:224|93:197|93:197|43:190|8:223,1,191.999994140625,12|4,1:3|1:3,0:0:0:0:
279,358,163590,1,8,0:0:0:0:
302,354,163671,1,8,0:0:0:0:
326,351,163753,1,8,0:0:0:0:
350,348,163834,1,8,0:0:0:0:
374,345,163916,2,0,L|408:350,3,23.9999992675781,8|8|12|8,0:0|0:0|0:0|0:0,0:0:0:0:
484,355,164242,5,8,0:0:0:0:
481,331,164323,1,8,0:0:0:0:
479,307,164405,1,8,0:0:0:0:
477,283,164486,1,8,0:0:0:0:
474,259,164568,1,12,1:3:0:0:
472,235,164649,1,8,0:0:0:0:
470,211,164731,1,8,1:3:0:0:
467,187,164812,1,8,0:3:0:0:
465,163,164894,6,0,P|417:181|360:168,2,95.9999970703126,12|0|8,1:3|1:3|1:3,0:0:0:0:
256,9,165873,1,12,1:3:0:0:
78,197,166199,6,0,P|92:252|97:307,1,95.9999970703126,12|0,1:3|0:0,0:0:0:0:
344,366,166851,2,0,P|350:318|362:272,1,95.9999970703126,12|0,1:3|0:0,0:0:0:0:
256,9,167503,5,12,0:0:0:0:
212,196,167666,1,12,0:0:0:0:
131,12,167829,1,8,0:0:0:0:
131,12,167911,1,8,0:0:0:0:
131,12,167992,1,12,0:0:0:0:
335,121,168155,1,12,0:0:0:0:
108,172,168318,1,8,0:0:0:0:
108,172,168400,1,8,0:0:0:0:
108,172,168481,2,0,L|18:163,1,80,12|12,1:3|0:0,0:0:0:0:
186,336,168808,5,8,1:3:0:0:
186,336,168889,1,8,0:0:0:0:
186,336,168971,1,12,0:0:0:0:
240,94,169134,1,12,1:3:0:0:
402,281,169297,1,8,0:0:0:0:
402,281,169378,1,8,0:0:0:0:
402,281,169460,6,0,P|433:299|398:253,1,195.999994018555,8|0,1:3|0:0,0:0:0:0:
370,359,170112,6,4,P|319:351|261:344,1,95.9999970703126,12|8,1:3|0:0,0:0:0:0:
168,185,170438,2,0,P|215:178|263:171,1,95.9999970703126,12|0,1:3|1:3,0:0:0:0:
85,96,170764,1,8,1:3:0:0:
141,279,170927,1,8,0:0:0:0:
194,54,171090,1,12,1:3:0:0:
34,192,171253,6,0,P|21:239|32:293,1,95.9999970703126,0|8,1:3|0:0,0:0:0:0:
177,373,171579,1,8,0:0:0:0:
262,171,171742,2,0,P|215:165|157:157,1,95.9999970703126,12|0,0:0|0:0,0:0:0:0:
360,102,172068,1,8,0:0:0:0:
279,276,172231,1,8,0:0:0:0:
198,60,172394,2,0,P|143:58|99:80,1,95.9999970703126,12|0,0:0|0:0,0:0:0:0:
253,289,172721,5,8,1:3:0:0:
335,115,172884,1,8,0:0:0:0:
473,286,173047,2,0,P|468:333|462:381,1,95.9999970703126,12|0,1:3|0:0,0:0:0:0:
279,276,173373,1,8,1:3:0:0:
431,159,173536,1,8,0:0:0:0:
333,378,173699,1,12,1:3:0:0:
187,187,173862,6,0,P|139:192|91:199,1,95.9999970703126,0|8,1:3|0:0,0:0:0:0:
303,262,174188,1,8,0:0:0:0:
157,83,174351,1,12,1:3:0:0:
179,292,174514,1,8,0:0:0:0:
314,82,174677,1,12,1:3:0:0:
137,193,174840,1,8,0:0:0:0:
393,231,175003,1,12,1:3:0:0:
172,326,175166,1,8,0:0:0:0:
172,326,175248,1,0,0:0:0:0:
171,326,175329,6,0,P|125:336|78:328,1,95.9999970703126,12|8,1:3|0:0,0:0:0:0:
278,215,175655,2,0,P|324:204|371:212,1,95.9999970703126,12|0,1:3|0:0,0:0:0:0:
262,370,175981,1,8,1:3:0:0:
203,167,176144,1,8,0:0:0:0:
55,317,176308,1,12,1:3:0:0:
203,167,176471,6,0,P|199:118|193:63,1,95.9999970703126,0|8,1:3|0:0,0:0:0:0:
327,247,176797,1,8,0:0:0:0:
107,223,176960,2,0,P|93:177|101:122,1,95.9999970703126,12|0,1:3|0:0,0:0:0:0:
321,218,177286,1,8,1:3:0:0:
154,313,177449,1,8,0:0:0:0:
197,96,177612,1,12,1:3:0:0:
412,200,177775,6,0,P|460:194|515:186,1,95.9999970703126,0|8,1:3|0:0,0:0:0:0:
316,41,178101,1,8,0:0:0:0:
184,218,178264,2,0,P|173:266|183:317,1,95.9999970703126,12|0,0:0|0:0,0:0:0:0:
384,203,178590,1,8,0:0:0:0:
197,96,178753,1,8,0:0:0:0:
310,296,178916,1,12,0:3:0:0:
433,79,179079,1,8,0:0:0:0:
433,79,179161,1,8,0:0:0:0:
433,79,179242,5,12,1:3:0:0:
184,218,179405,1,8,0:0:0:0:
266,0,179568,1,12,1:3:0:0:
326,281,179731,1,8,0:3:0:0:
45,216,179894,5,8,0:0:0:0:
20,175,179975,1,8,0:0:0:0:
14,128,180057,1,8,0:0:0:0:
29,82,180138,1,8,0:0:0:0:
62,48,180221,5,8,0:0:0:0:
90,50,180302,1,8,0:0:0:0:
119,52,180384,1,8,0:0:0:0:
148,54,180465,1,8,0:0:0:0:
176,55,180547,6,0,P|171:102|165:159,1,95.9999970703126,12|8,1:3|0:0,0:0:0:0:
306,332,180873,2,0,P|300:284|295:236,1,95.9999970703126,8|8,0:0|0:0,0:0:0:0:
270,7,181199,1,12,0:0:0:0:
162,182,181362,1,8,0:0:0:0:
368,140,181525,1,8,0:0:0:0:
176,55,181688,1,8,0:0:0:0:
376,167,181851,6,0,P|423:174|469:163,1,95.9999970703126,12|8,0:0|0:0,0:0:0:0:
282,342,182177,2,0,P|234:334|188:345,1,95.9999970703126,8|8,0:0|0:0,0:0:0:0:
25,169,182503,1,12,0:0:0:0:
210,247,182666,1,8,0:0:0:0:
14,294,182829,1,8,0:0:0:0:
142,138,182992,1,8,0:0:0:0:
233,335,183155,6,0,P|279:329|337:322,1,95.9999970703126,12|8,0:0|0:0,0:0:0:0:
470,164,183481,2,0,P|422:158|374:152,1,95.9999970703126,8|8,0:0|0:0,0:0:0:0:
115,126,183808,1,12,0:0:0:0:
308,42,183971,1,8,0:0:0:0:
202,224,184134,1,8,0:0:0:0:
169,15,184297,1,8,0:0:0:0:
24,206,184460,6,0,P|28:254|32:315,1,95.9999970703126,12|8,0:0|0:0,0:0:0:0:
254,360,184786,1,8,0:0:0:0:
208,124,184949,2,0,B|162:114|162:114|99:129,1,95.9999970703126,12|8,0:0|0:0,0:0:0:0:
352,286,185275,1,12,0:0:0:0:
277,17,185438,1,12,0:0:0:0:
116,244,185601,1,8,0:0:0:0:
364,117,185764,5,12,0:0:0:0:
396,124,185845,1,8,0:0:0:0:
427,138,185927,1,8,0:0:0:0:
453,159,186008,1,8,0:0:0:0:
473,186,186090,1,8,0:0:0:0:
486,217,186171,1,8,0:0:0:0:
491,250,186253,1,8,0:0:0:0:
488,283,186334,1,8,0:0:0:0:
476,325,186416,5,8,0:0:0:0:
451,303,186497,1,8,0:0:0:0:
423,284,186579,1,8,0:0:0:0:
392,271,186660,1,8,0:0:0:0:
359,264,186742,1,8,0:0:0:0:
326,262,186823,1,8,0:0:0:0:
292,265,186905,1,8,0:0:0:0:
260,274,186986,1,8,0:0:0:0:
224,299,187068,6,0,L|235:364,3,47.9999985351563,8|8|8|8,0:0|0:0|0:0|0:0,0:0:0:0:
131,271,187394,2,0,L|142:206,3,47.9999985351563,8|8|8|8,0:0|0:0|0:0|0:0,0:0:0:0:
162,133,187721,5,8,0:0:0:0:
191,148,187802,1,8,0:0:0:0:
223,158,187884,1,8,0:0:0:0:
257,160,187965,1,8,0:0:0:0:
290,155,188047,1,8,0:0:0:0:
321,144,188128,1,8,0:0:0:0:
350,126,188210,1,8,0:0:0:0:
374,102,188291,1,8,0:0:0:0:
396,65,188373,6,0,L|456:73,1,47.9999985351563,12|8,0:0|0:0,0:0:0:0:
275,16,188536,1,8,0:0:0:0:
275,16,188617,1,8,0:0:0:0:
275,16,188699,2,0,L|215:24,1,47.9999985351563,12|8,0:0|0:0,0:0:0:0:
162,133,188862,1,8,0:0:0:0:
162,133,188943,1,8,0:0:0:0:
162,133,189025,6,0,L|222:141,1,47.9999985351563,12|8,0:0|0:0,0:0:0:0:
303,258,189188,1,8,0:0:0:0:
303,258,189269,1,8,0:0:0:0:
303,258,189351,2,0,L|243:266,1,47.9999985351563,12|8,0:0|0:0,0:0:0:0:
117,288,189514,1,8,0:0:0:0:
117,288,189596,1,8,0:0:0:0:
117,288,189677,6,0,P|112:321|118:355,1,47.9999985351563,8|8,0:0|0:0,0:0:0:0:
308,166,189840,2,0,P|308:142|304:118,1,47.9999985351563,8|8,0:0|0:0,0:0:0:0:
166,29,190003,1,8,0:0:0:0:
142,31,190084,1,8,0:0:0:0:
118,34,190166,1,8,0:0:0:0:
94,37,190247,1,8,0:0:0:0:
61,43,190329,5,8,0:0:0:0:
58,90,190410,1,8,0:0:0:0:
68,137,190492,1,8,0:0:0:0:
98,173,190573,1,8,0:0:0:0:
144,187,190655,5,8,0:0:0:0:
175,150,190736,1,8,0:0:0:0:
221,135,190818,1,8,0:0:0:0:
268,141,190899,1,8,0:0:0:0:
308,166,190981,5,12,0:0:0:0:
256,192,191063,12,0,197503,0:0:0:0:
