osu file format v14

[General]
AudioFilename: [Indie Dance] - Draper - Ready For Us (feat. Sykes) [Monstercat R.mp3
AudioLeadIn: 0
PreviewTime: 19281
Countdown: 0
SampleSet: None
StackLeniency: 0.7
Mode: 3
LetterboxInBreaks: 0
SpecialStyle: 0
WidescreenStoryboard: 0

[Editor]
DistanceSpacing: 0.8
BeatDivisor: 2
GridSize: 32
TimelineZoom: 1

[Metadata]
Title:Ready For Us
TitleUnicode:Ready For Us
Artist:Draper
ArtistUnicode:Draper
Creator:juankristal
Version:Stage 2: Perfection
Source:
Tags:Guilhermeziat
BeatmapID:1494547
BeatmapSetID:706897

[Difficulty]
HPDrainRate:8
CircleSize:4
OverallDifficulty:8.5
ApproachRate:5
SliderMultiplier:1.4
SliderTickRate:1

[Events]
//Background and Video events
0,0,"ready for us.jpg",0,0
//Break Periods
//Storyboard Layer 0 (Background)
//Storyboard Layer 1 (Fail)
//Storyboard Layer 2 (Pass)
//Storyboard Layer 3 (Foreground)
//Storyboard Sound Samples

[TimingPoints]
81,600,4,1,0,100,1,0

[HitObjects]
64,192,81,5,0,0:0:0:0:
320,192,381,1,0,0:0:0:0:
64,192,531,1,0,0:0:0:0:
192,192,681,1,0,0:0:0:0:
64,192,981,1,0,0:0:0:0:
192,192,1131,1,0,0:0:0:0:
192,192,1281,1,0,0:0:0:0:
448,192,1731,1,0,0:0:0:0:
448,192,2181,1,0,0:0:0:0:
64,192,2481,1,0,0:0:0:0:
64,192,2931,1,0,0:0:0:0:
448,192,3231,1,0,0:0:0:0:
64,192,3381,1,0,0:0:0:0:
192,192,3681,128,0,4281:0:0:0:0:
448,192,3981,128,0,4281:0:0:0:0:
320,192,4281,128,0,4581:0:0:0:0:
64,192,4731,128,0,5181:0:0:0:0:
320,192,5181,1,0,0:0:0:0:
192,192,5481,1,0,0:0:0:0:
320,192,5631,1,0,0:0:0:0:
64,192,5781,1,0,0:0:0:0:
320,192,5931,1,0,0:0:0:0:
448,192,6081,1,0,0:0:0:0:
192,192,6531,1,0,0:0:0:0:
320,192,6681,128,0,6981:0:0:0:0:
192,192,6981,1,0,0:0:0:0:
64,192,7131,128,0,7581:0:0:0:0:
320,192,7581,1,0,0:0:0:0:
192,192,8031,1,0,0:0:0:0:
320,192,8031,1,0,0:0:0:0:
448,192,8481,1,0,0:0:0:0:
64,192,8781,128,0,9081:0:0:0:0:
192,192,9081,1,0,0:0:0:0:
192,192,9381,1,0,0:0:0:0:
448,192,9681,1,0,0:0:0:0:
64,192,9981,1,0,0:0:0:0:
448,192,10131,1,0,0:0:0:0:
320,192,10281,1,0,0:0:0:0:
448,192,10581,1,0,0:0:0:0:
320,192,10731,1,0,0:0:0:0:
320,192,10881,1,0,0:0:0:0:
320,192,11181,1,0,0:0:0:0:
192,192,11331,1,0,0:0:0:0:
192,192,11781,1,0,0:0:0:0:
448,192,12081,1,0,0:0:0:0:
448,192,12531,1,0,0:0:0:0:
64,192,12831,1,0,0:0:0:0:
448,192,12981,1,0,0:0:0:0:
192,192,13281,128,0,13881:0:0:0:0:
320,192,13581,128,0,13881:0:0:0:0:
64,192,13881,128,0,13981:0:0:0:0:
448,192,13981,128,0,14081:0:0:0:0:
320,192,14381,128,0,14781:0:0:0:0:
192,192,14781,1,0,0:0:0:0:
448,192,15081,1,0,0:0:0:0:
192,192,15231,1,0,0:0:0:0:
320,192,15381,1,0,0:0:0:0:
192,192,15531,1,0,0:0:0:0:
64,192,15681,1,0,0:0:0:0:
320,192,16131,1,0,0:0:0:0:
64,192,16281,128,0,16381:0:0:0:0:
448,192,16381,128,0,16481:0:0:0:0:
320,192,16731,128,0,19281:0:0:0:0:
192,192,17181,1,0,0:0:0:0:
192,192,17631,1,0,0:0:0:0:
448,192,17631,1,0,0:0:0:0:
64,192,18081,1,0,0:0:0:0:
448,192,18381,128,0,18681:0:0:0:0:
64,192,19281,1,0,0:0:0:0:
192,192,19281,1,0,0:0:0:0:
64,192,19431,1,0,0:0:0:0:
448,192,19581,1,0,0:0:0:0:
192,192,19731,1,0,0:0:0:0:
320,192,19881,1,0,0:0:0:0:
192,192,20181,1,0,0:0:0:0:
448,192,20181,1,0,0:0:0:0:
64,192,20481,1,0,0:0:0:0:
320,192,20781,1,0,0:0:0:0:
192,192,20931,1,0,0:0:0:0:
64,192,21081,1,0,0:0:0:0:
448,192,21081,1,0,0:0:0:0:
320,192,21381,1,0,0:0:0:0:
64,192,21531,1,0,0:0:0:0:
448,192,21681,1,0,0:0:0:0:
320,192,21981,1,0,0:0:0:0:
192,192,22281,1,0,0:0:0:0:
64,192,22581,1,0,0:0:0:0:
448,192,22881,1,0,0:0:0:0:
64,192,23331,1,0,0:0:0:0:
192,192,23331,1,0,0:0:0:0:
64,192,23481,1,0,0:0:0:0:
448,192,23481,1,0,0:0:0:0:
64,192,23781,1,0,0:0:0:0:
192,192,23781,1,0,0:0:0:0:
192,192,23931,1,0,0:0:0:0:
64,192,24081,1,0,0:0:0:0:
320,192,24081,1,0,0:0:0:0:
448,192,24081,1,0,0:0:0:0:
320,192,24231,1,0,0:0:0:0:
192,192,24381,1,0,0:0:0:0:
320,192,24531,1,0,0:0:0:0:
64,192,24681,1,0,0:0:0:0:
448,192,24681,1,0,0:0:0:0:
320,192,24981,1,0,0:0:0:0:
64,192,25131,1,0,0:0:0:0:
448,192,25131,1,0,0:0:0:0:
64,192,25431,1,0,0:0:0:0:
448,192,25431,1,0,0:0:0:0:
320,192,25581,1,0,0:0:0:0:
448,192,25581,1,0,0:0:0:0:
64,192,25881,1,0,0:0:0:0:
448,192,25881,1,0,0:0:0:0:
192,192,26031,1,0,0:0:0:0:
320,192,26181,1,0,0:0:0:0:
192,192,26331,1,0,0:0:0:0:
64,192,26481,1,0,0:0:0:0:
320,192,26481,1,0,0:0:0:0:
448,192,26481,1,0,0:0:0:0:
448,192,26631,1,0,0:0:0:0:
64,192,26781,1,0,0:0:0:0:
64,192,26931,1,0,0:0:0:0:
320,192,27081,1,0,0:0:0:0:
448,192,27081,1,0,0:0:0:0:
64,192,27381,1,0,0:0:0:0:
320,192,27531,1,0,0:0:0:0:
448,192,27531,1,0,0:0:0:0:
320,192,27831,1,0,0:0:0:0:
64,192,27981,1,0,0:0:0:0:
320,192,27981,1,0,0:0:0:0:
192,192,28281,1,0,0:0:0:0:
320,192,28281,1,0,0:0:0:0:
448,192,28281,1,0,0:0:0:0:
64,192,28581,1,0,0:0:0:0:
448,192,28581,1,0,0:0:0:0:
192,192,28731,1,0,0:0:0:0:
320,192,28731,1,0,0:0:0:0:
64,192,28881,1,0,0:0:0:0:
320,192,28881,1,0,0:0:0:0:
448,192,28881,1,0,0:0:0:0:
64,192,29031,1,0,0:0:0:0:
448,192,29181,1,0,0:0:0:0:
448,192,29331,1,0,0:0:0:0:
64,192,29481,1,0,0:0:0:0:
192,192,29481,1,0,0:0:0:0:
448,192,29631,1,0,0:0:0:0:
64,192,29931,1,0,0:0:0:0:
320,192,29931,1,0,0:0:0:0:
192,192,30081,1,0,0:0:0:0:
64,192,30231,1,0,0:0:0:0:
320,192,30231,1,0,0:0:0:0:
320,192,30381,1,0,0:0:0:0:
448,192,30381,1,0,0:0:0:0:
64,192,30681,1,0,0:0:0:0:
192,192,30681,1,0,0:0:0:0:
320,192,30831,1,0,0:0:0:0:
448,192,30831,1,0,0:0:0:0:
192,192,30981,1,0,0:0:0:0:
192,192,31131,1,0,0:0:0:0:
64,192,31281,1,0,0:0:0:0:
448,192,31281,1,0,0:0:0:0:
320,192,31581,1,0,0:0:0:0:
64,192,31731,1,0,0:0:0:0:
192,192,31881,1,0,0:0:0:0:
448,192,31881,1,0,0:0:0:0:
320,192,32031,1,0,0:0:0:0:
64,192,32181,1,0,0:0:0:0:
320,192,32331,1,0,0:0:0:0:
448,192,32331,1,0,0:0:0:0:
192,192,32481,1,0,0:0:0:0:
448,192,32631,1,0,0:0:0:0:
64,192,32781,1,0,0:0:0:0:
192,192,32931,1,0,0:0:0:0:
448,192,32931,1,0,0:0:0:0:
64,192,33081,1,0,0:0:0:0:
192,192,33081,1,0,0:0:0:0:
320,192,33081,1,0,0:0:0:0:
64,192,33231,1,0,0:0:0:0:
448,192,33231,1,0,0:0:0:0:
192,192,33381,1,0,0:0:0:0:
320,192,33381,1,0,0:0:0:0:
320,192,33531,1,0,0:0:0:0:
64,192,33681,1,0,0:0:0:0:
192,192,33681,1,0,0:0:0:0:
448,192,33681,1,0,0:0:0:0:
192,192,33831,1,0,0:0:0:0:
320,192,33981,1,0,0:0:0:0:
192,192,34131,1,0,0:0:0:0:
64,192,34281,1,0,0:0:0:0:
448,192,34281,1,0,0:0:0:0:
192,192,34581,1,0,0:0:0:0:
64,192,34731,1,0,0:0:0:0:
448,192,34731,1,0,0:0:0:0:
64,192,35031,1,0,0:0:0:0:
448,192,35031,1,0,0:0:0:0:
64,192,35181,1,0,0:0:0:0:
192,192,35181,1,0,0:0:0:0:
64,192,35481,1,0,0:0:0:0:
448,192,35481,1,0,0:0:0:0:
320,192,35631,1,0,0:0:0:0:
192,192,35781,1,0,0:0:0:0:
320,192,35931,1,0,0:0:0:0:
64,192,36081,1,0,0:0:0:0:
192,192,36081,1,0,0:0:0:0:
448,192,36081,1,0,0:0:0:0:
64,192,36231,1,0,0:0:0:0:
448,192,36381,1,0,0:0:0:0:
192,192,36531,1,0,0:0:0:0:
64,192,36681,1,0,0:0:0:0:
320,192,36681,1,0,0:0:0:0:
192,192,36981,1,0,0:0:0:0:
320,192,37131,1,0,0:0:0:0:
448,192,37131,1,0,0:0:0:0:
448,192,37431,1,0,0:0:0:0:
192,192,37581,1,0,0:0:0:0:
448,192,37581,1,0,0:0:0:0:
64,192,37881,1,0,0:0:0:0:
192,192,37881,1,0,0:0:0:0:
320,192,37881,1,0,0:0:0:0:
64,192,38181,1,0,0:0:0:0:
448,192,38181,1,0,0:0:0:0:
192,192,38331,1,0,0:0:0:0:
320,192,38331,1,0,0:0:0:0:
64,192,38481,1,0,0:0:0:0:
192,192,38481,1,0,0:0:0:0:
448,192,38481,1,0,0:0:0:0:
448,192,38631,1,0,0:0:0:0:
64,192,38781,1,0,0:0:0:0:
64,192,38931,1,0,0:0:0:0:
320,192,39081,1,0,0:0:0:0:
448,192,39081,1,0,0:0:0:0:
64,192,39231,1,0,0:0:0:0:
192,192,39531,1,0,0:0:0:0:
448,192,39531,1,0,0:0:0:0:
320,192,39681,1,0,0:0:0:0:
192,192,39831,1,0,0:0:0:0:
448,192,39831,1,0,0:0:0:0:
64,192,39981,1,0,0:0:0:0:
192,192,39981,1,0,0:0:0:0:
320,192,40281,1,0,0:0:0:0:
448,192,40281,1,0,0:0:0:0:
64,192,40431,1,0,0:0:0:0:
192,192,40431,1,0,0:0:0:0:
192,192,40731,1,0,0:0:0:0:
64,192,40881,1,0,0:0:0:0:
448,192,40881,1,0,0:0:0:0:
192,192,41181,1,0,0:0:0:0:
448,192,41331,1,0,0:0:0:0:
64,192,41481,1,0,0:0:0:0:
320,192,41481,1,0,0:0:0:0:
192,192,41631,1,0,0:0:0:0:
448,192,41781,1,0,0:0:0:0:
64,192,41931,1,0,0:0:0:0:
192,192,41931,1,0,0:0:0:0:
320,192,42081,1,0,0:0:0:0:
64,192,42231,1,0,0:0:0:0:
448,192,42381,1,0,0:0:0:0:
320,192,42681,1,0,0:0:0:0:
320,192,42831,1,0,0:0:0:0:
192,192,42981,1,0,0:0:0:0:
448,192,43131,1,0,0:0:0:0:
320,192,43281,1,0,0:0:0:0:
192,192,43431,1,0,0:0:0:0:
64,192,43581,1,0,0:0:0:0:
320,192,43881,1,0,0:0:0:0:
192,192,44181,1,0,0:0:0:0:
192,192,44331,1,0,0:0:0:0:
192,192,44481,1,0,0:0:0:0:
448,192,44931,1,0,0:0:0:0:
448,192,45381,1,0,0:0:0:0:
64,192,45681,1,0,0:0:0:0:
64,192,46131,1,0,0:0:0:0:
320,192,46431,1,0,0:0:0:0:
64,192,46581,1,0,0:0:0:0:
448,192,46881,128,0,47181:0:0:0:0:
192,192,47181,1,0,0:0:0:0:
320,192,47331,1,0,0:0:0:0:
448,192,47331,1,0,0:0:0:0:
64,192,47481,128,0,47781:0:0:0:0:
192,192,47481,1,0,0:0:0:0:
320,192,47931,128,0,48081:0:0:0:0:
64,192,48081,1,0,0:0:0:0:
448,192,48081,1,0,0:0:0:0:
320,192,48381,1,0,0:0:0:0:
192,192,48531,1,0,0:0:0:0:
64,192,48681,1,0,0:0:0:0:
448,192,48681,1,0,0:0:0:0:
320,192,48831,1,0,0:0:0:0:
192,192,48981,1,0,0:0:0:0:
64,192,49131,1,0,0:0:0:0:
448,192,49281,1,0,0:0:0:0:
320,192,49431,1,0,0:0:0:0:
64,192,49581,1,0,0:0:0:0:
192,192,49581,1,0,0:0:0:0:
320,192,49731,1,0,0:0:0:0:
64,192,49881,1,0,0:0:0:0:
448,192,49881,1,0,0:0:0:0:
320,192,50031,1,0,0:0:0:0:
192,192,50181,1,0,0:0:0:0:
64,192,50331,1,0,0:0:0:0:
320,192,50331,1,0,0:0:0:0:
192,192,50481,1,0,0:0:0:0:
448,192,50481,1,0,0:0:0:0:
320,192,50631,1,0,0:0:0:0:
64,192,50781,1,0,0:0:0:0:
192,192,50931,1,0,0:0:0:0:
320,192,51081,1,0,0:0:0:0:
448,192,51081,1,0,0:0:0:0:
64,192,51231,1,0,0:0:0:0:
192,192,51381,1,0,0:0:0:0:
320,192,51531,1,0,0:0:0:0:
448,192,51681,1,0,0:0:0:0:
320,192,51831,1,0,0:0:0:0:
448,192,51981,1,0,0:0:0:0:
64,192,52131,1,0,0:0:0:0:
192,192,52131,1,0,0:0:0:0:
320,192,52281,1,0,0:0:0:0:
448,192,52281,1,0,0:0:0:0:
64,192,52581,1,0,0:0:0:0:
192,192,52581,1,0,0:0:0:0:
64,192,52881,1,0,0:0:0:0:
448,192,52881,1,0,0:0:0:0:
192,192,53031,1,0,0:0:0:0:
320,192,53181,1,0,0:0:0:0:
448,192,53181,1,0,0:0:0:0:
64,192,53331,1,0,0:0:0:0:
192,192,53481,1,0,0:0:0:0:
320,192,53481,1,0,0:0:0:0:
448,192,53631,1,0,0:0:0:0:
64,192,53781,1,0,0:0:0:0:
192,192,53781,1,0,0:0:0:0:
320,192,53931,1,0,0:0:0:0:
448,192,53931,1,0,0:0:0:0:
64,192,54081,1,0,0:0:0:0:
192,192,54081,1,0,0:0:0:0:
320,192,54231,1,0,0:0:0:0:
64,192,54381,1,0,0:0:0:0:
448,192,54381,1,0,0:0:0:0:
192,192,54531,1,0,0:0:0:0:
320,192,54531,1,0,0:0:0:0:
320,192,54681,1,0,0:0:0:0:
448,192,54681,1,0,0:0:0:0:
64,192,54831,1,0,0:0:0:0:
192,192,54981,1,0,0:0:0:0:
64,192,55131,1,0,0:0:0:0:
320,192,55281,1,0,0:0:0:0:
448,192,55281,1,0,0:0:0:0:
192,192,55431,1,0,0:0:0:0:
64,192,55581,1,0,0:0:0:0:
448,192,55731,1,0,0:0:0:0:
192,192,55881,1,0,0:0:0:0:
320,192,55881,1,0,0:0:0:0:
64,192,56031,1,0,0:0:0:0:
320,192,56181,1,0,0:0:0:0:
448,192,56181,1,0,0:0:0:0:
192,192,56331,1,0,0:0:0:0:
64,192,56481,128,0,57081:0:0:0:0:
448,192,56481,1,0,0:0:0:0:
320,192,56631,1,0,0:0:0:0:
192,192,56781,128,0,57081:0:0:0:0:
320,192,57081,128,0,57181:0:0:0:0:
448,192,57181,128,0,57281:0:0:0:0:
64,192,57381,1,0,0:0:0:0:
192,192,57381,1,0,0:0:0:0:
320,192,57581,128,0,57981:0:0:0:0:
64,192,57681,1,0,0:0:0:0:
192,192,57681,1,0,0:0:0:0:
192,192,57981,1,0,0:0:0:0:
320,192,58131,1,0,0:0:0:0:
64,192,58281,1,0,0:0:0:0:
448,192,58281,1,0,0:0:0:0:
192,192,58431,1,0,0:0:0:0:
320,192,58581,1,0,0:0:0:0:
448,192,58731,1,0,0:0:0:0:
64,192,58881,1,0,0:0:0:0:
320,192,59031,1,0,0:0:0:0:
64,192,59181,1,0,0:0:0:0:
192,192,59181,1,0,0:0:0:0:
320,192,59331,1,0,0:0:0:0:
64,192,59481,1,0,0:0:0:0:
448,192,59481,1,0,0:0:0:0:
192,192,59631,1,0,0:0:0:0:
320,192,59781,1,0,0:0:0:0:
64,192,59931,1,0,0:0:0:0:
192,192,59931,1,0,0:0:0:0:
320,192,60081,1,0,0:0:0:0:
448,192,60081,1,0,0:0:0:0:
64,192,60231,1,0,0:0:0:0:
320,192,60381,1,0,0:0:0:0:
192,192,60531,1,0,0:0:0:0:
64,192,60681,1,0,0:0:0:0:
448,192,60681,1,0,0:0:0:0:
320,192,60831,1,0,0:0:0:0:
192,192,60981,1,0,0:0:0:0:
64,192,61131,1,0,0:0:0:0:
448,192,61281,1,0,0:0:0:0:
64,192,61431,1,0,0:0:0:0:
320,192,61581,1,0,0:0:0:0:
192,192,61731,1,0,0:0:0:0:
448,192,61731,1,0,0:0:0:0:
64,192,61881,1,0,0:0:0:0:
320,192,61881,1,0,0:0:0:0:
192,192,62031,1,0,0:0:0:0:
320,192,62031,1,0,0:0:0:0:
64,192,62181,1,0,0:0:0:0:
192,192,62181,1,0,0:0:0:0:
320,192,62481,1,0,0:0:0:0:
448,192,62481,1,0,0:0:0:0:
320,192,62631,1,0,0:0:0:0:
64,192,62781,1,0,0:0:0:0:
192,192,62931,1,0,0:0:0:0:
448,192,63081,1,0,0:0:0:0:
64,192,63381,1,0,0:0:0:0:
320,192,63381,1,0,0:0:0:0:
448,192,63681,1,0,0:0:0:0:
192,192,63981,1,0,0:0:0:0:
320,192,64131,1,0,0:0:0:0:
64,192,64281,1,0,0:0:0:0:
448,192,64281,1,0,0:0:0:0:
192,192,64581,1,0,0:0:0:0:
448,192,64731,1,0,0:0:0:0:
64,192,64881,1,0,0:0:0:0:
192,192,65181,1,0,0:0:0:0:
64,192,65331,1,0,0:0:0:0:
320,192,65481,1,0,0:0:0:0:
192,192,65631,1,0,0:0:0:0:
448,192,65781,1,0,0:0:0:0:
320,192,65931,1,0,0:0:0:0:
64,192,66081,1,0,0:0:0:0:
320,192,66531,1,0,0:0:0:0:
448,192,66531,1,0,0:0:0:0:
64,192,66681,1,0,0:0:0:0:
448,192,66681,1,0,0:0:0:0:
192,192,66981,1,0,0:0:0:0:
320,192,66981,1,0,0:0:0:0:
192,192,67131,1,0,0:0:0:0:
64,192,67281,1,0,0:0:0:0:
320,192,67281,1,0,0:0:0:0:
448,192,67281,1,0,0:0:0:0:
320,192,67431,1,0,0:0:0:0:
192,192,67581,1,0,0:0:0:0:
320,192,67731,1,0,0:0:0:0:
64,192,67881,1,0,0:0:0:0:
448,192,67881,1,0,0:0:0:0:
192,192,68031,1,0,0:0:0:0:
448,192,68181,1,0,0:0:0:0:
64,192,68331,1,0,0:0:0:0:
320,192,68331,1,0,0:0:0:0:
192,192,68481,1,0,0:0:0:0:
64,192,68631,1,0,0:0:0:0:
320,192,68631,1,0,0:0:0:0:
320,192,68781,1,0,0:0:0:0:
448,192,68781,1,0,0:0:0:0:
192,192,68931,1,0,0:0:0:0:
64,192,69081,1,0,0:0:0:0:
448,192,69081,1,0,0:0:0:0:
320,192,69231,1,0,0:0:0:0:
192,192,69381,1,0,0:0:0:0:
192,192,69531,1,0,0:0:0:0:
64,192,69681,1,0,0:0:0:0:
320,192,69681,1,0,0:0:0:0:
448,192,69681,1,0,0:0:0:0:
192,192,69831,1,0,0:0:0:0:
64,192,69981,1,0,0:0:0:0:
64,192,70131,1,0,0:0:0:0:
320,192,70281,1,0,0:0:0:0:
448,192,70281,1,0,0:0:0:0:
192,192,70431,1,0,0:0:0:0:
64,192,70581,1,0,0:0:0:0:
192,192,70731,1,0,0:0:0:0:
448,192,70731,1,0,0:0:0:0:
320,192,70881,1,0,0:0:0:0:
448,192,71031,1,0,0:0:0:0:
64,192,71181,1,0,0:0:0:0:
448,192,71181,1,0,0:0:0:0:
192,192,71331,1,0,0:0:0:0:
320,192,71481,1,0,0:0:0:0:
448,192,71481,1,0,0:0:0:0:
192,192,71631,1,0,0:0:0:0:
320,192,71631,1,0,0:0:0:0:
64,192,71781,1,0,0:0:0:0:
192,192,71781,1,0,0:0:0:0:
64,192,71931,1,0,0:0:0:0:
192,192,72081,1,0,0:0:0:0:
320,192,72081,1,0,0:0:0:0:
448,192,72081,1,0,0:0:0:0:
320,192,72231,1,0,0:0:0:0:
64,192,72381,1,0,0:0:0:0:
320,192,72531,1,0,0:0:0:0:
192,192,72681,1,0,0:0:0:0:
448,192,72681,1,0,0:0:0:0:
64,192,72831,1,0,0:0:0:0:
320,192,72981,1,0,0:0:0:0:
64,192,73131,1,0,0:0:0:0:
192,192,73131,1,0,0:0:0:0:
448,192,73281,1,0,0:0:0:0:
64,192,73431,1,0,0:0:0:0:
192,192,73431,1,0,0:0:0:0:
64,192,73581,1,0,0:0:0:0:
448,192,73581,1,0,0:0:0:0:
320,192,73731,1,0,0:0:0:0:
192,192,73881,1,0,0:0:0:0:
448,192,73881,1,0,0:0:0:0:
64,192,74031,1,0,0:0:0:0:
448,192,74031,1,0,0:0:0:0:
192,192,74181,1,0,0:0:0:0:
192,192,74331,1,0,0:0:0:0:
320,192,74481,1,0,0:0:0:0:
448,192,74481,1,0,0:0:0:0:
64,192,74631,1,0,0:0:0:0:
192,192,74781,1,0,0:0:0:0:
448,192,74931,1,0,0:0:0:0:
64,192,75081,1,0,0:0:0:0:
320,192,75081,1,0,0:0:0:0:
192,192,75231,1,0,0:0:0:0:
448,192,75381,1,0,0:0:0:0:
192,192,75531,1,0,0:0:0:0:
320,192,75531,1,0,0:0:0:0:
64,192,75681,1,0,0:0:0:0:
320,192,75831,1,0,0:0:0:0:
448,192,75981,1,0,0:0:0:0:
64,192,76131,1,0,0:0:0:0:
192,192,76131,1,0,0:0:0:0:
64,192,76281,1,0,0:0:0:0:
320,192,76281,1,0,0:0:0:0:
448,192,76281,1,0,0:0:0:0:
192,192,76581,1,0,0:0:0:0:
320,192,76581,1,0,0:0:0:0:
320,192,76731,1,0,0:0:0:0:
64,192,76881,1,0,0:0:0:0:
192,192,76881,1,0,0:0:0:0:
448,192,76881,1,0,0:0:0:0:
192,192,77031,1,0,0:0:0:0:
320,192,77181,1,0,0:0:0:0:
192,192,77331,1,0,0:0:0:0:
64,192,77481,1,0,0:0:0:0:
448,192,77481,1,0,0:0:0:0:
320,192,77631,1,0,0:0:0:0:
64,192,77781,1,0,0:0:0:0:
192,192,77931,1,0,0:0:0:0:
448,192,77931,1,0,0:0:0:0:
320,192,78081,1,0,0:0:0:0:
192,192,78231,1,0,0:0:0:0:
448,192,78231,1,0,0:0:0:0:
64,192,78381,1,0,0:0:0:0:
192,192,78381,1,0,0:0:0:0:
320,192,78531,1,0,0:0:0:0:
64,192,78681,1,0,0:0:0:0:
448,192,78681,1,0,0:0:0:0:
192,192,78831,1,0,0:0:0:0:
320,192,78981,1,0,0:0:0:0:
320,192,79131,1,0,0:0:0:0:
64,192,79281,1,0,0:0:0:0:
192,192,79281,1,0,0:0:0:0:
448,192,79281,1,0,0:0:0:0:
320,192,79431,1,0,0:0:0:0:
64,192,79581,1,0,0:0:0:0:
192,192,79731,1,0,0:0:0:0:
64,192,79881,1,0,0:0:0:0:
448,192,79881,1,0,0:0:0:0:
320,192,80031,1,0,0:0:0:0:
192,192,80181,1,0,0:0:0:0:
64,192,80331,1,0,0:0:0:0:
320,192,80331,1,0,0:0:0:0:
448,192,80481,1,0,0:0:0:0:
64,192,80631,1,0,0:0:0:0:
192,192,80781,1,0,0:0:0:0:
320,192,80931,1,0,0:0:0:0:
64,192,81081,1,0,0:0:0:0:
192,192,81081,1,0,0:0:0:0:
448,192,81081,1,0,0:0:0:0:
320,192,81381,1,0,0:0:0:0:
448,192,81381,1,0,0:0:0:0:
64,192,81531,1,0,0:0:0:0:
448,192,81531,1,0,0:0:0:0:
64,192,81681,1,0,0:0:0:0:
192,192,81681,1,0,0:0:0:0:
320,192,81681,1,0,0:0:0:0:
192,192,81831,1,0,0:0:0:0:
448,192,81981,1,0,0:0:0:0:
192,192,82131,1,0,0:0:0:0:
64,192,82281,1,0,0:0:0:0:
320,192,82281,1,0,0:0:0:0:
448,192,82431,1,0,0:0:0:0:
192,192,82581,1,0,0:0:0:0:
320,192,82731,1,0,0:0:0:0:
448,192,82731,1,0,0:0:0:0:
64,192,82881,1,0,0:0:0:0:
320,192,83031,1,0,0:0:0:0:
448,192,83031,1,0,0:0:0:0:
64,192,83181,1,0,0:0:0:0:
448,192,83181,1,0,0:0:0:0:
192,192,83331,1,0,0:0:0:0:
64,192,83481,1,0,0:0:0:0:
320,192,83481,1,0,0:0:0:0:
64,192,83631,1,0,0:0:0:0:
448,192,83631,1,0,0:0:0:0:
320,192,83931,1,0,0:0:0:0:
64,192,84081,1,0,0:0:0:0:
192,192,84081,1,0,0:0:0:0:
448,192,84231,1,0,0:0:0:0:
320,192,84381,1,0,0:0:0:0:
64,192,84531,1,0,0:0:0:0:
192,192,84681,1,0,0:0:0:0:
448,192,84681,1,0,0:0:0:0:
320,192,84831,1,0,0:0:0:0:
64,192,84981,1,0,0:0:0:0:
192,192,85131,1,0,0:0:0:0:
320,192,85131,1,0,0:0:0:0:
448,192,85281,1,0,0:0:0:0:
192,192,85431,1,0,0:0:0:0:
64,192,85581,1,0,0:0:0:0:
320,192,85731,1,0,0:0:0:0:
448,192,85731,1,0,0:0:0:0:
64,192,85881,1,0,0:0:0:0:
448,192,85881,1,0,0:0:0:0:
192,192,86031,1,0,0:0:0:0:
320,192,86181,1,0,0:0:0:0:
448,192,86331,1,0,0:0:0:0:
64,192,86481,1,0,0:0:0:0:
192,192,86481,1,0,0:0:0:0:
320,192,86631,1,0,0:0:0:0:
448,192,86781,1,0,0:0:0:0:
192,192,86931,1,0,0:0:0:0:
64,192,87081,1,0,0:0:0:0:
448,192,87231,1,0,0:0:0:0:
320,192,87381,1,0,0:0:0:0:
64,192,87531,1,0,0:0:0:0:
192,192,87681,1,0,0:0:0:0:
320,192,87831,1,0,0:0:0:0:
448,192,87981,1,0,0:0:0:0:
192,192,88131,1,0,0:0:0:0:
64,192,88281,1,0,0:0:0:0:
448,192,88431,1,0,0:0:0:0:
320,192,88581,1,0,0:0:0:0:
320,192,88881,1,0,0:0:0:0:
448,192,88881,1,0,0:0:0:0:
64,192,89181,1,0,0:0:0:0:
448,192,89331,1,0,0:0:0:0:
64,192,89481,1,0,0:0:0:0:
320,192,89781,1,0,0:0:0:0:
192,192,90081,1,0,0:0:0:0:
64,192,90181,1,0,0:0:0:0:
448,192,90681,1,0,0:0:0:0:
64,192,91131,1,0,0:0:0:0:
192,192,91281,1,0,0:0:0:0:
192,192,91581,1,0,0:0:0:0:
320,192,91881,128,0,92181:0:0:0:0:
192,192,92481,1,0,0:0:0:0:
448,192,92481,128,0,92781:0:0:0:0:
64,192,93081,128,0,93381:0:0:0:0:
320,192,93081,1,0,0:0:0:0:
448,192,93681,1,0,0:0:0:0:
320,192,93831,1,0,0:0:0:0:
192,192,93981,1,0,0:0:0:0:
448,192,94131,1,0,0:0:0:0:
320,192,94281,128,0,94881:0:0:0:0:
192,192,94431,1,0,0:0:0:0:
64,192,94581,1,0,0:0:0:0:
448,192,94731,1,0,0:0:0:0:
192,192,94881,128,0,94981:0:0:0:0:
448,192,94981,128,0,95081:0:0:0:0:
64,192,95481,128,0,95631:0:0:0:0:
192,192,95781,128,0,96231:0:0:0:0:
320,192,95931,1,0,0:0:0:0:
64,192,96381,1,0,0:0:0:0:
320,192,96418,1,0,0:0:0:0:
448,192,96831,1,0,0:0:0:0:
192,192,96868,1,0,0:0:0:0:
192,192,97281,1,0,0:0:0:0:
320,192,97318,1,0,0:0:0:0:
64,192,97581,1,0,0:0:0:0:
192,192,97881,1,0,0:0:0:0:
320,192,97881,1,0,0:0:0:0:
448,192,98031,1,0,0:0:0:0:
64,192,98481,1,0,0:0:0:0:
192,192,98481,1,0,0:0:0:0:
448,192,98481,1,0,0:0:0:0:
64,192,98781,1,0,0:0:0:0:
320,192,99081,1,0,0:0:0:0:
448,192,99081,1,0,0:0:0:0:
192,192,99231,1,0,0:0:0:0:
448,192,99381,1,0,0:0:0:0:
64,192,99531,1,0,0:0:0:0:
320,192,99531,1,0,0:0:0:0:
192,192,99681,1,0,0:0:0:0:
64,192,99831,1,0,0:0:0:0:
320,192,99831,1,0,0:0:0:0:
64,192,99981,1,0,0:0:0:0:
448,192,99981,1,0,0:0:0:0:
320,192,100281,1,0,0:0:0:0:
448,192,100281,1,0,0:0:0:0:
64,192,100731,1,0,0:0:0:0:
192,192,100881,1,0,0:0:0:0:
320,192,100881,1,0,0:0:0:0:
192,192,101181,1,0,0:0:0:0:
64,192,101481,1,0,0:0:0:0:
320,192,101481,128,0,101781:0:0:0:0:
64,192,101931,1,0,0:0:0:0:
192,192,102081,1,0,0:0:0:0:
448,192,102081,128,0,102381:0:0:0:0:
64,192,102681,128,0,102981:0:0:0:0:
320,192,102681,1,0,0:0:0:0:
448,192,102681,1,0,0:0:0:0:
192,192,102981,1,0,0:0:0:0:
320,192,102981,1,0,0:0:0:0:
64,192,103281,1,0,0:0:0:0:
448,192,103281,1,0,0:0:0:0:
192,192,103581,1,0,0:0:0:0:
448,192,103731,1,0,0:0:0:0:
64,192,103881,1,0,0:0:0:0:
320,192,103881,1,0,0:0:0:0:
192,192,104031,1,0,0:0:0:0:
64,192,104181,1,0,0:0:0:0:
320,192,104331,1,0,0:0:0:0:
448,192,104331,1,0,0:0:0:0:
192,192,104481,1,0,0:0:0:0:
64,192,104631,1,0,0:0:0:0:
320,192,104631,1,0,0:0:0:0:
64,192,104781,1,0,0:0:0:0:
448,192,104781,1,0,0:0:0:0:
192,192,105081,1,0,0:0:0:0:
320,192,105081,1,0,0:0:0:0:
448,192,105381,1,0,0:0:0:0:
320,192,105531,1,0,0:0:0:0:
64,192,105681,1,0,0:0:0:0:
192,192,105681,1,0,0:0:0:0:
192,192,106581,1,0,0:0:0:0:
192,192,106731,1,0,0:0:0:0:
320,192,106881,1,0,0:0:0:0:
320,192,107331,1,0,0:0:0:0:
192,192,107781,1,0,0:0:0:0:
320,192,107781,1,0,0:0:0:0:
320,192,107931,1,0,0:0:0:0:
64,192,108081,1,0,0:0:0:0:
192,192,108081,1,0,0:0:0:0:
448,192,108081,1,0,0:0:0:0:
192,192,108231,1,0,0:0:0:0:
320,192,108381,1,0,0:0:0:0:
192,192,108531,1,0,0:0:0:0:
64,192,108681,1,0,0:0:0:0:
448,192,108681,1,0,0:0:0:0:
320,192,108831,1,0,0:0:0:0:
64,192,108981,1,0,0:0:0:0:
192,192,109131,1,0,0:0:0:0:
448,192,109131,1,0,0:0:0:0:
320,192,109281,1,0,0:0:0:0:
192,192,109431,1,0,0:0:0:0:
448,192,109431,1,0,0:0:0:0:
64,192,109581,1,0,0:0:0:0:
192,192,109581,1,0,0:0:0:0:
320,192,109731,1,0,0:0:0:0:
64,192,109881,1,0,0:0:0:0:
448,192,109881,1,0,0:0:0:0:
192,192,110031,1,0,0:0:0:0:
320,192,110181,1,0,0:0:0:0:
320,192,110331,1,0,0:0:0:0:
64,192,110481,1,0,0:0:0:0:
192,192,110481,1,0,0:0:0:0:
448,192,110481,1,0,0:0:0:0:
320,192,110631,1,0,0:0:0:0:
448,192,110781,1,0,0:0:0:0:
448,192,110931,1,0,0:0:0:0:
64,192,111081,1,0,0:0:0:0:
192,192,111081,1,0,0:0:0:0:
320,192,111231,1,0,0:0:0:0:
448,192,111381,1,0,0:0:0:0:
64,192,111531,1,0,0:0:0:0:
320,192,111531,1,0,0:0:0:0:
192,192,111681,1,0,0:0:0:0:
64,192,111831,1,0,0:0:0:0:
320,192,111981,1,0,0:0:0:0:
448,192,112131,1,0,0:0:0:0:
64,192,112281,1,0,0:0:0:0:
192,192,112281,1,0,0:0:0:0:
448,192,112281,1,0,0:0:0:0:
192,192,112581,1,0,0:0:0:0:
320,192,112581,1,0,0:0:0:0:
64,192,112731,1,0,0:0:0:0:
448,192,112731,1,0,0:0:0:0:
64,192,112881,1,0,0:0:0:0:
192,192,112881,1,0,0:0:0:0:
320,192,112881,1,0,0:0:0:0:
192,192,113031,1,0,0:0:0:0:
448,192,113181,1,0,0:0:0:0:
192,192,113331,1,0,0:0:0:0:
64,192,113481,1,0,0:0:0:0:
320,192,113481,1,0,0:0:0:0:
448,192,113631,1,0,0:0:0:0:
192,192,113781,1,0,0:0:0:0:
320,192,113931,1,0,0:0:0:0:
448,192,113931,1,0,0:0:0:0:
64,192,114081,1,0,0:0:0:0:
320,192,114231,1,0,0:0:0:0:
448,192,114231,1,0,0:0:0:0:
64,192,114381,1,0,0:0:0:0:
448,192,114381,1,0,0:0:0:0:
192,192,114531,1,0,0:0:0:0:
64,192,114681,1,0,0:0:0:0:
320,192,114681,1,0,0:0:0:0:
64,192,114831,1,0,0:0:0:0:
448,192,114831,1,0,0:0:0:0:
320,192,114981,1,0,0:0:0:0:
320,192,115131,1,0,0:0:0:0:
64,192,115281,1,0,0:0:0:0:
192,192,115281,1,0,0:0:0:0:
448,192,115431,1,0,0:0:0:0:
320,192,115581,1,0,0:0:0:0:
64,192,115731,1,0,0:0:0:0:
192,192,115881,1,0,0:0:0:0:
448,192,115881,1,0,0:0:0:0:
320,192,116031,1,0,0:0:0:0:
64,192,116181,1,0,0:0:0:0:
192,192,116331,1,0,0:0:0:0:
320,192,116331,1,0,0:0:0:0:
448,192,116481,1,0,0:0:0:0:
192,192,116631,1,0,0:0:0:0:
64,192,116781,1,0,0:0:0:0:
320,192,116931,1,0,0:0:0:0:
448,192,116931,1,0,0:0:0:0:
64,192,117081,1,0,0:0:0:0:
448,192,117081,1,0,0:0:0:0:
192,192,117231,1,0,0:0:0:0:
320,192,117231,1,0,0:0:0:0:
64,192,117381,1,0,0:0:0:0:
320,192,117381,1,0,0:0:0:0:
64,192,117531,1,0,0:0:0:0:
192,192,117681,1,0,0:0:0:0:
320,192,117681,1,0,0:0:0:0:
448,192,117681,1,0,0:0:0:0:
448,192,117831,1,0,0:0:0:0:
64,192,117981,1,0,0:0:0:0:
448,192,118131,1,0,0:0:0:0:
64,192,118281,1,0,0:0:0:0:
192,192,118281,1,0,0:0:0:0:
320,192,118431,1,0,0:0:0:0:
448,192,118581,1,0,0:0:0:0:
64,192,118731,1,0,0:0:0:0:
320,192,118731,1,0,0:0:0:0:
192,192,118881,1,0,0:0:0:0:
64,192,119031,1,0,0:0:0:0:
320,192,119031,1,0,0:0:0:0:
320,192,119181,1,0,0:0:0:0:
448,192,119181,1,0,0:0:0:0:
192,192,119331,1,0,0:0:0:0:
64,192,119481,1,0,0:0:0:0:
192,192,119481,1,0,0:0:0:0:
320,192,119781,1,0,0:0:0:0:
192,192,119931,1,0,0:0:0:0:
64,192,120081,1,0,0:0:0:0:
320,192,120081,1,0,0:0:0:0:
448,192,120081,1,0,0:0:0:0:
320,192,120231,1,0,0:0:0:0:
192,192,120381,1,0,0:0:0:0:
448,192,120531,1,0,0:0:0:0:
64,192,120681,1,0,0:0:0:0:
192,192,120681,1,0,0:0:0:0:
320,192,120831,1,0,0:0:0:0:
448,192,120981,1,0,0:0:0:0:
64,192,121131,1,0,0:0:0:0:
192,192,121131,1,0,0:0:0:0:
320,192,121281,1,0,0:0:0:0:
320,192,121431,1,0,0:0:0:0:
192,192,121581,1,0,0:0:0:0:
192,192,121731,1,0,0:0:0:0:
64,192,121881,1,0,0:0:0:0:
320,192,121881,1,0,0:0:0:0:
448,192,121881,1,0,0:0:0:0:
64,192,122181,1,0,0:0:0:0:
192,192,122181,1,0,0:0:0:0:
64,192,122331,1,0,0:0:0:0:
320,192,122331,1,0,0:0:0:0:
192,192,122481,1,0,0:0:0:0:
320,192,122481,1,0,0:0:0:0:
448,192,122481,1,0,0:0:0:0:
192,192,122631,1,0,0:0:0:0:
64,192,122781,1,0,0:0:0:0:
192,192,122931,1,0,0:0:0:0:
320,192,123081,1,0,0:0:0:0:
448,192,123081,1,0,0:0:0:0:
64,192,123231,1,0,0:0:0:0:
320,192,123381,1,0,0:0:0:0:
192,192,123531,1,0,0:0:0:0:
448,192,123531,1,0,0:0:0:0:
320,192,123681,1,0,0:0:0:0:
64,192,123831,1,0,0:0:0:0:
192,192,123831,1,0,0:0:0:0:
192,192,123981,1,0,0:0:0:0:
448,192,123981,1,0,0:0:0:0:
64,192,124131,1,0,0:0:0:0:
320,192,124281,1,0,0:0:0:0:
448,192,124281,1,0,0:0:0:0:
192,192,124431,1,0,0:0:0:0:
448,192,124431,1,0,0:0:0:0:
64,192,124581,1,0,0:0:0:0:
64,192,124731,1,0,0:0:0:0:
192,192,124881,1,0,0:0:0:0:
320,192,124881,1,0,0:0:0:0:
448,192,124881,1,0,0:0:0:0:
64,192,125031,1,0,0:0:0:0:
320,192,125181,1,0,0:0:0:0:
64,192,125331,1,0,0:0:0:0:
448,192,125331,1,0,0:0:0:0:
64,192,125481,1,0,0:0:0:0:
192,192,125481,1,0,0:0:0:0:
320,192,125631,1,0,0:0:0:0:
64,192,125781,1,0,0:0:0:0:
448,192,125781,1,0,0:0:0:0:
320,192,125931,1,0,0:0:0:0:
448,192,125931,1,0,0:0:0:0:
192,192,126081,1,0,0:0:0:0:
320,192,126231,1,0,0:0:0:0:
64,192,126381,1,0,0:0:0:0:
448,192,126381,1,0,0:0:0:0:
192,192,126531,1,0,0:0:0:0:
320,192,126531,1,0,0:0:0:0:
192,192,126681,1,0,0:0:0:0:
448,192,126681,1,0,0:0:0:0:
448,192,126831,1,0,0:0:0:0:
64,192,126981,1,0,0:0:0:0:
192,192,126981,1,0,0:0:0:0:
64,192,127131,1,0,0:0:0:0:
192,192,127131,1,0,0:0:0:0:
64,192,127281,1,0,0:0:0:0:
320,192,127281,1,0,0:0:0:0:
448,192,127281,1,0,0:0:0:0:
192,192,127431,1,0,0:0:0:0:
320,192,127581,1,0,0:0:0:0:
64,192,127731,1,0,0:0:0:0:
448,192,127731,1,0,0:0:0:0:
320,192,127881,1,0,0:0:0:0:
448,192,127881,1,0,0:0:0:0:
192,192,128031,1,0,0:0:0:0:
64,192,128181,1,0,0:0:0:0:
448,192,128181,1,0,0:0:0:0:
64,192,128331,1,0,0:0:0:0:
192,192,128331,1,0,0:0:0:0:
320,192,128481,1,0,0:0:0:0:
64,192,128631,1,0,0:0:0:0:
320,192,128631,1,0,0:0:0:0:
64,192,128781,1,0,0:0:0:0:
448,192,128781,1,0,0:0:0:0:
320,192,128931,1,0,0:0:0:0:
320,192,129081,1,0,0:0:0:0:
448,192,129081,1,0,0:0:0:0:
192,192,129381,1,0,0:0:0:0:
320,192,129681,1,0,0:0:0:0:
448,192,129681,1,0,0:0:0:0:
64,192,129831,1,0,0:0:0:0:
192,192,129981,1,0,0:0:0:0:
320,192,130131,1,0,0:0:0:0:
448,192,130131,1,0,0:0:0:0:
64,192,130281,1,0,0:0:0:0:
448,192,130281,1,0,0:0:0:0:
64,192,130431,1,0,0:0:0:0:
448,192,130431,1,0,0:0:0:0:
320,192,130581,1,0,0:0:0:0:
64,192,130731,1,0,0:0:0:0:
448,192,130731,1,0,0:0:0:0:
64,192,130881,1,0,0:0:0:0:
448,192,130881,1,0,0:0:0:0:
192,192,131031,1,0,0:0:0:0:
320,192,131181,1,0,0:0:0:0:
192,192,131256,1,0,0:0:0:0:
448,192,131331,1,0,0:0:0:0:
64,192,131406,1,0,0:0:0:0:
320,192,131481,128,0,131781:0:0:0:0:
448,192,131481,128,0,132081:0:0:0:0:
64,192,132081,1,0,0:0:0:0:
192,192,132081,1,0,0:0:0:0:
320,192,132081,1,0,0:0:0:0:
192,192,132231,1,0,0:0:0:0:
64,192,132381,1,0,0:0:0:0:
448,192,132381,1,0,0:0:0:0:
320,192,132531,1,0,0:0:0:0:
64,192,132681,1,0,0:0:0:0:
192,192,132681,1,0,0:0:0:0:
64,192,132831,1,0,0:0:0:0:
448,192,132831,1,0,0:0:0:0:
320,192,132981,1,0,0:0:0:0:
64,192,133131,1,0,0:0:0:0:
320,192,133131,1,0,0:0:0:0:
192,192,133281,1,0,0:0:0:0:
448,192,133281,1,0,0:0:0:0:
64,192,133431,1,0,0:0:0:0:
192,192,133431,1,0,0:0:0:0:
320,192,133581,1,0,0:0:0:0:
448,192,133581,1,0,0:0:0:0:
192,192,133731,1,0,0:0:0:0:
64,192,133881,1,0,0:0:0:0:
320,192,133881,1,0,0:0:0:0:
64,192,134031,1,0,0:0:0:0:
192,192,134031,1,0,0:0:0:0:
320,192,134181,1,0,0:0:0:0:
320,192,134331,1,0,0:0:0:0:
64,192,134481,1,0,0:0:0:0:
192,192,134481,1,0,0:0:0:0:
320,192,134631,1,0,0:0:0:0:
64,192,134781,1,0,0:0:0:0:
448,192,134781,1,0,0:0:0:0:
64,192,134931,1,0,0:0:0:0:
192,192,134931,1,0,0:0:0:0:
320,192,135081,1,0,0:0:0:0:
64,192,135231,1,0,0:0:0:0:
448,192,135231,1,0,0:0:0:0:
64,192,135381,1,0,0:0:0:0:
192,192,135381,1,0,0:0:0:0:
320,192,135531,1,0,0:0:0:0:
192,192,135681,1,0,0:0:0:0:
448,192,135681,1,0,0:0:0:0:
320,192,135831,1,0,0:0:0:0:
64,192,135981,1,0,0:0:0:0:
192,192,135981,1,0,0:0:0:0:
64,192,136131,1,0,0:0:0:0:
448,192,136131,1,0,0:0:0:0:
320,192,136281,1,0,0:0:0:0:
448,192,136281,1,0,0:0:0:0:
320,192,136431,1,0,0:0:0:0:
448,192,136431,1,0,0:0:0:0:
64,192,136581,1,0,0:0:0:0:
192,192,136581,1,0,0:0:0:0:
320,192,136731,1,0,0:0:0:0:
448,192,136731,1,0,0:0:0:0:
64,192,136881,1,0,0:0:0:0:
192,192,136881,1,0,0:0:0:0:
448,192,136881,1,0,0:0:0:0:
192,192,137031,1,0,0:0:0:0:
320,192,137181,1,0,0:0:0:0:
64,192,137331,1,0,0:0:0:0:
448,192,137331,1,0,0:0:0:0:
320,192,137481,1,0,0:0:0:0:
448,192,137481,1,0,0:0:0:0:
192,192,137631,1,0,0:0:0:0:
64,192,137781,1,0,0:0:0:0:
448,192,137781,1,0,0:0:0:0:
320,192,137931,1,0,0:0:0:0:
448,192,137931,1,0,0:0:0:0:
192,192,138081,1,0,0:0:0:0:
64,192,138231,1,0,0:0:0:0:
192,192,138231,1,0,0:0:0:0:
448,192,138381,1,0,0:0:0:0:
448,192,138531,1,0,0:0:0:0:
64,192,138681,1,0,0:0:0:0:
320,192,138681,1,0,0:0:0:0:
64,192,138831,1,0,0:0:0:0:
320,192,138981,1,0,0:0:0:0:
448,192,138981,1,0,0:0:0:0:
64,192,139281,1,0,0:0:0:0:
192,192,139281,1,0,0:0:0:0:
320,192,139281,1,0,0:0:0:0:
448,192,139431,1,0,0:0:0:0:
64,192,139581,1,0,0:0:0:0:
192,192,139731,1,0,0:0:0:0:
320,192,139731,1,0,0:0:0:0:
320,192,139881,1,0,0:0:0:0:
448,192,139881,1,0,0:0:0:0:
64,192,140031,1,0,0:0:0:0:
192,192,140181,1,0,0:0:0:0:
320,192,140181,1,0,0:0:0:0:
64,192,140331,1,0,0:0:0:0:
320,192,140331,1,0,0:0:0:0:
192,192,140481,1,0,0:0:0:0:
192,192,140631,1,0,0:0:0:0:
448,192,140781,1,0,0:0:0:0:
192,192,140931,1,0,0:0:0:0:
320,192,141081,1,0,0:0:0:0:
448,192,141081,1,0,0:0:0:0:
64,192,141381,1,0,0:0:0:0:
192,192,141381,1,0,0:0:0:0:
64,192,141531,1,0,0:0:0:0:
320,192,141531,1,0,0:0:0:0:
192,192,141681,1,0,0:0:0:0:
320,192,141681,1,0,0:0:0:0:
448,192,141681,1,0,0:0:0:0:
64,192,141831,1,0,0:0:0:0:
320,192,141981,1,0,0:0:0:0:
448,192,141981,1,0,0:0:0:0:
192,192,142131,1,0,0:0:0:0:
64,192,142281,1,0,0:0:0:0:
320,192,142281,1,0,0:0:0:0:
320,192,142431,1,0,0:0:0:0:
448,192,142431,1,0,0:0:0:0:
192,192,142581,1,0,0:0:0:0:
192,192,142731,1,0,0:0:0:0:
320,192,142731,1,0,0:0:0:0:
64,192,142881,1,0,0:0:0:0:
448,192,142881,1,0,0:0:0:0:
448,192,143031,1,0,0:0:0:0:
192,192,143181,1,0,0:0:0:0:
448,192,143331,1,0,0:0:0:0:
64,192,143481,1,0,0:0:0:0:
192,192,143481,1,0,0:0:0:0:
64,192,143631,1,0,0:0:0:0:
192,192,143631,1,0,0:0:0:0:
64,192,143931,1,0,0:0:0:0:
192,192,143931,1,0,0:0:0:0:
64,192,144081,1,0,0:0:0:0:
448,192,144081,1,0,0:0:0:0:
320,192,144531,1,0,0:0:0:0:
320,192,144981,1,0,0:0:0:0:
320,192,145581,1,0,0:0:0:0:
